osu file format v14

[General]
AudioFilename: audio.mp3
AudioLeadIn: 0
PreviewTime: 162744
Countdown: 0
SampleSet: Soft
StackLeniency: 1
Mode: 0
LetterboxInBreaks: 0
WidescreenStoryboard: 1

[Editor]
Bookmarks: 24557,45932,66932,98432,113432,159182,173432,190307,207182,231182
DistanceSpacing: 2.1
BeatDivisor: 4
GridSize: 32
TimelineZoom: 3.099999

[Metadata]
Title:Nautilus
TitleUnicode:ノーチラス
Artist:Yorushika
ArtistUnicode:ヨルシカ
Creator:Ryuusei Aika
Version:Senseabel's Insane
Source:
Tags:japanese rock j-rock jrock pop j-pop jpop female vocal Present Loneight l1106188 L18 Senseabel ナブナ nbuna n-buna スイ suis エルマ elma
BeatmapID:2610624
BeatmapSetID:1256231

[Difficulty]
HPDrainRate:5.5
CircleSize:5
OverallDifficulty:6.5
ApproachRate:7.8
SliderMultiplier:1.8
SliderTickRate:1

[Events]
//Background and Video events
0,0,"BG.jpg",0,0
//Break Periods
2,159557,162153
//Storyboard Layer 0 (Background)
//Storyboard Layer 1 (Fail)
//Storyboard Layer 2 (Pass)
//Storyboard Layer 3 (Foreground)
//Storyboard Layer 4 (Overlay)
//Storyboard Sound Samples

[TimingPoints]
-2068,750,4,2,50,35,1,0
744,-133.333333333333,4,2,50,35,0,0
3182,-133.333333333333,4,2,50,20,0,0
3557,-133.333333333333,4,2,50,35,0,0
6182,-133.333333333333,4,2,50,20,0,0
6744,-133.333333333333,4,2,50,35,0,0
8619,-133.333333333333,4,2,50,20,0,0
9369,-133.333333333333,4,2,50,35,0,0
9744,-133.333333333333,4,2,50,20,0,0
9932,-133.333333333333,4,2,50,35,0,0
10119,-133.333333333333,4,2,50,20,0,0
23807,-100,4,2,50,20,0,0
24557,-100,4,2,50,35,0,0
24932,-66.6666666666667,4,2,1,70,0,0
25307,-66.6666666666667,4,2,3,70,0,0
25494,-66.6666666666667,4,2,1,70,0,0
25869,-66.6666666666667,4,2,3,70,0,0
26057,-66.6666666666667,4,2,1,70,0,0
27369,-66.6666666666667,4,2,3,70,0,0
27932,-66.6666666666667,4,2,1,70,0,0
28307,-66.6666666666667,4,2,3,70,0,0
28494,-66.6666666666667,4,2,1,70,0,0
28869,-66.6666666666667,4,2,3,70,0,0
29057,-66.6666666666667,4,2,1,70,0,0
30369,-66.6666666666667,4,2,3,70,0,0
30932,-66.6666666666667,4,2,1,70,0,0
31307,-66.6666666666667,4,2,3,70,0,0
31494,-66.6666666666667,4,2,1,70,0,0
31869,-66.6666666666667,4,2,3,70,0,0
32057,-66.6666666666667,4,2,1,70,0,0
33369,-66.6666666666667,4,2,3,70,0,0
33744,-66.6666666666667,4,2,1,70,0,0
36369,-66.6666666666667,4,2,3,70,0,0
36932,-66.6666666666667,4,2,1,70,0,0
38432,-66.6666666666667,4,2,50,50,0,0
38994,-66.6666666666667,4,2,50,5,0,0
39182,-66.6666666666667,4,2,50,50,0,0
39744,-66.6666666666667,4,2,50,5,0,0
39932,-66.6666666666667,4,2,1,60,0,0
40119,-66.6666666666667,4,2,1,50,0,0
43682,-66.6666666666667,4,2,2,50,0,0
44432,-66.6666666666667,4,2,5,50,0,0
44807,-66.6666666666667,4,2,1,50,0,0
45369,-66.6666666666667,4,2,3,50,0,0
45932,-66.6666666666667,4,2,2,70,0,0
51932,-66.6666666666667,4,2,5,70,0,0
52307,-66.6666666666667,4,2,2,70,0,0
60932,-66.6666666666667,4,2,1,50,0,0
61119,-66.6666666666667,4,2,1,25,0,0
72932,-66.6666666666667,4,2,1,50,0,0
73119,-66.6666666666667,4,2,3,50,0,0
73494,-66.6666666666667,4,2,1,50,0,0
74057,-66.6666666666667,4,2,3,50,0,0
74432,750,4,2,4,50,1,0
74432,-66.6666666666667,4,2,4,50,0,0
97682,-66.6666666666667,4,2,1,50,0,0
97869,-66.6666666666667,4,2,3,50,0,0
98432,-66.6666666666667,4,2,1,70,0,0
98807,-66.6666666666667,4,2,3,70,0,0
98994,-66.6666666666667,4,2,1,70,0,0
99369,-66.6666666666667,4,2,3,70,0,0
99557,-66.6666666666667,4,2,1,70,0,0
100869,-66.6666666666667,4,2,3,70,0,0
101432,-66.6666666666667,4,2,1,70,0,0
101807,-66.6666666666667,4,2,3,70,0,0
101994,-66.6666666666667,4,2,1,70,0,0
102369,-66.6666666666667,4,2,3,70,0,0
102557,-66.6666666666667,4,2,1,70,0,0
103869,-66.6666666666667,4,2,3,70,0,0
104432,-66.6666666666667,4,2,1,70,0,0
104807,-66.6666666666667,4,2,3,70,0,0
104994,-66.6666666666667,4,2,1,70,0,0
105369,-66.6666666666667,4,2,3,70,0,0
105557,-66.6666666666667,4,2,1,70,0,0
106869,-66.6666666666667,4,2,3,70,0,0
107244,-66.6666666666667,4,2,1,70,0,0
107807,-66.6666666666667,4,2,3,70,0,0
108182,-66.6666666666667,4,2,1,70,0,0
108369,-66.6666666666667,4,2,3,70,0,0
109494,-66.6666666666667,4,2,1,70,0,0
109869,-66.6666666666667,4,2,3,70,0,0
110057,-66.6666666666667,4,2,1,70,0,0
110619,-66.6666666666667,4,2,3,70,0,0
110994,-66.6666666666667,4,2,1,70,0,0
111557,-66.6666666666667,4,2,3,70,0,0
111932,-66.6666666666667,4,2,4,50,0,0
112307,-66.6666666666667,4,2,1,50,0,0
112682,-66.6666666666667,4,2,50,50,0,0
112869,-66.6666666666667,4,2,1,50,0,0
113432,-66.6666666666667,4,2,5,70,0,0
113807,-66.6666666666667,4,2,2,70,0,0
124869,-66.6666666666667,4,2,3,70,0,0
125432,-66.6666666666667,4,2,5,70,0,0
125807,-66.6666666666667,4,2,2,70,0,0
135557,-66.6666666666667,4,2,3,70,0,0
135744,-66.6666666666667,4,2,2,70,0,0
136119,-66.6666666666667,4,2,3,70,0,0
136307,-66.6666666666667,4,2,2,70,0,0
136869,-66.6666666666667,4,2,3,70,0,0
137432,-66.6666666666667,4,2,2,60,0,0
148494,-66.6666666666667,4,2,3,60,0,0
148682,-66.6666666666667,4,2,2,60,0,0
149057,-66.6666666666667,4,2,3,60,0,0
149432,-66.6666666666667,4,2,2,60,0,0
158432,-66.6666666666667,4,2,1,50,0,0
159182,-66.6666666666667,4,2,1,5,0,0
162932,-66.6666666666667,4,2,50,50,0,0
163494,-66.6666666666667,4,2,50,5,0,0
163682,-66.6666666666667,4,2,50,50,0,0
164244,-66.6666666666667,4,2,50,5,0,0
164432,-66.6666666666667,4,2,1,60,0,0
164619,-66.6666666666667,4,2,1,50,0,0
173432,-66.6666666666667,4,2,1,70,0,0
173994,-66.6666666666667,4,2,51,70,0,0
174182,-66.6666666666667,4,2,2,70,0,0
174369,-66.6666666666667,4,2,50,70,0,0
174557,-66.6666666666667,4,2,51,70,0,0
174932,-66.6666666666667,4,2,2,70,0,0
175119,-66.6666666666667,4,2,50,70,0,0
175307,-66.6666666666667,4,2,2,70,0,0
175494,-66.6666666666667,4,2,51,70,0,0
175682,-66.6666666666667,4,2,1,70,0,0
175932,-66.6666666666667,4,2,3,70,0,0
176432,-66.6666666666667,4,2,5,70,0,0
176807,-66.6666666666667,4,2,2,70,0,0
183932,-66.6666666666667,4,2,1,70,0,0
184119,-66.6666666666667,4,2,2,70,0,0
184869,-66.6666666666667,4,2,3,70,0,0
185432,-66.6666666666667,4,2,5,70,0,0
185807,-66.6666666666667,4,2,2,70,0,0
196869,-66.6666666666667,4,2,3,70,0,0
197432,-66.6666666666667,4,2,5,70,0,0
197807,-66.6666666666667,4,2,2,70,0,0
207557,-66.6666666666667,4,2,3,70,0,0
207744,-66.6666666666667,4,2,2,70,0,0
208119,-66.6666666666667,4,2,3,70,0,0
208307,-66.6666666666667,4,2,2,70,0,0
208869,-66.6666666666667,4,2,3,70,0,0
209432,-66.6666666666667,4,2,2,60,0,0
213182,-66.6666666666667,4,2,1,60,0,0
213557,-66.6666666666667,4,2,2,60,0,0
215057,-66.6666666666667,4,2,3,60,0,0
215432,-66.6666666666667,4,2,2,60,0,0
219932,-66.6666666666667,4,2,1,60,0,0
220057,-66.6666666666667,4,2,2,60,0,0
221057,-66.6666666666667,4,2,3,60,0,0
221432,-66.6666666666667,4,2,2,60,0,0
223869,-66.6666666666667,4,2,3,60,0,0
224057,-66.6666666666667,4,2,2,60,0,0
224244,-66.6666666666667,4,2,3,60,0,0
224432,-66.6666666666667,4,2,2,60,0,0
226119,-66.6666666666667,4,2,3,60,0,0
226307,-66.6666666666667,4,2,2,60,0,0
227057,-66.6666666666667,4,2,3,60,0,0
227432,-66.6666666666667,4,2,2,60,0,0
229682,-66.6666666666667,4,2,1,60,0,0
230244,-66.6666666666667,4,2,1,5,0,0
230432,-66.6666666666667,4,2,51,60,0,0

[Colours]
Combo1 : 255,128,64
Combo2 : 127,127,127
Combo3 : 191,191,191

[HitObjects]
106,311,744,5,0,0:0:0:0:
157,266,932,2,0,P|159:233|126:182,1,67.5000025749208,10|0,0:0|0:0,0:0:0:0:
238,248,1494,2,0,P|258:220|255:164,1,67.5000025749208,2|0,0:0|0:0,0:0:0:0:
220,125,2057,1,0,0:0:0:0:
238,248,2244,2,0,P|298:214|408:227,1,168.750006437302,2|0,0:0|0:0,0:0:0:0:
496,124,3557,1,8,0:1:0:0:
395,220,3932,6,0,P|412:186|406:142,1,67.5000025749208,10|0,0:3|0:0,0:0:0:0:
269,192,4682,2,0,P|274:148|297:110,1,67.5000025749208,10|0,0:3|0:0,0:0:0:0:
346,85,5244,2,0,P|367:89|387:101,1,33.7500012874604
411,157,5619,2,0,P|369:174|324:230,1,101.250003862381,2|0,0:0|0:0,0:0:0:0:
223,93,6744,1,0,0:0:0:0:
186,153,6932,22,0,P|146:141|122:99,1,67.5000025749208,6|0,0:0|0:0,0:0:0:0:
166,62,7494,2,0,P|206:74|230:116,1,67.5000025749208,6|0,0:0|0:0,0:0:0:0:
88,179,8057,1,0,0:0:0:0:
39,132,8244,2,0,L|30:74,1,33.7500012874604,2|0,0:0|0:0,0:0:0:0:
9,217,8619,2,0,L|0:275,1,33.7500012874604,2|0,0:0|0:0,0:0:0:0:
39,132,9182,6,0,L|33:93,2,33.7500012874604,0|2|0,0:0|0:0|0:0,0:0:0:0:
9,217,9744,2,0,L|3:251,1,33.7500012874604,2|8,0:0|0:3,0:0:0:0:
88,179,10119,2,0,B|153:200|137:162|195:181,1,101.250003862381
60,350,11432,1,0,0:0:0:0:
219,305,12182,1,0,0:0:0:0:
293,344,12744,21,0,0:0:0:0:
355,314,12932,2,0,B|387:268|360:249|365:243|336:223|366:189,1,135.000005149842,10|0,0:0|0:0,0:0:0:0:
289,189,13869,2,0,P|265:200|253:213,1,42.1875016093255
295,277,14307,2,0,B|329:243|373:266|373:266|341:281|339:310,1,135.000005149842
404,341,15744,1,8,0:1:0:0:
341,302,15932,2,0,L|356:213,1,67.5000025749208,10|0,0:3|0:0,0:0:0:0:
481,260,16494,2,0,L|469:193,1,67.5000025749208,10|0,0:3|0:0,0:0:0:0:
425,106,17057,1,0,0:0:0:0:
469,193,17244,2,0,P|420:184|408:168,1,67.5000025749208,2|2,0:0|0:0,0:0:0:0:
425,106,18557,5,8,0:0:0:0:
378,228,18932,2,0,B|346:246|346:246|309:237,1,67.5000025749208,6|0,0:0|0:0,0:0:0:0:
358,100,19494,2,0,B|328:92|328:92|296:110,1,67.5000025749208,6|0,0:0|0:0,0:0:0:0:
385,161,20057,2,0,L|264:182,1,101.250003862381,2|0,0:0|0:0,0:0:0:0:
216,190,20807,1,8,0:0:0:0:
285,178,21557,21,8,0:0:0:0:
216,190,21744,1,4,0:0:0:0:
147,116,21932,1,10,0:3:0:0:
151,120,22369,1,0,0:0:0:0:
272,82,22557,1,0,0:0:0:0:
276,86,22932,1,0,0:0:0:0:
204,46,23119,1,2,0:0:0:0:
276,86,24182,6,0,P|280:53|272:11,1,45
206,115,24557,1,12,0:3:0:0:
206,115,24744,1,6,0:0:0:0:
136,19,24932,6,0,P|130:65|141:126,1,67.5000025749208,6|0,0:2|0:0,0:0:0:0:
83,148,25307,1,4,0:0:0:0:
131,85,25494,1,6,0:1:0:0:
299,252,25869,21,4,0:0:0:0:
226,282,26057,2,0,P|220:236|235:130,1,135.000005149842,6|0,0:0|0:0,0:0:0:0:
294,107,26619,1,8,0:0:0:0:
229,148,26807,1,6,0:1:0:0:
59,30,27182,5,8,0:0:0:0:
136,7,27369,1,2,3:2:0:0:
85,106,27557,2,0,P|126:108|179:121,1,67.5000025749208,4|8,0:0|3:2,0:0:0:0:
49,255,27932,2,0,P|77:192|148:201,1,135.000005149842,6|2,0:0|0:0,0:0:0:0:
179,255,28494,2,0,P|220:252|273:240,1,67.5000025749208,6|0,0:1|0:0,0:0:0:0:
323,132,28869,1,4,0:0:0:0:
248,149,29057,2,0,P|239:72|265:-8,1,135.000005149842,6|0,0:0|0:0,0:0:0:0:
176,18,29619,1,2,0:0:0:0:
252,16,29807,1,8,0:0:0:0:
400,116,30088,21,8,0:0:0:0:
400,116,30181,1,8,0:0:0:0:
384,42,30369,1,2,0:0:0:0:
475,100,30557,1,4,3:2:0:0:
462,25,30745,1,8,3:2:0:0:
320,98,30932,6,0,B|246:88|270:129|180:117,1,135.000005149842,6|4,0:0|0:0,0:0:0:0:
113,229,31494,2,0,P|117:196|127:164,1,67.5000025749208,6|0,0:1|0:0,0:0:0:0:
270,310,31869,1,4,0:0:0:0:
197,338,32057,2,0,P|194:263|208:185,1,135.000005149842,6|0,0:0|0:0,0:0:0:0:
308,172,32619,1,8,0:0:0:0:
308,172,32807,2,0,P|298:204|294:237,1,67.5000025749208,6|0,0:1|0:0,0:0:0:0:
446,197,33182,2,0,P|442:230|432:262,1,67.5000025749208,8|2,0:0|3:2,0:0:0:0:
403,341,33557,1,4,0:0:0:0:
403,341,33744,2,0,P|405:265|347:214,1,135.000005149842,6|0,3:2|3:0,0:0:0:0:
327,307,34307,22,0,P|293:310|261:320,1,67.5000025749208,2|0,0:0|3:0,0:0:0:0:
220,219,34682,2,0,P|186:215|154:205,1,67.5000025749208,8|2,0:0|3:2,0:0:0:0:
64,299,35057,2,0,P|73:266|76:233,1,67.5000025749208,0|0,3:2|0:0,0:0:0:0:
130,334,35432,1,2,0:0:0:0:
64,299,35619,1,8,0:0:0:0:
130,334,35807,1,2,0:0:0:0:
64,299,35994,5,0,3:0:0:0:
130,334,36181,1,8,0:0:0:0:
197,302,36369,1,2,3:2:0:0:
196,227,36556,1,2,3:2:0:0:
196,227,36932,21,2,0:0:0:0:
258,348,37119,1,8,3:2:0:0:
332,291,37307,1,0,3:0:0:0:
465,288,37494,5,2,0:0:0:0:
399,323,37681,1,8,0:0:0:0:
332,291,37869,1,0,3:0:0:0:
333,216,38056,1,8,0:0:0:0:
470,361,38244,21,8,3:2:0:0:
470,361,38432,2,0,L|493:76,1,270.000010299683,8|4,3:2|0:1,0:0:0:0:
491,91,39932,5,2,3:0:0:0:
491,91,40307,1,0,1:0:0:0:
494,96,40682,1,8,3:0:0:0:
417,123,41057,21,0,3:0:0:0:
417,123,41244,1,0,3:0:0:0:
420,128,41432,1,2,3:0:0:0:
342,152,42182,5,8,3:0:0:0:
342,152,42557,21,0,3:0:0:0:
342,152,42744,1,0,3:0:0:0:
345,157,42932,1,2,3:0:0:0:
270,181,43682,5,8,0:0:0:0:
322,233,43869,2,0,L|337:310,1,67.5000025749208,2|0,0:0|0:0,0:0:0:0:
211,371,44244,21,2,0:0:0:0:
236,296,44432,2,0,P|183:298|104:325,1,135.000005149842,14|6,0:2|0:1,0:0:0:0:
106,324,45182,1,2,0:0:0:0:
163,204,45369,1,2,0:0:0:0:
74,235,45557,1,4,0:0:0:0:
195,293,45744,1,0,0:0:0:0:
7,297,45932,6,0,B|-38:194|65:210|-7:85,1,202.500007724762,6|0,0:0|3:0,0:0:0:0:
105,17,46682,2,0,P|85:47|104:147,1,135.000005149842,8|0,0:0|0:0,0:0:0:0:
197,198,47244,1,0,3:0:0:0:
261,161,47432,2,0,P|245:128|148:95,1,135.000005149842,2|2,0:0|0:0,0:0:0:0:
158,92,48182,22,0,P|182:73|199:39,1,67.5000025749208,8|0,0:0|3:0,0:0:0:0:
301,78,48557,1,0,0:0:0:0:
265,13,48744,1,0,3:0:0:0:
375,53,48932,2,0,P|390:96|382:227,1,135.000005149842,2|0,0:0|0:0,0:0:0:0:
393,184,49682,6,0,P|400:111|430:75,1,67.5000025749208,8|0,0:0|0:0,0:0:0:0:
447,63,50057,1,0,3:0:0:0:
396,117,50244,1,2,0:0:0:0:
475,135,50432,21,0,0:0:0:0:
327,253,50807,5,2,0:0:0:0:
239,85,51182,21,12,0:1:0:0:
482,297,51557,5,8,3:0:0:0:
482,297,51744,1,8,3:0:0:0:
482,297,51932,2,0,B|393:289|431:335|329:323,1,135.000005149842,14|2,0:0|0:0,0:0:0:0:
352,324,52682,2,0,L|359:182,1,135.000005149842,8|0,0:0|3:0,0:0:0:0:
201,137,53244,2,0,P|257:142|279:212,1,135.000005149842,2|0,0:0|0:0,0:0:0:0:
358,189,53807,21,2,0:0:0:0:
194,314,54182,5,8,0:0:0:0:
69,172,54557,22,0,P|112:159|144:158,1,67.5000025749208,0|0,3:0|3:0,0:0:0:0:
84,249,54932,2,0,B|166:213|136:268|226:228,1,135.000005149842,2|2,0:0|0:0,0:0:0:0:
214,233,55682,6,0,L|207:139,1,67.5000025749208,8|0,0:0|0:0,0:0:0:0:
325,174,56057,1,0,3:0:0:0:
325,174,56244,1,0,3:0:0:0:
273,47,56432,2,0,L|266:141,1,67.5000025749208,2|0,0:0|0:0,0:0:0:0:
209,13,56807,1,2,0:0:0:0:
143,35,56994,1,0,3:0:0:0:
280,53,57182,2,0,P|364:93|376:139,1,135.000005149842,8|2,0:0|0:0,0:0:0:0:
375,127,57932,22,0,P|449:114|443:19,1,135.000005149842,6|0,0:0|3:0,0:0:0:0:
466,63,58682,2,0,P|481:133|499:142,2,67.5000025749208,8|0|0,0:0|3:0|0:0,0:0:0:0:
325,23,59244,1,2,0:0:0:0:
380,74,59432,2,0,P|298:116|221:120,1,135.000005149842,0|2,0:0|3:2,0:0:0:0:
200,206,59994,2,0,P|155:183|116:177,1,67.5000025749208
95,114,60369,2,0,P|50:137|11:143,2,67.5000025749208,0|0|0,3:0|0:0|0:0,0:0:0:0:
29,228,60932,5,0,3:0:0:0:
29,228,61119,1,0,3:0:0:0:
75,368,61494,21,0,0:0:0:0:
75,368,61681,1,0,0:0:0:0:
217,326,62057,5,0,0:0:0:0:
190,304,62244,1,0,0:0:0:0:
157,314,62432,1,0,0:0:0:0:
137,309,62619,21,0,0:0:0:0:
137,309,62807,1,0,0:0:0:0:
137,309,63932,5,0,0:0:0:0:
137,309,64119,1,0,0:0:0:0:
277,263,64494,21,0,0:0:0:0:
277,263,64681,1,0,0:0:0:0:
235,121,65057,5,0,0:0:0:0:
213,148,65244,1,0,0:0:0:0:
223,181,65432,1,0,0:0:0:0:
218,201,65619,21,0,0:0:0:0:
218,201,65807,1,0,0:0:0:0:
218,201,66932,5,0,0:0:0:0:
218,201,67119,1,0,0:0:0:0:
172,61,67494,21,0,0:0:0:0:
172,61,67681,1,0,0:0:0:0:
30,103,68057,5,0,0:0:0:0:
57,125,68244,1,0,0:0:0:0:
90,115,68432,1,0,0:0:0:0:
110,120,68619,21,0,0:0:0:0:
110,120,68807,1,0,0:0:0:0:
109,120,69182,5,0,0:0:0:0:
109,120,69932,21,0,0:0:0:0:
109,120,70119,1,0,0:0:0:0:
155,260,70494,5,0,0:0:0:0:
155,260,70681,1,0,0:0:0:0:
297,218,71057,21,0,0:0:0:0:
270,196,71244,1,0,0:0:0:0:
237,206,71432,1,0,0:0:0:0:
213,197,71994,1,0,0:0:0:0:
217,201,72182,5,0,0:0:0:0:
213,197,72932,1,8,0:0:0:0:
179,130,73119,1,2,0:0:0:0:
234,80,73307,1,4,0:0:0:0:
197,15,73494,1,8,0:0:0:0:
197,15,73869,1,8,0:0:0:0:
213,197,74057,1,8,0:0:0:0:
197,15,74432,22,0,L|391:20,1,135.000005149842,10|0,0:3|0:0,0:0:0:0:
331,18,75182,1,8,0:0:0:0:
197,15,75744,1,2,0:3:0:0:
197,15,76307,1,0,0:0:0:0:
336,24,76682,1,8,0:0:0:0:
494,114,77432,6,0,L|300:119,1,135.000005149842,6|0,0:1|0:0,0:0:0:0:
360,117,78182,1,8,0:0:0:0:
494,114,78744,1,2,0:3:0:0:
494,114,79307,1,0,0:0:0:0:
366,119,79682,2,0,B|356:153|356:153|373:206,1,67.5000025749208,8|0,0:0|0:0,0:0:0:0:
462,299,80244,21,0,0:0:0:0:
480,270,80338,1,0,0:0:0:0:
472,237,80432,2,0,L|278:242,1,135.000005149842,6|0,0:3|0:0,0:0:0:0:
337,240,81182,1,8,0:0:0:0:
472,237,81744,1,2,0:3:0:0:
472,237,82307,1,0,0:0:0:0:
337,240,82682,1,8,0:0:0:0:
176,317,83432,6,0,L|-18:312,1,135.000005149842,6|0,0:1|0:0,0:0:0:0:
41,314,84182,1,8,0:0:0:0:
176,317,84744,1,2,0:3:0:0:
176,317,85307,21,4,1:0:0:0:
134,300,85432,1,0,0:0:0:0:
113,260,85557,1,0,0:0:0:0:
121,215,85682,1,8,0:3:0:0:
25,218,85932,5,4,0:3:0:0:
82,149,86182,21,4,0:1:0:0:
21,83,86432,6,0,L|26:277,1,135.000005149842,10|0,0:3|0:0,0:0:0:0:
24,218,87182,1,8,0:0:0:0:
21,83,87744,1,2,0:3:0:0:
21,83,88307,1,0,0:0:0:0:
24,218,88682,1,8,0:0:0:0:
24,218,89432,22,0,L|218:213,1,135.000005149842,4|0,3:1|0:0,0:0:0:0:
159,215,90182,1,8,0:0:0:0:
24,218,90744,1,2,0:3:0:0:
24,218,91307,1,2,0:1:0:0:
159,215,91619,1,0,0:0:0:0:
159,215,91682,5,0,0:0:0:0:
111,138,91869,1,4,0:3:0:0:
156,81,92057,1,4,0:1:0:0:
156,81,92432,22,0,L|350:86,1,135.000005149842,6|0,0:3|0:0,0:0:0:0:
291,84,93182,1,8,0:0:0:0:
156,81,93744,1,2,0:3:0:0:
156,81,94307,1,2,0:3:0:0:
291,84,94682,1,10,0:0:0:0:
291,84,95432,6,0,L|296:278,1,135.000005149842,6|0,0:1|0:0,0:0:0:0:
294,219,96182,1,8,0:0:0:0:
291,84,96744,1,2,0:3:0:0:
294,219,97119,1,0,0:0:0:0:
227,152,97307,1,4,1:3:0:0:
358,148,97494,1,0,0:0:0:0:
291,84,97682,1,8,0:0:0:0:
227,152,97869,1,4,0:0:0:0:
358,148,98057,1,8,0:0:0:0:
227,152,98244,1,0,0:0:0:0:
376,229,98432,22,0,B|452:225|425:263|517:256,1,135.000005149842,6|4,0:2|0:0,0:0:0:0:
449,159,98994,2,0,P|444:128|457:56,1,67.5000025749208,6|0,0:1|0:0,0:0:0:0:
398,28,99369,1,4,0:0:0:0:
358,148,99557,2,0,P|291:156|255:215,1,135.000005149842,6|0,0:0|0:0,0:0:0:0:
281,284,100119,1,8,0:0:0:0:
255,208,100307,1,6,0:1:0:0:
255,208,100682,5,8,0:0:0:0:
270,149,100870,1,2,3:2:0:0:
237,97,101057,1,4,0:0:0:0:
166,73,101244,1,8,3:2:0:0:
199,175,101432,22,0,P|121:190|93:286,1,135.000005149842,6|2,0:0|0:0,0:0:0:0:
165,337,101994,2,0,P|160:286|166:260,1,67.5000025749208,6|0,0:1|0:0,0:0:0:0:
92,370,102369,1,4,0:0:0:0:
164,337,102557,1,6,0:0:0:0:
164,337,103119,5,2,0:0:0:0:
234,360,103307,1,8,0:0:0:0:
295,318,103494,1,2,0:0:0:0:
295,318,103588,1,8,0:0:0:0:
295,318,103682,1,8,0:0:0:0:
364,344,103869,1,2,0:0:0:0:
424,300,104057,1,4,3:2:0:0:
494,322,104244,1,8,3:2:0:0:
424,300,104432,22,0,P|410:199|415:147,1,135.000005149842,6|4,0:0|0:0,0:0:0:0:
355,86,104994,2,0,P|328:121|323:157,1,67.5000025749208,6|0,0:1|0:0,0:0:0:0:
412,166,105369,1,4,0:0:0:0:
481,139,105557,2,0,P|483:87|382:28,1,135.000005149842,6|0,0:0|0:0,0:0:0:0:
355,86,106119,1,8,0:0:0:0:
317,23,106307,1,6,0:1:0:0:
355,86,106682,5,8,0:0:0:0:
321,222,106870,1,2,3:2:0:0:
409,171,107058,1,4,0:0:0:0:
267,137,107244,2,0,B|238:64|296:82|259:-15,1,135.000005149842,6|0,3:2|3:0,0:0:0:0:
265,5,107807,21,8,0:0:0:0:
306,64,107994,1,0,0:0:0:0:
252,109,108182,1,8,0:0:0:0:
285,174,108369,1,4,3:2:0:0:
203,212,108557,5,8,3:2:0:0:
273,243,108745,1,0,0:0:0:0:
252,321,108932,1,2,0:0:0:0:
329,297,109120,1,0,0:0:0:0:
329,297,109307,1,2,0:0:0:0:
329,297,109494,1,2,3:2:0:0:
252,321,109682,21,8,0:0:0:0:
307,372,109869,1,2,3:2:0:0:
273,243,110057,1,12,3:2:0:0:
273,243,110432,5,2,0:0:0:0:
349,268,110619,1,4,3:2:0:0:
272,171,110807,21,0,0:0:0:0:
197,198,110994,1,2,0:0:0:0:
293,105,111182,5,12,0:0:0:0:
293,105,111557,21,2,0:0:0:0:
285,86,111650,1,2,0:0:0:0:
290,66,111744,1,4,0:0:0:0:
266,223,111932,5,10,0:3:0:0:
282,327,112307,21,4,3:0:0:0:
175,195,112682,5,6,0:1:0:0:
289,146,112869,1,8,0:0:0:0:
354,253,113057,21,2,0:0:0:0:
251,211,113244,1,0,0:0:0:0:
282,327,113432,6,0,P|275:182|286:47,1,270.000010299683,14|8,0:0|0:0,0:0:0:0:
284,57,114744,21,2,0:0:0:0:
409,48,114932,2,0,P|379:34|346:32,1,67.5000025749208,0|0,3:0|0:0,0:0:0:0:
373,137,115307,1,2,0:0:0:0:
373,137,115682,5,8,0:0:0:0:
227,46,116057,21,0,3:0:0:0:
290,9,116244,1,0,3:2:0:0:
227,46,116432,2,0,B|180:150|259:141|209:256,1,202.500007724762,2|0,0:0|0:0,0:0:0:0:
100,265,117182,2,0,P|146:211|128:140,1,135.000005149842,8|2,0:0|0:0,0:0:0:0:
20,212,117744,1,2,0:0:0:0:
35,110,117932,2,0,P|60:140|72:176,1,67.5000025749208,0|0,0:0|3:0,0:0:0:0:
40,293,118307,1,2,3:2:0:0:
40,293,118682,6,0,P|84:267|130:267,2,67.5000025749208,8|0|0,0:0|0:0|3:0,0:0:0:0:
61,371,119432,22,0,P|120:333|199:366,1,135.000005149842,2|0,0:0|3:0,0:0:0:0:
240,375,119994,1,0,0:0:0:0:
205,274,120182,2,0,P|264:312|343:279,1,135.000005149842,8|0,0:0|0:0,0:0:0:0:
447,348,120744,1,2,3:2:0:0:
381,369,120932,2,0,P|380:329|401:285,1,67.5000025749208,2|2,0:0|3:0,0:0:0:0:
505,384,121307,2,0,P|514:351|512:318,1,67.5000025749208,2|0,0:0|0:0,0:0:0:0:
456,235,121682,5,8,0:0:0:0:
456,235,121869,2,0,B|387:248|416:184|318:204,1,135.000005149842,0|0,3:0|3:0,0:0:0:0:
275,91,122432,2,0,P|280:127|269:166,1,67.5000025749208,2|0,0:0|0:0,0:0:0:0:
273,246,122807,1,0,0:0:0:0:
215,203,122994,1,0,0:0:0:0:
122,353,123182,22,0,P|134:307|233:281,1,135.000005149842,12|2,0:0|3:2,0:0:0:0:
344,249,123744,5,8,0:0:0:0:
307,376,123932,2,0,P|312:342|308:309,1,67.5000025749208,2|0,3:2|3:0,0:0:0:0:
208,273,124307,21,6,0:0:0:0:
242,339,124494,1,0,0:0:0:0:
122,384,124682,5,12,0:1:0:0:
151,326,124869,1,4,0:0:0:0:
68,301,125057,21,8,0:0:0:0:
76,319,125244,1,0,3:0:0:0:
0,266,125432,6,0,L|17:26,1,202.500007724762,14|0,0:0|0:0,0:0:0:0:
135,3,126182,2,0,B|84:32|84:32|99:116,1,135.000005149842,12|0,0:1|3:0,0:0:0:0:
102,208,126744,1,2,0:0:0:0:
147,157,126932,2,0,L|225:168,1,67.5000025749208,0|0,3:0|0:0,0:0:0:0:
194,42,127307,1,2,0:0:0:0:
194,42,127682,2,0,P|274:60|272:140,1,135.000005149842,8|0,0:0|3:0,0:0:0:0:
355,72,128244,1,0,3:0:0:0:
286,103,128432,2,0,P|315:136|432:91,1,135.000005149842,2|2,0:0|0:0,0:0:0:0:
400,134,129182,22,0,P|412:171|406:209,1,67.5000025749208,8|0,0:0|0:0,0:0:0:0:
494,230,129557,2,0,P|481:267|455:295,1,67.5000025749208,0|2,3:0|0:0,0:0:0:0:
468,377,129932,6,0,B|399:380|429:322|324:332,1,135.000005149842,0|2,0:0|0:0,0:0:0:0:
246,347,130494,1,0,3:0:0:0:
327,231,130682,1,8,0:0:0:0:
227,248,130869,1,0,3:0:0:0:
287,291,131057,1,2,0:0:0:0:
287,291,131432,22,0,P|271:193|277:152,1,135.000005149842,2|0,0:0|3:0,0:0:0:0:
201,180,131994,5,0,0:0:0:0:
250,134,132182,1,8,0:0:0:0:
215,76,132369,2,0,P|219:41|215:7,1,67.5000025749208,0|0,3:0|0:0,0:0:0:0:
140,93,132744,1,2,0:0:0:0:
79,59,132932,2,0,P|75:92|78:125,1,67.5000025749208,0|0,3:0|0:0,0:0:0:0:
30,219,133307,1,2,3:2:0:0:
7,155,133494,1,0,3:0:0:0:
109,201,133682,22,0,P|182:202|210:289,1,135.000005149842,8|0,0:0|3:0,0:0:0:0:
323,286,134244,1,0,0:0:0:0:
280,233,134432,2,0,P|275:185|290:155,2,67.5000025749208,12|0|2,0:0|0:0|0:0,0:0:0:0:
172,111,135182,6,0,P|196:69|225:53,1,67.5000025749208,12|0,0:1|0:0,0:0:0:0:
325,87,135557,1,2,0:0:0:0:
259,120,135744,1,8,0:0:0:0:
211,58,135932,1,0,0:0:0:0:
324,159,136119,1,4,0:0:0:0:
343,165,136213,1,4,0:0:0:0:
362,158,136307,2,0,P|387:126|388:76,1,67.5000025749208,12|2,0:0|0:0,0:0:0:0:
466,196,136682,21,8,0:0:0:0:
349,231,136870,5,4,0:0:0:0:
268,140,137057,21,8,0:0:0:0:
324,102,137244,1,0,3:0:0:0:
331,167,137432,2,0,P|268:214|184:184,1,135.000005149842,6|0,0:0|1:0,0:0:0:0:
146,234,137994,1,2,0:0:0:0:
253,317,138182,2,0,P|219:281|184:275,1,67.5000025749208,8|0,1:2|3:0,0:0:0:0:
118,346,138557,2,0,P|166:336|198:352,1,67.5000025749208,0|2,1:0|3:2,0:0:0:0:
239,384,138932,1,2,1:2:0:0:
239,384,139119,1,0,0:0:0:0:
253,317,139307,2,0,P|301:326|333:310,1,67.5000025749208,2|0,1:2|3:0,0:0:0:0:
371,179,139682,6,0,P|302:202|289:260,1,135.000005149842,8|0,1:2|1:0,0:0:0:0:
409,310,140244,1,0,3:0:0:0:
409,310,140432,2,0,P|371:263|368:236,1,67.5000025749208,2|2,1:2|0:0,0:0:0:0:
288,256,140807,2,0,P|284:195|298:172,1,67.5000025749208,0|0,1:0|3:0,0:0:0:0:
212,108,141182,21,8,1:0:0:0:
276,122,141369,1,2,0:0:0:0:
165,159,141557,2,0,P|142:96|157:31,1,135.000005149842,0|0,1:0|1:0,0:0:0:0:
158,30,142307,1,2,1:2:0:0:
158,30,142682,1,8,1:2:0:0:
56,45,142869,1,2,0:0:0:0:
66,27,142963,1,0,0:0:0:0:
84,17,143057,1,0,1:0:0:0:
107,89,143244,1,2,0:0:0:0:
11,180,143432,6,0,B|83:152|63:225|182:180,1,135.000005149842,2|0,1:2|1:0,0:0:0:0:
192,321,143994,1,0,3:0:0:0:
135,283,144182,2,0,P|68:307|56:370,1,135.000005149842,8|0,1:2|1:0,0:0:0:0:
192,321,144744,21,0,3:0:0:0:
197,250,144932,2,0,P|219:141|203:69,1,135.000005149842,2|2,1:2|1:2,0:0:0:0:
103,139,145494,1,0,3:0:0:0:
153,95,145681,1,8,1:2:0:0:
216,118,145869,1,2,0:0:0:0:
90,0,146057,5,0,1:0:0:0:
153,95,146244,1,0,3:0:0:0:
251,40,146432,1,6,0:0:0:0:
153,95,146619,21,0,0:0:0:0:
90,72,146807,1,2,1:2:0:0:
40,116,146994,1,0,0:0:0:0:
166,234,147182,5,12,0:1:0:0:
103,139,147369,1,0,0:0:0:0:
5,194,147557,1,12,1:2:0:0:
40,116,147745,21,0,3:0:0:0:
103,139,147933,1,2,0:0:0:0:
153,95,148120,1,8,0:0:0:0:
5,0,148307,6,0,P|-3:39|0:67,1,67.5000025749208,0|4,1:0|0:0,0:0:0:0:
153,95,148682,2,0,P|161:56|158:28,1,67.5000025749208,12|0,0:1|0:0,0:0:0:0:
103,139,149057,21,4,0:0:0:0:
201,194,149245,1,8,0:0:0:0:
264,99,149432,2,0,P|263:167|274:235,1,135.000005149842,6|0,0:0|1:0,0:0:0:0:
403,156,149994,1,0,3:0:0:0:
338,194,150182,2,0,P|334:160|335:126,1,67.5000025749208,12|2,0:0|3:2,0:0:0:0:
273,232,150557,5,0,1:0:0:0:
336,267,150744,1,0,0:0:0:0:
228,283,150932,2,0,P|224:316|225:350,1,67.5000025749208,2|0,1:2|0:0,0:0:0:0:
225,350,151213,1,0,0:0:0:0:
225,350,151307,1,2,1:2:0:0:
371,327,151494,21,0,0:0:0:0:
336,267,151682,2,0,B|321:198|377:217|351:112,1,135.000005149842,8|0,1:2|1:2,0:0:0:0:
503,128,152244,1,2,3:2:0:0:
439,115,152432,2,0,P|427:155|433:201,2,67.5000025749208,2|0|2,1:2|3:0|1:2,0:0:0:0:
439,115,153182,5,8,1:2:0:0:
397,1,153369,1,0,3:0:0:0:
358,80,153556,1,0,1:0:0:0:
478,36,153744,1,0,3:0:0:0:
289,19,153932,22,0,P|271:47|266:80,1,67.5000025749208,2|0,1:2|0:0,0:0:0:0:
380,141,154307,2,0,P|362:112|357:79,1,67.5000025749208,2|0,1:2|0:0,0:0:0:0:
239,194,154682,5,8,1:2:0:0:
287,145,154869,1,2,3:2:0:0:
304,155,154963,1,0,0:0:0:0:
314,172,155057,1,2,1:2:0:0:
219,128,155244,21,2,3:2:0:0:
266,80,155432,2,0,P|201:43|113:65,1,135.000005149842,6|0,0:0|1:0,0:0:0:0:
86,3,155994,1,0,0:0:0:0:
143,48,156182,2,0,P|78:85|-10:62,1,135.000005149842,8|2,0:0|1:2,0:0:0:0:
68,148,156744,5,0,0:0:0:0:
20,79,156932,2,0,P|-3:117|2:156,1,67.5000025749208,2|0,1:2|0:0,0:0:0:0:
85,210,157307,2,0,P|68:181|68:147,1,67.5000025749208,2|0,1:2|3:0,0:0:0:0:
129,108,157682,21,0,0:0:0:0:
191,192,158057,5,0,0:0:0:0:
249,149,158432,22,0,B|341:132|267:81|369:61|369:61|386:72|410:79|410:79|365:75|348:89|329:123,1,270.000010299683,2|0,3:2|0:0,0:0:0:0:
348,95,162932,5,8,0:0:0:0:
348,95,163682,1,4,0:1:0:0:
348,95,164432,21,2,3:0:0:0:
348,95,164807,1,0,1:0:0:0:
351,100,165182,1,8,3:0:0:0:
274,127,165557,5,0,3:0:0:0:
274,127,165744,1,0,3:0:0:0:
277,132,165932,1,2,3:0:0:0:
261,209,166682,21,8,3:0:0:0:
261,209,167057,5,0,3:0:0:0:
261,209,167244,1,0,3:0:0:0:
261,209,167432,1,2,3:0:0:0:
321,257,168182,21,8,3:0:0:0:
321,257,168557,5,0,1:0:0:0:
256,275,168744,1,0,3:0:0:0:
245,341,168932,1,2,3:0:0:0:
245,341,169682,21,8,3:0:0:0:
245,341,170057,1,2,3:0:0:0:
245,341,170244,1,0,2:0:0:0:
245,341,170432,1,2,3:0:0:0:
245,341,171182,5,8,0:0:0:0:
270,194,171369,1,2,0:0:0:0:
270,194,171744,1,8,0:0:0:0:
265,174,171838,1,8,0:0:0:0:
260,154,171932,1,8,0:0:0:0:
296,15,172307,21,4,0:3:0:0:
296,15,172682,5,8,0:0:0:0:
368,38,172869,1,6,0:1:0:0:
303,153,173057,22,0,P|298:128|313:81,1,67.5000025749208,0|0,0:0|3:0,0:0:0:0:
384,110,173432,2,0,B|360:178|429:172|375:275,1,135.000005149842,6|0,0:0|3:0,0:0:0:0:
358,354,173994,5,2,0:2:0:0:
296,329,174182,2,0,P|285:297|290:263,1,67.5000025749208,8|4,0:0|0:2,0:0:0:0:
181,208,174557,21,2,0:0:0:0:
217,307,174744,1,8,0:0:0:0:
97,361,174932,1,2,0:0:0:0:
134,300,175119,1,4,1:2:0:0:
9,201,175307,5,2,0:0:0:0:
73,182,175494,1,8,0:3:0:0:
116,233,175682,1,2,0:0:0:0:
193,66,175932,21,2,0:0:0:0:
148,59,176057,5,2,0:0:0:0:
108,79,176182,21,4,0:0:0:0:
93,121,176307,5,8,0:0:0:0:
91,114,176432,22,0,P|147:116|176:210,1,135.000005149842,14|2,0:0|0:0,0:0:0:0:
184,178,177182,6,0,P|171:96|217:35,1,135.000005149842,12|0,0:1|3:0,0:0:0:0:
323,118,177744,1,2,0:0:0:0:
288,61,177932,2,0,P|265:80|243:137,1,67.5000025749208,2|0,3:2|0:0,0:0:0:0:
162,80,178307,2,0,P|154:111|159:145,1,67.5000025749208,2|0,0:0|0:0,0:0:0:0:
240,290,178682,22,0,P|245:256|237:224,1,67.5000025749208,8|0,0:0|0:0,0:0:0:0:
153,256,179057,2,0,P|138:226|112:204,1,67.5000025749208,0|0,3:0|3:0,0:0:0:0:
12,369,179432,2,0,P|26:303|119:268,1,135.000005149842,2|2,0:0|0:0,0:0:0:0:
42,210,179994,1,0,0:0:0:0:
153,256,180182,2,0,P|186:258|218:246,1,67.5000025749208,8|0,0:0|0:0,0:0:0:0:
172,370,180557,2,0,P|203:358|237:360,1,67.5000025749208,0|2,3:0|0:0,0:0:0:0:
325,375,180932,6,0,B|336:309|274:314|305:223,1,135.000005149842,0|2,3:0|0:0,0:0:0:0:
253,192,181494,1,0,3:0:0:0:
367,269,181682,1,8,0:0:0:0:
416,175,181869,21,2,3:2:0:0:
353,201,182057,1,2,3:2:0:0:
309,148,182244,1,0,3:0:0:0:
416,4,182432,6,0,P|370:70|380:140,1,135.000005149842,2|0,3:2|0:0,0:0:0:0:
353,201,182994,1,0,0:0:0:0:
242,168,183182,2,0,P|275:212|310:218,2,67.5000025749208,8|0|2,0:0|0:0|0:0,0:0:0:0:
249,10,183744,21,8,0:0:0:0:
293,109,183932,1,6,0:1:0:0:
308,44,184119,1,0,3:0:0:0:
196,50,184307,2,0,P|181:88|186:130,1,67.5000025749208,2|0,0:0|0:0,0:0:0:0:
182,215,184682,5,8,0:0:0:0:
344,167,184869,1,4,0:0:0:0:
182,215,185057,1,8,0:0:0:0:
182,215,185432,22,0,P|160:126|210:3,1,202.500007724762,14|0,0:0|0:0,0:0:0:0:
270,0,186182,2,0,P|272:33|261:65,1,67.5000025749208,8|0,0:0|0:0,0:0:0:0:
71,101,186557,1,0,3:0:0:0:
121,14,186744,1,2,0:0:0:0:
144,85,186932,2,0,P|173:167|184:238,1,135.000005149842,0|2,3:0|0:0,0:0:0:0:
181,214,187682,6,0,P|245:208|275:151,1,135.000005149842,8|0,0:0|3:0,0:0:0:0:
342,174,188244,1,2,3:2:0:0:
404,18,188432,22,0,P|334:54|339:132,1,135.000005149842,2|0,0:0|3:0,0:0:0:0:
326,104,189182,6,0,P|347:62|330:28,1,67.5000025749208,8|0,0:0|0:0,0:0:0:0:
231,35,189557,1,2,0:0:0:0:
290,0,189744,1,0,3:0:0:0:
234,113,189932,2,0,L|148:126,1,67.5000025749208,2|0,3:2|0:0,0:0:0:0:
285,181,190307,2,0,L|351:191,1,67.5000025749208,2|0,3:2|0:0,0:0:0:0:
281,283,190682,21,8,0:0:0:0:
240,338,190869,1,0,3:0:0:0:
213,265,191057,2,0,P|205:223|216:193,1,67.5000025749208,0|0,3:0|0:0,0:0:0:0:
81,184,191432,2,0,B|160:170|120:122|211:112,1,135.000005149842,2|0,0:0|3:0,0:0:0:0:
318,137,191994,1,0,0:0:0:0:
286,17,192182,2,0,P|293:49|284:81,2,67.5000025749208,8|0|0,0:0|3:0|0:0,0:0:0:0:
143,59,192744,1,2,3:2:0:0:
186,2,192932,2,0,P|210:23|222:54,1,67.5000025749208,2|0,0:0|3:0,0:0:0:0:
283,81,193307,5,2,0:0:0:0:
283,81,193682,21,8,0:0:0:0:
343,54,193869,2,0,P|380:46|417:59,1,67.5000025749208,0|0,3:0|0:0,0:0:0:0:
452,209,194244,5,0,3:0:0:0:
395,246,194432,2,0,P|371:167|380:100,1,135.000005149842,2|0,0:0|0:0,0:0:0:0:
375,115,195182,22,0,P|350:189|260:188,1,135.000005149842,12|2,0:0|3:2,0:0:0:0:
245,250,195744,1,8,0:0:0:0:
218,224,195932,1,2,3:2:0:0:
150,198,196119,1,0,3:0:0:0:
64,222,196307,1,6,0:0:0:0:
21,307,196494,1,0,0:0:0:0:
112,297,196682,1,12,0:1:0:0:
0,244,196869,5,4,0:0:0:0:
95,164,197057,1,8,0:0:0:0:
18,129,197244,1,0,3:0:0:0:
53,75,197432,2,0,B|108:183|6:165|70:294,1,202.500007724762,14|0,0:0|0:0,0:0:0:0:
24,335,198182,2,0,P|92:280|152:337,1,135.000005149842,12|0,0:1|3:0,0:0:0:0:
170,349,198744,1,2,0:0:0:0:
190,257,198932,2,0,P|258:311|318:254,1,135.000005149842,0|2,3:0|0:0,0:0:0:0:
294,296,199682,22,0,P|269:317|256:353,1,67.5000025749208,8|0,0:0|0:0,0:0:0:0:
190,257,200057,1,0,3:0:0:0:
170,349,200244,1,2,3:2:0:0:
127,294,200432,2,0,P|104:232|129:152,1,135.000005149842,2|0,0:0|3:0,0:0:0:0:
119,166,201182,6,0,P|137:124|115:78,1,67.5000025749208,8|0,0:0|0:0,0:0:0:0:
224,92,201557,2,0,P|213:47|169:23,1,67.5000025749208,0|2,3:0|3:2,0:0:0:0:
38,0,201932,22,0,P|32:80|82:132,1,135.000005149842,0|2,0:0|0:0,0:0:0:0:
41,196,202494,1,0,3:0:0:0:
141,141,202682,1,8,0:0:0:0:
88,250,202869,1,0,3:0:0:0:
74,131,203057,1,2,0:0:0:0:
153,213,203244,1,0,0:0:0:0:
153,213,203432,6,0,L|299:225,1,135.000005149842,2|0,0:0|3:0,0:0:0:0:
287,224,203994,1,0,0:0:0:0:
251,113,204182,1,8,0:0:0:0:
365,145,204369,2,0,L|298:155,1,67.5000025749208,0|0,3:0|0:0,0:0:0:0:
357,246,204744,1,2,0:0:0:0:
415,206,204932,2,0,L|481:216,1,67.5000025749208
449,60,205307,2,0,L|439:127,1,67.5000025749208,2|0,3:2|3:0,0:0:0:0:
371,43,205682,1,8,0:0:0:0:
371,43,206057,21,0,3:0:0:0:
300,77,206244,1,0,0:0:0:0:
361,109,206432,2,0,P|274:53|136:71,1,202.500007724762,12|2,0:0|0:0,0:0:0:0:
101,41,207182,2,0,P|100:74|118:102,1,67.5000025749208,12|0,0:1|0:0,0:0:0:0:
155,209,207557,5,2,0:0:0:0:
100,166,207744,1,8,0:0:0:0:
172,143,207932,2,0,L|241:135,1,67.5000025749208,0|4,0:0|0:0,0:0:0:0:
302,268,208307,21,12,0:0:0:0:
319,197,208494,1,0,0:0:0:0:
422,227,208682,5,8,0:0:0:0:
388,146,208869,1,4,0:0:0:0:
504,111,209057,22,0,P|475:79|434:70,1,67.5000025749208,8|0,0:0|0:0,0:0:0:0:
504,111,209432,2,0,B|496:177|496:177|499:182|499:182|488:284,1,135.000005149842,6|0,0:0|1:0,0:0:0:0:
492,244,210182,5,12,0:1:0:0:
430,215,210369,1,0,3:0:0:0:
366,317,210557,21,0,1:0:0:0:
428,288,210744,1,2,0:0:0:0:
472,384,210932,5,2,0:0:0:0:
472,384,211119,2,0,P|489:347|487:309,1,67.5000025749208,8|0,0:0|1:0,0:0:0:0:
349,209,211494,21,0,3:0:0:0:
355,193,211588,1,0,0:0:0:0:
368,183,211682,2,0,B|398:124|347:92|347:92|343:95|343:95|291:65|335:-29,1,202.500007724762,12|0,0:0|0:0,0:0:0:0:
467,11,212432,6,0,P|468:46|441:82,1,67.5000025749208,2|0,0:0|0:0,0:0:0:0:
440,80,212713,21,0,0:0:0:0:
429,80,212807,5,0,1:0:0:0:
464,183,212994,21,2,0:0:0:0:
406,149,213182,1,6,0:1:0:0:
315,266,213369,1,0,0:0:0:0:
336,182,213557,2,0,B|255:173|290:223|195:214,1,135.000005149842,8|2,1:0|0:0,0:0:0:0:
171,278,214119,1,12,0:0:0:0:
116,231,214307,2,0,P|106:194|108:177,2,33.7500012874604
25,372,214682,5,12,0:0:0:0:
60,311,214869,1,0,3:0:0:0:
78,301,214963,1,0,3:0:0:0:
98,301,215057,1,2,0:0:0:0:
155,345,215244,1,4,0:0:0:0:
53,240,215432,22,0,P|32:154|46:54,1,135.000005149842,6|0,0:0|1:0,0:0:0:0:
42,93,215900,1,0,0:0:0:0:
56,84,215994,1,0,0:0:0:0:
42,17,216182,1,12,0:1:0:0:
135,105,216369,5,0,0:0:0:0:
135,105,216557,2,0,P|138:56|111:16,1,67.5000025749208,0|0,1:0|0:0,0:0:0:0:
149,180,216932,21,2,0:0:0:0:
202,142,217119,1,12,0:0:0:0:
218,143,217213,1,0,3:0:0:0:
233,150,217307,2,0,P|264:112|265:63,1,67.5000025749208,0|2,1:0|0:0,0:0:0:0:
402,0,217682,6,0,B|354:-27|313:16|313:16|326:74,1,135.000005149842,12|2,0:1|0:0,0:0:0:0:
391,65,218182,21,0,0:0:0:0:
402,89,218307,5,0,0:0:0:0:
392,114,218432,21,2,0:0:0:0:
443,166,218619,1,8,0:0:0:0:
377,124,218807,1,0,1:0:0:0:
313,165,218994,1,0,3:0:0:0:
230,309,219182,6,0,B|251:232|182:249|210:164|210:164|205:198|227:227,1,202.500007724762,12|0,0:0|0:0,0:0:0:0:
155,288,219932,21,6,0:1:0:0:
123,270,220057,5,8,0:0:0:0:
87,274,220182,21,8,0:0:0:0:
60,298,220307,5,8,1:2:0:0:
25,306,220432,21,8,0:0:0:0:
8,297,220557,5,8,0:0:0:0:
7,283,220682,22,0,L|0:218,1,45.0000017166138,6|0,0:0|0:0,0:0:0:0:
80,143,220932,5,0,0:0:0:0:
66,161,221057,21,2,0:0:0:0:
74,181,221182,5,4,0:0:0:0:
66,202,221307,21,8,0:0:0:0:
66,202,221432,6,0,P|138:222|206:173,1,135.000005149842,6|0,0:0|1:0,0:0:0:0:
220,302,221994,1,0,0:0:0:0:
264,249,222182,2,0,P|336:229|404:278,1,135.000005149842,12|0,0:1|1:0,0:0:0:0:
444,286,222744,21,2,0:0:0:0:
386,254,222931,1,2,0:0:0:0:
335,299,223119,1,8,0:0:0:0:
386,254,223307,2,0,B|382:198|382:198|385:190|385:190|379:105,1,135.000005149842,2|12,1:2|0:0,0:0:0:0:
499,160,223869,1,4,0:0:0:0:
455,45,224057,2,0,L|450:119,1,67.5000025749208,0|4,1:0|0:0,0:0:0:0:
307,170,224432,2,0,L|302:96,1,67.5000025749208,2|0,0:0|0:0,0:0:0:0:
243,63,224807,1,0,1:0:0:0:
243,63,224900,1,0,0:0:0:0:
243,63,224994,1,0,0:0:0:0:
380,125,225182,6,0,B|418:234|315:196|363:336,1,202.500007724762,12|0,0:0|0:0,0:0:0:0:
512,299,225932,1,2,0:0:0:0:
455,342,226119,2,0,P|433:307|435:259,1,67.5000025749208,2|0,0:0|1:0,0:0:0:0:
426,257,226432,1,0,0:0:0:0:
450,220,226557,1,0,0:0:0:0:
494,210,226682,21,12,0:0:0:0:
455,342,226869,1,0,0:0:0:0:
438,347,226963,1,0,0:0:0:0:
421,345,227057,1,4,0:0:0:0:
305,367,227244,5,8,0:0:0:0:
356,316,227432,2,0,B|391:197|250:266|320:94,1,202.500007724762,6|0,0:0|0:0,0:0:0:0:
457,157,228182,2,0,B|489:106|495:73|436:10|376:56|406:109,1,202.500007724762,12|2,0:1|0:0,0:0:0:0:
512,22,228932,21,0,3:0:0:0:
512,22,229307,5,2,0:0:0:0:
512,22,229682,22,0,B|428:27|428:27|418:34|418:34|252:43,1,202.500007724762,0|0,3:0|0:0,0:0:0:0:
252,73,230432,21,8,0:3:0:0:
252,73,230494,1,0,0:0:0:0:
