osu file format v14

[General]
AudioFilename: audio.mp3
AudioLeadIn: 0
PreviewTime:162744
Countdown: 0
SampleSet: Soft
StackLeniency: 0.4
Mode: 0
LetterboxInBreaks: 0
WidescreenStoryboard: 1

[Editor]
DistanceSpacing: 2.1
BeatDivisor: 16
GridSize: 4
TimelineZoom: 1.8

[Metadata]
Title:Nautilus
TitleUnicode:ノーチラス
Artist:Yorushika
ArtistUnicode:ヨルシカ
Creator:Ryuusei Aika
Version:Present's Normal
Source:
Tags:japanese rock j-rock jrock pop j-pop jpop female vocal Present Loneight l1106188 L18 Senseabel ナブナ nbuna n-buna スイ suis エルマ elma
BeatmapID:2610623
BeatmapSetID:1256231

[Difficulty]
HPDrainRate:3.5
CircleSize:3.5
OverallDifficulty:4.5
ApproachRate:5.5
SliderMultiplier:1.8
SliderTickRate:1

[Events]
//Background and Video events
0,0,"BG.jpg"
//Break Periods
2,61131,71807
2,164632,171182
//Storyboard Layer 0 (Background)
//Storyboard Layer 1 (Fail)
//Storyboard Layer 2 (Pass)
//Storyboard Layer 3 (Foreground)
//Storyboard Layer 4 (Overlay)
//Storyboard Sound Samples

[TimingPoints]
-2068,750,4,2,50,35,1,0
182,-100,4,2,50,35,0,0
3182,-100,4,2,50,20,0,0
3557,-100,4,2,50,35,0,0
6182,-100,4,2,50,20,0,0
6744,-100,4,2,50,35,0,0
8619,-100,4,2,50,20,0,0
9369,-100,4,2,50,35,0,0
9744,-100,4,2,50,20,0,0
9932,-100,4,2,50,35,0,0
10119,-100,4,2,50,20,0,0
12744,-100,4,2,50,35,0,0
23807,-100,4,2,50,20,0,0
24557,-100,4,2,50,35,0,0
24932,-100,4,2,1,70,0,0
25307,-100,4,2,3,70,0,0
25494,-100,4,2,1,70,0,0
25869,-100,4,2,3,70,0,0
26057,-100,4,2,1,70,0,0
27369,-100,4,2,3,70,0,0
27932,-100,4,2,1,70,0,0
28307,-100,4,2,3,70,0,0
28494,-100,4,2,1,70,0,0
28869,-100,4,2,3,70,0,0
29057,-100,4,2,1,70,0,0
30369,-100,4,2,3,70,0,0
30932,-100,4,2,1,70,0,0
31307,-100,4,2,3,70,0,0
31494,-100,4,2,1,70,0,0
31869,-100,4,2,3,70,0,0
32057,-100,4,2,1,70,0,0
33369,-100,4,2,3,70,0,0
33744,-100,4,2,1,70,0,0
36369,-100,4,2,3,70,0,0
36932,-100,4,2,1,70,0,0
38432,-100,4,2,50,50,0,0
38994,-100,4,2,50,5,0,0
39182,-100,4,2,50,50,0,0
39744,-100,4,2,50,5,0,0
39932,-100,4,2,1,60,0,1
40119,-100,4,2,1,50,0,0
43682,-100,4,2,2,50,0,0
44432,-100,4,2,5,50,0,0
44807,-100,4,2,1,50,0,0
45369,-100,4,2,3,50,0,0
45932,-100,4,2,2,70,0,1
48932,-100,4,2,2,70,0,1
51182,-100,4,2,2,70,0,0
51932,-100,4,2,5,70,0,1
52307,-100,4,2,2,70,0,1
57557,-100,4,2,2,70,0,1
60932,-100,4,2,1,50,0,0
61682,-100,4,2,1,5,0,0
72932,-100,4,2,1,50,0,0
73119,-100,4,2,3,50,0,0
73494,-100,4,2,1,50,0,0
74057,-100,4,2,3,50,0,0
74432,750,4,2,4,50,1,0
74432,-100,4,2,4,50,0,0
97682,-100,4,2,1,50,0,0
97869,-100,4,2,3,50,0,0
98432,-100,4,2,1,70,0,0
98807,-100,4,2,3,70,0,0
98994,-100,4,2,1,70,0,0
99369,-100,4,2,3,70,0,0
99557,-100,4,2,1,70,0,0
100869,-100,4,2,3,70,0,0
101432,-100,4,2,1,70,0,0
101807,-100,4,2,3,70,0,0
101994,-100,4,2,1,70,0,0
102369,-100,4,2,3,70,0,0
102557,-100,4,2,1,70,0,0
103869,-100,4,2,3,70,0,0
104432,-100,4,2,1,70,0,0
104807,-100,4,2,3,70,0,0
104994,-100,4,2,1,70,0,0
105369,-100,4,2,3,70,0,0
105557,-100,4,2,1,70,0,0
106869,-100,4,2,3,70,0,0
107244,-100,4,2,1,70,0,0
107807,-100,4,2,3,70,0,0
108182,-100,4,2,1,70,0,0
108369,-100,4,2,3,70,0,0
109494,-100,4,2,1,70,0,0
109869,-100,4,2,3,70,0,0
110057,-100,4,2,1,70,0,0
110619,-100,4,2,3,70,0,0
110994,-100,4,2,1,70,0,0
111557,-100,4,2,3,70,0,0
111932,-100,4,2,4,50,0,0
112307,-100,4,2,1,50,0,0
112682,-100,4,2,50,50,0,0
112869,-100,4,2,1,50,0,0
113432,-100,4,2,5,70,0,1
113807,-100,4,2,2,70,0,1
117557,-100,4,2,2,70,0,1
119807,-100,4,2,2,70,0,1
122432,-100,4,2,2,70,0,1
124682,-100,4,2,2,70,0,0
124869,-100,4,2,3,70,0,0
125432,-100,4,2,5,70,0,1
125807,-100,4,2,2,70,0,1
131057,-100,5,2,2,70,0,1
135557,-100,5,2,3,70,0,1
135744,-100,5,2,2,70,0,1
136119,-100,5,2,3,70,0,1
136307,-100,5,2,2,70,0,1
136869,-100,5,2,3,70,0,1
137432,-100,5,2,2,60,0,0
148494,-100,5,2,3,60,0,0
148682,-100,5,2,2,60,0,0
149057,-100,5,2,3,60,0,0
149432,-100,5,2,2,60,0,0
155432,-100,5,2,2,60,0,0
158431,-100,5,2,2,50,0,0
158432,-100,5,2,1,50,0,0
159182,-100,5,2,1,5,0,0
161432,-100,5,2,1,15,0,0
162932,-100,5,2,50,50,0,0
163494,-100,5,2,50,5,0,0
163682,-100,5,2,50,50,0,0
164244,-100,5,2,50,5,0,0
164432,-100,5,2,1,60,0,0
164619,-100,5,2,1,50,0,0
171182,-100,5,2,1,50,0,0
173432,-100,5,2,1,70,0,1
173994,-100,5,2,51,70,0,1
174182,-100,5,2,2,70,0,1
174369,-100,5,2,50,70,0,1
174557,-100,5,2,51,70,0,1
174932,-100,5,2,2,70,0,1
175119,-100,5,2,50,70,0,1
175307,-100,5,2,2,70,0,1
175494,-100,5,2,51,70,0,1
175682,-100,5,2,1,70,0,0
175932,-100,5,2,3,70,0,0
176432,-100,5,2,5,70,0,1
176807,-100,5,2,2,70,0,1
182057,-100,5,2,2,70,0,1
183932,-100,5,2,1,70,0,0
184119,-100,5,2,2,70,0,0
184869,-100,5,2,3,70,0,0
185432,-100,5,2,5,70,0,1
185807,-100,5,2,2,70,0,1
189557,-100,5,2,2,70,0,1
191807,-100,5,2,2,70,0,1
194432,-100,5,2,2,70,0,1
196682,-100,5,2,2,70,0,0
196869,-100,5,2,3,70,0,0
197432,-100,5,2,5,70,0,1
197807,-100,5,2,2,70,0,1
203057,-100,5,2,2,70,0,1
207557,-100,5,2,3,70,0,1
207744,-100,5,2,2,70,0,1
208119,-100,5,2,3,70,0,1
208307,-100,5,2,2,70,0,1
208869,-100,5,2,3,70,0,1
209432,-100,5,2,2,60,0,0
213182,-100,5,2,1,60,0,0
213557,-100,5,2,2,60,0,0
215057,-100,5,2,3,60,0,0
215432,-100,5,2,2,60,0,0
219932,-100,5,2,1,60,0,0
220057,-100,5,2,2,60,0,0
221057,-100,5,2,3,60,0,0
221432,-100,5,2,2,60,0,0
223869,-100,5,2,3,60,0,0
224057,-100,5,2,2,60,0,0
224244,-100,5,2,3,60,0,0
224432,-100,5,2,2,60,0,0
226119,-100,5,2,3,60,0,0
226307,-100,5,2,2,60,0,0
227057,-100,5,2,3,60,0,0
227432,-100,5,2,2,60,0,0
229682,-100,5,2,1,60,0,0
230244,-100,5,2,1,5,0,0
230432,-100,5,2,51,60,0,0
230619,-100,5,2,51,5,0,0

[Colours]
Combo1 : 255,128,64
Combo2 : 127,127,127
Combo3 : 191,191,191

[HitObjects]
83,173,24932,6,0,L|104:37,2,135,6|6|6,0:2|0:1|0:0,0:0:0:0:
61,306,26619,1,8,0:0:0:0:
61,306,26807,1,6,0:1:0:0:
136,257,27182,2,0,P|181:248|224:256,1,90,8|4,0:0|0:0,0:0:0:0:
311,235,27932,6,0,L|332:371,2,135,6|6|6,0:0|0:1|0:0,0:0:0:0:
289,106,29619,1,2,0:0:0:0:
289,106,29807,1,8,0:0:0:0:
377,120,30182,2,0,P|402:123|426:121,2,45,8|2|4,0:0|0:0|3:2,0:0:0:0:
289,106,30932,22,0,L|153:127,2,135,6|6|6,0:0|0:1|0:0,0:0:0:0:
402,33,32619,1,8,0:0:0:0:
402,33,32807,1,6,0:1:0:0:
457,103,33182,6,0,L|464:151,2,45,8|2|4,0:0|3:2|0:0,0:0:0:0:
429,67,33744,1,6,3:2:0:0:
370,135,34119,1,0,3:0:0:0:
370,135,34307,2,0,L|366:226,1,90,2|8,0:0|0:0,0:0:0:0:
424,293,35057,1,0,3:2:0:0:
357,353,35432,21,2,0:0:0:0:
297,285,35807,1,2,0:0:0:0:
230,345,36182,2,0,P|189:369|146:374,1,90,8|2,0:0|3:2,0:0:0:0:
76,319,36932,2,0,P|75:271|92:232,1,90,2|0,0:0|3:0,0:0:0:0:
175,201,37682,2,0,P|197:198|221:202,2,45,8|0|8,0:0|3:0|0:0,0:0:0:0:
104,144,38432,6,0,B|1:0|1:0|184:35,1,360,8|2,3:2|3:0,0:0:0:0:
246,95,40307,1,0,1:0:0:0:
294,19,40682,1,8,3:0:0:0:
361,78,41057,1,0,3:0:0:0:
314,155,41432,22,0,L|303:244,1,90,2|0,3:0|1:0,0:0:0:0:
354,318,42182,1,8,3:0:0:0:
393,237,42557,1,0,3:0:0:0:
302,244,42932,6,0,L|211:250,1,90,2|0,3:0|0:0,0:0:0:0:
157,178,43682,1,8,0:0:0:0:
202,100,44057,2,0,L|291:94,2,90,0|14|6,0:0|0:2|0:1,0:0:0:0:
111,105,45182,2,0,L|84:64,2,45,2|2|4,0:0|0:0|0:0,0:0:0:0:
157,178,45932,22,0,L|117:258,1,90,6|0,0:0|0:0,0:0:0:0:
206,306,46682,1,8,0:0:0:0:
206,306,46869,2,0,L|245:225,1,90,0|0,3:0|3:0,0:0:0:0:
266,184,47432,2,0,L|215:109,1,90,2|2,0:0|0:0,0:0:0:0:
289,57,48182,5,8,0:0:0:0:
289,57,48369,2,0,L|339:131,1,90,0|0,3:0|3:0,0:0:0:0:
366,169,48932,2,0,L|326:250,1,90,2|0,0:0|0:0,0:0:0:0:
401,300,49682,1,8,0:0:0:0:
486,271,50057,22,0,L|469:182,1,90,0|0,3:0|0:0,0:0:0:0:
504,99,50807,1,2,0:0:0:0:
436,39,51182,2,0,B|292:66|292:66|276:101,1,180,12|14,0:1|0:0,0:0:0:0:
247,181,52307,5,2,0:0:0:0:
308,246,52682,1,8,0:0:0:0:
272,328,53057,2,0,L|252:373,2,45,0|2|0,3:0|0:0|3:0,0:0:0:0:
308,246,53807,1,2,0:0:0:0:
247,181,54182,1,8,0:0:0:0:
162,213,54557,22,0,L|118:230,2,45,0|0|2,3:0|3:0|0:0,0:0:0:0:
247,181,55307,1,2,0:0:0:0:
308,246,55682,1,8,0:0:0:0:
394,224,56057,2,0,L|420:138,1,90,0|2,3:0|0:0,0:0:0:0:
358,72,56807,1,2,0:0:0:0:
270,92,57182,2,0,L|182:112,1,90,8|2,0:0|0:0,0:0:0:0:
119,48,57932,5,6,0:0:0:0:
89,132,58307,2,0,L|63:218,1,90,0|8,3:0|0:0,0:0:0:0:
75,261,58869,2,0,L|100:347,1,90,0|2,3:0|0:0,0:0:0:0:
144,359,59432,1,0,0:0:0:0:
207,294,59807,1,2,3:2:0:0:
282,343,60182,22,0,B|336:352|336:352|394:328|394:328|455:336,1,180,0|0,0:0|3:0,0:0:0:0:
168,101,72932,6,0,P|147:100|124:106,2,45,8|2|4,0:0|0:0|0:0,0:0:0:0:
208,119,73494,2,0,P|253:125|297:107,1,90,8|8,0:0|0:0,0:0:0:0:
332,86,74057,1,8,0:0:0:0:
394,150,74432,22,0,L|383:287,1,135,10|0,0:3|0:0,0:0:0:0:
298,313,75369,2,0,L|298:357,2,45,0|0|2,0:0|0:0|0:3,0:0:0:0:
212,285,76119,2,0,L|201:150,1,135,2|8,0:3|0:0,0:0:0:0:
298,56,77244,1,8,0:1:0:0:
298,56,77432,6,0,L|232:117,1,90,6|0,0:1|0:0,0:0:0:0:
191,113,77994,1,0,0:0:0:0:
191,113,78182,2,0,L|105:86,1,90,8|0,0:0|0:0,0:0:0:0:
62,72,78744,1,2,0:3:0:0:
25,154,79119,2,0,L|44:241,1,90,2|0,0:3|0:0,0:0:0:0:
58,285,79682,1,8,0:0:0:0:
35,372,80057,21,8,0:3:0:0:
122,352,80432,2,0,L|259:361,2,135,6|0|0,0:3|0:0|0:0,0:0:0:0:
122,352,82682,5,8,0:0:0:0:
58,285,83057,2,0,L|14:293,2,45,8|4|6,0:3|0:3|0:1,0:0:0:0:
105,208,83807,1,0,0:0:0:0:
105,208,83994,2,0,L|192:178,1,90
246,108,84744,2,0,L|331:136,1,90,2|0,0:3|0:0,0:0:0:0:
373,152,85307,21,4,1:0:0:0:
381,248,85682,2,0,P|386:282|374:315,2,60,8|4|4,0:3|0:3|0:1,0:0:0:0:
313,275,86432,6,0,L|184:319,2,135,10|2|0,0:3|0:0|0:0,0:0:0:0:
313,275,88307,1,0,0:0:0:0:
395,310,88682,1,8,0:0:0:0:
353,194,89244,21,8,0:1:0:0:
353,194,89432,2,0,L|324:108,1,90,4|0,3:1|0:0,0:0:0:0:
310,70,89994,1,2,0:0:0:0:
310,70,90182,2,0,L|221:52,1,90,8|0,0:0|0:0,0:0:0:0:
145,100,90932,6,0,L|100:108,2,45,2|0|2,0:0|0:0|0:1,0:0:0:0:
180,127,91494,2,0,L|269:145,1,90,2|4,0:0|0:3,0:0:0:0:
312,156,92057,1,4,0:1:0:0:
343,240,92432,22,0,L|325:331,1,90,6|0,0:3|0:0,0:0:0:0:
284,347,92994,2,0,L|193:329,1,90,2|0,0:0|0:0,0:0:0:0:
151,319,93557,1,2,0:0:0:0:
151,319,94682,5,10,0:0:0:0:
134,230,95057,2,0,L|126:186,2,45,8|4|6,0:3|0:3|0:1,0:0:0:0:
224,235,95807,1,0,0:0:0:0:
224,235,95994,2,0,L|205:135,1,90,2|0,0:0|0:0,0:0:0:0:
194,103,96557,2,0,L|213:3,1,90,2|2,0:0|0:3,0:0:0:0:
295,45,97307,21,4,1:3:0:0:
334,125,97682,2,0,P|360:120|387:100,2,45,8|4|8,0:0|0:0|0:0,0:0:0:0:
255,169,98432,6,0,L|278:304,2,135,6|6|6,0:2|0:1|0:0,0:0:0:0:
191,56,100119,1,8,0:0:0:0:
191,56,100307,1,6,0:1:0:0:
113,101,100682,2,0,P|105:124|103:144,1,45,8|2,0:0|3:2,0:0:0:0:
134,176,101057,2,0,P|142:199|144:219,1,45,4|8,0:0|3:2,0:0:0:0:
150,255,101432,22,0,L|277:302,2,135,6|6|6,0:0|0:1|0:0,0:0:0:0:
98,136,103119,1,2,0:0:0:0:
98,136,103307,1,8,0:0:0:0:
43,207,103682,2,0,P|41:230|45:258,1,45,8|2,0:0|0:0,0:0:0:0:
75,285,104057,2,0,P|98:287|126:282,1,45,4|8,3:2|3:2,0:0:0:0:
150,254,104432,6,0,L|254:168,2,135,6|6|6,0:0|0:1|0:0,0:0:0:0:
47,341,106119,2,0,P|40:361|36:386,2,45,8|6|0,0:0|0:1|0:0,0:0:0:0:
76,306,106682,1,8,0:0:0:0:
166,337,107057,1,4,0:0:0:0:
166,337,107244,22,0,L|257:308,1,90,6|0,3:2|3:0,0:0:0:0:
294,295,107807,1,8,0:0:0:0:
380,271,108182,2,0,P|402:270|424:274,2,45,8|4|8,0:0|3:2|3:2,0:0:0:0:
294,295,108932,5,2,0:0:0:0:
208,271,109307,2,0,P|186:270|164:274,2,45,2|2|8,0:0|3:2|0:0,0:0:0:0:
294,295,110057,1,12,3:2:0:0:
270,213,110432,21,2,0:0:0:0:
270,213,110619,1,4,3:2:0:0:
342,159,110994,1,2,0:0:0:0:
342,159,111182,2,0,P|385:145|433:145,1,90,12|2,0:0|0:0,0:0:0:0:
511,106,111932,6,0,B|354:13|354:13|253:159,1,360,10|14,0:3|0:0,0:0:0:0:
207,236,113807,1,2,0:0:0:0:
118,216,114182,1,8,0:0:0:0:
110,126,114557,2,0,L|151:108,1,45,0|2,3:0|0:0,0:0:0:0:
193,90,114932,22,0,L|282:101,1,90,0|2,3:0|0:0,0:0:0:0:
344,36,115682,1,8,0:0:0:0:
374,120,116057,2,0,L|392:161,1,45,0|0,3:0|3:2,0:0:0:0:
410,203,116432,6,0,L|399:292,1,90,2|2,0:0|0:0,0:0:0:0:
331,352,117182,1,8,0:0:0:0:
263,292,117557,2,0,L|252:203,2,90,2|0|2,0:0|0:0|3:2,0:0:0:0:
186,340,118682,2,0,L|175:251,1,90,8|0,0:0|3:0,0:0:0:0:
126,173,119432,21,2,0:0:0:0:
203,125,119807,1,0,3:0:0:0:
251,202,120182,1,8,0:0:0:0:
251,202,120369,2,0,L|340:223,1,90,0|2,3:0|3:2,0:0:0:0:
383,223,120932,2,0,L|470:202,1,90,2|2,0:0|0:0,0:0:0:0:
471,112,121682,5,8,0:0:0:0:
471,112,121869,2,0,L|382:133,1,90,0|0,3:0|3:0,0:0:0:0:
339,133,122432,2,0,L|251:112,1,90,2|0,0:0|0:0,0:0:0:0:
216,29,123182,1,12,0:0:0:0:
145,84,123557,22,0,L|162:173,1,90,2|2,3:2|3:2,0:0:0:0:
233,226,124307,1,6,0:0:0:0:
171,292,124682,2,0,B|27:265|27:265|11:230,1,180,12|14,0:1|0:0,0:0:0:0:
87,183,125807,5,2,0:0:0:0:
174,202,126182,1,12,0:1:0:0:
234,268,126557,2,0,L|234:320,2,45,0|2|0,3:0|0:0|3:0,0:0:0:0:
299,205,127307,1,2,0:0:0:0:
237,138,127682,1,8,0:0:0:0:
174,202,128057,22,0,L|122:202,2,45,0|0|2,3:0|3:0|0:0,0:0:0:0:
234,268,128807,1,2,0:0:0:0:
301,206,129182,1,8,0:0:0:0:
359,274,129557,2,0,L|347:366,1,90,0|0,3:0|0:0,0:0:0:0:
259,382,130307,1,2,0:0:0:0:
198,315,130682,2,0,L|110:335,1,90,8|2,0:0|0:0,0:0:0:0:
25,303,131432,5,2,0:0:0:0:
92,243,131807,2,0,L|180:223,1,90,0|8,3:0|0:0,0:0:0:0:
218,245,132369,2,0,L|306:265,1,90,0|2,3:0|0:0,0:0:0:0:
349,255,132932,1,0,3:0:0:0:
433,285,133307,22,0,L|453:197,1,90,2|8,3:2|0:0,0:0:0:0:
431,159,133869,2,0,L|411:71,1,90,0|0,3:0|0:0,0:0:0:0:
421,28,134432,5,12,0:0:0:0:
335,0,134807,1,2,0:0:0:0:
307,85,135182,2,0,P|266:102|221:100,1,90,12|2,0:1|0:0,0:0:0:0:
165,29,135932,1,0,0:0:0:0:
78,53,136307,1,12,0:0:0:0:
67,142,136682,2,0,P|67:166|71:186,2,45,8|4|8,0:0|0:0|0:0,0:0:0:0:
154,161,137432,22,0,L|243:180,1,90,6|0,0:0|1:0,0:0:0:0:
285,190,137994,2,0,L|294:279,1,90,2|0,0:0|3:0,0:0:0:0:
299,324,138557,1,0,1:0:0:0:
387,324,138932,2,0,L|395:369,2,45,2|0|2,1:2|0:0|1:2,0:0:0:0:
401,282,139494,2,0,L|410:192,1,90,0|0,3:0|0:0,0:0:0:0:
422,103,140244,6,0,L|386:77,1,45,0|2,3:0|1:2,0:0:0:0:
340,77,140619,2,0,L|250:88,1,90,2|0,0:0|3:0,0:0:0:0:
216,117,141182,2,0,L|126:106,1,90,8|0,1:0|1:0,0:0:0:0:
102,68,141744,1,2,0:0:0:0:
42,135,142119,2,0,L|48:228,1,90,0|2,3:0|3:2,0:0:0:0:
77,258,142682,1,8,1:2:0:0:
142,319,143057,2,0,P|162:309|179:295,1,45,0|2,1:0|0:0,0:0:0:0:
212,263,143432,21,2,1:2:0:0:
268,192,143807,2,0,L|257:146,1,45,0|0,1:0|3:0,0:0:0:0:
243,105,144182,2,0,L|109:90,1,135,8|0,1:2|3:0,0:0:0:0:
89,130,144932,2,0,L|0:130,2,90,2|2|8,1:2|1:2|1:2,0:0:0:0:
107,171,145869,1,2,0:0:0:0:
240,149,146432,6,0,L|289:141,1,45,6|0,0:0|0:0,0:0:0:0:
329,135,146807,1,2,1:2:0:0:
403,180,147182,1,12,0:1:0:0:
356,258,147557,1,12,1:2:0:0:
356,258,147744,2,0,L|371:350,2,90,0|8|4,3:0|0:0|0:0,0:0:0:0:
318,232,148682,1,12,0:1:0:0:
242,281,149057,2,0,P|218:280|195:270,1,45,4|8,0:0|0:0,0:0:0:0:
165,241,149432,21,6,0:0:0:0:
77,260,149807,1,0,1:0:0:0:
77,260,149994,2,0,L|63:170,2,90,0|2|0,3:0|3:2|0:0,0:0:0:0:
86,304,150932,1,2,1:2:0:0:
170,272,151307,1,2,1:2:0:0:
170,272,151494,2,0,L|261:282,1,90
345,306,152244,6,0,L|372:343,2,45,2|2|0,3:2|1:2|3:0,0:0:0:0:
322,218,152994,2,0,L|337:121,2,90,0|0|0,3:0|3:0|3:0,0:0:0:0:
284,242,153932,2,0,B|196:227,1,90,2|2,1:2|1:2,0:0:0:0:
108,251,154682,1,8,1:2:0:0:
80,165,155057,1,2,1:2:0:0:
164,134,155432,22,0,B|251:104,1,90,6|0,0:0|1:0,0:0:0:0:
334,77,156182,1,8,0:0:0:0:
334,77,156369,2,0,L|423:93,2,90
306,40,157307,1,2,1:2:0:0:
276,5,157494,2,0,B|187:16|187:16|159:52|159:52|167:141,1,225,0|2,3:0|3:2,0:0:0:0:
167,141,161432,5,0,0:0:0:0:
167,141,162932,21,8,0:0:0:0:
125,220,163682,5,4,0:1:0:0:
125,220,164432,21,2,3:0:0:0:
93,294,173432,6,0,L|86:203,1,90,6|0,0:0|3:0,0:0:0:0:
140,132,174182,1,8,0:0:0:0:
180,212,174557,2,0,L|225:223,1,45,2|8,0:0|0:0,0:0:0:0:
264,240,174932,2,0,L|356:231,2,90,2|2|2,0:0|0:0|0:0,0:0:0:0:
197,300,176057,1,2,0:0:0:0:
275,344,176432,22,0,L|367:335,1,90,14|2,0:0|0:0,0:0:0:0:
432,275,177182,1,12,0:1:0:0:
353,231,177557,2,0,L|312:213,1,45,0|2,3:0|0:0,0:0:0:0:
270,195,177932,6,0,L|181:206,1,90,2|2,3:2|0:0,0:0:0:0:
97,170,178682,1,8,0:0:0:0:
170,117,179057,2,0,L|205:90,1,45,0|0,3:0|3:0,0:0:0:0:
240,63,179432,22,0,L|329:53,1,90,2|2,0:0|0:0,0:0:0:0:
406,101,180182,1,8,0:0:0:0:
342,164,180557,2,0,L|252:173,1,90,0|0,3:0|3:0,0:0:0:0:
177,124,181307,1,2,0:0:0:0:
159,212,181682,2,0,L|152:257,2,45,8|2|2,0:0|3:2|3:2,0:0:0:0:
177,124,182432,6,0,P|169:74|145:43,2,90,2|0|8,3:2|0:0|0:0,0:0:0:0:
159,212,183557,2,0,P|154:233|152:257,1,45,2|8,0:0|0:0,0:0:0:0:
176,294,183932,2,0,L|183:339,2,45,6|0|2,0:1|3:0|0:0,0:0:0:0:
252,246,184682,2,0,L|259:201,2,45,8|4|8,0:0|0:0|0:0,0:0:0:0:
301,320,185432,22,0,L|389:336,2,90,14|2|8,0:0|0:0|0:0,0:0:0:0:
252,246,186557,2,0,L|259:201,1,45,0|2,3:0|0:0,0:0:0:0:
268,157,186932,2,0,L|259:65,2,90,0|2|8,3:0|0:0|0:0,0:0:0:0:
252,246,188057,6,0,L|207:253,1,45,0|2,3:0|3:2,0:0:0:0:
163,262,188432,2,0,L|73:253,1,90,2|0,0:0|3:0,0:0:0:0:
6,192,189182,1,8,0:0:0:0:
73,132,189557,2,0,L|165:123,1,90,2|2,0:0|3:2,0:0:0:0:
237,73,190307,1,2,3:2:0:0:
311,123,190682,2,0,L|356:127,2,45,8|0|0,0:0|3:0|3:0,0:0:0:0:
237,174,191432,21,2,0:0:0:0:
288,248,191807,1,0,3:0:0:0:
216,302,192182,1,8,0:0:0:0:
216,302,192369,2,0,L|124:290,1,90,0|2,3:0|3:2,0:0:0:0:
82,284,192932,2,0,L|46:198,1,90,2|2,0:0|0:0,0:0:0:0:
13,117,193682,5,8,0:0:0:0:
13,117,193869,2,0,L|69:43,1,90,0|0,3:0|3:0,0:0:0:0:
95,10,194432,2,0,L|187:21,1,90,2|0,0:0|0:0,0:0:0:0:
247,85,195182,1,12,0:0:0:0:
309,150,195557,22,0,L|401:161,1,90,2|2,3:2|3:2,0:0:0:0:
469,216,196307,1,6,0:0:0:0:
385,248,196682,2,0,B|242:228|242:228|226:196,1,180,12|14,0:1|0:0,0:0:0:0:
191,112,197807,5,2,0:0:0:0:
101,100,198182,1,12,0:1:0:0:
53,176,198557,2,0,L|30:215,2,45,0|2|0,3:0|0:0|3:0,0:0:0:0:
101,100,199307,1,2,0:0:0:0:
191,112,199682,1,8,0:0:0:0:
226,196,200057,22,0,L|242:237,2,45,0|2|2,3:0|3:2|0:0,0:0:0:0:
191,112,200807,1,0,3:0:0:0:
258,52,201182,1,8,0:0:0:0:
337,94,201557,2,0,L|418:134,1,90,0|0,3:0|0:0,0:0:0:0:
476,202,202307,1,2,0:0:0:0:
418,271,202682,2,0,L|377:291,2,45,8|0|2,0:0|3:0|0:0,0:0:0:0:
476,202,203432,5,2,0:0:0:0:
386,202,203807,2,0,L|296:202,1,90,0|8,3:0|0:0,0:0:0:0:
263,233,204369,2,0,L|173:233,1,90,0|2,3:0|0:0,0:0:0:0:
139,202,204932,1,0,0:0:0:0:
173,118,205307,22,0,L|218:118,1,45,2|0,3:2|0:0,0:0:0:0:
251,87,205682,2,0,L|394:87,1,135,8|0,0:0|0:0,0:0:0:0:
420,118,206432,1,12,0:0:0:0:
341,161,206807,5,2,0:0:0:0:
263,118,207182,2,0,P|216:116|177:133,1,90,12|2,0:1|0:0,0:0:0:0:
143,216,207932,2,0,P|162:257|198:282,1,90,0|12,0:0|0:0,0:0:0:0:
286,269,208682,2,0,P|296:250|301:228,2,45,8|4|8,0:0|0:0|0:0,0:0:0:0:
253,353,209432,22,0,P|187:371|129:340,1,135,6|2,0:0|0:0,0:0:0:0:
108,302,210182,1,12,0:1:0:0:
197,282,210557,2,0,P|202:261|205:237,1,45,0|2,1:0|0:0,0:0:0:0:
198,193,210932,2,0,P|196:145|207:103,2,90,2|0|12,0:0|1:0|0:0,0:0:0:0:
287,202,212057,1,0,1:0:0:0:
376,213,212432,6,0,P|378:261|367:303,2,90,2|0|6,0:0|1:0|0:1,0:0:0:0:
341,129,213557,1,8,1:0:0:0:
275,67,213932,2,0,P|230:63|186:76,1,90,2|0,0:0|0:0,0:0:0:0:
151,157,214682,2,0,P|196:161|240:148,1,90,12|2,0:0|0:0,0:0:0:0:
275,67,215432,21,6,0:0:0:0:
341,129,215807,2,0,P|342:152|338:173,1,45,0|0,1:0|0:0,0:0:0:0:
310,208,216182,2,0,B|286:292|336:258|314:343,1,135,12|0,0:1|0:0,0:0:0:0:
278,365,216932,2,0,P|239:375|189:365,2,90,2|0|12,0:0|1:0|0:1,0:0:0:0:
315,338,217869,1,8,0:0:0:0:
449,351,218432,6,0,P|449:307|431:266,1,90,2|0,0:0|1:0,0:0:0:0:
409,179,219182,2,0,P|370:201|344:237,1,90,12|8,0:0|1:0,0:0:0:0:
366,323,219932,2,0,P|235:327|346:239,1,360,6|6,0:1|0:0,0:0:0:0:
174,179,222182,21,12,0:1:0:0:
130,357,222932,1,2,0:0:0:0:
130,357,223119,1,8,0:0:0:0:
85,279,223494,1,0,0:0:0:0:
85,279,223682,2,0,P|83:232|101:189,1,90,12|0,0:0|1:0,0:0:0:0:
170,246,224432,6,0,P|192:253|214:253,2,45,2|0|0,0:0|0:0|1:0,0:0:0:0:
183,157,225182,2,0,B|165:84|216:100|194:21,1,135,12|0,0:0|0:0,0:0:0:0:
153,11,225932,2,0,P|111:0|66:6,2,90,2|0|12,0:0|1:0|0:0,0:0:0:0:
209,81,227057,1,4,0:0:0:0:
261,153,227432,22,0,P|325:169|394:160,1,135,6|0,0:0|0:0,0:0:0:0:
418,198,228182,2,0,P|401:262|410:331,1,135,12|2,0:1|0:0,0:0:0:0:
373,355,228932,2,0,P|308:338|239:347,1,135,0|0,3:0|0:0,0:0:0:0:
216,310,229682,1,0,3:0:0:0:
261,153,230432,21,8,0:3:0:0:
