osu file format v14

[General]
AudioFilename: audio.mp3
AudioLeadIn: 0
PreviewTime:162744
Countdown: 0
SampleSet: Soft
StackLeniency: 0.7
Mode: 0
LetterboxInBreaks: 0
WidescreenStoryboard: 0

[Editor]
DistanceSpacing: 1.5
BeatDivisor: 12
GridSize: 32
TimelineZoom: 1.8

[Metadata]
Title:Nautilus
TitleUnicode:ノーチラス
Artist:Yorushika
ArtistUnicode:ヨルシカ
Creator:Ryuusei Aika
Version:L18's Hard
Source:
Tags:japanese rock j-rock jrock pop j-pop jpop female vocal Present Loneight l1106188 L18 Senseabel ナブナ nbuna n-buna スイ suis エルマ elma
BeatmapID:2610622
BeatmapSetID:1256231

[Difficulty]
HPDrainRate:5
CircleSize:4
OverallDifficulty:5.8
ApproachRate:7
SliderMultiplier:2
SliderTickRate:0.5

[Events]
//Background and Video events
0,0,"bg.jpg"
//Break Periods
2,61881,72032
2,159932,161432
//Storyboard Layer 0 (Background)
//Storyboard Layer 1 (Fail)
//Storyboard Layer 2 (Pass)
//Storyboard Layer 3 (Foreground)
//Storyboard Layer 4 (Overlay)
//Storyboard Sound Samples

[TimingPoints]
-2068,750,4,2,50,35,1,0
182,-142.857142857143,4,2,50,35,0,0
3182,-142.857142857143,4,2,50,20,0,0
3557,-142.857142857143,4,2,50,35,0,0
6182,-142.857142857143,4,2,50,20,0,0
6744,-142.857142857143,4,2,50,35,0,0
8619,-142.857142857143,4,2,50,20,0,0
9369,-142.857142857143,4,2,50,35,0,0
9744,-142.857142857143,4,2,50,20,0,0
9932,-142.857142857143,4,2,50,35,0,0
10119,-142.857142857143,4,2,50,20,0,0
12744,-142.857142857143,4,2,50,35,0,0
23807,-142.857142857143,4,2,50,20,0,0
24557,-142.857142857143,4,2,50,35,0,0
24932,-83.3333333333333,4,2,1,70,0,0
25307,-83.3333333333333,4,2,3,70,0,0
25494,-83.3333333333333,4,2,1,70,0,0
25869,-83.3333333333333,4,2,3,70,0,0
26057,-83.3333333333333,4,2,1,70,0,0
27369,-83.3333333333333,4,2,3,70,0,0
27932,-83.3333333333333,4,2,1,70,0,0
28307,-83.3333333333333,4,2,3,70,0,0
28494,-83.3333333333333,4,2,1,70,0,0
28869,-83.3333333333333,4,2,3,70,0,0
29057,-83.3333333333333,4,2,1,70,0,0
30369,-83.3333333333333,4,2,3,70,0,0
30932,-83.3333333333333,4,2,1,70,0,0
31307,-83.3333333333333,4,2,3,70,0,0
31494,-83.3333333333333,4,2,1,70,0,0
31869,-83.3333333333333,4,2,3,70,0,0
32057,-83.3333333333333,4,2,1,70,0,0
33369,-83.3333333333333,4,2,3,70,0,0
33744,-83.3333333333333,4,2,1,70,0,0
36369,-83.3333333333333,4,2,3,70,0,0
36932,-83.3333333333333,4,2,1,70,0,0
38432,-125,4,2,50,50,0,0
38994,-125,4,2,50,5,0,0
39182,-125,4,2,50,50,0,0
39744,-125,4,2,50,5,0,0
39932,-100,4,2,1,60,0,1
40119,-100,4,2,1,50,0,0
43682,-100,4,2,2,50,0,0
44432,-66.6666666666667,4,2,5,50,0,0
44807,-66.6666666666667,4,2,1,50,0,0
45369,-66.6666666666667,4,2,3,50,0,0
45932,-66.6666666666667,4,2,2,70,0,1
48932,-125,4,2,2,70,0,1
51182,-125,4,2,2,70,0,0
51932,-66.6666666666667,4,2,5,70,0,1
52307,-66.6666666666667,4,2,2,70,0,1
57557,-100,4,2,2,70,0,1
60932,-166.666666666667,4,2,1,50,0,0
61682,-166.666666666667,4,2,1,5,0,0
72932,-100,4,2,1,60,0,0
73119,-100,4,2,3,60,0,0
73494,-100,4,2,1,60,0,0
74057,-100,4,2,3,60,0,0
74432,750,4,2,4,50,1,0
74432,-125,4,2,4,50,0,0
97682,-125,4,2,1,50,0,0
97869,-125,4,2,3,50,0,0
98432,-83.3333333333333,4,2,1,70,0,0
98807,-83.3333333333333,4,2,3,70,0,0
98994,-83.3333333333333,4,2,1,70,0,0
99369,-83.3333333333333,4,2,3,70,0,0
99557,-83.3333333333333,4,2,1,70,0,0
100869,-83.3333333333333,4,2,3,70,0,0
101432,-83.3333333333333,4,2,1,70,0,0
101807,-83.3333333333333,4,2,3,70,0,0
101994,-83.3333333333333,4,2,1,70,0,0
102369,-83.3333333333333,4,2,3,70,0,0
102557,-83.3333333333333,4,2,1,70,0,0
103869,-83.3333333333333,4,2,3,70,0,0
104432,-83.3333333333333,4,2,1,70,0,0
104807,-83.3333333333333,4,2,3,70,0,0
104994,-83.3333333333333,4,2,1,70,0,0
105369,-83.3333333333333,4,2,3,70,0,0
105557,-83.3333333333333,4,2,1,70,0,0
106869,-83.3333333333333,4,2,3,70,0,0
107244,-83.3333333333333,4,2,1,70,0,0
107807,-83.3333333333333,4,2,3,70,0,0
108182,-83.3333333333333,4,2,1,70,0,0
108369,-83.3333333333333,4,2,3,70,0,0
109494,-83.3333333333333,4,2,1,70,0,0
109869,-83.3333333333333,4,2,3,70,0,0
110057,-83.3333333333333,4,2,1,70,0,0
110619,-83.3333333333333,4,2,3,70,0,0
110994,-83.3333333333333,4,2,1,70,0,0
111557,-83.3333333333333,4,2,3,70,0,0
111932,-100,4,2,4,50,0,0
112307,-100,4,2,1,50,0,0
112682,-100,4,2,50,50,0,0
112869,-100,4,2,1,50,0,0
113432,-66.6666666666667,4,2,5,70,0,1
113807,-66.6666666666667,4,2,2,70,0,1
117557,-100,4,2,2,70,0,1
119807,-66.6666666666667,4,2,2,70,0,1
122432,-125,4,2,2,70,0,1
124682,-125,4,2,2,70,0,0
124869,-125,4,2,3,70,0,0
125432,-66.6666666666667,4,2,5,70,0,1
125807,-66.6666666666667,4,2,2,70,0,1
131057,-100,5,2,2,70,0,1
135557,-100,5,2,3,70,0,1
135744,-100,5,2,2,70,0,1
136119,-100,5,2,3,70,0,1
136307,-100,5,2,2,70,0,1
136869,-100,5,2,3,70,0,1
137432,-83.3333333333333,5,2,2,60,0,0
148494,-83.3333333333333,5,2,3,60,0,0
148682,-83.3333333333333,5,2,2,60,0,0
149057,-83.3333333333333,5,2,3,60,0,0
149432,-83.3333333333333,5,2,2,60,0,0
155432,-125,5,2,2,60,0,0
158432,-166.666666666667,5,2,1,50,0,0
159182,-166.666666666667,5,2,1,5,0,0
162932,-125,5,2,50,50,0,0
163494,-125,5,2,50,5,0,0
163682,-125,5,2,50,50,0,0
164244,-125,5,2,50,5,0,0
164432,-100,5,2,1,60,0,0
164619,-100,5,2,1,50,0,0
171182,-83.3333333333333,5,2,1,50,0,0
173432,-125,5,2,1,70,0,1
173994,-125,5,2,51,70,0,1
174182,-125,5,2,2,70,0,1
174369,-125,5,2,50,70,0,1
174557,-125,5,2,51,70,0,1
174932,-125,5,2,2,70,0,1
175119,-125,5,2,50,70,0,1
175307,-125,5,2,2,70,0,1
175494,-125,5,2,51,70,0,1
175682,-125,5,2,1,70,0,0
175932,-125,5,2,3,70,0,0
176432,-66.6666666666667,5,2,5,70,0,1
176807,-66.6666666666667,5,2,2,70,0,1
182057,-100,5,2,2,70,0,1
183932,-100,5,2,1,70,0,0
184119,-100,5,2,2,70,0,0
184869,-100,5,2,3,70,0,0
185432,-66.6666666666667,5,2,5,70,0,1
185807,-66.6666666666667,5,2,2,70,0,1
189557,-100,5,2,2,70,0,1
191807,-66.6666666666667,5,2,2,70,0,1
194432,-125,5,2,2,70,0,1
196682,-125,5,2,2,70,0,0
196869,-125,5,2,3,70,0,0
197432,-66.6666666666667,5,2,5,70,0,1
197807,-66.6666666666667,5,2,2,70,0,1
203057,-100,5,2,2,70,0,1
207557,-100,5,2,3,70,0,1
207744,-100,5,2,2,70,0,1
208119,-100,5,2,3,70,0,1
208307,-100,5,2,2,70,0,1
208869,-100,5,2,3,70,0,1
209432,-83.3333333333333,5,2,2,60,0,0
213182,-83.3333333333333,5,2,1,60,0,0
213557,-83.3333333333333,5,2,2,60,0,0
215057,-83.3333333333333,5,2,3,60,0,0
215432,-83.3333333333333,5,2,2,60,0,0
219932,-83.3333333333333,5,2,1,60,0,0
220057,-83.3333333333333,5,2,2,60,0,0
221057,-83.3333333333333,5,2,3,60,0,0
221432,-83.3333333333333,5,2,2,60,0,0
223869,-83.3333333333333,5,2,3,60,0,0
224057,-83.3333333333333,5,2,2,60,0,0
224244,-83.3333333333333,5,2,3,60,0,0
224432,-83.3333333333333,5,2,2,60,0,0
226119,-83.3333333333333,5,2,3,60,0,0
226307,-83.3333333333333,5,2,2,60,0,0
227057,-83.3333333333333,5,2,3,60,0,0
227432,-83.3333333333333,5,2,2,60,0,0
229682,-125,5,2,1,60,0,0
230244,-125,5,2,1,5,0,0
230432,-125,5,2,51,60,0,0

[Colours]
Combo1 : 255,128,64
Combo2 : 127,127,127
Combo3 : 191,191,191

[HitObjects]
106,311,744,5,0,0:0:0:0:
132,235,932,2,0,P|160:208|212:201,1,69.9999978637696,10|0,0:0|0:0,0:0:0:0:
262,165,1494,2,0,P|271:202|248:250,1,69.9999978637696,2|0,0:0|0:0,0:0:0:0:
315,293,2057,1,0,0:0:0:0:
236,307,2244,2,0,P|296:373|370:348,1,174.999994659424,2|0,0:0|0:0,0:0:0:0:
434,218,3557,1,8,0:1:0:0:
332,151,3932,6,0,L|345:269,1,104.999996795654,10|0,0:3|0:0,0:0:0:0:
412,297,4682,2,0,P|450:299|489:276,1,69.9999978637696,2|0,0:0|0:0,0:0:0:0:
434,218,5244,2,0,L|441:180,1,34.9999989318848
458,105,5619,2,0,P|419:106|363:155,1,104.999996795654,2|0,0:0|0:0,0:0:0:0:
254,58,6744,1,0,0:0:0:0:
185,99,6932,22,0,P|141:100|105:67,1,69.9999978637696,6|0,0:0|0:0,0:0:0:0:
61,143,7494,2,0,P|82:176|78:213,1,69.9999978637696,2|0,0:0|0:0,0:0:0:0:
31,269,8057,1,0,0:0:0:0:
148,354,8244,2,0,P|156:334|159:314,1,34.9999989318848,2|0,0:0|0:0,0:0:0:0:
177,242,8619,2,0,P|167:224|163:205,1,34.9999989318848
148,354,9182,6,0,P|156:334|161:309,2,34.9999989318848,0|2|0,0:0|0:0|0:0,0:0:0:0:
164,210,9744,2,0,P|167:229|177:246,1,34.9999989318848,2|8,0:0|0:3,0:0:0:0:
283,290,10119,2,0,B|294:272|294:272|359:261|359:261|376:272,1,104.999996795654
460,326,11432,1,0,0:0:0:0:
478,231,12182,1,0,0:0:0:0:
460,326,12744,21,0,0:0:0:0:
386,357,12932,2,0,P|335:356|304:319,1,69.9999978637696,10|0,0:0|0:0,0:0:0:0:
280,276,13494,2,0,P|282:236|260:204,1,69.9999978637696,2|0,0:0|0:0,0:0:0:0:
198,311,14057,1,0,0:0:0:0:
118,297,14244,2,0,B|95:247|126:209|126:209|155:173|146:150|124:145|113:169,1,174.999994659424,2|0,0:0|0:0,0:0:0:0:
74,59,15744,5,8,0:1:0:0:
147,27,15932,2,0,P|186:38|244:44,1,69.9999978637696,10|0,0:3|0:0,0:0:0:0:
295,44,16494,2,0,P|334:38|373:27,1,69.9999978637696
365,111,17057,1,0,0:0:0:0:
313,172,17244,2,0,L|225:154,1,69.9999978637696,2|2,0:0|0:0,0:0:0:0:
256,359,18557,21,8,0:0:0:0:
350,249,18932,2,0,P|350:214|359:157,1,69.9999978637696,6|0,0:0|0:0,0:0:0:0:
428,136,19494,2,0,P|458:153|503:189,1,69.9999978637696,2|0,0:0|0:0,0:0:0:0:
415,53,20057,2,0,P|383:77|349:98,1,69.9999978637696,2|0,0:0|0:0,0:0:0:0:
228,52,20807,1,8,0:0:0:0:
228,52,21557,5,8,0:0:0:0:
156,86,21744,1,4,0:0:0:0:
84,120,21932,2,0,P|33:109|8:92,1,81.6666641743979,10|0,0:3|0:0,0:0:0:0:
68,205,22557,2,0,L|145:191,1,69.9999978637696
55,291,23119,2,0,P|110:299|188:285,1,128.333329416911,2|0,0:0|0:0,0:0:0:0:
68,205,24557,1,12,0:3:0:0:
157,263,24744,1,6,0:0:0:0:
249,204,24932,22,0,P|272:255|285:330,1,119.999996337891,6|4,0:2|0:0,0:0:0:0:
365,356,25494,2,0,P|416:333|491:320,1,119.999996337891,6|4,0:1|0:0,0:0:0:0:
488,231,26057,1,6,0:0:0:0:
503,78,26619,1,8,0:0:0:0:
449,149,26807,2,0,P|402:152|348:91,1,119.999996337891,6|8,0:1|0:0,0:0:0:0:
340,15,27369,1,2,3:2:0:0:
267,69,27557,2,0,L|279:138,1,59.9999981689454,4|8,0:0|3:2,0:0:0:0:
181,40,27932,6,0,P|114:26|58:67,1,119.999996337891,6|2,0:0|0:0,0:0:0:0:
24,174,28494,2,0,P|91:160|147:201,1,119.999996337891,6|4,0:1|0:0,0:0:0:0:
181,308,29057,1,6,0:0:0:0:
210,227,29619,1,2,0:0:0:0:
181,308,29807,2,0,P|205:319|239:380,1,89.9999972534181,8|8,0:0|0:0,0:0:0:0:
297,362,30182,2,0,L|366:348,1,59.9999981689454,8|2,0:0|0:0,0:0:0:0:
444,364,30557,1,4,3:2:0:0:
507,302,30744,1,8,3:2:0:0:
477,217,30932,22,0,P|421:240|359:234,1,119.999996337891,6|4,0:0|0:0,0:0:0:0:
301,169,31494,2,0,P|245:146|183:152,1,119.999996337891,6|4,0:1|0:0,0:0:0:0:
110,198,32057,1,6,0:0:0:0:
70,50,32619,1,8,0:0:0:0:
25,128,32807,2,0,L|41:255,1,119.999996337891,6|8,0:1|0:0,0:0:0:0:
50,336,33369,1,2,3:2:0:0:
50,336,33557,1,4,0:0:0:0:
152,244,33744,6,0,P|209:231|252:291,1,119.999996337891,6|0,3:2|3:0,0:0:0:0:
264,359,34307,2,0,L|333:348,1,59.9999981689454,2|0,0:0|3:0,0:0:0:0:
409,375,34682,1,8,0:0:0:0:
419,285,34869,1,2,3:2:0:0:
429,195,35057,2,0,B|413:150|413:150|388:142|388:142|373:96,2,119.999996337891,0|2|2,3:2|0:0|0:0,0:0:0:0:
344,226,35994,1,0,3:0:0:0:
292,151,36182,2,0,L|294:70,1,59.9999981689454,8|2,0:0|3:2,0:0:0:0:
202,145,36557,1,2,3:2:0:0:
29,247,36932,22,0,L|35:187,1,59.9999981689454,2|8,0:0|3:2,0:0:0:0:
152,247,37307,2,0,L|144:317,1,59.9999981689454,0|2,3:0|0:0,0:0:0:0:
265,361,37682,1,8,0:0:0:0:
275,272,37869,1,0,3:0:0:0:
284,182,38057,2,0,P|277:148|258:122,1,59.9999981689454,8|8,0:0|3:2,0:0:0:0:
166,111,38432,6,0,L|33:140,1,120,8|0,3:2|0:0,0:0:0:0:
81,186,39182,2,0,P|64:164|28:73,1,120,4|0,0:1|0:0,0:0:0:0:
95,22,39932,22,0,L|205:38,1,100,2|0,3:0|1:0,0:0:0:0:
292,53,40682,1,8,3:0:0:0:
233,134,41057,1,0,3:0:0:0:
183,126,41244,1,0,3:0:0:0:
95,22,41432,6,0,L|205:38,1,100,2|0,3:0|1:0,0:0:0:0:
292,53,42182,1,8,3:0:0:0:
327,146,42557,1,0,3:0:0:0:
375,134,42744,2,0,P|403:140|438:140,1,50,0|2,3:0|3:0,0:0:0:0:
452,294,43307,2,0,P|427:292|402:287,1,50
338,278,43682,1,8,0:0:0:0:
259,265,43869,2,0,P|268:314|283:362,1,100,2|2,0:0|0:0,0:0:0:0:
204,324,44432,22,0,B|179:330|179:330|173:353|173:353|153:348|153:348|118:374|57:361,2,150.000005722046,14|6|2,0:2|0:1|0:0,0:0:0:0:
304,313,45369,1,2,0:0:0:0:
387,368,45557,2,0,L|469:354,1,75.0000028610231,4|0,0:0|0:0,0:0:0:0:
387,368,45932,6,0,P|428:310|423:233,1,150.000005722046,6|0,0:0|0:0,0:0:0:0:
365,165,46494,1,0,3:0:0:0:
429,101,46682,1,8,0:0:0:0:
339,47,46869,2,0,P|292:95|201:97,1,150.000005722046,0|0,3:0|3:0,0:0:0:0:
129,67,47432,1,2,0:0:0:0:
192,186,47619,2,0,P|178:262|170:334,1,150.000005722046,0|0,3:0|0:0,0:0:0:0:
83,358,48182,1,8,0:0:0:0:
206,320,48369,2,0,P|220:244|228:172,1,150.000005722046,0|0,3:0|3:0,0:0:0:0:
174,72,48932,22,0,P|101:57|61:142,1,160,2|8,0:0|0:0,0:0:0:0:
37,301,50057,2,0,P|69:284|96:279,1,40,0|2,3:0|0:0,0:0:0:0:
134,214,50432,2,0,P|170:215|196:224,1,40,0|0,0:0|3:0,0:0:0:0:
252,168,50807,2,0,P|282:187|300:208,1,40,2|0,0:0|0:0,0:0:0:0:
324,273,51182,2,0,P|378:288|428:244,1,120,12|0,0:1|3:0,0:0:0:0:
502,331,51932,6,0,B|517:235|517:235|499:182,2,150.000005722046,14|2|8,0:0|0:0|0:0,0:0:0:0:
310,255,53057,1,0,3:0:0:0:
295,166,53244,1,2,0:0:0:0:
205,178,53432,2,0,B|190:82|190:82|208:29,2,150.000005722046,0|2|8,3:0|0:0|0:0,0:0:0:0:
35,350,54557,21,0,3:0:0:0:
90,279,54744,2,0,P|89:238|69:192,1,75.0000028610231,0|2,3:0|0:0,0:0:0:0:
195,69,55307,2,0,P|196:110|216:156,1,75.0000028610231,2|0,0:0|0:0,0:0:0:0:
295,199,55682,2,0,P|303:235|287:291,1,75.0000028610231,8|0,0:0|0:0,0:0:0:0:
198,328,56057,5,0,3:0:0:0:
276,372,56244,1,0,3:0:0:0:
364,355,56432,2,0,P|439:320|508:314,1,150.000005722046,2|2,0:0|0:0,0:0:0:0:
495,206,56994,1,0,3:0:0:0:
403,244,57182,2,0,P|387:221|379:157,1,75.0000028610231,8|0,0:0|3:0,0:0:0:0:
295,63,57557,2,0,P|300:111|273:159,1,100,2|6,0:0|0:0,0:0:0:0:
235,155,58307,22,0,P|212:112|217:63,1,100,0|8,3:0|0:0,0:0:0:0:
86,50,58869,2,0,P|95:76|105:137,1,50,0|0,3:0|0:0,0:0:0:0:
23,215,59244,2,0,P|63:188|121:198,1,100,2|0,0:0|0:0,0:0:0:0:
183,249,59807,1,2,3:2:0:0:
198,126,59994,1,0,0:0:0:0:
183,249,60369,5,0,3:0:0:0:
171,338,60557,1,0,0:0:0:0:
253,376,60744,1,0,0:0:0:0:
315,283,60932,21,0,3:0:0:0:
253,376,61119,2,0,L|346:364,1,89.9999972534181,0|0,3:0|0:0,0:0:0:0:
447,41,72932,6,0,L|513:57,2,50,8|2|4,0:0|0:0|0:0,0:0:0:0:
390,112,73494,2,0,P|342:128|293:168,1,100,8|8,0:0|0:0,0:0:0:0:
293,247,74057,2,0,L|305:337,1,50,8|0,0:0|0:0,0:0:0:0:
209,339,74432,22,0,P|219:301|207:230,1,80,10|0,0:3|0:0,0:0:0:0:
145,226,74994,2,0,L|95:235,1,40,0|8,0:0|0:0,0:0:0:0:
67,134,75369,1,0,0:0:0:0:
126,146,75557,1,0,0:0:0:0:
184,160,75744,2,0,L|196:106,1,40,2|0,0:3|0:0,0:0:0:0:
268,59,76119,2,0,P|267:113|309:163,1,120,2|8,0:3|0:0,0:0:0:0:
465,17,77244,1,8,0:1:0:0:
489,93,77432,6,0,P|492:138|463:191,1,80,6|0,0:1|0:0,0:0:0:0:
401,187,77994,2,0,L|380:144,1,40,0|8,0:0|0:0,0:0:0:0:
319,84,78369,1,0,0:0:0:0:
307,144,78557,1,0,0:0:0:0:
294,204,78744,2,0,L|240:192,1,40,2|0,0:3|0:0,0:0:0:0:
208,260,79119,2,0,P|228:295|185:374,1,120,2|8,0:3|0:0,0:0:0:0:
105,312,80057,21,8,0:3:0:0:
105,251,80244,1,0,0:0:0:0:
79,195,80432,2,0,P|49:228|8:245,1,80,6|0,0:3|0:0,0:0:0:0:
20,137,80994,2,0,P|50:104|91:87,1,80
147,22,81557,2,0,P|183:36|243:49,1,80,0|2,0:0|0:3,0:0:0:0:
345,22,82682,1,8,0:0:0:0:
244,163,83057,5,8,0:3:0:0:
258,221,83244,1,4,0:3:0:0:
250,281,83432,2,0,P|236:320|235:362,1,80,6|0,0:1|0:0,0:0:0:0:
355,328,83994,2,0,P|352:303|347:278,1,40,0|8,0:0|0:0,0:0:0:0:
453,237,84369,2,0,P|449:259|446:291,1,40
473,360,84744,1,2,0:3:0:0:
352,261,85307,22,0,L|349:288,2,26.6666666666667,4|0|0,1:0|0:0|0:0,0:0:0:0:
383,188,85682,2,0,P|378:148|372:111,2,53.3333333333333,8|4|4,0:3|0:3|0:1,0:0:0:0:
445,82,86432,6,0,P|414:56|362:51,1,80,10|0,0:3|0:0,0:0:0:0:
302,80,86994,2,0,L|245:72,1,40,2|8,0:0|0:0,0:0:0:0:
181,51,87369,1,2,0:0:0:0:
169,110,87557,1,0,0:0:0:0:
116,141,87744,2,0,L|56:135,1,40,2|0,0:3|0:0,0:0:0:0:
31,235,88119,2,0,P|79:220|155:222,1,120,2|8,0:0|0:0,0:0:0:0:
315,357,89244,1,8,0:1:0:0:
342,281,89432,22,0,P|299:283|255:297,1,80,4|0,3:1|0:0,0:0:0:0:
193,331,89994,2,0,L|184:284,1,40,2|8,0:0|0:0,0:0:0:0:
107,309,90369,2,0,L|110:261,2,40,2|0|2,0:0|0:0|0:3,0:0:0:0:
41,355,90932,1,2,0:0:0:0:
29,262,91119,2,0,L|44:216,1,40,0|2,0:0|0:1,0:0:0:0:
122,174,91494,2,0,P|165:195|208:193,1,80,2|4,0:0|0:3,0:0:0:0:
288,186,92057,1,4,0:1:0:0:
369,64,92432,6,0,P|369:107|362:153,1,80,6|0,0:3|0:0,0:0:0:0:
447,219,92994,2,0,P|447:176|454:130,1,80,2|0,0:0|0:0,0:0:0:0:
495,289,93557,2,0,P|484:328|477:373,2,80,2|2|2,0:0|0:3|0:3,0:0:0:0:
345,317,94682,1,10,0:0:0:0:
192,277,95057,1,8,0:3:0:0:
140,311,95244,1,4,0:3:0:0:
98,357,95432,22,0,P|58:336|4:326,1,80,6|0,0:1|0:0,0:0:0:0:
5,236,95994,2,0,P|44:239|72:251,1,40,2|8,0:0|0:0,0:0:0:0:
122,263,96369,1,0,0:0:0:0:
206,193,96557,2,0,P|215:228|225:295,2,80,2|2|4,0:0|0:3|1:3,0:0:0:0:
187,71,97682,1,8,0:0:0:0:
247,87,97869,1,4,0:0:0:0:
308,101,98057,2,0,L|357:78,1,40,8|0,0:0|0:0,0:0:0:0:
432,63,98432,6,0,P|448:108|470:194,1,119.999996337891,6|4,0:2|0:0,0:0:0:0:
392,228,98994,2,0,P|411:284|426:342,1,119.999996337891,6|4,0:1|0:0,0:0:0:0:
336,348,99557,2,0,P|323:317|314:282,1,59.9999981689454,6|0,0:0|0:0,0:0:0:0:
213,123,100119,2,0,P|217:89|226:54,1,59.9999981689454,8|6,0:0|0:1,0:0:0:0:
37,195,100682,1,8,0:0:0:0:
59,281,100869,2,0,P|55:314|43:351,2,59.9999981689454,2|4|8,3:2|0:0|3:2,0:0:0:0:
125,181,101432,22,0,P|173:163|219:219,1,119.999996337891,6|2,0:0|0:0,0:0:0:0:
302,121,101994,2,0,P|350:103|396:159,1,119.999996337891,6|4,0:1|0:0,0:0:0:0:
501,91,102557,1,6,0:0:0:0:
455,284,103119,1,2,0:0:0:0:
366,267,103307,2,0,L|379:363,1,89.9999972534181,8|8,0:0|0:0,0:0:0:0:
334,366,103682,2,0,P|305:355|222:349,1,59.9999981689454,8|2,0:0|0:0,0:0:0:0:
266,259,104057,1,4,3:2:0:0:
179,284,104244,1,8,3:2:0:0:
88,280,104432,6,0,P|57:233|0:198,1,119.999996337891,6|4,0:0|0:0,0:0:0:0:
58,128,104994,2,0,P|100:165|164:184,1,119.999996337891,6|4,0:1|0:0,0:0:0:0:
247,159,105557,1,6,0:0:0:0:
333,24,106119,1,8,0:0:0:0:
371,105,106307,2,0,P|363:140|364:234,1,119.999996337891,6|8,0:1|0:0,0:0:0:0:
445,258,106869,1,2,3:2:0:0:
495,332,107057,1,4,0:0:0:0:
377,341,107244,22,0,P|323:317|245:304,1,119.999996337891,6|0,3:2|3:0,0:0:0:0:
236,213,107807,1,8,0:0:0:0:
22,287,108182,1,8,0:0:0:0:
67,364,108369,1,4,3:2:0:0:
113,265,108557,2,0,P|117:230|117:168,1,59.9999981689454,8|0,3:2|0:0,0:0:0:0:
11,182,108932,1,2,0:0:0:0:
11,182,109307,6,0,P|8:157|5:110,1,59.9999981689454,2|2,0:0|3:2,0:0:0:0:
95,122,109682,1,8,0:0:0:0:
85,32,109869,1,2,3:2:0:0:
199,87,110057,2,0,P|199:130|194:185,1,59.9999981689454,12|0,3:2|0:0,0:0:0:0:
186,236,110432,21,2,0:0:0:0:
273,214,110619,1,4,3:2:0:0:
186,236,110994,5,2,0:0:0:0:
332,284,111182,2,0,P|368:277|406:249,1,59.9999981689454,12|0,0:0|3:0,0:0:0:0:
491,298,111557,2,0,L|498:336,3,29.9999990844727,2|2|4|8,0:0|0:0|0:0|0:0,0:0:0:0:
489,290,111932,22,0,P|465:256|477:185,1,100,10|4,0:3|3:0,0:0:0:0:
507,130,112494,1,0,3:0:0:0:
449,74,112682,2,0,P|427:87|401:92,1,50,6|8,0:1|0:0,0:0:0:0:
320,123,113057,1,2,0:0:0:0:
320,123,113432,6,0,P|397:119|430:204,2,150.000005722046,14|2|8,0:0|0:0|0:0,0:0:0:0:
183,241,114557,1,0,3:0:0:0:
171,152,114744,1,2,0:0:0:0:
128,72,114932,2,0,P|51:68|18:153,2,150.000005722046,0|2|8,3:0|0:0|0:0,0:0:0:0:
96,249,116057,1,0,3:0:0:0:
169,300,116244,22,0,P|226:253|302:251,1,150.000005722046,0|0,3:2|0:0,0:0:0:0:
284,153,116807,2,0,P|322:153|357:166,1,75.0000028610231,2|0,0:0|0:0,0:0:0:0:
266,60,117182,2,0,P|229:75|180:72,1,75.0000028610231,8|0,0:0|0:0,0:0:0:0:
70,26,117557,2,0,B|48:39|56:66|56:66|63:94|70:121|70:121|77:148|56:162,1,150,2|0,0:0|3:0,0:0:0:0:
42,261,118307,2,0,P|68:247|96:238,1,50,2|0,3:2|0:0,0:0:0:0:
197,167,118682,1,8,0:0:0:0:
171,253,118869,1,0,0:0:0:0:
207,335,119057,2,0,P|254:326|294:356,1,100,0|2,3:0|0:0,0:0:0:0:
483,312,119807,6,0,P|518:256|503:170,1,150.000005722046,0|8,3:0|0:0,0:0:0:0:
390,195,120369,1,0,3:0:0:0:
494,23,120744,1,2,3:2:0:0:
448,101,120932,1,2,0:0:0:0:
336,30,121119,2,0,P|261:25|180:46,1,150.000005722046,2|0,3:0|0:0,0:0:0:0:
104,10,121682,1,8,0:0:0:0:
150,134,121869,2,0,P|225:139|306:118,1,150.000005722046,0|0,3:0|3:0,0:0:0:0:
336,237,122432,22,0,B|261:266|261:266|174:246,1,160,2|12,0:0|0:0,0:0:0:0:
16,220,123557,1,2,3:2:0:0:
65,233,123744,1,8,0:0:0:0:
110,207,123932,2,0,P|109:178|100:140,1,40,2|0,3:2|3:0,0:0:0:0:
162,93,124307,2,0,P|146:68|119:39,1,40,6|0,0:0|0:0,0:0:0:0:
239,22,124682,1,12,0:1:0:0:
244,73,124869,1,4,0:0:0:0:
249,124,125057,2,0,L|255:198,1,40,8|0,0:0|3:0,0:0:0:0:
238,212,125432,6,0,P|306:189|367:237,2,150.000005722046,14|2|12,0:0|0:0|0:1,0:0:0:0:
330,57,126557,1,0,3:0:0:0:
240,47,126744,1,2,0:0:0:0:
156,82,126932,2,0,P|84:80|43:14,2,150.000005722046,0|2|8,3:0|0:0|0:0,0:0:0:0:
355,28,128057,21,0,3:0:0:0:
441,52,128244,2,0,P|460:84|462:145,1,75.0000028610231,0|2,3:0|0:0,0:0:0:0:
305,313,128807,2,0,P|311:276|348:228,1,75.0000028610231,2|0,0:0|0:0,0:0:0:0:
254,160,129182,2,0,P|219:173|158:164,1,75.0000028610231,8|0,0:0|0:0,0:0:0:0:
106,122,129557,1,2,3:2:0:0:
22,205,129744,6,0,B|5:242|9:282|9:282|37:305|83:305,1,150.000005722046,2|0,3:2|0:0,0:0:0:0:
191,256,130307,1,2,0:0:0:0:
155,338,130494,1,0,3:0:0:0:
240,366,130682,2,0,P|279:360|330:335,1,75.0000028610231,8|0,0:0|3:0,0:0:0:0:
293,243,131057,2,0,P|266:196|281:145,1,100,2|2,0:0|0:0,0:0:0:0:
236,153,131807,22,0,P|244:198|220:237,2,50,0|0|8,3:0|0:0|0:0,0:0:0:0:
285,58,132369,2,0,P|308:49|348:40,1,50,0|0,3:0|0:0,0:0:0:0:
423,104,132744,2,0,P|425:155|434:219,1,100,2|0,0:0|0:0,0:0:0:0:
483,277,133307,1,2,3:2:0:0:
364,327,133494,2,0,P|362:283|354:229,1,50,0|8,3:0|0:0,0:0:0:0:
264,219,133869,1,0,3:0:0:0:
238,305,134057,1,0,3:0:0:0:
149,293,134244,1,0,0:0:0:0:
16,275,134432,6,0,L|25:216,2,50,12|0|0,0:0|0:0|0:0,0:0:0:0:
97,238,134994,1,2,0:0:0:0:
149,163,135182,2,0,P|133:111|111:57,1,100,12|2,0:1|0:0,0:0:0:0:
225,18,135744,2,0,P|219:74|218:125,1,100,8|4,0:0|0:0,0:0:0:0:
276,219,136307,2,0,L|290:169,1,50,12|2,0:0|0:0,0:0:0:0:
373,136,136682,1,8,0:0:0:0:
368,215,136869,1,4,0:0:0:0:
398,289,137057,2,0,P|425:297|456:299,1,50,8|0,0:0|3:0,0:0:0:0:
477,309,137432,22,0,L|333:345,1,119.999996337891,6|0,0:0|1:0,0:0:0:0:
280,297,137994,2,0,P|249:289|199:279,1,59.9999981689454,2|8,0:0|1:2,0:0:0:0:
151,226,138369,1,0,3:0:0:0:
65,254,138557,1,0,1:0:0:0:
31,337,138744,1,2,3:2:0:0:
128,366,138932,6,0,P|138:338|141:299,2,59.9999981689454,2|0|2,1:2|0:0|1:2,0:0:0:0:
65,254,139494,2,0,L|59:182,1,59.9999981689454,0|8,3:0|1:2,0:0:0:0:
222,282,140057,1,0,1:0:0:0:
222,282,140244,2,0,P|207:255|180:240,1,59.9999981689454,0|2,3:0|1:2,0:0:0:0:
236,361,140619,22,0,P|289:337|360:333,1,119.999996337891,2|0,0:0|3:0,0:0:0:0:
421,218,141182,1,8,1:0:0:0:
335,246,141369,2,0,L|326:187,1,59.9999981689454,2|0,0:0|1:0,0:0:0:0:
405,77,141744,2,0,L|396:136,1,59.9999981689454,2|0,0:0|1:0,0:0:0:0:
314,64,142119,2,0,P|250:93|197:74,1,119.999996337891,0|2,3:0|3:2,0:0:0:0:
130,28,142682,1,8,1:2:0:0:
43,51,142869,2,0,L|33:86,2,29.9999990844727,2|0|0,0:0|0:0|1:0,0:0:0:0:
35,162,143244,1,2,0:0:0:0:
123,143,143432,6,0,L|108:268,1,119.999996337891,2|0,0:0|1:0,0:0:0:0:
50,331,143994,1,0,3:0:0:0:
188,353,144182,2,0,L|202:233,1,119.999996337891,8|0,1:2|1:0,0:0:0:0:
219,128,144744,21,0,3:0:0:0:
324,146,144932,2,0,L|331:86,1,59.9999981689454,2|0,0:0|0:0,0:0:0:0:
395,202,145307,2,0,L|403:262,1,59.9999981689454,2|0,1:2|3:0,0:0:0:0:
462,331,145681,1,8,0:0:0:0:
324,353,145869,2,0,L|309:233,1,119.999996337891,2|0,0:0|3:0,0:0:0:0:
402,261,146432,5,6,0:0:0:0:
436,178,146619,1,0,0:0:0:0:
470,95,146807,2,0,P|450:40|384:60,2,119.999996337891,2|12|12,1:2|0:1|1:2,0:0:0:0:
339,115,147744,2,0,P|303:96|272:90,1,59.9999981689454,0|2,3:0|0:0,0:0:0:0:
216,31,148119,2,0,P|177:43|150:60,1,59.9999981689454,8|0,0:0|1:0,0:0:0:0:
166,143,148494,1,4,0:0:0:0:
52,81,148682,1,12,0:1:0:0:
40,56,149057,21,4,0:0:0:0:
45,67,149244,1,8,0:0:0:0:
52,81,149432,2,0,B|65:117|65:117|36:214,1,119.999996337891,6|0,0:0|1:0,0:0:0:0:
130,181,149994,2,0,L|116:240,1,59.9999981689454,0|12,3:0|0:0,0:0:0:0:
38,286,150369,1,2,3:2:0:0:
119,324,150557,1,0,1:0:0:0:
200,362,150744,1,0,0:0:0:0:
245,264,150932,6,0,L|233:189,2,59.9999981689454,2|0|2,1:2|0:0|1:2,0:0:0:0:
319,180,151494,2,0,P|326:153|330:110,1,59.9999981689454,0|8,0:0|1:2,0:0:0:0:
487,38,152057,1,0,1:2:0:0:
487,38,152244,2,0,L|505:111,1,59.9999981689454,2|2,3:2|1:2,0:0:0:0:
413,135,152619,22,0,L|409:74,1,59.9999981689454,0|2,3:0|1:2,0:0:0:0:
488,176,152994,2,0,P|472:202|447:217,1,59.9999981689454,0|8,1:0|1:2,0:0:0:0:
366,256,153369,1,0,3:0:0:0:
301,195,153557,1,0,1:0:0:0:
215,220,153744,1,0,3:0:0:0:
129,195,153932,2,0,B|110:189|110:189|53:217|53:217|13:203,2,119.999996337891,2|2|8,1:2|1:2|1:2,0:0:0:0:
152,282,154869,2,0,L|148:320,2,29.9999990844727,2|0|0,3:2|0:0|1:2,0:0:0:0:
227,359,155244,1,2,3:2:0:0:
305,305,155432,6,0,L|292:195,1,80,6|0,0:0|1:0,0:0:0:0:
453,346,156182,1,8,0:0:0:0:
494,268,156369,2,0,L|488:215,1,40,0|2,0:0|1:2,0:0:0:0:
420,172,156744,2,0,P|403:184|374:189,1,40,0|2,0:0|1:2,0:0:0:0:
235,17,157307,1,2,1:2:0:0:
221,103,157494,2,0,P|224:126|245:168,1,40,0|0,3:0|0:0,0:0:0:0:
342,91,157869,2,0,P|349:59|346:17,1,66.6666666666667,0|0,3:0|0:0,0:0:0:0:
342,91,158432,22,0,P|391:74|446:111,1,119.999996337891,0|0,3:0|0:0,0:0:0:0:
462,44,162932,6,0,L|448:173,1,120,8|0,0:0|0:0,0:0:0:0:
504,144,163682,2,0,P|440:166|364:169,1,120,4|0,0:1|0:0,0:0:0:0:
315,223,164432,22,0,L|199:208,1,100,2|0,3:0|1:0,0:0:0:0:
120,233,165182,1,8,3:0:0:0:
175,315,165557,1,0,3:0:0:0:
224,321,165744,1,0,3:0:0:0:
315,223,165932,6,0,L|199:208,1,100,2|0,3:0|1:0,0:0:0:0:
120,233,166682,1,8,3:0:0:0:
26,196,167057,1,0,3:0:0:0:
30,146,167244,2,0,P|32:122|38:87,1,50,0|2,3:0|3:0,0:0:0:0:
184,36,167807,2,0,P|182:60|176:95,1,50,0|0,3:0|3:0,0:0:0:0:
152,145,168182,2,0,P|158:165|167:203,1,50,8|0,3:0|3:0,0:0:0:0:
211,239,168557,1,0,1:0:0:0:
231,300,168744,22,0,P|221:323|217:352,1,50,0|2,3:0|3:0,0:0:0:0:
385,197,169682,2,0,P|377:167|362:138,1,50,8|0,3:0|3:0,0:0:0:0:
464,89,170057,2,0,P|434:80|401:79,1,50,2|0,3:0|2:0,0:0:0:0:
295,119,170432,2,0,L|285:20,1,100,2|0,3:0|3:0,0:0:0:0:
295,119,171182,5,8,0:0:0:0:
195,180,171369,2,0,P|190:109|176:38,1,119.999996337891,2|8,0:0|0:0,0:0:0:0:
55,26,171932,1,8,0:0:0:0:
92,108,172119,2,0,L|81:240,1,119.999996337891,2|0,0:0|3:0,0:0:0:0:
166,347,172682,1,8,0:0:0:0:
147,259,172869,2,0,P|83:256|45:328,1,119.999996337891,6|0,0:1|3:0,0:0:0:0:
166,347,173432,22,0,P|192:324|239:312,1,80,6|0,0:0|3:0,0:0:0:0:
322,322,173994,2,2,L|366:332,1,40,2|8,0:2|0:0,0:0:0:0:
372,230,174369,2,0,L|405:260,1,40,4|2,0:2|0:0,0:0:0:0:
461,176,174744,2,0,L|474:219,1,40,8|2,0:0|0:0,0:0:0:0:
435,98,175119,2,0,L|425:141,1,40,4|2,1:2|0:0,0:0:0:0:
381,29,175494,1,8,0:3:0:0:
278,89,175682,2,0,P|254:87|227:82,5,26.6666666666667,2|2|2|2|4|8,0:0|0:0|0:0|0:0|0:0|0:0,0:0:0:0:
197,62,176432,6,0,P|145:49|68:116,2,150.000005722046,14|2|12,0:0|0:0|0:1,0:0:0:0:
80,192,177557,1,0,3:0:0:0:
152,244,177744,1,2,0:0:0:0:
197,322,177932,2,0,P|145:335|68:268,2,150.000005722046,2|2|8,3:2|0:0|0:0,0:0:0:0:
313,183,179057,1,0,3:0:0:0:
278,265,179244,22,0,L|295:354,1,75.0000028610231,0|2,3:0|0:0,0:0:0:0:
464,286,179807,2,0,P|453:257|449:212,1,75.0000028610231,2|0,0:0|0:0,0:0:0:0:
478,127,180182,2,0,L|507:47,1,75.0000028610231,8|0,0:0|0:0,0:0:0:0:
365,22,180557,1,0,3:0:0:0:
370,111,180744,1,2,0:0:0:0:
293,159,180932,2,0,P|230:129|219:25,1,150.000005722046,0|2,3:0|0:0,0:0:0:0:
127,15,181494,1,0,3:0:0:0:
55,70,181682,2,0,L|63:147,1,75.0000028610231,8|2,0:0|3:2,0:0:0:0:
153,111,182057,6,0,P|151:139|150:162,2,50,2|0|2,3:2|3:0|3:2,0:0:0:0:
189,243,183182,1,8,0:0:0:0:
71,344,183557,2,0,L|130:322,1,50,2|8,0:0|0:0,0:0:0:0:
189,243,183932,1,6,0:1:0:0:
214,318,184119,1,0,3:0:0:0:
280,362,184307,2,0,P|319:330|377:304,1,100,2|8,0:0|0:0,0:0:0:0:
439,284,184869,1,4,0:0:0:0:
430,363,185057,1,8,0:0:0:0:
452,176,185432,22,0,P|428:104|421:10,1,150.000005722046,14|2,0:0|0:0,0:0:0:0:
296,160,186182,2,0,P|314:222|324:308,1,150.000005722046,8|0,0:0|3:0,0:0:0:0:
256,364,186744,1,2,0:0:0:0:
188,306,186932,2,0,P|195:232|216:160,1,150.000005722046,0|2,3:0|0:0,0:0:0:0:
91,30,187682,2,0,P|83:105|59:176,1,150.000005722046,8|0,0:0|3:0,0:0:0:0:
7,248,188244,1,2,3:2:0:0:
45,329,188432,6,0,P|117:286|170:289,1,75.0000028610231,2|0,0:0|0:0,0:0:0:0:
165,193,188807,2,0,L|248:214,1,75.0000028610231,0|2,3:0|0:0,0:0:0:0:
289,311,189182,2,0,P|326:295|374:282,1,75.0000028610231,8|0,0:0|0:0,0:0:0:0:
470,229,189557,2,0,L|464:287,2,50,2|0|2,0:0|3:0|3:2,0:0:0:0:
414,40,190307,2,0,P|432:51|472:67,1,50,2|0,3:2|0:0,0:0:0:0:
392,125,190682,1,8,0:0:0:0:
320,70,190869,1,0,3:0:0:0:
233,96,191057,2,0,L|223:38,2,50,0|0|2,3:0|0:0|0:0,0:0:0:0:
38,155,191807,22,0,P|56:180|70:238,1,75.0000028610231,0|0,3:0|0:0,0:0:0:0:
39,306,192182,1,8,0:0:0:0:
147,333,192369,2,0,P|152:262|174:177,1,150.000005722046,0|2,3:0|3:2,0:0:0:0:
256,108,192932,1,2,0:0:0:0:
341,185,193119,2,0,P|359:258|365:333,1,150.000005722046,0|0,3:0|0:0,0:0:0:0:
473,306,193682,1,8,0:0:0:0:
442,221,193870,2,0,P|453:185|474:155,1,75.0000028610231,0|0,3:0|0:0,0:0:0:0:
481,65,194244,1,0,3:0:0:0:
386,98,194432,6,0,L|301:44,2,80,2|0|12,0:0|0:0|0:0,0:0:0:0:
445,206,195557,1,2,3:2:0:0:
451,253,195744,1,8,0:0:0:0:
458,300,195932,2,0,L|465:345,1,40,2|0,3:2|3:0,0:0:0:0:
355,305,196307,2,0,L|383:340,1,40,6|0,0:0|0:0,0:0:0:0:
258,271,196682,1,12,0:1:0:0:
264,318,196869,1,4,0:0:0:0:
270,365,197057,2,0,L|212:355,1,40,8|0,0:0|3:0,0:0:0:0:
179,345,197432,22,0,L|14:365,1,150.000005722046,14|2,0:0|0:0,0:0:0:0:
64,162,198182,2,0,P|142:177|195:233,1,150.000005722046,12|0,0:1|3:0,0:0:0:0:
256,308,198744,1,2,0:0:0:0:
321,224,198932,2,0,P|375:174|448:162,1,150.000005722046,0|2,3:0|0:0,0:0:0:0:
481,363,199682,2,0,L|333:345,1,150.000005722046,8|0,0:0|3:0,0:0:0:0:
256,276,200244,5,2,3:2:0:0:
256,160,200432,2,0,L|256:33,1,75.0000028610231,2|0,0:0|0:0,0:0:0:0:
349,36,200807,2,0,L|349:111,1,75.0000028610231,0|0,3:0|0:0,0:0:0:0:
442,159,201182,2,0,L|442:32,1,75.0000028610231,8|0,0:0|0:0,0:0:0:0:
494,10,201557,1,0,3:0:0:0:
349,35,201744,22,0,P|332:100|346:186,1,150.000005722046,2|0,3:2|0:0,0:0:0:0:
426,286,202307,1,2,0:0:0:0:
350,334,202494,1,0,3:0:0:0:
292,264,202682,2,0,P|263:237|217:214,1,75.0000028610231,8|0,0:0|3:0,0:0:0:0:
240,122,203057,2,0,L|185:145,2,50,2|0|2,0:0|0:0|0:0,0:0:0:0:
272,122,203807,6,0,L|327:145,2,50,0|0|8,3:0|0:0|0:0,0:0:0:0:
308,30,204369,2,0,P|329:30|393:37,1,50,0|0,3:0|0:0,0:0:0:0:
370,135,204744,2,0,P|323:133|256:116,1,100,2|0,0:0|0:0,0:0:0:0:
199,66,205307,1,2,3:2:0:0:
108,87,205494,2,0,P|113:117|117:155,1,50,0|8,3:0|0:0,0:0:0:0:
15,82,205869,1,0,3:0:0:0:
24,171,206057,2,0,L|18:236,1,50,0|0,3:0|0:0,0:0:0:0:
4,309,206432,21,12,0:0:0:0:
107,260,206619,2,0,P|161:245|213:246,1,100,2|2,0:0|0:0,0:0:0:0:
282,310,207182,2,0,P|336:295|388:296,1,100,12|2,0:1|0:0,0:0:0:0:
451,225,207744,1,8,0:0:0:0:
344,375,208119,1,4,0:0:0:0:
282,295,208307,2,0,L|288:182,1,100,12|8,0:0|0:0,0:0:0:0:
205,157,208869,1,4,0:0:0:0:
127,203,209057,1,8,0:0:0:0:
127,203,209432,6,0,P|64:206|-3:149,1,119.999996337891,6|0,0:0|1:0,0:0:0:0:
192,52,210182,2,0,L|182:120,2,59.9999981689454,12|0|0,0:1|3:0|1:0,0:0:0:0:
314,24,210744,1,2,0:0:0:0:
270,102,210932,2,0,P|274:168|276:186,1,59.9999981689454,2|8,0:0|0:0,0:0:0:0:
351,205,211307,1,0,1:0:0:0:
336,293,211494,2,0,L|330:335,1,29.9999990844727,0|0,3:0|3:0,0:0:0:0:
328,347,211682,2,0,B|359:335|359:335|385:342|385:342|449:321,1,119.999996337891,12|0,0:0|1:0,0:0:0:0:
471,148,212432,22,0,L|404:167,1,59.9999981689454,2|0,0:0|3:0,0:0:0:0:
389,169,212713,1,0,3:0:0:0:
365,174,212807,2,0,P|297:153|257:123,2,119.999996337891,0|6|8,1:0|0:1|1:0,0:0:0:0:
268,33,213932,1,2,0:0:0:0:
183,63,214119,2,0,L|190:187,1,119.999996337891,12|0,0:0|0:0,0:0:0:0:
95,245,214682,2,0,P|87:217|81:183,1,59.9999981689454,12|0,0:0|3:0,0:0:0:0:
79,162,214963,1,0,3:0:0:0:
80,137,215057,2,0,L|87:56,1,59.9999981689454,2|4,0:0|0:0,0:0:0:0:
183,63,215432,6,0,L|190:187,1,119.999996337891,6|0,0:0|1:0,0:0:0:0:
229,318,215994,2,0,P|235:288|237:259,1,59.9999981689454,0|12,0:0|0:1,0:0:0:0:
318,219,216369,2,0,P|333:243|348:288,1,59.9999981689454,0|0,0:0|1:0,0:0:0:0:
398,345,216744,2,0,P|479:321|483:277,1,119.999996337891,2|12,0:0|0:0,0:0:0:0:
485,272,217213,1,0,3:0:0:0:
483,248,217307,2,0,L|476:182,1,59.9999981689454,0|2,1:0|0:0,0:0:0:0:
396,114,217682,2,0,L|390:186,2,59.9999981689454,12|8|2,0:1|0:0|0:0,0:0:0:0:
401,83,218432,22,0,L|352:120,1,59.9999981689454,2|8,0:0|0:0,0:0:0:0:
256,152,218807,2,0,L|269:201,2,39.9999987792969,0|0|0,1:0|3:0|3:0,0:0:0:0:
180,109,219182,2,0,L|133:73,1,59.9999981689454,12|0,0:0|3:0,0:0:0:0:
294,15,219557,2,0,L|281:87,1,59.9999981689454,8|0,1:0|0:0,0:0:0:0:
258,160,219932,6,0,P|263:185|273:225,2,39.9999987792969,6|8|8,0:1|0:0|0:0,0:0:0:0:
230,213,220307,2,0,P|235:238|245:278,2,39.9999987792969,8|8|8,1:2|0:0|0:0,0:0:0:0:
193,261,220682,2,0,P|184:309|154:343,1,79.9999975585938,6|0,0:0|3:0,0:0:0:0:
70,345,221057,2,0,L|78:388,2,39.9999987792969,2|4|8,0:0|0:0|0:0,0:0:0:0:
57,285,221432,22,0,P|60:260|65:208,1,59.9999981689454,6|0,0:0|0:0,0:0:0:0:
22,95,221807,1,0,1:0:0:0:
100,138,221994,2,0,P|131:137|194:118,1,59.9999981689454,0|12,0:0|0:1,0:0:0:0:
177,42,222369,1,0,3:0:0:0:
251,92,222557,1,0,1:0:0:0:
321,35,222744,6,0,P|337:108|354:161,1,119.999996337891,2|8,0:0|0:0,0:0:0:0:
425,201,223307,2,0,L|452:297,1,89.9999972534181,2|0,1:2|0:0,0:0:0:0:
403,262,223682,2,0,L|422:320,1,59.9999981689454,12|4,0:0|0:0,0:0:0:0:
395,363,224057,2,0,L|370:286,1,59.9999981689454,0|4,1:0|0:0,0:0:0:0:
307,248,224432,22,0,P|275:241|233:239,1,59.9999981689454,2|0,0:0|0:0,0:0:0:0:
152,208,224807,2,0,B|129:224|129:224|108:324,1,119.999996337891,0|12,1:0|0:0,0:0:0:0:
46,158,225557,2,0,B|69:142|69:142|90:42,1,119.999996337891,0|2,1:0|0:0,0:0:0:0:
181,48,226119,1,2,0:0:0:0:
264,85,226307,2,0,L|322:82,2,39.9999987792969,0|0|0,1:0|3:0|3:0,0:0:0:0:
217,124,226682,2,0,P|224:189|196:253,1,119.999996337891,12|4,0:0|0:0,0:0:0:0:
128,285,227244,1,8,0:0:0:0:
194,346,227432,6,0,L|343:297,1,119.999996337891,6|0,0:0|3:0,0:0:0:0:
410,254,228182,2,0,L|361:105,1,119.999996337891,12|0,0:1|3:0,0:0:0:0:
392,64,228744,1,2,0:0:0:0:
318,38,228932,2,0,L|169:87,1,119.999996337891,0|2,3:0|0:0,0:0:0:0:
102,130,229682,2,0,L|151:279,1,119.999996337891,0|0,3:0|0:0,0:0:0:0:
256,192,230432,5,8,0:3:0:0:
