osu file format v14

[General]
AudioFilename: audio.mp3
AudioLeadIn: 0
PreviewTime: 38256
Countdown: 0
SampleSet: Soft
StackLeniency: 0.3
Mode: 0
LetterboxInBreaks: 0
WidescreenStoryboard: 1

[Editor]
Bookmarks: 24944,25506,26069,27944,28506,29069,29819,30194,30944,31506,32069,34319,85319,91506,98444
DistanceSpacing: 1
BeatDivisor: 6
GridSize: 4
TimelineZoom: 1.7

[Metadata]
Title:Nautilus
TitleUnicode:ノーチラス
Artist:Yorushika
ArtistUnicode:ヨルシカ
Creator:Rieri
Version:Elma
Source:
Tags:Elma n-buna nabuna suis ナブナ エルマ Japanese pop J-pop ProEzreal Reillia [C_u_r_i]
BeatmapID:2220440
BeatmapSetID:1060528

[Difficulty]
HPDrainRate:5.5
CircleSize:5
OverallDifficulty:8.3
ApproachRate:9
SliderMultiplier:2.8
SliderTickRate:1

[Events]
//Background and Video events
0,0,"yn1.jpg",0,0
//Break Periods
2,10144,12344
2,61705,72156
2,159193,160831
2,164431,170581
//Storyboard Layer 0 (Background)
//Storyboard Layer 1 (Fail)
//Storyboard Layer 2 (Pass)
//Storyboard Layer 3 (Foreground)
//Storyboard Layer 4 (Overlay)
//Storyboard Sound Samples

[TimingPoints]
944,750,4,2,34,30,1,0
3944,-100,4,2,30,30,0,0
6944,-100,4,2,31,30,0,0
9944,-100,4,2,30,30,0,0
12944,-100,4,2,34,30,0,0
15944,-100,4,2,30,30,0,0
18944,-100,4,2,31,30,0,0
21944,-100,4,2,30,30,0,0
24194,-100,4,2,1,40,0,0
24569,-100,4,2,1,40,0,0
24756,-100,4,2,1,40,0,0
24944,-83.3333333333333,4,2,1,50,0,0
33194,-83.3333333333333,4,2,34,50,0,0
33381,-83.3333333333333,4,2,1,50,0,0
33756,-83.3333333333333,4,2,31,50,0,0
33944,-83.3333333333333,4,2,1,50,0,0
34131,-83.3333333333333,4,2,20,70,0,0
34506,-83.3333333333333,4,2,27,70,0,0
34694,-83.3333333333333,4,2,23,70,0,0
34881,-83.3333333333333,4,2,24,70,0,0
35069,-83.3333333333333,4,2,27,70,0,0
35256,-83.3333333333333,4,2,20,70,0,0
35444,-83.3333333333333,4,2,23,70,0,0
35631,-83.3333333333333,4,2,20,70,0,0
35819,-83.3333333333333,4,2,23,70,0,0
36006,-83.3333333333333,4,2,24,70,0,0
36194,-83.3333333333333,4,2,25,70,0,0
36381,-83.3333333333333,4,2,24,70,0,0
36569,-83.3333333333333,4,2,23,70,0,0
36756,-83.3333333333333,4,2,20,70,0,0
36944,-83.3333333333333,4,2,24,70,0,0
37131,-83.3333333333333,4,2,20,70,0,0
37506,-83.3333333333333,4,2,27,70,0,0
37694,-83.3333333333333,4,2,23,70,0,0
37881,-83.3333333333333,4,2,24,70,0,0
38069,-83.3333333333333,4,2,27,70,0,0
38256,-83.3333333333333,4,2,20,70,0,0
38444,-250,4,2,1,30,0,0
39006,-250,4,2,1,5,0,0
39194,-500,4,2,1,30,0,0
39756,-500,4,2,1,5,0,0
39944,-142.857142857143,4,2,1,50,0,0
44444,-142.857142857143,4,2,1,60,0,1
44631,-142.857142857143,4,2,1,60,0,0
45944,-111.111111111111,4,2,1,70,0,1
46131,-111.111111111111,4,2,1,70,0,0
46881,-166.666666666667,4,2,1,70,0,0
47631,-125,4,2,1,70,0,0
48381,-100,4,2,1,70,0,0
48944,-83.3333333333333,4,2,1,70,0,1
49694,-83.3333333333333,4,2,1,70,0,0
51569,-250,4,2,1,70,0,0
51850,-250,4,2,1,10,0,0
51944,-83.3333333333333,4,2,1,70,0,1
52131,-83.3333333333333,4,2,1,70,0,0
58881,-83.3333333333333,4,2,1,70,0,0
59444,-100,4,2,1,70,0,0
60006,-125,4,2,1,50,0,0
60569,-166.666666666667,4,2,1,40,0,0
60944,-166.666666666667,4,2,1,20,0,0
61131,-333.333333333334,4,2,1,20,0,0
61506,-333.333333333334,4,2,1,5,0,0
72756,-100,4,2,1,40,0,0
74444,-200,4,2,2,30,0,0
85319,-200,4,2,25,30,0,0
85444,-200,4,2,26,30,0,0
85569,-200,4,2,27,30,0,0
85694,-200,4,2,30,30,0,0
85944,-200,4,2,27,30,0,0
86194,-200,4,2,26,30,0,0
86319,-200,4,2,25,30,0,0
86444,-200,4,2,27,30,0,0
86569,-200,4,2,2,30,0,0
91600,-200,4,2,27,30,0,0
91694,-200,4,2,32,30,0,0
91881,-200,4,2,31,30,0,0
92069,-200,4,2,30,30,0,0
92444,-200,4,2,27,30,0,0
92537,-200,4,2,2,30,0,0
93944,-400,4,2,2,20,0,0
95069,-200,4,2,2,30,0,0
97131,-200,4,2,1,40,0,0
98444,-83.3333333333333,4,2,1,50,0,0
100131,-83.3333333333333,4,2,30,50,0,0
100319,-83.3333333333333,4,2,1,50,0,0
100694,-83.3333333333333,4,2,29,50,0,0
100881,-83.3333333333333,4,2,1,50,0,0
101069,-83.3333333333333,4,2,27,50,0,0
101256,-83.3333333333333,4,2,1,50,0,0
101444,-83.3333333333333,4,2,23,50,0,0
101631,-83.3333333333333,4,2,1,50,0,0
102006,-83.3333333333333,4,2,24,50,0,0
102194,-83.3333333333333,4,2,1,50,0,0
102569,-83.3333333333333,4,2,23,50,0,0
102756,-83.3333333333333,4,2,1,50,0,0
103131,-83.3333333333333,4,2,27,50,0,0
103319,-83.3333333333333,4,2,1,50,0,0
103694,-83.3333333333333,4,2,26,50,0,0
103881,-83.3333333333333,4,2,1,50,0,0
104069,-83.3333333333333,4,2,25,50,0,0
104256,-83.3333333333333,4,2,1,50,0,0
104444,-83.3333333333333,4,2,23,50,0,0
104631,-83.3333333333333,4,2,1,50,0,0
105006,-83.3333333333333,4,2,23,50,0,0
105194,-83.3333333333333,4,2,1,50,0,0
105569,-83.3333333333333,4,2,23,50,0,0
105756,-83.3333333333333,4,2,1,50,0,0
106319,-83.3333333333333,4,2,20,50,0,0
106506,-83.3333333333333,4,2,1,50,0,0
106694,-83.3333333333333,4,2,27,50,0,0
106881,-83.3333333333333,4,2,1,50,0,0
107244,750,4,2,1,30,1,0
107244,-83.3333333333333,4,2,24,30,0,0
107431,750,4,2,1,30,1,0
107431,-83.3333333333333,4,2,1,30,0,0
107806,-83.3333333333333,4,2,20,30,0,0
108181,-83.3333333333333,4,2,23,30,0,0
108368,-83.3333333333333,4,2,24,30,0,0
108556,-83.3333333333333,4,2,27,30,0,0
108743,-83.3333333333333,4,2,20,30,0,0
108931,-83.3333333333333,4,2,23,30,0,0
109118,-83.3333333333333,4,2,20,30,0,0
109306,-83.3333333333333,4,2,23,30,0,0
109493,-83.3333333333333,4,2,24,30,0,0
109681,-83.3333333333333,4,2,25,30,0,0
109868,-83.3333333333333,4,2,24,30,0,0
110056,-83.3333333333333,4,2,23,30,0,0
110243,-83.3333333333333,4,2,20,30,0,0
110431,-83.3333333333333,4,2,24,30,0,0
110618,-83.3333333333333,4,2,1,30,0,0
110806,-83.3333333333333,4,2,20,30,0,0
110993,-83.3333333333333,4,2,1,30,0,0
111181,-83.3333333333333,4,2,27,30,0,0
111368,-83.3333333333333,4,2,23,30,0,0
111556,-83.3333333333333,4,2,1,30,0,0
111743,-83.3333333333333,4,2,24,30,0,0
111931,-166.666666666667,4,2,34,30,0,0
112118,-166.666666666667,4,2,1,30,0,0
113056,-333.333333333333,4,2,1,30,0,0
113431,-83.3333333333333,4,2,1,70,0,1
113618,-83.3333333333333,4,2,1,70,0,0
119806,-111.111111111111,4,2,1,70,0,0
120368,-166.666666666667,4,2,1,70,0,0
120931,-125,4,2,1,70,0,0
121681,-100,4,2,1,70,0,0
122431,-83.3333333333333,4,2,1,70,0,1
123181,-83.3333333333333,4,2,1,70,0,0
125056,-250,4,2,1,70,0,0
125337,-250,4,2,1,10,0,0
125431,-83.3333333333333,4,2,1,70,0,1
125618,-83.3333333333333,4,2,1,70,0,0
134431,-83.3333333333333,4,2,1,70,0,0
137431,-90.9090909090909,4,2,1,70,0,1
156368,-111.111111111111,4,2,1,70,0,1
157493,-142.857142857143,4,2,1,50,0,1
158337,-333.333333333334,4,2,3,30,0,1
158431,-333.333333333334,4,2,1,70,0,0
158993,-333.333333333334,4,2,1,10,0,0
161431,-333.333333333334,4,2,1,20,0,0
171181,-200,4,2,1,50,0,0
173431,-76.9230769230769,4,2,1,80,0,1
174181,-76.9230769230769,4,2,1,80,0,0
182431,-76.9230769230769,4,2,1,80,0,0
182806,-90.9090909090909,4,2,1,80,0,0
185431,-76.9230769230769,4,2,1,80,0,1
185618,-76.9230769230769,4,2,1,80,0,0
191806,-100,4,2,1,80,0,0
192368,-142.857142857143,4,2,1,80,0,0
192931,-111.111111111111,4,2,1,80,0,0
193681,-90.9090909090909,4,2,1,80,0,0
194431,-66.6666666666667,4,2,1,80,0,1
195181,-66.6666666666667,4,2,1,80,0,0
195931,-76.9230769230769,4,2,1,80,0,0
197056,-200,4,2,1,80,0,0
197337,-200,4,2,1,10,0,0
197431,-76.9230769230769,4,2,1,80,0,1
197618,-76.9230769230769,4,2,1,80,0,0
209337,-76.9230769230769,4,2,1,5,0,0
209431,-76.9230769230769,4,2,1,70,0,1
221712,-76.9230769230769,4,2,1,10,0,1
221806,-250,4,2,1,70,0,1
222087,-250,4,2,1,10,0,0
222181,-58.8235294117647,4,2,1,70,0,1
222931,-76.9230769230769,4,2,1,70,0,1
223212,-76.9230769230769,4,2,1,5,0,1
223306,-250,4,2,1,70,0,1
223587,-250,4,2,1,5,0,1
223681,-76.9230769230769,4,2,1,70,0,1
223962,-76.9230769230769,4,2,1,5,0,1
224056,-250,4,2,1,70,0,1
224337,-250,4,2,1,5,0,1
224431,-76.9230769230769,4,2,1,70,0,1
227243,-76.9230769230769,4,2,1,70,0,0
227431,-76.9230769230769,4,2,1,70,0,1
227993,-76.9230769230769,4,2,1,70,0,0
228181,-99.9999999999999,4,2,1,50,0,1
228743,-99.9999999999999,4,2,1,50,0,0
228931,-166.666666666667,4,2,1,50,0,1
229306,-166.666666666667,4,2,1,50,0,0
229681,-500,4,2,1,30,0,1
230431,-500,4,2,3,30,0,0

[Colours]
Combo1 : 255,121,111
Combo2 : 208,208,208
Combo3 : 190,201,243
Combo4 : 125,255,158
Combo5 : 193,255,111
Combo6 : 98,162,247

[HitObjects]
146,51,944,5,2,0:0:0:0:
161,66,3944,1,2,0:0:0:0:
173,86,6944,1,2,0:0:0:0:
179,107,9944,1,2,0:0:0:0:
346,146,12944,85,2,0:0:0:0:
330,161,15944,1,2,0:0:0:0:
318,181,18944,1,2,0:0:0:0:
312,202,21944,1,2,0:0:0:0:
312,202,24194,21,0,0:0:0:0:
312,202,24381,1,0,0:0:0:0:
391,212,24569,2,0,L|296:219,1,70
317,368,24944,6,0,P|378:326|453:339,1,125.999996154785,4|0,0:0|0:0,0:0:0:0:
451,344,25319,1,8,0:3:0:0:
286,288,25506,2,0,P|295:242|337:209,1,83.9999974365235,4|0,0:0|0:0,0:0:0:0:
395,198,25881,1,8,0:3:0:0:
219,342,26069,2,0,P|191:298|185:167,1,167.999994873047,4|0,0:0|0:0,0:0:0:0:
312,61,26631,5,8,0:0:0:0:
190,103,26819,1,8,0:3:0:0:
264,123,27006,1,0,0:0:0:0:
117,78,27194,1,8,0:0:0:0:
129,154,27381,5,8,0:3:0:0:
129,154,27569,1,8,0:3:0:0:
175,28,27756,1,0,0:0:0:0:
55,130,27944,38,0,P|66:193|25:267,1,125.999996154785,4|0,0:0|0:0,0:0:0:0:
23,268,28319,1,8,0:3:0:0:
121,88,28506,2,0,P|172:115|187:163,1,83.9999974365235,4|0,0:0|0:0,0:0:0:0:
194,207,28881,1,8,0:3:0:0:
97,15,29069,2,0,P|168:0|283:51,1,167.999994873047,4|0,0:0|0:0,0:0:0:0:
333,127,29631,37,8,0:0:0:0:
389,4,29819,1,8,0:0:0:0:
472,122,30006,1,0,0:0:0:0:
472,122,30100,1,8,0:0:0:0:
472,122,30194,1,8,0:0:0:0:
400,84,30381,1,8,0:1:0:0:
341,206,30569,37,8,0:3:0:0:
413,166,30756,1,8,0:3:0:0:
247,122,30944,6,0,P|193:100|140:25,1,125.999996154785,4|0,0:0|0:0,0:0:0:0:
137,22,31319,1,8,0:3:0:0:
235,206,31506,2,0,P|181:215|125:192,1,83.9999974365235,4|0,0:0|0:0,0:0:0:0:
90,171,31881,1,8,0:3:0:0:
293,267,32069,2,8,P|256:307|131:350,1,167.999994873047,4|0,0:0|0:0,0:0:0:0:
90,171,32631,5,8,0:0:0:0:
27,283,32819,1,0,0:0:0:0:
125,275,33006,5,0,0:0:0:0:
9,150,33194,1,10,0:0:0:0:
9,150,33381,1,8,0:3:0:0:
168,118,33569,1,8,0:3:0:0:
21,318,33756,38,0,L|5:205,1,83.9999974365235,6|0,0:0|0:0,0:0:0:0:
105,341,34131,1,2,0:0:0:0:
105,341,34319,2,0,L|127:249,1,83.9999974365235,10|2,0:3|0:0,0:0:0:0:
216,370,34694,5,10,0:0:0:0:
203,294,34881,1,2,0:0:0:0:
295,210,35069,1,2,0:0:0:0:
282,286,35256,1,2,0:0:0:0:
236,158,35444,5,10,0:3:0:0:
282,286,35631,1,10,0:0:0:0:
236,158,35819,5,2,0:0:0:0:
295,210,36006,1,10,0:3:0:0:
386,108,36194,37,10,0:0:0:0:
236,158,36381,1,10,0:3:0:0:
295,210,36569,1,2,0:0:0:0:
370,185,36756,1,2,0:0:0:0:
250,82,36944,5,10,0:3:0:0:
370,185,37131,1,10,0:0:0:0:
311,133,37319,5,2,0:0:0:0:
325,57,37506,1,10,0:3:0:0:
295,210,37694,5,10,0:0:0:0:
370,185,37881,1,10,0:3:0:0:
429,237,38069,1,10,0:0:0:0:
354,261,38256,1,10,0:0:0:0:
362,104,38444,6,0,P|376:145|363:196,1,84,8|0,0:3|0:0,0:0:0:0:
357,219,39194,6,0,P|352:243|354:263,1,42
381,285,39944,70,0,L|499:279,2,97.9999970092774,2|0|0,0:0|0:0|0:0,0:0:0:0:
436,358,41069,1,2,0:0:0:0:
436,358,41256,1,0,0:0:0:0:
306,335,41444,6,0,L|196:340,2,97.9999970092774,2|0|0,0:0|0:0|0:0,0:0:0:0:
252,256,42569,1,2,0:0:0:0:
252,256,42756,1,0,0:0:0:0:
311,135,42944,70,0,P|329:178|316:233,1,97.9999970092774,0|2,0:0|0:0,0:0:0:0:
196,90,43694,1,10,0:0:0:0:
178,217,43881,1,8,0:3:0:0:
178,217,44256,5,8,0:3:0:0:
105,81,44444,2,0,L|110:146,1,48.9999985046387,6|0,0:0|0:0,0:0:0:0:
178,217,44819,2,0,L|173:276,1,48.9999985046387,10|0,0:3|0:0,0:0:0:0:
97,361,45194,5,10,0:0:0:0:
258,280,45381,1,10,0:1:0:0:
108,179,45569,1,10,0:3:0:0:
408,381,45944,5,4,0:0:0:0:
488,179,46319,2,0,P|495:233|494:287,1,94.499997116089,2|0,0:0|0:0,0:0:0:0:
491,298,46694,1,10,0:0:0:0:
405,177,46881,2,0,P|392:214|383:230,1,41.9999987182618,2|0,0:0|0:0,0:0:0:0:
353,275,47256,1,10,0:3:0:0:
398,101,47444,5,2,0:0:0:0:
331,146,47631,2,0,P|276:166|203:171,1,112,10|0,0:3|0:0,0:0:0:0:
398,101,48194,1,10,0:0:0:0:
323,67,48381,2,0,P|266:42|194:-11,1,140,2|2,0:0|0:0,0:0:0:0:
425,34,48944,6,0,P|423:83|462:28,2,167.999994873047,10|0|8,0:3|0:0|0:0,0:0:0:0:
425,34,50069,1,2,0:0:0:0:
425,34,50256,1,8,0:3:0:0:
489,153,50444,38,0,P|433:166|330:126,1,167.999994873047,2|2,0:0|0:0,0:0:0:0:
79,62,51194,2,0,P|114:40|186:58,1,83.9999974365235,10|0,0:0|0:0,0:0:0:0:
226,84,51569,6,0,L|221:129,1,42,8|0,0:3|0:0,0:0:0:0:
145,252,51944,6,0,P|102:238|20:344,2,167.999994873047,6|0|8,0:0|0:0|0:0,0:0:0:0:
231,380,53069,1,2,0:0:0:0:
267,266,53256,1,10,0:3:0:0:
153,166,53444,6,0,P|196:180|278:74,2,167.999994873047,0|8|8,0:0|0:3|0:0,0:0:0:0:
45,43,54569,1,2,0:0:0:0:
58,142,54756,1,2,0:0:0:0:
219,31,54944,38,0,P|176:20|126:26,1,83.9999974365235,8|0,0:3|0:0,0:0:0:0:
167,124,55319,2,0,P|210:135|259:129,1,83.9999974365235,10|0,0:3|0:0,0:0:0:0:
343,7,55694,1,10,0:0:0:0:
432,132,56069,2,0,P|456:91|502:54,1,83.9999974365235,2|8,0:0|0:3,0:0:0:0:
365,175,56444,6,0,P|399:215|409:254,1,83.9999974365235
237,195,56819,1,10,0:3:0:0:
255,276,57006,1,2,0:0:0:0:
295,137,57194,1,10,0:0:0:0:
179,252,57381,1,2,0:0:0:0:
331,301,57569,2,0,P|344:342|341:388,1,83.9999974365235,2|8,0:0|0:3,0:0:0:0:
104,347,57944,5,4,0:0:0:0:
72,180,58319,1,2,0:0:0:0:
104,347,58694,1,10,0:0:0:0:
178,307,58881,2,0,P|229:296|338:357,1,167.999994873047,2|8,0:0|0:3,0:0:0:0:
109,264,59444,6,0,P|125:225|231:175,1,140,0|10,0:0|0:3,0:0:0:0:
104,347,60006,1,2,0:0:0:0:
36,304,60194,2,0,P|20:257|18:236,1,56,0|2,0:0|0:0,0:0:0:0:
49,182,60569,2,0,P|68:155|85:141,1,41.9999987182618,2|0,0:0|0:0,0:0:0:0:
150,134,60944,5,2,0:0:0:0:
150,134,61131,2,0,P|163:135|193:144,1,41.9999987182618,2|0,0:0|0:0,0:0:0:0:
398,74,72756,85,0,0:0:0:0:
398,74,72850,1,0,0:0:0:0:
398,74,72944,1,8,0:0:0:0:
408,150,73131,1,8,0:1:0:0:
418,226,73319,1,8,0:3:0:0:
398,74,73506,5,8,0:0:0:0:
398,74,73881,1,8,0:0:0:0:
408,150,74069,1,8,0:1:0:0:
114,74,74444,70,0,L|104:147,1,70,6|0,0:0|0:0,0:0:0:0:
104,143,75006,1,2,0:0:0:0:
18,168,75194,2,0,P|41:177|56:187,1,35,8|2,0:0|0:0,0:0:0:0:
64,198,75569,1,2,0:0:0:0:
195,184,75756,2,0,P|151:197|123:211,1,70,10|2,0:3|0:0,0:0:0:0:
129,207,76319,1,0,0:0:0:0:
142,278,76694,1,8,0:0:0:0:
129,207,77069,1,0,0:0:0:0:
154,348,77256,5,2,0:0:0:0:
232,346,77444,2,0,L|156:341,1,70,8|0,0:3|0:0,0:0:0:0:
162,341,78006,1,2,0:0:0:0:
66,307,78194,2,0,P|79:326|89:346,1,35,10|2,0:0|0:0,0:0:0:0:
89,354,78569,1,2,0:0:0:0:
170,214,78756,2,0,P|147:244|132:284,1,70,10|2,0:3|0:0,0:0:0:0:
134,273,79319,1,0,0:0:0:0:
69,243,79694,1,8,0:0:0:0:
69,243,79881,1,0,0:0:0:0:
134,273,80069,69,2,0:0:0:0:
3,212,80256,1,2,0:0:0:0:
3,212,80350,1,0,0:0:0:0:
3,212,80444,2,0,L|15:140,1,70,10|2,0:3|0:0,0:0:0:0:
14,142,81006,1,2,0:0:0:0:
90,56,81194,2,0,P|75:81|70:98,1,35,8|2,0:0|0:0,0:0:0:0:
77,108,81569,1,2,0:0:0:0:
209,65,81756,2,0,P|185:72|141:101,1,70,8|0,0:3|0:0,0:0:0:0:
146,95,82319,1,0,0:0:0:0:
160,166,82694,1,8,0:0:0:0:
146,95,83069,5,2,0:0:0:0:
173,236,83256,1,2,0:0:0:0:
96,242,83444,2,0,L|169:246,1,70,10|2,0:3|0:0,0:0:0:0:
165,245,84006,1,2,0:0:0:0:
237,206,84194,2,0,L|287:203,1,35,8|2,0:0|0:0,0:0:0:0:
292,203,84569,1,0,0:0:0:0:
382,252,84756,1,10,0:3:0:0:
382,252,85319,5,2,0:0:0:0:
406,235,85444,1,2,0:0:0:0:
403,206,85569,1,2,0:0:0:0:
376,195,85694,5,2,0:0:0:0:
304,295,85944,1,2,0:0:0:0:
427,308,86194,1,2,0:0:0:0:
427,308,86319,1,2,0:0:0:0:
394,369,86444,38,0,L|305:375,1,70,10|2,0:3|0:0,0:0:0:0:
324,373,87006,1,2,0:0:0:0:
211,330,87194,2,0,P|236:336|255:337,1,35,8|2,0:0|0:0,0:0:0:0:
265,333,87569,1,2,0:0:0:0:
334,232,87756,2,0,L|328:312,1,70,10|2,0:3|0:0,0:0:0:0:
328,301,88319,1,0,0:0:0:0:
400,281,88694,1,8,0:0:0:0:
400,281,88881,1,0,0:0:0:0:
328,301,89069,1,0,0:0:0:0:
471,260,89256,5,2,0:0:0:0:
473,179,89444,2,0,L|479:258,1,70,10|0,0:3|0:0,0:0:0:0:
478,248,90006,1,2,0:0:0:0:
370,221,90194,2,0,P|395:233|406:241,1,35,10|2,0:0|0:0,0:0:0:0:
411,254,90569,1,2,0:0:0:0:
314,176,90756,1,10,0:3:0:0:
431,132,90944,1,2,0:0:0:0:
311,164,91131,2,0,P|340:164|360:167,1,35,2|0,0:0|0:0,0:0:0:0:
346,45,91506,37,2,0:0:0:0:
351,55,91600,1,2,0:0:0:0:
351,66,91694,1,10,0:0:0:0:
289,102,91881,1,0,0:0:0:0:
234,54,92069,2,0,L|238:17,1,35,2|0,0:0|0:0,0:0:0:0:
185,115,92444,22,0,L|191:192,1,70,10|2,0:3|0:0,0:0:0:0:
190,184,93006,1,2,0:0:0:0:
249,228,93194,2,0,P|268:218|288:212,1,35,8|2,0:0|0:0,0:0:0:0:
179,262,93569,2,0,P|155:257|140:256,1,35,2|8,0:0|0:3,0:0:0:0:
142,271,93944,6,0,P|159:272|176:276,1,35,2|2,0:0|0:0,0:0:0:0:
176,276,94506,1,2,0:0:0:0:
227,324,94694,2,0,P|240:323|249:319,1,17.5,8|2,0:0|0:0,0:0:0:0:
296,276,95069,1,2,0:0:0:0:
296,276,95256,1,2,0:0:0:0:
407,371,95444,70,0,P|430:364|482:366,1,70,10|2,0:3|0:0,0:0:0:0:
475,364,96006,1,2,0:0:0:0:
391,297,96194,2,0,L|387:255,1,35,8|2,0:0|0:0,0:0:0:0:
440,212,96569,1,2,0:0:0:0:
394,142,96756,1,8,0:3:0:0:
290,228,97131,5,0,0:0:0:0:
290,228,97225,1,0,0:0:0:0:
290,228,97319,1,8,0:3:0:0:
394,142,97506,1,8,0:0:0:0:
239,30,97694,1,8,0:0:0:0:
320,160,97881,1,8,0:1:0:0:
242,116,98069,2,0,L|198:114,1,35,8|0,0:1|0:0,0:0:0:0:
29,116,98444,6,0,P|41:172|6:258,1,125.999996154785,4|0,0:0|0:0,0:0:0:0:
8,253,98819,1,8,0:0:0:0:
105,93,99006,2,0,P|136:132|150:180,1,83.9999974365235,12|0,0:3|0:0,0:0:0:0:
151,234,99381,1,8,0:0:0:0:
127,17,99569,2,0,P|203:16|294:63,1,167.999994873047,4|0,0:0|0:0,0:0:0:0:
384,177,100131,5,10,0:0:0:0:
434,43,100319,1,8,0:3:0:0:
315,126,100506,1,0,0:0:0:0:
499,142,100694,1,10,0:0:0:0:
360,57,100881,5,8,0:1:0:0:
360,57,101069,1,10,0:3:0:0:
448,229,101256,1,0,0:0:0:0:
206,230,101444,6,0,P|262:248|350:220,1,125.999996154785,6|0,0:0|0:0,0:0:0:0:
344,223,101819,1,8,0:0:0:0:
194,150,102006,2,0,P|232:123|260:76,1,83.9999974365235,14|0,0:3|0:0,0:0:0:0:
256,20,102381,1,8,0:0:0:0:
105,152,102569,2,0,P|108:89|55:-3,1,167.999994873047,6|0,0:0|0:0,0:0:0:0:
31,195,103131,37,10,0:0:0:0:
180,112,103319,1,8,0:0:0:0:
108,236,103506,1,8,0:3:0:0:
108,236,103600,1,8,0:0:0:0:
108,236,103694,1,10,0:0:0:0:
105,152,103881,1,8,0:1:0:0:
34,280,104069,5,10,0:1:0:0:
44,359,104256,1,8,0:1:0:0:
260,258,104444,6,0,P|196:309|144:307,1,125.999996154785,6|0,0:0|0:0,0:0:0:0:
128,298,104819,1,8,0:0:0:0:
268,178,105006,2,0,P|213:170|173:129,1,83.9999974365235,14|0,0:3|0:0,0:0:0:0:
148,87,105381,1,8,0:0:0:0:
328,133,105569,2,0,P|312:69|394:6,1,167.999994873047,6|0,0:0|0:0,0:0:0:0:
467,165,106131,5,8,0:0:0:0:
499,44,106319,1,10,0:3:0:0:
435,93,106506,37,0,0:0:0:0:
500,236,106694,1,10,0:0:0:0:
343,221,106881,1,8,0:1:0:0:
424,183,107069,1,8,0:3:0:0:
505,371,107244,6,0,L|409:378,1,83.9999974365235,4|0,0:0|0:0,0:0:0:0:
347,384,107618,1,8,0:3:0:0:
443,299,107806,2,0,L|357:292,1,83.9999974365235,10|10,0:0|0:3,0:0:0:0:
246,188,108181,5,10,0:3:0:0:
261,327,108368,1,10,0:1:0:0:
302,252,108556,1,10,0:3:0:0:
246,188,108743,1,10,0:3:0:0:
205,263,108931,5,10,0:1:0:0:
302,252,109118,1,10,0:3:0:0:
340,162,109306,1,10,0:3:0:0:
282,85,109493,1,10,0:1:0:0:
186,96,109681,1,10,0:3:0:0:
148,184,109868,1,10,0:3:0:0:
282,85,110056,37,14,0:0:0:0:
243,173,110243,1,10,0:3:0:0:
222,7,110431,5,10,0:3:0:0:
148,184,110618,1,8,0:1:0:0:
92,107,110806,1,10,0:3:0:0:
186,96,110993,1,8,0:3:0:0:
55,195,111181,5,14,0:0:0:0:
148,184,111368,1,10,0:3:0:0:
114,271,111556,1,8,0:1:0:0:
114,271,111649,1,8,0:1:0:0:
114,271,111743,1,10,0:1:0:0:
220,330,111931,6,0,L|309:334,1,83.9999974365235,2|8,0:0|0:3,0:0:0:0:
384,335,112493,1,0,0:0:0:0:
311,178,112681,5,10,0:0:0:0:
384,335,112868,1,8,0:0:0:0:
354,245,113056,6,0,L|347:271,1,20.9999993591309,8|8,0:3|0:3,0:0:0:0:
128,350,113431,6,0,P|185:317|278:377,2,167.999994873047,6|0|8,0:0|0:0|0:0,0:0:0:0:
5,189,114556,1,2,0:0:0:0:
19,303,114743,1,10,0:3:0:0:
149,79,114931,6,0,P|75:112|6:70,2,167.999994873047,0|8|8,0:0|0:3|0:0,0:0:0:0:
245,220,116056,1,2,0:0:0:0:
278,93,116243,1,2,0:0:0:0:
366,192,116431,6,0,P|387:253|364:368,1,167.999994873047,8|2,0:3|0:0,0:0:0:0:
371,353,116993,1,0,0:0:0:0:
504,272,117181,2,0,P|449:268|407:302,1,83.9999974365235,10|0,0:0|0:0,0:0:0:0:
371,353,117556,1,2,0:0:0:0:
257,211,117743,1,8,0:3:0:0:
199,290,117931,6,0,P|254:298|200:369,1,167.999994873047,0|10,0:0|0:3,0:0:0:0:
29,243,118681,1,10,0:0:0:0:
51,347,118868,1,2,0:0:0:0:
102,163,119056,2,0,P|184:144|297:164,1,167.999994873047,2|8,0:0|0:3,0:0:0:0:
483,242,119806,38,0,P|503:211|515:178,1,62.9999980773926,2|2,0:0|0:0,0:0:0:0:
496,108,120181,1,10,0:0:0:0:
406,231,120368,2,0,P|400:195|379:167,1,62.9999980773926,2|0,0:0|0:0,0:0:0:0:
363,149,120743,1,10,0:3:0:0:
422,310,120931,5,2,0:0:0:0:
345,273,121118,2,0,P|295:247|227:239,1,112,10|0,0:3|0:0,0:0:0:0:
422,310,121681,1,10,0:0:0:0:
343,353,121868,2,0,P|280:352|196:379,1,140,2|2,0:0|0:0,0:0:0:0:
479,369,122431,6,0,P|488:331|426:368,1,167.999994873047,10|0,0:3|0:0,0:0:0:0:
479,369,122993,1,8,0:3:0:0:
358,282,123181,2,0,P|345:331|349:377,1,83.9999974365235,8|0,0:0|0:0,0:0:0:0:
432,238,123556,1,10,0:1:0:0:
271,329,123743,1,8,0:0:0:0:
194,280,123931,6,0,P|191:234|185:189,1,83.9999974365235,2|8,0:0|0:3,0:0:0:0:
344,117,124306,1,10,0:0:0:0:
313,203,124493,1,8,0:3:0:0:
275,54,124681,1,10,0:0:0:0:
344,117,124868,1,8,0:1:0:0:
248,140,125056,38,0,L|197:136,1,42,8|0,0:1|0:0,0:0:0:0:
61,122,125431,6,0,P|108:67|227:81,1,167.999994873047,6|0,0:0|0:0,0:0:0:0:
26,365,126181,1,12,0:0:0:0:
164,131,126556,1,2,0:0:0:0:
182,224,126743,1,10,0:3:0:0:
298,47,126931,6,0,P|345:102|464:88,2,167.999994873047,0|8|8,0:0|0:3|0:0,0:0:0:0:
321,228,128056,1,2,0:0:0:0:
359,135,128243,1,2,0:0:0:0:
421,216,128431,6,0,P|426:260|410:318,1,83.9999974365235,8|0,0:3|0:0,0:0:0:0:
318,310,128806,2,0,P|313:266|329:208,1,83.9999974365235,10|0,0:3|0:0,0:0:0:0:
462,122,129181,1,10,0:0:0:0:
298,47,129556,2,0,P|346:39|390:6,1,83.9999974365235,2|8,0:0|0:3,0:0:0:0:
207,105,129931,38,0,P|255:113|299:146,1,83.9999974365235
99,103,130306,1,10,0:3:0:0:
73,19,130493,1,2,0:0:0:0:
39,169,130681,1,10,0:0:0:0:
16,84,130868,1,2,0:0:0:0:
128,189,131056,2,0,P|127:235|120:280,1,83.9999974365235,2|8,0:0|0:3,0:0:0:0:
255,119,131431,5,8,0:3:0:0:
264,346,131806,1,2,0:0:0:0:
264,346,131993,1,2,0:0:0:0:
368,251,132181,1,10,0:0:0:0:
189,317,132368,2,0,P|114:314|16:367,1,167.999994873047,2|10,0:0|0:3,0:0:0:0:
248,264,132931,6,0,P|223:214|109:148,1,167.999994873047,0|10,0:0|0:3,0:0:0:0:
264,346,133493,1,2,0:0:0:0:
323,290,133681,2,0,P|342:259|343:204,1,83.9999974365235,8|2,0:0|0:0,0:0:0:0:
218,172,134056,2,0,P|256:199|278:260,1,83.9999974365235,2|2,0:0|0:0,0:0:0:0:
293,48,134431,5,10,0:0:0:0:
313,137,134618,1,2,0:0:0:0:
392,86,134806,1,8,0:3:0:0:
392,86,134899,1,0,0:0:0:0:
392,86,134993,1,0,0:0:0:0:
182,29,135181,37,12,0:0:0:0:
124,103,135368,1,0,0:0:0:0:
218,119,135556,1,8,0:3:0:0:
90,17,135743,1,8,0:0:0:0:
8,129,135931,5,0,0:0:0:0:
193,236,136118,1,8,0:3:0:0:
193,236,136212,1,0,0:0:0:0:
193,236,136306,1,12,0:0:0:0:
218,119,136493,1,0,0:0:0:0:
134,65,136681,5,8,0:0:0:0:
95,229,136868,1,8,0:1:0:0:
95,229,137056,1,8,0:1:0:0:
260,278,137243,1,2,0:0:0:0:
52,367,137431,6,0,P|110:334|196:323,1,154.000004699707,6|2,0:0|0:0,0:0:0:0:
259,366,137993,1,2,0:0:0:0:
359,236,138181,2,0,P|347:269|305:313,1,77.0000023498536,12|2,0:0|0:0,0:0:0:0:
239,159,138556,1,2,0:0:0:0:
255,245,138743,1,2,0:0:0:0:
378,92,138931,37,10,0:3:0:0:
417,193,139118,1,2,0:0:0:0:
390,85,139306,1,10,0:3:0:0:
405,198,139493,1,2,0:0:0:0:
361,18,139681,2,0,P|273:20|181:51,1,154.000004699707,8|0,0:0|0:0,0:0:0:0:
137,66,140243,1,2,0:0:0:0:
224,179,140431,5,10,0:3:0:0:
8,102,140618,2,0,P|48:101|114:199,1,154.000004699707,2|0,0:0|0:0,0:0:0:0:
227,167,141181,1,10,0:0:0:0:
94,286,141368,2,0,P|149:261|199:262,1,77.0000023498536,2|0,0:0|0:0,0:0:0:0:
324,130,141743,2,0,P|325:168|312:215,1,77.0000023498536,2|8,0:0|0:3,0:0:0:0:
183,273,142118,2,0,P|184:317|199:360,1,77.0000023498536,2|8,0:0|0:3,0:0:0:0:
203,365,142493,1,0,0:0:0:0:
404,284,142681,5,8,0:0:0:0:
404,284,143056,1,0,0:0:0:0:
396,354,143243,1,2,0:0:0:0:
480,272,143431,6,0,P|435:262|392:235,1,77.0000023498536,10|0,0:3|0:0,0:0:0:0:
319,90,143806,1,2,0:0:0:0:
405,106,143993,1,2,0:0:0:0:
245,213,144181,2,0,P|217:146|236:50,1,154.000004699707,10|0,0:0|0:0,0:0:0:0:
291,6,144743,1,2,0:0:0:0:
300,126,144931,38,0,P|207:131|132:80,1,154.000004699707,10|10,0:3|0:3,0:0:0:0:
116,28,145493,1,2,0:0:0:0:
52,183,145681,1,10,0:0:0:0:
10,112,145868,2,0,P|22:158|26:210,1,77.0000023498536,2|8,0:0|0:3,0:0:0:0:
5,282,146243,1,10,0:3:0:0:
180,176,146431,5,14,0:3:0:0:
205,276,146618,1,2,0:0:0:0:
191,173,146806,1,2,0:0:0:0:
195,276,146993,1,10,0:3:0:0:
265,143,147181,2,0,P|273:98|296:52,1,77.0000023498536,14|0,0:0|0:0,0:0:0:0:
386,248,147556,1,14,0:1:0:0:
438,169,147743,2,0,P|455:210|460:275,1,77.0000023498536,2|8,0:0|0:3,0:0:0:0:
326,294,148118,2,0,P|317:335|314:375,2,77.0000023498536,2|0|8,0:0|0:0|0:3,0:0:0:0:
384,103,148681,6,0,P|350:103|287:110,1,77.0000023498536,12|8,0:1|0:1,0:0:0:0:
236,179,149056,1,8,0:1:0:0:
238,189,149243,1,8,0:3:0:0:
44,41,149431,6,0,P|108:37|82:108,1,154.000004699707,6|2,0:0|0:0,0:0:0:0:
26,127,149993,1,2,0:0:0:0:
272,35,150181,2,0,P|224:30|184:50,1,77.0000023498536,12|2,0:0|0:0,0:0:0:0:
159,176,150556,1,2,0:0:0:0:
159,176,150743,1,2,0:0:0:0:
222,127,150931,37,10,0:3:0:0:
203,237,151118,1,2,0:0:0:0:
212,121,151306,1,10,0:3:0:0:
212,243,151493,1,2,0:0:0:0:
379,202,151681,2,0,P|334:184|294:181,1,77.0000023498536,8|0,0:0|0:0,0:0:0:0:
198,326,152056,2,0,P|235:320|271:304,1,77.0000023498536,8|10,0:1|0:3,0:0:0:0:
120,255,152431,5,10,0:3:0:0:
83,366,152618,2,0,P|80:333|52:278,1,77.0000023498536,2|8,0:0|0:3,0:0:0:0:
0,241,152993,1,2,0:0:0:0:
80,109,153181,2,0,P|47:140|12:179,1,77.0000023498536,8|2,0:0|0:0,0:0:0:0:
171,96,153556,2,0,P|177:144|189:193,1,77.0000023498536,2|0,0:0|0:0,0:0:0:0:
236,41,153931,2,0,P|280:56|401:64,2,154.000004699707,10|10|8,0:3|0:3|0:0,0:0:0:0:
486,89,155056,5,8,0:3:0:0:
467,19,155243,1,2,0:0:0:0:
442,152,155431,6,0,P|467:221|493:315,1,154.000004699707,14|8,0:3|0:3,0:0:0:0:
484,322,155993,1,0,0:0:0:0:
380,93,156181,1,10,0:0:0:0:
372,169,156368,2,0,P|355:260|339:311,1,125.999996154785,10|2,0:3|0:0,0:0:0:0:
380,93,156931,1,8,0:3:0:0:
217,213,157306,1,10,0:3:0:0:
177,114,157493,38,0,P|188:151|197:218,1,97.9999970092774,2|2,0:0|0:0,0:0:0:0:
90,331,158149,1,2,0:0:0:0:
90,331,158337,54,0,P|123:316|151:292,1,73.4999977569581,4|0,0:0|0:0,0:0:0:0:
181,218,161431,5,0,0:0:0:0:
411,197,171181,5,8,0:0:0:0:
426,341,171368,1,8,0:1:0:0:
421,273,171743,5,8,0:0:0:0:
421,273,171837,1,8,0:0:0:0:
421,273,171931,1,8,0:0:0:0:
404,127,172306,1,8,0:1:0:0:
426,341,172681,5,8,0:0:0:0:
434,200,172868,2,0,L|417:268,1,70
355,286,173431,6,0,P|370:240|261:151,2,181.999991668702,6|0|8,0:0|0:0|0:0,0:0:0:0:
129,356,174556,1,2,0:0:0:0:
129,356,174743,1,8,0:3:0:0:
186,295,174931,37,10,0:3:0:0:
300,369,175118,2,0,P|256:381|182:371,1,90.9999958343508,8|14,0:1|0:3,0:0:0:0:
129,356,175493,1,0,0:0:0:0:
247,203,175681,1,10,0:0:0:0:
247,203,175868,2,0,L|252:260,1,45.4999979171754,0|8,0:0|0:1,0:0:0:0:
109,246,176056,5,0,0:0:0:0:
85,197,176181,1,8,0:3:0:0:
96,145,176306,1,8,0:3:0:0:
136,110,176431,6,0,P|224:89|306:147,1,181.999991668702,12|0,0:3|0:0,0:0:0:0:
491,384,177181,1,4,0:0:0:0:
352,212,177556,1,2,0:0:0:0:
352,212,177743,1,10,0:3:0:0:
185,195,177931,6,0,P|97:173|15:231,2,181.999991668702,8|0|8,0:3|0:0|0:0,0:0:0:0:
351,383,179056,1,2,0:0:0:0:
351,383,179243,1,10,0:3:0:0:
420,323,179431,38,0,P|425:235|400:136,1,181.999991668702,0|2,0:0|0:0,0:0:0:0:
207,26,180181,2,0,P|261:43|323:41,1,90.9999958343508,10|0,0:0|0:0,0:0:0:0:
153,105,180556,2,0,P|107:108|64:123,1,90.9999958343508,2|8,0:0|0:3,0:0:0:0:
253,116,180931,5,0,0:0:0:0:
253,116,181306,2,0,P|261:161|258:216,1,90.9999958343508,2|2,0:0|0:0,0:0:0:0:
166,288,181681,1,10,0:0:0:0:
166,288,181868,1,2,0:0:0:0:
30,343,182056,2,0,B|143:318|86:389|246:355,1,181.999991668702,2|4,0:0|0:0,0:0:0:0:
211,352,182806,6,0,P|236:331|303:341,1,77.0000023498536,0|8,0:0|0:3,0:0:0:0:
450,374,183181,1,12,0:0:0:0:
454,363,183556,1,8,0:3:0:0:
351,302,183743,1,8,0:0:0:0:
430,240,183931,6,0,P|472:244|514:258,1,77.0000023498536,6|8,0:0|0:3,0:0:0:0:
341,196,184306,1,8,0:1:0:0:
508,121,184681,37,10,0:0:0:0:
508,121,184868,1,8,0:3:0:0:
334,41,185056,1,8,0:1:0:0:
44,204,185431,6,0,B|23:98|92:142|58:-4,1,181.999991668702,6|0,0:0|0:0,0:0:0:0:
256,345,186181,1,4,0:0:0:0:
263,86,186556,1,2,0:0:0:0:
289,201,186743,1,10,0:3:0:0:
447,27,186931,6,0,B|420:142|489:98|468:204,2,181.999991668702,0|8|8,0:0|0:3|0:0,0:0:0:0:
289,201,188056,1,2,0:0:0:0:
335,90,188243,1,8,0:3:0:0:
392,246,188431,6,0,P|356:252|304:285,1,90.9999958343508,8|0,0:3|0:0,0:0:0:0:
174,312,188806,2,0,P|210:318|262:351,1,90.9999958343508,2|0,0:0|0:0,0:0:0:0:
168,222,189181,1,10,0:0:0:0:
13,295,189556,2,0,P|9:344|21:389,1,90.9999958343508,2|8,0:0|0:3,0:0:0:0:
174,312,189931,38,0,P|178:263|166:218,1,90.9999958343508
74,79,190306,1,10,0:3:0:0:
74,79,190681,1,10,0:0:0:0:
166,138,190868,1,2,0:0:0:0:
242,61,191056,2,0,P|333:54|426:77,1,181.999991668702,2|8,0:0|0:3,0:0:0:0:
155,300,191806,6,0,P|99:291|30:318,1,105,2|0,0:0|0:0,0:0:0:0:
30,317,192181,1,10,0:0:0:0:
192,230,192368,2,0,P|168:208|137:198,1,48.9999985046387,2|0,0:0|0:0,0:0:0:0:
86,181,192743,1,10,0:3:0:0:
239,299,192931,5,2,0:0:0:0:
275,227,193118,2,0,P|285:180|275:92,1,125.999996154785,10|0,0:3|0:0,0:0:0:0:
239,299,193681,1,10,0:0:0:0:
321,299,193868,2,0,P|380:281|455:216,1,154.000004699707,2|0,0:0|0:0,0:0:0:0:
213,331,194431,6,0,P|212:267|242:340,2,210.000008010865,10|0|8,0:3|0:0|0:0,0:0:0:0:
213,331,195556,1,2,0:0:0:0:
213,331,195743,1,8,0:3:0:0:
63,243,195931,37,2,0:0:0:0:
116,345,196118,1,8,0:0:0:0:
155,273,196306,2,0,P|156:223|134:157,1,90.9999958343508,10|0,0:3|0:0,0:0:0:0:
38,33,196681,5,10,0:0:0:0:
232,97,196868,1,8,0:1:0:0:
134,44,197056,38,0,L|138:100,1,52.5,8|0,0:1|0:0,0:0:0:0:
42,202,197431,54,0,B|25:155|79:132|130:166|127:241|55:281,1,181.999991668702,6|0,0:0|0:0,0:0:0:0:
276,0,198181,1,4,0:0:0:0:
354,212,198556,1,2,0:0:0:0:
392,131,198743,1,10,0:3:0:0:
497,235,198931,6,0,B|514:282|460:305|409:271|412:196|484:156,2,181.999991668702,0|8|8,0:0|0:3|0:0,0:0:0:0:
276,211,200056,1,2,0:0:0:0:
309,292,200243,1,2,0:0:0:0:
193,239,200431,38,0,P|147:209|90:204,1,90.9999958343508,8|0,0:3|0:0,0:0:0:0:
276,211,200806,2,0,P|322:181|379:176,1,90.9999958343508,2|0,0:0|0:0,0:0:0:0:
174,132,201181,1,10,0:0:0:0:
334,3,201556,2,0,P|325:48|332:117,1,90.9999958343508,2|8,0:0|0:3,0:0:0:0:
482,122,201931,6,0,P|489:166|482:238,1,90.9999958343508
350,295,202306,1,10,0:3:0:0:
336,214,202493,1,2,0:0:0:0:
286,346,202681,1,10,0:0:0:0:
336,214,202868,1,2,0:0:0:0:
424,322,203056,1,2,0:0:0:0:
255,77,203431,5,4,0:0:0:0:
197,240,203806,1,2,0:0:0:0:
255,77,204181,1,10,0:0:0:0:
157,96,204368,2,0,P|92:94|0:12,1,181.999991668702,2|10,0:0|0:3,0:0:0:0:
220,161,204931,6,0,P|172:205|49:212,1,181.999991668702,0|10,0:0|0:3,0:0:0:0:
255,77,205493,1,2,0:0:0:0:
309,150,205681,2,0,P|338:199|337:261,1,90.9999958343508,8|2,0:0|0:0,0:0:0:0:
428,102,206056,2,0,P|391:76|347:68,1,90.9999958343508,2|10,0:0|0:3,0:0:0:0:
471,199,206431,37,14,0:0:0:0:
396,363,206618,2,0,B|377:325|377:325|383:277,1,90.9999958343508,2|8,0:0|0:3,0:0:0:0:
462,196,206993,1,2,0:0:0:0:
301,94,207181,2,0,L|432:102,1,90.9999958343508,14|0,0:0|0:0,0:0:0:0:
454,193,207556,1,8,0:3:0:0:
286,262,207743,1,8,0:0:0:0:
251,343,207931,6,0,L|243:229,1,90.9999958343508,2|0,0:0|0:0,0:0:0:0:
155,219,208212,1,2,0:0:0:0:
143,224,208306,2,0,L|144:327,1,90.9999958343508,14|8,0:0|0:1,0:0:0:0:
221,104,208681,1,10,0:1:0:0:
309,289,208868,1,10,0:3:0:0:
410,103,209056,2,0,B|384:123|384:123|410:241,1,136.499993751526,10|0,0:1|0:0,0:0:0:0:
473,304,209431,6,0,B|429:290|429:290|359:310,1,90.9999958343508,6|0,0:0|0:0,0:0:0:0:
228,349,209806,1,0,0:0:0:0:
230,362,209899,1,0,0:0:0:0:
232,375,209993,1,0,0:0:0:0:
329,162,210181,2,0,B|341:206|341:206|324:254,1,90.9999958343508,14|2,0:0|0:0,0:0:0:0:
183,139,210556,1,2,0:0:0:0:
162,250,210743,1,10,0:3:0:0:
83,176,210931,5,10,0:3:0:0:
249,246,211118,2,0,B|205:235|205:235|162:249,1,90.9999958343508,8|0,0:0|0:0,0:0:0:0:
285,120,211493,1,2,0:0:0:0:
291,92,211587,1,2,0:0:0:0:
297,64,211681,1,14,0:0:0:0:
345,239,211868,2,0,B|382:203|382:203|519:239,1,181.999991668702,2|8,0:0|0:3,0:0:0:0:
454,382,212431,37,6,0:0:0:0:
310,331,212618,1,2,0:0:0:0:
312,345,212712,1,2,0:0:0:0:
314,359,212806,1,2,0:0:0:0:
419,299,212993,1,10,0:3:0:0:
277,182,213181,1,10,0:0:0:0:
374,226,213368,1,2,0:0:0:0:
322,80,213556,2,0,L|437:65,1,90.9999958343508,10|0,0:0|0:0,0:0:0:0:
240,5,213931,5,6,0:0:0:0:
197,101,214118,2,0,L|202:160,1,45.4999979171754,2|0,0:0|0:0,0:0:0:0:
322,188,214306,2,0,L|316:288,1,90.9999958343508,2|10,0:0|0:3,0:0:0:0:
170,364,214681,1,10,0:0:0:0:
213,232,214868,2,0,L|219:284,1,45.4999979171754,2|0,0:0|0:0,0:0:0:0:
375,363,215056,2,0,B|332:348|332:348|282:362,1,90.9999958343508,10|10,0:1|0:1,0:0:0:0:
170,364,215431,5,6,0:0:0:0:
36,289,215618,1,2,0:0:0:0:
33,275,215712,1,2,0:0:0:0:
30,261,215806,1,2,0:0:0:0:
62,374,215993,1,10,0:3:0:0:
253,267,216181,1,12,0:0:0:0:
167,223,216368,2,0,B|153:265|153:265|168:316,2,90.9999958343508,2|2|10,0:0|0:0|0:3,0:0:0:0:
255,111,216931,5,12,0:3:0:0:
345,223,217118,1,8,0:0:0:0:
345,223,217212,1,0,0:0:0:0:
345,223,217306,2,0,B|359:265|359:265|344:316,1,90.9999958343508,0|10,0:0|0:3,0:0:0:0:
395,125,217681,1,14,0:0:0:0:
464,266,217868,1,8,0:0:0:0:
497,118,218056,2,0,L|491:197,2,60.6666638895672,2|2|2,0:0|0:0|0:0,0:0:0:0:
498,31,218431,38,0,B|454:45|454:45|374:26,1,90.9999958343508,6|8,0:0|0:0,0:0:0:0:
311,102,218806,2,0,L|303:39,2,60.6666638895672
357,245,219181,2,0,B|379:285|379:285|394:141,1,181.999991668702,14|8,0:0|0:0,0:0:0:0:
89,273,219931,5,14,0:0:0:0:
136,321,220056,1,10,0:1:0:0:
201,310,220181,1,10,0:1:0:0:
152,223,220306,5,10,0:1:0:0:
153,239,220431,1,10,0:1:0:0:
158,254,220556,1,10,0:1:0:0:
226,228,220681,6,0,B|266:250|266:250|318:232,1,90.9999958343508,14|0,0:0|0:0,0:0:0:0:
429,202,221056,2,0,L|494:209,2,60.6666638895672,10|10|10,0:1|0:1|0:1,0:0:0:0:
290,59,221431,38,0,B|327:85|327:85|417:73,1,136.499993751526,14|0,0:1|0:0,0:0:0:0:
414,62,221806,54,0,L|410:114,1,42,10|0,0:3|0:0,0:0:0:0:
466,194,222181,38,0,P|410:175|410:285,1,178.500003404617,14|0,0:0|0:0,0:0:0:0:
397,280,222556,1,2,0:0:0:0:
293,130,222743,1,10,0:0:0:0:
186,217,222931,6,0,B|152:190|152:190|52:203,1,136.499993751526,10|0,0:3|0:0,0:0:0:0:
44,207,223306,38,0,L|49:252,1,42,10|0,0:3|0:0,0:0:0:0:
107,322,223681,54,0,B|141:295|141:295|241:308,1,136.499993751526,10|0,0:0|0:0,0:0:0:0:
251,311,224056,6,0,L|246:356,1,42,10|0,0:3|0:0,0:0:0:0:
334,281,224431,22,0,L|343:378,1,90.9999958343508,14|0,0:3|0:0,0:0:0:0:
498,250,224806,2,0,L|490:344,1,90.9999958343508,2|8,0:0|0:3,0:0:0:0:
339,96,225181,2,0,B|369:130|369:130|505:113,1,181.999991668702,14|10,0:0|0:3,0:0:0:0:
416,201,225743,1,8,0:1:0:0:
256,39,225931,6,0,B|268:87|268:87|253:133,1,90.9999958343508,14|8,0:3|0:1,0:0:0:0:
121,98,226306,2,0,L|208:88,2,60.6666638895672,2|2|2,0:0|0:0|0:0,0:0:0:0:
18,19,226681,2,0,B|49:54|49:54|31:201,1,181.999991668702,14|10,0:0|0:1,0:0:0:0:
119,108,227243,1,8,0:1:0:0:
37,282,227431,6,0,P|144:266|196:329,1,181.999991668702,6|0,0:0|0:0,0:0:0:0:
230,384,227993,1,8,0:3:0:0:
442,195,228181,6,0,P|370:216|327:279,1,140,14|0,0:0|0:0,0:0:0:0:
302,339,228743,1,8,0:3:0:0:
168,105,228931,38,0,P|158:152|131:198,1,83.9999974365235,10|8,0:3|0:3,0:0:0:0:
489,19,229681,70,0,P|474:20|432:29,1,56,2|6,0:0|0:0,0:0:0:0:
