osu file format v14

[General]
AudioFilename: audio.mp3
AudioLeadIn: 0
PreviewTime: 151172
Countdown: 0
SampleSet: Soft
StackLeniency: 0.5
Mode: 0
LetterboxInBreaks: 0
WidescreenStoryboard: 0

[Editor]
DistanceSpacing: 1.1
BeatDivisor: 4
GridSize: 16
TimelineZoom: 1.5

[Metadata]
Title:Matasaburo
TitleUnicode:又三郎
Artist:Yorushika
ArtistUnicode:ヨルシカ
Creator:alevi
Version:Cerulean
Source:
Tags:matasaburou jrock j-rock japanese rock pop jpop j-pop female vocals vocalist suis スイ n-buna nbuna ナブナ rosiie [_lost_] conner c_o_n_n_e_r Sarawatlism
BeatmapID:3886654
BeatmapSetID:1887387

[Difficulty]
HPDrainRate:6
CircleSize:4.1
OverallDifficulty:9
ApproachRate:9.4
SliderMultiplier:1.9
SliderTickRate:1

[Events]
//Background and Video events
0,0,"BG2.jpg",0,0
//Break Periods
//Storyboard Layer 0 (Background)
//Storyboard Layer 1 (Fail)
//Storyboard Layer 2 (Pass)
//Storyboard Layer 3 (Foreground)
//Storyboard Layer 4 (Overlay)
//Storyboard Sound Samples

[TimingPoints]
-3628,300,4,2,1,50,1,0
-28,-100,4,2,1,80,0,0
272,-100,4,2,1,80,0,0
9422,-76.9230769230769,4,2,1,80,0,0
9872,-100,4,2,1,80,0,0
10772,-76.9230769230769,4,2,1,80,0,0
11072,-100,4,2,1,80,0,0
20372,-100,4,2,1,65,0,0
20672,-125,4,2,1,65,0,0
37172,-111.111111111111,4,2,1,65,0,0
39572,-111.111111111111,4,2,1,70,0,0
53972,-249.999999999999,4,2,1,70,0,0
54272,-83.3333333333333,4,2,1,70,0,0
54872,-100,4,2,1,70,0,0
57422,-100,4,2,1,60,0,0
57872,-100,4,2,1,75,0,0
58772,-83.3333333333333,4,2,1,85,0,1
74372,-250,4,2,1,85,0,1
75572,-90.9090909090909,4,2,1,85,0,0
83822,-76.9230769230769,4,2,1,85,0,0
84272,-90.9090909090909,4,2,1,85,0,0
85172,-76.9230769230769,4,2,1,85,0,0
85472,-100,4,2,1,85,0,0
94772,-125,4,2,1,60,0,0
95222,-166.666666666667,4,2,1,50,0,0
95672,-250.000000000001,4,2,1,40,0,0
96122,-333.333333333336,4,2,1,30,0,0
96572,-500.000000000005,4,2,1,20,0,0
97172,-125,4,2,1,60,0,0
97622,-166.666666666667,4,2,1,50,0,0
98072,-250.000000000001,4,2,1,40,0,0
98522,-333.333333333336,4,2,1,30,0,0
98972,-333.333333333336,4,2,1,20,0,0
99122,-500.000000000005,4,2,1,20,0,0
99572,-125,4,2,1,60,0,0
100022,-250,4,2,1,50,0,0
100472,-333.333333333333,4,2,1,40,0,0
100922,-500,4,2,1,30,0,0
101372,-166.666666666667,4,2,1,20,0,0
101972,-125,4,2,1,60,0,0
102422,-166.666666666667,4,2,1,50,0,0
102872,-250.000000000001,4,2,1,40,0,0
103322,-333.333333333336,4,2,1,30,0,0
103772,-500.000000000005,4,2,1,20,0,0
104372,-166.666666666667,4,2,1,60,0,0
104672,-166.666666666667,4,2,1,60,0,0
105122,-166.666666666667,4,2,1,60,0,0
108572,-200,4,2,1,60,0,0
110372,-142.857142857143,4,2,1,60,0,0
111572,-125,4,2,1,60,0,0
113972,-111.111111111111,4,2,1,70,0,0
128372,-99.9999999999999,4,2,1,70,0,0
132122,-90.9090909090909,4,2,1,75,0,0
133172,-83.3333333333333,4,2,1,85,0,1
133396,-83.3333333333333,4,2,1,85,0,1
133472,-83.3333333333333,4,2,1,85,0,1
151172,-90.9090909090909,4,2,1,85,0,0
151472,-166.666666666667,4,2,1,70,0,0
151547,-166.666666666667,4,2,1,5,0,0
152072,-166.666666666667,4,2,1,70,0,0
152147,-166.666666666667,4,2,1,5,0,0
152372,-90.9090909090909,4,2,1,85,0,0
173972,-200,4,2,1,85,0,1
174047,-200,4,2,1,85,0,0
174197,-200,4,2,1,5,0,0
174272,-71.4285714285714,4,2,1,85,0,1
174347,-71.4285714285714,4,2,1,85,0,0
174497,-71.4285714285714,4,2,1,5,0,0
174572,-71.4285714285714,4,2,1,85,0,1
174647,-71.4285714285714,4,2,1,85,0,0
174797,-71.4285714285714,4,2,1,5,0,0
174872,-62.5,4,2,1,85,0,1
174947,-62.5,4,2,1,85,0,0
175097,-62.5,4,2,1,5,0,0
175172,-62.5,4,2,1,85,0,0
175322,-76.9230769230769,4,2,1,75,0,0
176372,-76.9230769230769,4,2,1,85,0,1
206372,-76.9230769230769,4,2,1,85,0,0
207572,-90.9090909090909,4,2,1,85,0,0
215822,-76.9230769230769,4,2,1,85,0,0
216272,-90.9090909090909,4,2,1,85,0,0
224672,-90.9090909090909,4,2,1,70,0,0
224747,-90.9090909090909,4,2,1,5,0,0
225272,-90.9090909090909,4,2,1,70,0,0
225347,-90.9090909090909,4,2,1,5,0,0
225872,-90.9090909090909,4,2,1,70,0,0
225947,-90.9090909090909,4,2,1,5,0,0
226472,-90.9090909090909,4,2,1,70,0,0
226547,-90.9090909090909,4,2,1,5,0,0

[Colours]
Combo1 : 183,177,248
Combo2 : 105,173,241
Combo3 : 145,217,217

[HitObjects]
287,262,272,5,2,0:0:0:0:
287,262,872,1,2,0:0:0:0:
468,373,1172,6,0,P|402:343|317:325,1,142.5,6|0,1:2|0:0,0:0:0:0:
334,326,1472,1,10,0:0:0:0:
203,208,1622,1,2,0:0:0:0:
371,136,1772,1,2,1:2:0:0:
178,283,1922,2,0,P|150:293|121:306,1,47.5,2|0,1:2|0:0,0:0:0:0:
371,136,2072,2,0,P|355:93|348:40,1,95,10|2,0:0|0:0,0:0:0:0:
199,0,2372,5,2,1:2:0:0:
131,34,2522,1,2,0:0:0:0:
208,8,2672,1,10,0:0:0:0:
89,127,2822,2,0,P|83:104|72:76,1,47.5,2|0,0:0|0:0,0:0:0:0:
240,120,2972,2,0,P|223:165|209:231,1,95,0|2,1:2|1:2,0:0:0:0:
4,358,3272,2,0,P|52:337|109:327,1,95,10|2,0:0|0:0,0:0:0:0:
362,249,3572,5,2,1:2:0:0:
250,361,3722,1,2,0:0:0:0:
187,239,3872,1,10,0:0:0:0:
263,289,4022,1,2,0:0:0:0:
385,154,4172,1,2,1:2:0:0:
187,239,4322,2,0,P|180:212|168:183,1,47.5,2|0,1:2|0:0,0:0:0:0:
404,77,4472,2,0,P|442:96|501:110,1,95,10|2,0:0|0:0,0:0:0:0:
248,153,4772,6,0,P|266:101|277:54,1,95,2|2,1:2|0:0,0:0:0:0:
84,0,5072,2,0,P|94:21|101:48,1,47.5,10|0,0:0|0:0,0:0:0:0:
170,74,5222,1,2,0:0:0:0:
26,195,5372,1,0,1:2:0:0:
16,204,5522,1,2,1:2:0:0:
201,275,5672,1,10,0:0:0:0:
137,182,5822,1,2,1:2:0:0:
137,182,5897,1,0,1:2:0:0:
137,182,5972,5,6,1:2:0:0:
210,159,6122,1,2,0:0:0:0:
259,222,6272,1,10,0:0:0:0:
0,358,6422,5,2,0:0:0:0:
73,381,6572,1,0,1:2:0:0:
122,318,6722,1,2,1:2:0:0:
306,384,6872,5,10,0:0:0:0:
372,189,7022,2,0,B|339:219|297:218|297:218|266:283|328:304,1,190,10|2,0:3|0:0,0:0:0:0:
72,135,7472,1,10,0:0:0:0:
141,174,7622,1,2,0:0:0:0:
270,96,7772,1,2,1:2:0:0:
107,242,7922,1,2,1:2:0:0:
270,96,8072,2,0,P|285:53|294:5,1,95,8|0,0:0|0:0,0:0:0:0:
512,306,8372,5,2,1:2:0:0:
371,215,8522,1,8,0:0:0:0:
295,285,8672,5,2,1:2:0:0:
381,227,8822,1,2,1:2:0:0:
270,96,8972,5,10,0:0:0:0:
312,162,9122,1,2,1:2:0:0:
382,136,9272,1,2,1:2:0:0:
181,384,9422,6,0,B|176:331|140:304|113:324|80:296|74:242,1,185.249991519928,10|0,0:0|0:0,0:0:0:0:
40,178,9722,2,0,P|11:194|4:230,1,61.7499971733095,2|0,1:2|0:0,0:0:0:0:
239,185,9872,2,0,P|259:140|270:93,1,95,10|2,0:0|0:0,0:0:0:0:
340,55,10172,5,2,1:2:0:0:
165,207,10322,1,10,0:0:0:0:
74,77,10472,1,2,1:2:0:0:
297,257,10622,1,10,0:0:0:0:
297,257,10697,1,8,0:0:0:0:
297,257,10772,6,0,B|332:280|367:277|367:277|409:339|344:370,1,185.249991519928,6|0,1:2|0:0,0:0:0:0:
346,368,11072,1,10,0:0:0:0:
239,185,11222,1,2,0:0:0:0:
281,121,11372,1,2,1:2:0:0:
217,82,11522,2,0,P|196:91|172:98,1,47.5,2|0,1:2|0:0,0:0:0:0:
420,0,11672,2,0,P|402:40|385:100,1,95,10|2,0:0|0:0,0:0:0:0:
206,260,11972,5,2,1:2:0:0:
137,225,12122,1,2,0:0:0:0:
211,271,12272,1,10,0:0:0:0:
78,373,12422,2,0,P|71:349|60:323,1,47.5,2|0,0:0|0:0,0:0:0:0:
239,185,12572,2,0,P|281:205|330:216,1,95,0|2,1:2|1:2,0:0:0:0:
37,84,12872,2,0,P|55:124|72:184,1,95,10|2,0:0|0:0,0:0:0:0:
264,384,13172,5,2,1:2:0:0:
345,289,13322,1,2,0:0:0:0:
461,359,13472,1,10,0:0:0:0:
328,215,13622,1,2,0:0:0:0:
249,291,13772,1,2,1:2:0:0:
402,184,13922,2,0,P|412:160|421:130,1,47.5,2|0,1:2|0:0,0:0:0:0:
256,89,14072,2,0,P|237:43|222:-17,1,95,10|2,0:0|0:0,0:0:0:0:
192,240,14372,6,0,P|143:253|85:283,1,95,2|2,1:2|0:0,0:0:0:0:
0,34,14672,2,0,P|21:43|44:49,1,47.5,10|0,0:0|0:0,0:0:0:0:
105,99,14822,1,2,0:0:0:0:
8,190,14972,1,0,1:2:0:0:
0,198,15122,1,2,1:2:0:0:
185,321,15272,1,10,0:0:0:0:
40,384,15422,1,2,1:2:0:0:
40,384,15497,1,0,1:2:0:0:
40,384,15572,5,6,1:2:0:0:
2,314,15722,1,2,0:0:0:0:
65,269,15872,1,10,0:0:0:0:
227,68,16022,5,2,0:0:0:0:
290,118,16172,1,2,1:2:0:0:
252,184,16322,1,2,1:2:0:0:
190,139,16472,5,10,0:0:0:0:
448,304,16622,2,0,P|408:288|353:274,1,95,2|2,0:0|1:2,0:0:0:0:
333,202,16922,1,2,0:0:0:0:
145,382,17072,2,0,P|161:334|174:282,1,95,10|2,0:0|0:0,0:0:0:0:
252,335,17372,5,2,1:2:0:0:
107,130,17522,1,10,0:0:0:0:
0,274,17672,1,2,1:2:0:0:
100,215,17822,1,8,0:0:0:0:
100,215,17897,1,8,0:0:0:0:
100,215,17972,5,6,1:2:0:0:
256,192,18047,12,4,20372,1:2:0:0:
451,267,20672,6,0,P|412:257|373:241,1,76,8|0,0:0|0:0,0:0:0:0:
311,277,20972,1,0,1:2:0:0:
304,285,21122,1,2,1:2:0:0:
424,178,21272,1,10,0:0:0:0:
190,45,21572,6,0,P|207:82|218:130,1,76,2|2,1:2|0:0,0:0:0:0:
228,244,21872,2,0,P|256:205|318:193,1,114,10|0,0:0|0:0,0:0:0:0:
332,202,22172,2,0,P|346:169|353:128,1,76,2|2,1:2|1:2,0:0:0:0:
442,65,22472,1,10,0:0:0:0:
271,310,22772,6,0,P|196:275|124:256,1,152,2|10,1:2|0:0,0:0:0:0:
46,166,23222,2,0,P|82:155|116:139,1,76,0|0,0:0|1:2,0:0:0:0:
182,183,23522,1,0,1:2:0:0:
40,332,23672,2,0,P|28:293|12:253,1,76,8|0,0:0|1:2,0:0:0:0:
15,260,24122,5,0,1:2:0:0:
182,183,24272,2,0,P|194:144|210:104,1,76,8|0,0:0|0:0,0:0:0:0:
109,152,24572,1,0,1:2:0:0:
101,160,24722,1,0,1:2:0:0:
15,9,24872,2,0,P|28:44|39:80,1,76,8|2,0:0|0:0,0:0:0:0:
73,83,25097,1,2,0:0:0:0:
73,83,25172,6,0,P|141:56|227:42,1,152,4|8,1:2|0:0,0:0:0:0:
282,0,25622,2,0,P|310:22|338:56,1,76,0|0,0:0|1:2,0:0:0:0:
335,52,25922,1,2,1:2:0:0:
422,74,26072,2,0,P|406:108|398:148,1,76,10|2,0:0|0:0,0:0:0:0:
476,233,26372,6,0,P|406:255|319:300,1,152,2|10,1:2|0:0,0:0:0:0:
83,313,26972,1,2,1:2:0:0:
139,258,27122,1,2,1:2:0:0:
49,158,27272,2,0,P|83:174|119:186,1,76,10|0,0:0|0:0,0:0:0:0:
201,321,27572,6,0,B|202:280|229:255|244:276|276:253|281:202,1,152,2|8,1:2|0:0,0:0:0:0:
427,69,28172,1,2,1:2:0:0:
494,114,28322,1,0,1:2:0:0:
415,75,28472,2,0,P|402:37|396:-3,1,76,8|0,0:0|1:2,0:0:0:0:
226,146,28772,6,0,P|193:165|156:175,2,76,2|2|10,0:0|1:2|0:0,0:0:0:0:
416,298,29372,1,0,1:2:0:0:
387,367,29522,1,0,1:2:0:0:
326,213,29672,1,8,0:0:0:0:
496,314,29822,1,2,0:0:0:0:
496,314,29897,1,2,0:0:0:0:
496,314,29972,5,4,1:2:0:0:
197,220,30272,1,8,0:0:0:0:
239,339,30422,2,0,P|254:304|263:267,1,76,0|0,0:0|1:2,0:0:0:0:
262,267,30722,1,2,1:2:0:0:
106,106,30872,2,0,P|121:140|130:177,1,76,10|2,0:0|0:0,0:0:0:0:
16,368,31172,6,0,P|54:351|100:340,1,76,2|2,1:2|0:0,0:0:0:0:
197,220,31472,2,0,P|207:181|226:141,1,76,10|2,0:0|0:0,0:0:0:0:
334,293,31772,2,0,P|296:276|250:265,1,76,2|0,1:2|1:2,0:0:0:0:
106,106,32072,1,10,0:0:0:0:
406,2,32372,6,0,B|424:17|454:18|454:18|479:74|417:95,1,152,2|10,1:2|0:0,0:0:0:0:
315,177,32822,2,0,P|329:144|338:105,1,76,0|0,0:0|1:2,0:0:0:0:
401,167,33122,1,0,1:2:0:0:
190,0,33272,2,0,P|204:35|213:72,1,76,8|0,0:0|1:2,0:0:0:0:
213,72,33722,5,0,1:2:0:0:
79,174,33872,2,0,P|70:211|55:246,1,76,8|0,0:0|0:0,0:0:0:0:
155,211,34172,1,2,1:2:0:0:
166,206,34322,1,0,1:2:0:0:
48,72,34472,2,0,P|90:89|130:98,1,76,10|2,0:0|0:0,0:0:0:0:
149,118,34697,1,2,0:0:0:0:
149,118,34772,5,6,1:2:0:0:
217,148,34922,1,2,0:0:0:0:
123,321,35072,2,0,P|186:296|285:276,1,152,10|0,0:0|1:2,0:0:0:0:
268,277,35522,1,0,1:2:0:0:
394,174,35672,1,8,0:0:0:0:
324,135,35822,1,2,0:0:0:0:
474,293,35972,6,0,B|473:252|446:227|431:248|399:225|394:174,1,152,2|8,1:2|0:0,0:0:0:0:
512,27,36422,1,2,0:0:0:0:
512,27,36572,2,0,P|468:81|386:88,1,152,2|8,1:2|0:0,0:0:0:0:
389,89,37022,1,2,0:0:0:0:
332,35,37172,5,2,1:2:0:0:
483,169,37322,1,10,0:0:0:0:
454,238,37472,1,2,1:2:0:0:
379,218,37622,1,0,1:2:0:0:
199,144,37772,5,8,0:0:0:0:
338,288,37922,1,0,1:0:0:0:
338,288,37997,1,0,1:0:0:0:
338,288,38072,1,0,1:2:0:0:
199,144,38222,6,0,P|229:219|250:306,1,170.999994781494,8|0,1:2|1:2,0:0:0:0:
67,381,38672,2,0,P|102:326|161:324,1,128.249996086121,8|0,0:0|0:0,0:0:0:0:
160,323,38972,1,0,1:2:0:0:
77,203,39122,2,0,P|32:189|-3:172,1,85.4999973907472,8|0,0:0|1:2,0:0:0:0:
269,98,39422,2,0,P|278:76|287:48,1,42.7499986953736,8|8,0:0|0:0,0:0:0:0:
144,13,39572,5,6,1:2:0:0:
185,75,39722,1,2,0:0:0:0:
126,123,39872,1,10,0:0:0:0:
272,203,40022,2,0,P|341:177|434:151,1,170.999994781494,2|2,0:0|1:2,0:0:0:0:
307,312,40472,5,10,0:0:0:0:
241,275,40622,1,2,0:0:0:0:
272,203,40772,1,2,1:2:0:0:
162,360,40922,2,0,P|76:327|-1:307,1,170.999994781494,2|0,0:0|0:0,0:0:0:0:
307,312,41372,2,0,P|336:334|332:379,1,85.4999973907472,2|0,1:2|1:2,0:0:0:0:
157,249,41672,2,0,P|142:197|127:122,1,128.249996086121,10|0,0:0|0:0,0:0:0:0:
127,124,41972,5,2,1:2:0:0:
165,59,42122,1,2,0:0:0:0:
237,81,42272,1,10,0:0:0:0:
0,4,42422,2,0,P|20:66|43:167,1,170.999994781494,2|2,0:0|1:2,0:0:0:0:
269,291,42872,5,10,0:0:0:0:
232,224,43022,1,2,0:0:0:0:
157,249,43172,1,2,1:2:0:0:
397,184,43322,2,0,P|377:232|350:351,1,170.999994781494,2|0,0:0|0:0,0:0:0:0:
135,384,43772,2,0,P|176:366|227:353,1,85.4999973907472,2|0,1:2|1:2,0:0:0:0:
102,181,44072,2,0,P|56:169|21:151,1,85.4999973907472,10|2,0:0|1:2,0:0:0:0:
22,151,44297,1,0,1:2:0:0:
22,151,44372,5,6,1:2:0:0:
67,89,44522,1,2,0:0:0:0:
0,52,44672,1,10,0:0:0:0:
159,0,44822,2,0,P|225:30|323:52,1,170.999994781494,2|0,0:0|1:2,0:0:0:0:
447,166,45272,2,0,P|406:175|360:197,1,85.4999973907472,10|0,0:0|0:0,0:0:0:0:
179,309,45572,6,0,B|155:254|186:228|199:240|232:208|204:146,2,170.999994781494,2|8|0,1:2|0:0|1:2,0:0:0:0:
128,364,46322,1,0,1:2:0:0:
288,288,46472,2,0,P|329:299|353:336,1,85.4999973907472,8|2,0:0|0:0,0:0:0:0:
412,379,46772,5,2,1:2:0:0:
294,212,46922,1,10,0:0:0:0:
327,144,47072,1,0,1:2:0:0:
398,170,47222,1,2,1:2:0:0:
179,125,47372,5,10,0:0:0:0:
170,31,47522,1,2,1:2:0:0:
262,8,47672,1,2,1:2:0:0:
99,236,47822,5,10,0:0:0:0:
29,215,47972,1,0,1:2:0:0:
41,143,48122,1,0,1:2:0:0:
232,277,48272,5,8,0:0:0:0:
243,346,48422,1,0,0:0:0:0:
177,364,48572,1,0,1:2:0:0:
318,200,48722,2,0,P|355:186|397:169,1,85.4999973907472,8|0,0:0|1:2,0:0:0:0:
111,2,49022,2,0,P|119:17|128:47,1,42.7499986953736,8|8,0:0|0:0,0:0:0:0:
169,103,49172,5,6,1:2:0:0:
240,73,49322,1,2,0:0:0:0:
275,139,49472,1,10,0:0:0:0:
164,262,49622,2,0,P|107:237|-1:207,1,170.999994781494,2|2,0:0|1:2,0:0:0:0:
263,308,50072,5,10,0:0:0:0:
291,237,50222,1,2,0:0:0:0:
223,198,50372,1,2,1:2:0:0:
350,376,50522,2,0,P|407:351|515:321,1,170.999994781494,2|0,0:0|0:0,0:0:0:0:
178,346,50972,2,0,P|130:365|89:395,1,85.4999973907472,2|0,1:2|1:2,0:0:0:0:
291,237,51272,2,0,P|312:174|324:108,1,128.249996086121,10|0,0:0|0:0,0:0:0:0:
323,113,51572,5,2,1:2:0:0:
399,144,51722,1,2,0:0:0:0:
430,77,51872,1,10,0:0:0:0:
223,198,52022,2,0,B|219:147|182:122|172:144|135:120|127:64,1,170.999994781494,2|2,0:0|1:2,0:0:0:0:
24,228,52472,5,10,0:0:0:0:
57,161,52622,1,2,0:0:0:0:
126,193,52772,1,2,1:2:0:0:
2,359,52922,2,0,P|73:328|169:306,1,170.999994781494,2|0,0:0|0:0,0:0:0:0:
380,384,53372,2,0,P|364:342|351:293,1,85.4999973907472,2|0,1:2|1:2,0:0:0:0:
242,133,53672,1,10,0:0:0:0:
349,210,53822,1,2,1:2:0:0:
349,210,53897,1,0,1:2:0:0:
349,210,53972,6,0,P|319:203|291:191,1,57,6|0,1:2|0:0,0:0:0:0:
230,228,54272,2,0,B|234:177|271:152|281:174|318:150|326:94,1,170.999994781494,10|0,0:0|0:0,0:0:0:0:
325,97,54572,1,2,1:2:0:0:
424,166,54722,1,0,1:2:0:0:
144,10,54872,2,0,P|166:55|178:105,1,95,10|0,0:0|0:0,0:0:0:0:
358,307,55172,6,0,P|404:291|428:248,1,95,2|0,1:2|1:2,0:0:0:0:
211,379,55472,2,0,P|150:353|70:328,1,142.5,8|0,0:0|0:0,0:0:0:0:
77,329,55772,1,2,1:2:0:0:
21,274,55922,1,0,1:2:0:0:
150,198,56072,1,8,0:0:0:0:
0,355,56222,1,0,1:2:0:0:
86,151,56372,5,10,0:0:0:0:
86,151,57422,2,0,P|60:145|35:135,1,47.5,8|8,0:0|0:0,0:0:0:0:
0,203,57572,5,0,1:2:0:0:
288,384,57872,2,0,P|254:196|222:7,1,380,14|0,0:0|0:0,0:0:0:0:
2,308,58772,6,0,P|71:278|174:256,1,170.999994781494,6|0,1:2|0:0,0:0:0:0:
164,257,59072,1,8,0:0:0:0:
415,127,59222,2,0,P|423:72|380:34,1,113.999996520996,0|2,0:0|1:2,0:0:0:0:
315,62,59522,1,0,1:2:0:0:
506,230,59672,1,8,0:0:0:0:
348,337,59822,1,0,0:0:0:0:
375,250,59972,6,0,P|297:260|258:343,1,170.999994781494,2|0,1:2|0:0,0:0:0:0:
204,384,60272,2,0,P|144:358|83:343,1,113.999996520996,8|0,0:0|0:0,0:0:0:0:
25,158,60572,1,2,1:2:0:0:
91,202,60722,1,0,1:2:0:0:
233,79,60872,1,8,0:0:0:0:
60,274,61022,1,0,0:0:0:0:
5,0,61172,6,0,P|86:20|175:37,1,170.999994781494,2|0,1:2|0:0,0:0:0:0:
233,79,61472,2,0,P|217:133|201:199,1,113.999996520996,10|0,0:0|0:0,0:0:0:0:
408,310,61772,1,2,1:2:0:0:
349,255,61922,1,0,1:2:0:0:
173,381,62072,2,0,P|114:357|48:346,1,113.999996520996,10|0,0:0|0:0,0:0:0:0:
482,270,62372,6,0,P|460:186|440:92,1,170.999994781494,0|0,1:2|0:0,0:0:0:0:
341,45,62672,2,0,P|282:69|216:80,1,113.999996520996,10|0,0:0|0:0,0:0:0:0:
23,254,62972,2,0,P|5:200|41:163,1,113.999996520996,2|0,1:2|1:2,0:0:0:0:
269,300,63272,1,10,0:0:0:0:
162,384,63422,1,0,1:0:0:0:
162,384,63497,1,0,1:0:0:0:
162,384,63572,6,0,B|138:329|169:303|182:315|215:283|187:221,1,170.999994781494,6|0,1:2|0:0,0:0:0:0:
242,174,63872,2,0,P|216:123|164:122,1,113.999996520996,10|0,0:0|0:0,0:0:0:0:
0,39,64172,1,2,1:2:0:0:
123,184,64322,1,0,1:2:0:0:
0,294,64472,2,0,P|55:274|111:259,1,113.999996520996,10|0,0:0|0:0,0:0:0:0:
364,90,64772,6,0,P|438:122|434:216,1,170.999994781494,2|0,1:2|0:0,0:0:0:0:
498,260,65072,2,0,P|465:301|407:302,1,113.999996520996,10|0,0:0|0:0,0:0:0:0:
178,373,65372,1,2,1:2:0:0:
318,247,65522,1,0,1:2:0:0:
88,78,65672,2,0,P|108:129|122:190,1,113.999996520996,10|0,0:0|0:0,0:0:0:0:
301,373,65972,5,0,1:2:0:0:
34,219,66122,1,12,0:0:0:0:
12,291,66272,1,0,1:2:0:0:
79,326,66422,1,0,1:2:0:0:
334,114,66572,5,8,0:0:0:0:
392,66,66722,1,0,1:2:0:0:
318,247,66872,1,0,1:2:0:0:
502,197,67022,6,0,P|449:177|389:163,1,113.999996520996,12|0,0:0|0:0,0:0:0:0:
334,114,67322,1,0,1:2:0:0:
168,360,67472,2,0,P|184:309|199:249,1,113.999996520996,10|0,0:0|0:0,0:0:0:0:
19,16,67772,2,0,P|11:65|57:109,1,113.999996520996,2|8,1:2|0:0,0:0:0:0:
326,304,68072,1,10,0:0:0:0:
322,256,68147,1,8,0:0:0:0:
291,224,68222,1,8,0:0:0:0:
243,221,68297,1,8,0:0:0:0:
198,250,68372,6,0,B|176:225|142:225|142:225|94:171|155:131,1,170.999994781494,6|0,1:2|0:0,0:0:0:0:
150,134,68672,1,8,0:0:0:0:
408,38,68822,2,0,P|386:87|372:147,1,113.999996520996,0|2,0:0|1:2,0:0:0:0:
299,103,69122,1,0,1:2:0:0:
510,267,69272,2,0,P|486:209|479:158,1,113.999996520996,8|0,0:0|0:0,0:0:0:0:
387,292,69572,6,0,B|321:259|275:314|307:339|264:393|199:363,2,227.999993041992,2|8|2,1:2|0:0|1:2,0:0:0:0:
434,230,70322,1,0,1:2:0:0:
213,98,70472,2,0,P|237:148|251:211,1,113.999996520996,8|0,0:0|0:0,0:0:0:0:
104,381,70772,6,0,P|52:371|32:311,1,113.999996520996,2|0,1:2|0:0,0:0:0:0:
250,204,71072,2,0,P|315:179|425:154,1,170.999994781494,10|0,0:0|0:0,0:0:0:0:
413,155,71372,1,2,1:2:0:0:
483,115,71522,1,0,1:2:0:0:
303,21,71672,1,10,0:0:0:0:
455,236,71822,1,0,1:0:0:0:
455,236,71897,1,0,1:0:0:0:
455,236,71972,5,0,1:2:0:0:
104,381,72272,2,0,P|122:323|134:264,1,113.999996520996,10|0,0:0|0:0,0:0:0:0:
243,129,72572,1,2,1:2:0:0:
64,247,72722,1,0,1:2:0:0:
274,361,72872,1,10,0:0:0:0:
5,191,73022,1,0,1:2:0:0:
5,191,73097,1,0,1:2:0:0:
5,191,73172,6,0,B|6:143|37:114|55:138|92:111|98:52,1,170.999994781494,6|0,1:2|0:0,0:0:0:0:
145,0,73472,2,0,P|199:7|229:69,1,113.999996520996,10|0,0:0|0:0,0:0:0:0:
331,115,73772,1,2,1:2:0:0:
136,290,73922,1,8,0:0:0:0:
363,377,74072,1,2,1:2:0:0:
287,243,74222,1,8,0:0:0:0:
287,243,74297,1,8,0:0:0:0:
287,243,74372,5,6,1:2:0:0:
449,376,75572,6,0,P|350:338|239:308,1,209.000006378174,6|8,1:2|0:0,0:0:0:0:
287,243,76022,1,2,0:0:0:0:
135,129,76172,1,0,1:2:0:0:
226,103,76322,2,0,P|218:123|208:163,1,52.2500015945435,0|0,1:2|0:0,0:0:0:0:
31,0,76472,2,0,P|51:46|64:109,1,104.500003189087,10|2,0:0|0:0,0:0:0:0:
128,264,76772,5,2,1:2:0:0:
200,243,76922,1,0,0:0:0:0:
222,313,77072,1,10,0:0:0:0:
2,384,77222,2,0,P|73:356|153:334,1,156.750004783631,2|0,0:0|0:0,0:0:0:0:
150,335,77522,1,0,1:2:0:0:
378,231,77672,2,0,P|411:180|392:141,1,104.500003189087,8|0,0:0|0:0,0:0:0:0:
374,372,77972,6,0,B|369:321|337:298|322:319|295:294|293:248,1,156.750004783631,2|0,1:2|0:0,0:0:0:0:
293,248,78272,1,8,0:0:0:0:
180,128,78422,1,2,0:0:0:0:
152,198,78572,1,0,1:2:0:0:
330,92,78722,2,0,P|359:83|395:70,1,52.2500015945435,0|0,1:2|0:0,0:0:0:0:
135,0,78872,2,0,P|102:33|119:91,1,104.500003189087,10|2,0:0|0:0,0:0:0:0:
370,213,79172,6,0,P|336:177|281:172,1,104.500003189087,2|0,1:2|0:0,0:0:0:0:
101,348,79472,2,0,P|125:338|160:328,1,52.2500015945435,10|0,0:0|0:0,0:0:0:0:
197,272,79622,1,2,0:0:0:0:
47,177,79772,1,0,1:2:0:0:
37,169,79922,1,0,1:2:0:0:
202,69,80072,1,8,0:0:0:0:
155,169,80222,1,0,1:2:0:0:
155,169,80297,1,0,1:2:0:0:
155,169,80372,5,6,1:2:0:0:
88,113,80522,1,0,0:0:0:0:
118,45,80672,1,8,0:0:0:0:
322,273,80822,5,2,0:0:0:0:
385,226,80972,1,0,1:2:0:0:
361,151,81122,1,0,1:2:0:0:
139,298,81272,5,10,0:0:0:0:
266,384,81422,2,0,P|248:310|229:222,1,156.750004783631,10|0,0:3|0:0,0:0:0:0:
230,231,81722,1,2,0:0:0:0:
387,80,81872,1,10,0:0:0:0:
361,151,82022,1,0,0:0:0:0:
247,2,82172,1,0,1:2:0:0:
461,99,82322,1,0,1:2:0:0:
247,2,82472,2,0,P|199:23|135:39,1,104.500003189087,10|0,0:0|0:0,0:0:0:0:
49,8,82772,5,6,1:2:0:0:
155,229,82922,1,10,0:0:0:0:
38,273,83072,5,2,1:2:0:0:
140,217,83222,1,2,1:2:0:0:
289,350,83372,5,10,0:0:0:0:
218,384,83522,1,2,1:2:0:0:
186,316,83672,1,6,1:2:0:0:
390,149,83822,6,0,B|420:175|461:177|461:177|492:236|425:260,1,185.249991519928,10|0,0:0|0:0,0:0:0:0:
419,332,84122,2,0,P|379:322|358:289,1,61.7499971733095,2|0,1:2|0:0,0:0:0:0:
237,139,84272,2,0,P|256:87|269:31,1,104.500003189087,14|2,0:0|0:0,0:0:0:0:
348,17,84572,5,2,1:2:0:0:
152,168,84722,1,10,0:0:0:0:
295,256,84872,1,2,1:2:0:0:
72,71,85022,1,10,0:0:0:0:
72,71,85097,1,8,0:0:0:0:
72,71,85172,6,0,P|103:139|130:258,1,185.249991519928,6|0,1:2|0:0,0:0:0:0:
128,246,85472,1,10,0:0:0:0:
404,384,85622,1,2,0:0:0:0:
364,319,85772,1,2,1:2:0:0:
426,272,85922,2,0,P|449:280|478:287,1,47.5,2|0,1:2|0:0,0:0:0:0:
266,346,86072,2,0,P|283:301|296:245,1,95,10|2,0:0|0:0,0:0:0:0:
409,75,86372,5,2,1:2:0:0:
474,120,86522,1,2,0:0:0:0:
401,82,86672,1,10,0:0:0:0:
499,0,86822,2,0,P|477:10|437:17,1,47.5,2|0,0:0|0:0,0:0:0:0:
329,108,86972,2,0,P|283:88|234:76,1,95,0|2,1:2|1:2,0:0:0:0:
426,272,87272,2,0,P|467:242|461:195,1,95,10|2,0:0|0:0,0:0:0:0:
204,273,87572,5,2,1:2:0:0:
280,170,87722,1,2,0:0:0:0:
125,85,87872,1,10,0:0:0:0:
204,155,88022,1,2,0:0:0:0:
101,292,88172,1,2,1:2:0:0:
282,371,88322,2,0,P|274:348|268:320,1,47.5,2|0,1:2|0:0,0:0:0:0:
89,208,88472,2,0,P|47:223|25:280,1,95,10|2,0:0|0:0,0:0:0:0:
359,157,88772,6,0,P|370:104|383:61,1,95,2|2,1:2|0:0,0:0:0:0:
129,1,89072,2,0,P|138:21|145:47,1,47.5,10|0,0:0|0:0,0:0:0:0:
211,78,89222,1,2,0:0:0:0:
89,208,89372,1,0,1:2:0:0:
80,217,89522,1,2,1:2:0:0:
3,58,89672,1,10,0:0:0:0:
183,207,89822,1,2,1:2:0:0:
183,207,89897,1,0,1:2:0:0:
183,207,89972,5,6,1:2:0:0:
145,274,90122,1,2,0:0:0:0:
211,312,90272,1,10,0:0:0:0:
433,75,90422,5,2,0:0:0:0:
471,142,90572,1,2,1:2:0:0:
405,180,90722,1,2,1:2:0:0:
366,114,90872,5,10,0:0:0:0:
512,286,91022,2,0,P|467:269|406:253,1,95,2|2,0:0|1:2,0:0:0:0:
361,303,91322,1,2,0:0:0:0:
155,116,91472,2,0,P|172:158|183:212,1,95,10|2,0:0|0:0,0:0:0:0:
375,384,91772,5,2,1:2:0:0:
230,274,91922,1,10,0:0:0:0:
171,331,92072,2,0,P|132:341|104:354,2,63.3333333333333,8|4|4,1:3|2:3|2:3,0:0:0:0:
256,192,92372,5,6,1:2:0:0:
512,120,94772,6,0,P|445:93|356:66,1,152,6|0,1:2|0:0,0:0:0:0:
324,9,95222,2,0,P|279:27|269:98,1,113.999996520996,2|2,0:0|0:0,0:0:0:0:
201,125,95672,2,0,P|212:164|251:183,1,76,2|2,0:0|0:0,0:0:0:0:
272,249,96122,2,0,P|299:244|320:216,1,56.9999982604981,2|2,0:0|0:0,0:0:0:0:
381,182,96572,2,0,P|380:165|364:144,1,38,2|2,0:0|0:0,0:0:0:0:
155,76,97172,6,0,P|176:132|202:228,1,152,2|2,0:0|0:0,0:0:0:0:
272,249,97622,2,0,P|257:303|193:318,1,113.999996520996,2|0,0:0|0:0,0:0:0:0:
157,377,98072,2,0,P|116:366|104:324,1,76,2|0,0:0|0:0,0:0:0:0:
37,301,98522,2,0,P|42:270|68:257,1,56.9999982604981,2|0,0:0|0:0,0:0:0:0:
113,198,98972,1,2,0:0:0:0:
113,198,99122,2,0,P|128:205|153:214,1,38,0|0,1:2|1:2,0:0:0:0:
0,141,99572,6,0,P|74:119|148:95,1,152,2|0,1:2|0:0,0:0:0:0:
238,79,100022,2,0,P|223:111|208:154,1,76,2|2,0:0|0:0,0:0:0:0:
285,164,100472,2,0,P|293:191|306:216,1,56.9999982604981,2|2,0:0|0:0,0:0:0:0:
371,179,100922,2,0,P|387:186|407:194,1,38,2|2,0:0|0:0,0:0:0:0:
502,274,101372,1,2,0:0:0:0:
502,274,101522,1,2,0:0:0:0:
463,337,101672,2,2,P|431:346|398:359,1,56.9999982604981
274,369,101972,6,0,P|292:295|307:217,1,152,2|0,0:0|0:0,0:0:0:0:
371,179,102422,2,0,P|355:129|293:120,1,113.999996520996,2|0,0:0|0:0,0:0:0:0:
242,68,102872,2,0,P|209:87|210:131,1,76,2|2,0:0|0:0,0:0:0:0:
144,165,103322,2,0,P|161:189|199:196,1,56.9999982604981,2|0,0:0|0:0,0:0:0:0:
216,270,103772,2,0,P|234:262|256:255,1,38,2|2,0:0|0:0,0:0:0:0:
30,349,104372,5,6,1:2:0:0:
30,349,104672,2,0,P|24:318|14:290,2,56.9999982604981,2|0|0,0:0|0:0|0:0,0:0:0:0:
100,383,105122,1,2,0:0:0:0:
431,73,106772,5,2,1:2:0:0:
431,73,106922,2,0,B|384:42|335:76|335:76|323:118|279:120,1,170.999994781494,0|2,1:2|0:0,0:0:0:0:
512,357,108572,2,0,P|469:340|416:326,1,95,2|2,0:0|0:0,0:0:0:0:
249,235,109172,5,4,1:2:0:0:
249,235,109322,2,0,P|260:259|268:292,1,47.5,2|2,1:2|0:0,0:0:0:0:
511,160,110222,1,2,0:0:0:0:
511,160,110372,6,0,P|452:142|436:72,1,132.999995941162,2|0,0:0|0:0,0:0:0:0:
348,4,110822,1,2,0:0:0:0:
348,4,110897,1,2,0:0:0:0:
348,4,110972,2,0,P|298:27|221:48,1,132.999995941162,2|2,0:0|0:0,0:0:0:0:
222,47,111422,1,2,0:0:0:0:
154,121,111572,5,2,0:0:0:0:
317,236,111722,1,10,0:0:0:0:
335,164,111872,1,2,1:2:0:0:
272,127,112022,1,2,1:2:0:0:
152,283,112172,5,10,0:0:0:0:
101,207,112322,1,0,1:2:0:0:
165,288,112472,1,2,1:2:0:0:
40,372,112622,6,0,P|76:356|121:346,1,76,10|2,0:0|1:2,0:0:0:0:
112,348,112922,1,2,1:2:0:0:
318,237,113072,2,0,P|354:253|399:263,2,76,10|0|2,0:0|0:0|1:2,0:0:0:0:
154,121,113522,2,0,P|142:81|129:49,1,76,8|0,0:0|1:2,0:0:0:0:
200,215,113822,1,8,0:0:0:0:
200,215,113897,1,8,0:0:0:0:
200,215,113972,5,6,1:2:0:0:
250,275,114122,1,2,0:0:0:0:
318,237,114272,1,10,0:0:0:0:
168,381,114422,2,0,P|241:356|337:340,1,170.999994781494,2|2,0:0|1:2,0:0:0:0:
509,245,114872,5,10,0:0:0:0:
474,174,115022,1,2,0:0:0:0:
407,208,115172,1,2,1:2:0:0:
495,101,115322,2,0,P|410:87|329:60,1,170.999994781494,2|0,0:0|0:0,0:0:0:0:
141,4,115772,2,0,P|163:44|175:87,1,85.4999973907472,2|0,1:2|1:2,0:0:0:0:
276,141,116072,2,0,P|214:155|191:220,1,128.249996086121,10|0,0:0|0:0,0:0:0:0:
189,210,116372,5,2,1:2:0:0:
141,270,116522,1,2,0:0:0:0:
71,238,116672,1,10,0:0:0:0:
224,384,116822,2,0,P|239:322|258:255,1,128.249996086121,2|0,0:0|0:0,0:0:0:0:
256,259,117122,1,2,1:2:0:0:
396,135,117272,1,10,0:0:0:0:
453,189,117422,1,2,0:0:0:0:
324,160,117572,6,0,P|309:110|298:66,1,85.4999973907472,2|0,1:2|0:0,0:0:0:0:
467,0,117872,2,0,P|471:43|435:72,1,85.4999973907472,10|2,0:0|0:0,0:0:0:0:
246,181,118172,2,0,P|310:190|338:254,1,128.249996086121,2|0,1:2|0:0,0:0:0:0:
338,241,118472,1,10,0:0:0:0:
281,292,118622,1,2,1:2:0:0:
448,337,118772,5,6,1:2:0:0:
415,270,118922,1,2,0:0:0:0:
456,331,119072,1,10,0:0:0:0:
295,384,119222,2,0,P|210:356|116:334,1,170.999994781494,2|0,0:0|1:2,0:0:0:0:
0,215,119672,2,0,P|46:202|94:184,1,85.4999973907472,10|0,0:0|0:0,0:0:0:0:
249,47,119972,5,2,1:2:0:0:
181,90,120122,1,0,0:0:0:0:
292,114,120272,1,8,0:0:0:0:
198,313,120422,2,0,B|174:258|205:232|218:244|251:212|223:150,1,170.999994781494,2|0,0:0|1:2,0:0:0:0:
70,85,120872,2,0,P|48:48|34:-3,1,85.4999973907472,8|2,0:0|0:0,0:0:0:0:
123,24,121172,5,2,1:2:0:0:
0,170,121322,1,10,0:0:0:0:
31,237,121472,1,0,1:2:0:0:
102,215,121622,1,2,1:2:0:0:
181,90,121772,5,10,0:0:0:0:
262,65,121922,1,2,1:2:0:0:
298,142,122072,1,2,1:2:0:0:
453,303,122222,5,10,0:0:0:0:
495,173,122372,1,0,1:2:0:0:
448,313,122522,1,0,1:2:0:0:
223,174,122672,5,8,0:0:0:0:
200,247,122822,1,0,0:0:0:0:
266,283,122972,1,0,1:2:0:0:
90,384,123122,2,0,P|136:367|183:357,1,85.4999973907472,8|0,0:0|1:2,0:0:0:0:
385,224,123422,2,0,P|360:216|332:204,1,42.7499986953736,8|8,0:0|0:0,0:0:0:0:
298,152,123572,5,6,1:2:0:0:
336,88,123722,1,2,0:0:0:0:
268,53,123872,1,10,0:0:0:0:
468,0,124022,2,0,P|448:53|433:130,1,128.249996086121,2|0,0:0|0:0,0:0:0:0:
433,123,124322,1,2,1:2:0:0:
317,258,124472,1,10,0:0:0:0:
248,227,124622,1,2,0:0:0:0:
168,300,124772,6,0,P|184:333|198:394,1,85.4999973907472,2|0,1:2|0:0,0:0:0:0:
399,288,125072,2,0,P|436:270|487:257,1,85.4999973907472,10|0,0:0|0:0,0:0:0:0:
236,150,125372,2,0,P|166:128|139:74,1,128.249996086121,2|0,1:2|0:0,0:0:0:0:
140,83,125672,1,10,0:0:0:0:
202,42,125822,1,2,0:0:0:0:
52,109,125972,6,0,P|67:66|76:18,2,85.4999973907472,2|2|10,1:2|0:0|0:0,0:0:0:0:
2,201,126422,2,0,P|72:223|99:277,1,128.249996086121,2|0,0:0|0:0,0:0:0:0:
97,267,126722,1,2,1:2:0:0:
250,382,126872,1,10,0:0:0:0:
208,320,127022,1,2,0:0:0:0:
17,379,127172,6,0,P|59:362|105:352,1,85.4999973907472,2|0,1:2|0:0,0:0:0:0:
305,280,127472,1,10,0:0:0:0:
271,214,127622,1,2,0:0:0:0:
336,172,127772,2,0,P|378:189|424:199,1,85.4999973907472,2|0,1:2|1:2,0:0:0:0:
123,127,128072,2,0,P|110:80|100:38,1,85.4999973907472,10|2,0:0|1:2,0:0:0:0:
183,241,128372,5,6,1:2:0:0:
487,3,128672,2,0,P|419:13|397:90,1,142.5,10|0,0:0|0:0,0:0:0:0:
425,144,128972,2,0,P|379:152|328:176,1,95,2|0,1:2|1:2,0:0:0:0:
276,313,129272,2,0,P|208:303|186:226,1,142.5,10|0,0:0|0:0,0:0:0:0:
214,172,129572,2,0,P|168:164|117:140,1,95,2|0,1:2|1:2,0:0:0:0:
15,210,129872,2,0,P|35:245|48:303,1,95,8|0,0:0|0:0,0:0:0:0:
369,383,130172,5,2,1:2:0:0:
413,329,130272,5,0,1:0:0:0:
387,264,130372,5,8,0:0:0:0:
337,250,130472,5,4,0:3:0:0:
307,220,130572,5,4,0:3:0:0:
304,199,130672,5,4,0:3:0:0:
349,138,130772,5,6,1:2:0:0:
181,362,131822,1,8,0:0:0:0:
181,362,131897,1,8,0:0:0:0:
181,362,131972,5,0,1:2:0:0:
232,306,132122,1,2,0:0:0:0:
128,175,132272,1,6,1:2:0:0:
301,341,132422,1,2,0:0:0:0:
343,121,132572,5,10,0:0:0:0:
115,305,132722,1,10,0:0:0:0:
29,55,132872,5,10,0:0:0:0:
287,248,133022,1,10,0:0:0:0:
0,381,133172,6,0,P|23:295|43:207,1,170.999994781494,6|0,1:2|0:0,0:0:0:0:
41,215,133472,1,8,0:0:0:0:
252,124,133622,2,0,P|234:70|222:13,1,113.999996520996,0|2,0:0|1:2,0:0:0:0:
148,67,133922,1,0,1:2:0:0:
355,201,134072,1,8,0:0:0:0:
202,320,134222,1,0,0:0:0:0:
165,242,134372,6,0,P|254:251|286:328,1,170.999994781494,2|0,1:2|0:0,0:0:0:0:
334,380,134672,2,0,P|389:359|453:344,1,113.999996520996,8|0,0:0|0:0,0:0:0:0:
506,140,134972,1,2,1:2:0:0:
458,199,135122,1,0,1:2:0:0:
329,75,135272,1,8,0:0:0:0:
512,253,135422,1,0,0:0:0:0:
259,338,135572,6,0,P|280:256|300:169,1,170.999994781494,2|0,1:2|0:0,0:0:0:0:
329,75,135872,2,0,P|270:59|216:38,1,113.999996520996,10|0,0:0|0:0,0:0:0:0:
0,174,136172,2,0,P|-14:226|27:260,1,113.999996520996,2|0,1:2|1:2,0:0:0:0:
259,338,136472,1,10,0:0:0:0:
145,216,136622,1,0,0:0:0:0:
20,358,136772,6,0,P|93:335|196:310,1,170.999994781494,0|0,1:2|0:0,0:0:0:0:
259,338,137072,2,0,P|301:301|285:250,1,113.999996520996,10|0,0:0|0:0,0:0:0:0:
39,63,137372,2,0,P|61:109|78:176,1,113.999996520996,2|0,1:2|1:2,0:0:0:0:
331,121,137672,1,10,0:0:0:0:
184,312,137822,1,0,1:0:0:0:
184,312,137897,1,0,1:0:0:0:
184,312,137972,6,0,B|188:264|220:239|240:258|275:234|280:177,1,170.999994781494,6|0,1:2|0:0,0:0:0:0:
331,121,138272,2,0,P|385:112|411:64,1,113.999996520996,10|0,0:0|0:0,0:0:0:0:
222,0,138572,1,2,1:2:0:0:
372,200,138722,1,0,1:2:0:0:
222,0,138872,2,0,P|169:20|114:35,1,113.999996520996,10|0,0:0|0:0,0:0:0:0:
26,190,139172,6,0,B|67:217|110:219|110:219|136:269|80:288,1,170.999994781494,2|0,1:2|0:0,0:0:0:0:
15,311,139472,2,0,P|45:359|112:351,1,113.999996520996,10|0,0:0|0:0,0:0:0:0:
311,262,139772,1,2,1:2:0:0:
192,167,139922,1,0,1:2:0:0:
412,100,140072,2,0,P|389:149|371:213,1,113.999996520996,10|0,0:0|0:0,0:0:0:0:
311,262,140372,5,0,1:2:0:0:
92,72,140522,1,12,0:0:0:0:
165,96,140672,1,0,1:2:0:0:
206,34,140822,1,0,1:2:0:0:
75,251,140972,5,8,0:0:0:0:
37,185,141122,1,0,1:2:0:0:
190,302,141272,1,0,1:2:0:0:
18,384,141422,6,0,P|71:361|141:347,1,113.999996520996,12|0,0:0|0:0,0:0:0:0:
190,302,141722,1,0,1:2:0:0:
435,383,141872,2,0,P|413:315|402:272,1,113.999996520996,10|0,0:0|0:0,0:0:0:0:
278,112,142172,1,2,1:2:0:0:
474,230,142322,1,8,0:0:0:0:
250,370,142472,1,10,0:0:0:0:
231,322,142547,1,8,0:0:0:0:
190,302,142622,1,8,0:0:0:0:
141,307,142697,1,8,0:0:0:0:
110,337,142772,6,0,B|85:310|48:314|48:314|5:263|59:228,1,170.999994781494,6|0,1:2|0:0,0:0:0:0:
58,228,143072,1,8,0:0:0:0:
278,112,143222,2,0,P|301:61|319:-1,1,113.999996520996,0|2,0:0|1:2,0:0:0:0:
349,151,143522,1,0,1:2:0:0:
75,71,143672,2,0,P|98:122|116:184,1,113.999996520996,8|0,0:0|0:0,0:0:0:0:
326,329,143972,6,0,B|374:296|425:332|425:332|438:375|484:378,1,170.999994781494,2|0,1:2|0:0,0:0:0:0:
468,376,144272,1,8,0:0:0:0:
349,151,144422,1,0,0:0:0:0:
266,270,144572,1,2,1:2:0:0:
420,118,144722,1,0,1:2:0:0:
266,270,144872,2,0,P|209:250|150:235,1,113.999996520996,8|0,0:0|0:0,0:0:0:0:
3,6,145172,6,0,P|78:10|101:95,1,170.999994781494,2|0,1:2|0:0,0:0:0:0:
166,125,145472,2,0,P|135:163|65:155,1,113.999996520996,10|0,0:0|0:0,0:0:0:0:
318,328,145772,1,2,1:2:0:0:
266,270,145922,1,0,1:2:0:0:
68,384,146072,2,0,P|86:324|99:273,1,113.999996520996,10|0,0:0|0:0,0:0:0:0:
339,160,146372,6,0,B|335:112|303:87|283:106|248:82|243:25,1,170.999994781494,0|0,1:2|0:0,0:0:0:0:
243,29,146672,1,10,0:0:0:0:
455,134,146822,1,0,0:0:0:0:
266,270,146972,2,0,P|213:249|151:233,1,113.999996520996,2|0,1:2|1:2,0:0:0:0:
474,359,147272,1,10,0:0:0:0:
410,242,147422,1,0,1:2:0:0:
410,242,147497,1,0,1:2:0:0:
410,242,147572,5,6,1:2:0:0:
103,383,147872,6,0,B|127:328|96:302|83:314|50:282|78:220,1,170.999994781494,10|0,0:0|0:0,0:0:0:0:
17,178,148172,2,0,P|48:131|103:135,1,113.999996520996,2|0,1:2|1:2,0:0:0:0:
320,274,148472,1,10,0:0:0:0:
264,218,148622,1,0,0:0:0:0:
495,124,148772,6,0,P|418:146|321:168,1,170.999994781494,2|0,1:2|0:0,0:0:0:0:
264,218,149072,2,0,P|251:159|234:105,1,113.999996520996,10|0,0:0|0:0,0:0:0:0:
449,325,149372,1,2,1:2:0:0:
490,262,149522,1,0,1:2:0:0:
276,369,149672,2,0,P|211:348|151:338,1,113.999996520996,10|0,0:0|0:0,0:0:0:0:
79,113,149972,5,6,1:2:0:0:
264,218,150122,1,8,0:3:0:0:
264,218,150197,1,8,0:3:0:0:
264,218,150272,1,8,0:3:0:0:
317,156,150422,1,8,0:3:0:0:
490,262,150572,5,8,0:3:0:0:
449,325,150722,1,8,0:3:0:0:
380,297,150872,1,4,0:3:0:0:
378,222,151022,1,4,0:3:0:0:
508,382,151172,5,0,1:2:0:0:
450,177,151472,6,0,P|456:162|461:140,1,28.4999991302491,2|0,0:0|0:0,0:0:0:0:
244,374,152072,6,0,P|240:360|234:347,1,28.4999991302491,2|0,0:0|0:0,0:0:0:0:
473,297,152372,6,0,P|398:268|320:247,1,156.750004783631,6|0,1:2|0:0,0:0:0:0:
289,180,152672,2,0,P|243:197|229:253,1,104.500003189087,10|0,0:0|0:0,0:0:0:0:
90,383,152972,2,0,P|70:317|53:281,1,104.500003189087,2|0,1:2|1:2,0:0:0:0:
315,95,153272,2,0,P|361:112|375:168,1,104.500003189087,10|0,0:0|0:0,0:0:0:0:
98,205,153572,6,0,P|47:191|1:170,1,104.500003189087,2|0,1:2|0:0,0:0:0:0:
375,332,153872,2,0,P|422:310|472:296,1,104.500003189087,10|0,0:0|0:0,0:0:0:0:
194,384,154172,2,0,P|213:328|227:278,1,104.500003189087,2|0,1:2|1:2,0:0:0:0:
376,161,154472,1,10,0:0:0:0:
182,19,154622,1,0,1:0:0:0:
182,19,154697,1,0,1:0:0:0:
182,19,154772,6,0,B|108:-24|52:32|52:32|44:72|6:81,2,209.000006378174,2|8|0,1:2|0:0|1:2,0:0:0:0:
235,75,155522,1,0,1:2:0:0:
72,227,155672,2,0,P|127:205|176:193,1,104.500003189087,8|0,0:0|0:0,0:0:0:0:
395,69,155972,6,0,P|462:106|443:185,1,156.750004783631,2|0,1:2|0:0,0:0:0:0:
503,235,156272,2,0,P|468:271|410:258,1,104.500003189087,8|0,0:0|0:0,0:0:0:0:
185,384,156572,2,0,P|204:327|215:280,1,104.500003189087,2|0,1:2|1:2,0:0:0:0:
342,124,156872,1,8,0:0:0:0:
99,0,157022,1,0,1:2:0:0:
99,0,157097,1,0,1:2:0:0:
99,0,157172,6,0,P|117:39|133:104,1,104.500003189087,6|0,1:2|0:0,0:0:0:0:
318,346,157472,2,0,P|330:295|352:247,1,104.500003189087,10|0,0:0|0:0,0:0:0:0:
111,248,157772,2,0,P|56:264|6:296,1,104.500003189087,2|0,1:2|1:2,0:0:0:0:
417,153,158072,2,0,P|462:179|512:193,1,104.500003189087,10|0,0:0|0:0,0:0:0:0:
239,194,158372,6,0,B|243:149|273:125|292:143|325:121|329:67,1,156.750004783631,2|0,1:2|0:0,0:0:0:0:
400,56,158672,2,0,P|384:15|304:16,1,104.500003189087,10|0,0:0|0:0,0:0:0:0:
99,113,158972,1,2,1:2:0:0:
170,138,159122,1,0,1:2:0:0:
88,280,159272,2,0,P|74:228|53:177,1,104.500003189087,10|0,0:0|0:0,0:0:0:0:
350,357,159572,5,6,1:2:0:0:
372,283,159722,1,0,1:2:0:0:
302,248,159872,1,8,0:0:0:0:
182,345,160022,5,0,1:2:0:0:
443,247,160172,1,0,1:2:0:0:
443,247,160247,1,0,1:2:0:0:
443,247,160322,2,0,P|452:221|463:185,1,52.2500015945435,0|0,1:2|1:2,0:0:0:0:
506,296,160472,1,8,0:0:0:0:
321,143,160622,1,6,1:2:0:0:
406,83,160772,5,0,0:0:0:0:
251,180,160922,2,0,P|246:152|234:122,1,52.2500015945435,0|0,1:0|0:0,0:0:0:0:
471,41,161072,5,14,1:2:0:0:
406,83,161222,1,0,0:0:0:0:
442,148,161372,1,0,1:2:0:0:
343,319,161522,1,8,0:0:0:0:
301,299,161597,1,8,0:0:0:0:
256,283,161672,1,10,0:0:0:0:
210,270,161747,1,8,0:0:0:0:
158,254,161822,1,8,0:0:0:0:
101,242,161897,1,8,0:0:0:0:
32,227,161972,6,0,P|21:149|89:132,1,156.750004783631,6|0,1:2|0:0,0:0:0:0:
138,75,162272,2,0,P|189:96|188:145,1,104.500003189087,10|0,0:0|0:0,0:0:0:0:
411,281,162572,1,2,1:2:0:0:
358,222,162722,1,0,1:2:0:0:
175,353,162872,2,0,P|122:332|61:321,1,104.500003189087,10|0,0:0|0:0,0:0:0:0:
477,235,163172,6,0,P|456:156|439:79,1,156.750004783631,0|0,1:2|0:0,0:0:0:0:
373,34,163472,2,0,P|320:55|259:66,1,104.500003189087,10|0,0:0|0:0,0:0:0:0:
146,253,163772,1,2,1:2:0:0:
192,192,163922,1,0,1:2:0:0:
71,93,164072,1,8,0:0:0:0:
249,246,164222,1,0,0:0:0:0:
61,362,164372,6,0,P|128:336|216:314,1,156.750004783631,2|0,1:2|0:0,0:0:0:0:
249,246,164672,2,0,P|300:278|296:339,1,104.500003189087,10|0,0:0|0:0,0:0:0:0:
475,384,164972,1,2,1:2:0:0:
419,334,165122,1,0,1:2:0:0:
512,212,165272,2,0,P|472:233|412:248,1,104.500003189087,10|0,0:0|0:0,0:0:0:0:
192,192,165572,6,0,B|163:127|200:97|215:111|254:73|221:1,2,209.000006378174,0|10|2,1:2|0:0|1:2,0:0:0:0:
249,246,166322,1,0,1:2:0:0:
6,68,166472,2,0,P|57:87|114:100,1,104.500003189087,10|0,0:0|1:2,0:0:0:0:
357,222,166772,6,0,P|412:174|379:102,1,156.750004783631,6|0,1:2|0:0,0:0:0:0:
427,44,167072,2,0,P|387:12|332:25,1,104.500003189087,10|0,0:0|0:0,0:0:0:0:
105,98,167372,1,2,1:2:0:0:
168,145,167522,1,0,1:2:0:0:
36,248,167672,2,0,P|85:230|140:218,1,104.500003189087,10|0,0:0|0:0,0:0:0:0:
453,384,167972,6,0,P|435:326|424:284,1,104.500003189087,2|0,1:2|0:0,0:0:0:0:
306,126,168272,1,10,0:0:0:0:
490,236,168422,1,0,0:0:0:0:
287,327,168572,1,2,1:2:0:0:
456,162,168722,1,0,1:2:0:0:
333,261,168872,2,0,P|250:237|171:216,1,156.750004783631,10|0,0:0|0:0,0:0:0:0:
182,218,169172,5,0,1:2:0:0:
330,0,169322,1,8,0:0:0:0:
402,34,169472,1,0,1:2:0:0:
386,109,169622,1,0,1:2:0:0:
137,148,169772,5,8,0:0:0:0:
65,182,169922,1,0,1:2:0:0:
81,257,170072,1,8,0:0:0:0:
422,379,170222,6,0,B|418:333|387:309|368:327|335:304|330:250,1,156.750004783631,6|0,1:2|0:0,0:0:0:0:
331,261,170522,1,0,1:0:0:0:
512,87,170672,2,0,P|489:131|472:193,1,104.500003189087,12|0,1:2|0:0,0:0:0:0:
244,332,170972,5,8,0:0:0:0:
194,312,171047,1,8,0:0:0:0:
178,263,171122,1,8,0:0:0:0:
207,219,171197,1,8,0:0:0:0:
260,198,171272,5,8,0:0:0:0:
295,155,171347,1,8,0:0:0:0:
281,100,171422,1,8,0:0:0:0:
229,72,171497,1,8,0:0:0:0:
165,112,171572,5,6,1:2:0:0:
192,115,173972,6,0,P|180:80|170:45,1,71.25,6|0,1:2|0:0,0:0:0:0:
0,154,174272,6,0,P|113:180|197:212,1,199.499993911743,6|0,1:2|0:0,0:0:0:0:
448,260,174572,6,0,P|335:286|251:318,1,199.499993911743,6|0,1:2|0:0,0:0:0:0:
167,378,174872,6,0,B|171:314|213:281|239:305|286:275|291:199,1,228,6|0,1:2|0:0,0:0:0:0:
291,202,175172,5,6,1:2:0:0:
459,19,175322,1,8,0:0:0:0:
503,53,175397,1,8,0:0:0:0:
485,104,175472,2,0,P|452:112|413:129,1,61.7499971733095,10|8,0:0|0:0,0:0:0:0:
308,18,175622,2,0,P|278:10|249:0,1,61.7499971733095,8|8,0:0|0:0,0:0:0:0:
95,101,175772,5,10,0:0:0:0:
122,145,175847,1,8,0:0:0:0:
137,194,175922,1,8,0:0:0:0:
152,248,175997,1,8,0:0:0:0:
126,314,176072,5,10,0:0:0:0:
175,283,176147,1,8,0:0:0:0:
227,301,176222,1,8,0:0:0:0:
240,361,176297,1,8,0:0:0:0:
167,378,176372,6,0,P|254:346|361:323,1,185.249991519928,6|0,1:2|0:0,0:0:0:0:
434,353,176672,2,0,P|414:284|403:227,1,123.499994346619,8|0,0:0|0:0,0:0:0:0:
186,102,176972,1,2,1:2:0:0:
338,207,177122,1,0,1:2:0:0:
429,7,177272,1,10,0:0:0:0:
262,225,177422,1,0,0:0:0:0:
486,112,177572,6,0,P|398:91|295:62,1,185.249991519928,2|0,1:2|0:0,0:0:0:0:
244,27,177872,2,0,P|185:49|192:111,1,123.499994346619,8|0,0:0|0:0,0:0:0:0:
414,295,178172,1,2,1:2:0:0:
452,226,178322,1,0,1:2:0:0:
221,377,178472,1,10,0:0:0:0:
338,271,178772,6,0,B|312:212|345:184|359:197|394:163|364:97,1,185.249991519928,6|0,1:2|0:0,0:0:0:0:
366,102,179072,1,0,1:2:0:0:
160,225,179222,1,0,1:0:0:0:
54,129,179372,1,0,1:2:0:0:
54,129,179447,1,0,1:2:0:0:
54,129,179522,2,0,P|81:140|125:151,1,61.7499971733095,0|0,1:2|1:2,0:0:0:0:
236,264,179672,1,8,0:0:0:0:
0,381,179822,1,6,1:2:0:0:
41,226,179972,5,0,0:0:0:0:
102,275,180122,1,0,1:2:0:0:
0,381,180272,2,0,P|59:360|134:343,1,123.499994346619,10|0,0:0|1:2,0:0:0:0:
337,231,180572,2,0,P|317:210|283:203,1,61.7499971733095,2|8,1:2|0:0,0:0:0:0:
234,145,180722,2,0,P|208:158|192:189,1,61.7499971733095,8|8,0:0|0:0,0:0:0:0:
315,380,180872,1,8,0:0:0:0:
354,345,180947,1,8,0:0:0:0:
395,322,181022,1,8,0:0:0:0:
443,307,181097,1,8,0:0:0:0:
487,307,181172,6,0,P|463:221|436:115,1,185.249991519928,6|0,1:2|0:0,0:0:0:0:
439,128,181472,1,8,0:0:0:0:
237,33,181622,1,0,0:0:0:0:
291,89,181772,1,2,1:2:0:0:
414,6,181922,1,0,1:2:0:0:
234,145,182072,2,0,P|177:127|102:114,1,123.499994346619,8|0,0:0|0:0,0:0:0:0:
308,373,182372,6,0,B|348:335|398:344|398:344|467:272|385:216,2,246.999988693238,2|8|2,1:2|0:0|1:2,0:0:0:0:
162,318,183122,1,0,1:2:0:0:
325,142,183272,1,8,0:0:0:0:
243,285,183422,1,0,0:0:0:0:
12,38,183572,6,0,P|103:62|205:84,1,185.249991519928,2|0,1:2|0:0,0:0:0:0:
249,135,183872,2,0,P|302:99|279:43,1,123.499994346619,10|0,0:0|0:0,0:0:0:0:
121,250,184172,1,2,1:2:0:0:
162,318,184322,1,0,1:2:0:0:
0,175,184472,2,0,P|25:232|43:300,1,123.499994346619,10|0,0:0|0:0,0:0:0:0:
340,380,184772,6,0,P|417:349|388:260,1,185.249991519928,0|0,1:2|0:0,0:0:0:0:
396,264,185072,1,10,0:0:0:0:
249,135,185222,1,0,0:0:0:0:
177,165,185372,1,2,1:2:0:0:
127,54,185522,1,0,1:2:0:0:
294,202,185672,1,10,0:0:0:0:
65,314,185822,1,0,1:0:0:0:
65,314,185897,1,0,1:0:0:0:
65,314,185972,6,0,P|152:284|266:258,1,185.249991519928,6|0,1:2|0:0,0:0:0:0:
242,262,186272,1,8,0:0:0:0:
499,93,186422,2,0,P|438:79|374:50,1,123.499994346619,0|2,0:0|1:2,0:0:0:0:
410,149,186722,1,0,1:2:0:0:
188,0,186872,2,0,P|213:51|230:121,1,123.499994346619,10|0,0:0|0:0,0:0:0:0:
471,202,187172,6,0,B|468:254|433:281|412:262|374:286|370:348,1,185.249991519928,2|0,1:2|0:0,0:0:0:0:
300,374,187472,2,0,P|229:369|218:312,1,123.499994346619,8|0,0:0|0:0,0:0:0:0:
74,146,187772,1,2,1:2:0:0:
146,185,187922,1,0,1:2:0:0:
0,294,188072,2,0,P|60:272|120:256,1,123.499994346619,10|0,0:0|0:0,0:0:0:0:
330,128,188372,5,12,0:0:0:0:
345,78,188447,1,0,1:2:0:0:
316,38,188522,1,0,1:2:0:0:
267,29,188597,1,0,1:2:0:0:
226,57,188672,2,0,P|238:85|243:115,1,61.7499971733095,0|0,1:2|1:2,0:0:0:0:
402,247,188822,5,12,0:0:0:0:
387,197,188897,1,0,1:2:0:0:
416,157,188972,1,0,1:2:0:0:
465,148,189047,1,0,1:2:0:0:
506,176,189122,2,0,P|494:204|489:234,1,61.7499971733095,0|0,1:2|1:2,0:0:0:0:
347,351,189272,6,0,P|315:338|273:330,3,61.7499971733095,12|0|0|0,0:0|1:2|1:2|1:2,0:0:0:0:
234,254,189572,2,0,P|202:267|160:275,1,61.7499971733095,0|0,1:2|1:2,0:0:0:0:
91,384,189722,5,12,0:0:0:0:
79,334,189797,1,0,1:2:0:0:
65,285,189872,1,0,1:2:0:0:
48,242,189947,1,0,1:2:0:0:
26,204,190022,1,0,1:2:0:0:
0,159,190097,1,0,1:2:0:0:
4,88,190172,5,12,0:0:0:0:
24,66,190247,1,0,1:2:0:0:
58,59,190322,1,0,1:2:0:0:
94,73,190397,1,0,1:2:0:0:
117,115,190472,1,12,0:0:0:0:
151,149,190547,1,0,1:2:0:0:
204,155,190622,1,0,1:2:0:0:
243,113,190697,1,0,1:2:0:0:
180,76,190772,6,0,P|209:153|234:259,1,185.249991519928,6|0,1:2|0:0,0:0:0:0:
215,325,191072,2,0,P|293:310|303:268,1,123.499994346619,8|0,0:0|0:0,0:0:0:0:
438,105,191372,1,2,1:2:0:0:
376,153,191522,1,0,1:2:0:0:
263,36,191672,1,8,0:0:0:0:
439,201,191822,1,0,0:0:0:0:
215,325,191972,6,0,B|165:292|113:329|113:329|100:373|53:376,1,185.249991519928,2|0,1:2|0:0,0:0:0:0:
14,315,192272,2,0,P|11:259|70:242,1,123.499994346619,8|0,0:0|0:0,0:0:0:0:
279,110,192572,1,2,1:2:0:0:
219,159,192722,1,0,1:2:0:0:
380,260,192872,2,0,P|319:237|246:218,1,123.499994346619,8|0,0:0|0:0,0:0:0:0:
0,110,193172,6,0,P|84:92|181:62,1,185.249991519928,2|0,1:2|0:0,0:0:0:0:
233,15,193472,2,0,P|279:46|277:112,1,123.499994346619,10|0,0:0|0:0,0:0:0:0:
113,264,193772,1,2,1:2:0:0:
160,206,193922,1,0,1:2:0:0:
280,371,194072,1,10,0:0:0:0:
190,288,194222,1,0,0:0:0:0:
0,376,194372,5,0,1:2:0:0:
0,376,194672,2,0,B|-26:317|8:289|21:302|57:268|27:201,1,185.249991519928,10|0,0:0|0:0,0:0:0:0:
29,207,194972,1,2,1:2:0:0:
188,107,195122,1,0,1:2:0:0:
21,30,195272,1,10,0:0:0:0:
118,149,195422,1,0,1:0:0:0:
118,149,195497,1,0,1:0:0:0:
118,149,195572,6,0,B|168:116|220:153|220:153|233:197|280:200,1,185.249991519928,2|0,1:2|0:0,0:0:0:0:
273,199,195872,1,10,0:0:0:0:
453,67,196022,1,0,0:0:0:0:
487,138,196172,1,2,1:2:0:0:
314,18,196322,1,0,1:2:0:0:
487,138,196472,2,0,P|465:195|449:259,1,123.499994346619,10|0,0:0|0:0,0:0:0:0:
278,379,196772,6,0,P|186:349|88:327,1,185.249991519928,2|0,1:2|0:0,0:0:0:0:
15,341,197072,2,0,P|36:279|52:219,1,123.499994346619,10|0,0:0|0:0,0:0:0:0:
246,115,197372,1,2,1:2:0:0:
294,173,197522,1,0,1:2:0:0:
409,13,197672,2,0,P|349:34|276:54,1,123.499994346619,10|0,0:0|0:0,0:0:0:0:
246,115,197972,5,6,1:2:0:0:
498,290,198122,1,2,0:0:0:0:
458,223,198272,1,8,0:0:0:0:
389,255,198422,1,4,1:2:0:0:
246,371,198572,5,0,0:0:0:0:
157,196,198722,1,8,0:0:0:0:
290,307,198872,1,0,1:2:0:0:
46,314,199022,6,0,P|132:291|238:262,1,185.249991519928,12|0,0:0|0:0,0:0:0:0:
224,265,199322,1,0,1:2:0:0:
386,145,199472,2,0,P|412:96|361:55,1,123.499994346619,10|8,0:0|0:0,0:0:0:0:
174,56,199772,1,10,0:0:0:0:
174,56,199847,1,8,0:0:0:0:
174,56,199922,2,0,P|158:27|152:-2,1,61.7499971733095,8|8,0:0|0:0,0:0:0:0:
284,18,200072,1,10,0:0:0:0:
269,50,200147,1,8,0:0:0:0:
257,88,200222,1,8,0:0:0:0:
246,129,200297,1,8,0:0:0:0:
236,170,200372,6,0,B|252:274|304:225|313:336,1,185.249991519928,6|0,1:2|0:0,0:0:0:0:
312,332,200672,1,8,0:0:0:0:
434,238,200822,1,0,0:0:0:0:
509,270,200972,1,2,1:2:0:0:
361,142,201122,1,0,1:2:0:0:
512,57,201272,2,0,P|494:110|480:181,1,123.499994346619,8|0,0:0|0:0,0:0:0:0:
205,344,201572,6,0,B|177:318|135:327|135:327|84:279|138:234,1,185.249991519928,2|0,1:2|0:0,0:0:0:0:
137,234,201872,1,8,0:0:0:0:
278,120,202022,1,0,1:0:0:0:
278,120,202097,1,0,1:0:0:0:
278,120,202172,2,0,P|300:65|310:-2,1,123.499994346619,2|0,1:2|1:2,0:0:0:0:
203,164,202472,1,8,0:0:0:0:
70,42,202622,1,0,0:0:0:0:
280,207,202772,5,2,1:2:0:0:
280,207,203072,2,0,P|305:263|314:329,1,123.499994346619,10|0,0:0|0:0,0:0:0:0:
467,250,203372,1,2,1:2:0:0:
399,217,203522,1,0,1:2:0:0:
239,344,203672,2,0,P|179:354|114:384,1,123.499994346619,10|0,0:0|0:0,0:0:0:0:
3,111,203972,6,0,P|88:118|130:208,1,185.249991519928,0|0,1:2|0:0,0:0:0:0:
189,252,204272,2,0,P|249:255|280:203,1,123.499994346619,10|0,0:0|0:0,0:0:0:0:
445,63,204572,1,2,1:2:0:0:
309,135,204722,1,0,1:2:0:0:
252,0,204872,1,10,0:0:0:0:
426,138,205022,1,0,1:2:0:0:
426,138,205097,1,0,1:2:0:0:
426,138,205172,6,0,P|406:198|395:264,1,123.499994346619,6|0,1:2|0:0,0:0:0:0:
149,130,205472,2,0,P|138:69|118:10,1,123.499994346619,8|0,0:0|0:0,0:0:0:0:
279,206,205772,1,2,1:2:0:0:
212,248,205922,1,0,1:2:0:0:
68,156,206072,5,8,0:0:0:0:
263,309,206222,1,0,1:2:0:0:
19,384,206372,5,14,1:2:0:0:
19,384,207572,6,0,P|68:307|191:314,1,209.000006378174,6|8,1:2|0:0,0:0:0:0:
241,256,208022,1,2,0:0:0:0:
132,146,208172,1,0,1:2:0:0:
218,65,208322,2,0,P|211:84|199:132,1,52.2500015945435,0|0,1:2|0:0,0:0:0:0:
96,216,208472,2,0,P|55:185|61:122,1,104.500003189087,10|2,0:0|0:0,0:0:0:0:
263,183,208772,5,2,1:2:0:0:
241,256,208922,1,0,0:0:0:0:
314,279,209072,1,10,0:0:0:0:
460,154,209222,2,0,P|368:159|335:218,1,156.750004783631,2|0,0:0|0:0,0:0:0:0:
336,207,209522,1,0,1:2:0:0:
436,384,209672,2,0,P|479:358|470:298,1,104.500003189087,8|0,0:0|0:0,0:0:0:0:
249,331,209972,6,0,P|169:341|93:378,1,156.750004783631,2|0,1:2|0:0,0:0:0:0:
100,372,210272,1,8,0:0:0:0:
209,215,210422,1,2,0:0:0:0:
273,257,210572,1,0,1:2:0:0:
96,156,210722,2,0,P|88:136|81:100,1,52.2500015945435,0|0,1:2|0:0,0:0:0:0:
0,269,210872,2,0,P|54:267|86:223,1,104.500003189087,10|2,0:0|0:0,0:0:0:0:
279,38,211172,6,0,P|256:84|245:138,1,104.500003189087,2|0,1:2|0:0,0:0:0:0:
426,285,211472,2,0,P|411:267|381:259,1,52.2500015945435,10|0,0:0|0:0,0:0:0:0:
329,201,211622,1,2,0:0:0:0:
198,317,211772,1,0,1:2:0:0:
188,312,211922,1,0,1:2:0:0:
355,384,212072,1,8,0:0:0:0:
303,297,212222,1,0,1:2:0:0:
303,297,212297,1,0,1:2:0:0:
303,297,212372,5,6,1:2:0:0:
232,247,212522,1,0,0:0:0:0:
254,176,212672,1,8,0:0:0:0:
434,135,212822,5,2,0:0:0:0:
502,95,212972,1,0,1:2:0:0:
482,20,213122,1,0,1:2:0:0:
344,127,213272,5,10,0:0:0:0:
205,24,213422,2,0,P|255:39|315:55,1,104.500003189087,2|2,0:0|1:2,0:0:0:0:
382,10,213722,1,0,0:0:0:0:
176,187,213872,2,0,P|136:150|149:97,1,104.500003189087,10|0,0:0|0:0,0:0:0:0:
304,224,214172,1,0,1:2:0:0:
257,282,214322,1,0,1:2:0:0:
419,359,214472,2,0,P|367:343|318:333,1,104.500003189087,10|0,0:0|0:0,0:0:0:0:
132,378,214772,5,6,1:2:0:0:
375,259,214922,1,10,0:0:0:0:
317,117,215072,5,2,1:2:0:0:
388,270,215222,1,2,1:2:0:0:
478,102,215372,5,10,0:0:0:0:
438,38,215522,1,2,1:2:0:0:
366,57,215672,1,6,1:2:0:0:
237,195,215822,6,0,B|213:171|173:177|173:177|123:121|189:80,1,185.249991519928,10|0,0:0|0:0,0:0:0:0:
225,17,216122,2,0,P|246:29|258:69,1,61.7499971733095,2|0,1:2|0:0,0:0:0:0:
419,164,216272,2,0,P|466:151|469:86,1,104.500003189087,14|2,0:0|0:0,0:0:0:0:
316,223,216572,2,0,P|302:249|295:285,1,52.2500015945435,2|0,1:2|0:0,0:0:0:0:
226,358,216722,1,10,0:0:0:0:
182,384,216797,1,8,0:0:0:0:
143,359,216872,2,0,P|139:330|123:296,1,52.2500015945435,10|8,0:0|0:0,0:0:0:0:
10,244,217022,2,0,P|29:266|61:274,1,52.2500015945435,10|8,0:0|0:0,0:0:0:0:
148,148,217172,6,0,B|163:59|209:107|226:7,1,156.750004783631,6|0,1:2|0:0,0:0:0:0:
224,16,217472,1,10,0:0:0:0:
381,183,217622,1,2,0:0:0:0:
316,223,217772,1,2,1:2:0:0:
360,285,217922,2,0,P|384:292|411:306,1,52.2500015945435,2|0,1:2|0:0,0:0:0:0:
256,384,218072,2,0,P|246:329|220:271,1,104.500003189087,10|2,0:0|0:0,0:0:0:0:
35,126,218372,5,2,1:2:0:0:
86,185,218522,1,2,0:0:0:0:
19,272,218672,1,10,0:0:0:0:
154,160,218822,2,0,P|166:135|175:100,1,52.2500015945435,2|0,0:0|0:0,0:0:0:0:
19,272,218972,2,0,P|43:317|57:377,1,104.500003189087,0|2,1:2|1:2,0:0:0:0:
262,279,219272,2,0,P|228:238|169:237,1,104.500003189087,10|2,0:0|0:0,0:0:0:0:
90,0,219572,5,2,1:2:0:0:
260,81,219722,1,2,0:0:0:0:
154,160,219872,1,10,0:0:0:0:
184,92,220022,1,2,0:0:0:0:
86,185,220172,1,2,1:2:0:0:
262,279,220322,2,0,P|253:251|249:224,1,52.2500015945435,2|0,1:2|0:0,0:0:0:0:
114,372,220472,2,0,P|156:351|219:343,1,104.500003189087,10|2,0:0|0:0,0:0:0:0:
443,206,220772,6,0,P|391:199|345:177,1,104.500003189087,2|2,1:2|0:0,0:0:0:0:
282,383,221072,2,0,P|310:376|329:348,1,52.2500015945435,10|0,0:0|0:0,0:0:0:0:
389,317,221222,1,2,0:0:0:0:
237,196,221372,1,0,1:2:0:0:
228,188,221522,1,2,1:2:0:0:
384,72,221672,1,10,0:0:0:0:
311,143,221822,1,2,1:2:0:0:
311,143,221897,1,0,1:2:0:0:
311,143,221972,5,6,1:2:0:0:
238,100,222122,1,2,0:0:0:0:
266,31,222272,1,10,0:0:0:0:
438,243,222422,5,2,0:0:0:0:
507,207,222572,1,2,1:2:0:0:
488,133,222722,1,2,1:2:0:0:
336,262,222872,5,10,0:0:0:0:
486,352,223022,2,0,P|427:331|369:315,1,104.500003189087,2|2,0:0|1:2,0:0:0:0:
228,188,223322,1,2,0:0:0:0:
208,374,223472,2,0,P|226:325|240:273,1,104.500003189087,10|2,0:0|0:0,0:0:0:0:
348,130,223772,5,2,1:2:0:0:
170,242,223922,1,10,0:0:0:0:
83,88,224072,5,2,1:2:0:0:
228,188,224222,1,8,0:0:0:0:
163,148,224372,5,6,1:2:0:0:
28,366,224672,6,0,P|23:342|13:310,1,52.2500015945435,2|0,0:0|0:0,0:0:0:0:
163,148,225272,6,0,P|168:124|178:92,1,52.2500015945435,2|0,0:0|0:0,0:0:0:0:
363,257,225872,6,0,P|358:233|348:201,1,52.2500015945435,2|0,0:0|0:0,0:0:0:0:
474,52,226472,6,0,P|479:28|489:-4,1,52.2500015945435,2|0,0:0|0:0,0:0:0:0:
