osu file format v14

[General]
AudioFilename: audio.mp3
AudioLeadIn: 0
PreviewTime: 58506
Countdown: 0
SampleSet: Normal
StackLeniency: 1
Mode: 0
LetterboxInBreaks: 0
WidescreenStoryboard: 1

[Editor]
Bookmarks: 104108,132908,152108,188108,190508,207308
DistanceSpacing: 1.6
BeatDivisor: 4
GridSize: 32
TimelineZoom: 1.8

[Metadata]
Title:Matasaburo
TitleUnicode:又三郎
Artist:Yorushika
ArtistUnicode:ヨルシカ
Creator:Ryuusei Aika
Version:Lobelia's Hard
Source:
Tags:matasaburou japanese rock j-rock jrock pop j-pop jpop female vocal alevi lobelia [ abhor ] battle ドコモ dアニメストア docomo d anime store theme song
BeatmapID:3048539
BeatmapSetID:1485265

[Difficulty]
HPDrainRate:4
CircleSize:4
OverallDifficulty:6
ApproachRate:8
SliderMultiplier:1.2
SliderTickRate:1

[Events]
//Background and Video events
0,0,"BG.jpg",0,0
//Break Periods
2,94708,103358
//Storyboard Layer 0 (Background)
//Storyboard Layer 1 (Fail)
//Storyboard Layer 2 (Pass)
//Storyboard Layer 3 (Foreground)
//Storyboard Layer 4 (Overlay)
//Storyboard Sound Samples

[TimingPoints]
-2692,300,4,3,0,25,1,0
908,-100,4,1,0,55,0,0
17708,-166.666666666667,4,1,1,45,0,0
20108,-125,4,2,0,25,0,0
36908,-125,4,3,0,30,0,0
54008,-100,4,3,0,30,0,0
56108,-100,4,3,0,20,0,0
57608,-166.666666666667,4,2,0,35,0,0
58508,-90.9090909090909,4,1,0,60,0,0
74108,-125,4,2,0,60,0,0
75308,-100,4,1,0,60,0,0
82508,-100,4,1,0,55,0,0
92108,-166.666666666667,4,1,1,55,0,0
94508,-166.666666666667,4,2,0,25,0,0
104108,-125,4,2,0,25,0,0
111308,-125,4,3,0,30,0,0
111608,-100,4,3,0,30,0,0
113708,-125,4,3,0,35,0,0
128408,-100,4,3,0,35,0,0
131858,-100,4,1,0,50,0,0
132308,-100,4,1,0,55,0,0
132908,-90.9090909090909,4,1,0,60,0,0
149708,-90.9090909090909,4,1,0,55,0,0
150908,-90.9090909090909,4,1,0,40,0,0
151508,-125,4,1,0,40,0,0
152108,-90.9090909090909,4,1,0,60,0,0
173708,-76.9230769230769,4,1,0,60,0,0
175208,-90.9090909090909,4,1,0,60,0,0
175358,-90.9090909090909,4,1,0,55,0,0
175808,-90.9090909090909,4,1,0,50,0,0
176108,-90.9090909090909,4,1,0,60,0,0
190208,-90.9090909090909,4,1,0,50,0,0
190508,-90.9090909090909,4,1,0,60,0,0
206108,-125,4,2,0,60,0,0
207308,-100,4,1,0,60,0,0
216908,-100,4,1,0,55,0,0
224108,-100,4,3,0,55,0,0

[Colours]
Combo1 : 255,88,100
Combo2 : 128,255,128
Combo3 : 128,191,255

[HitObjects]
505,170,908,6,0,P|495:203|489:236,1,60,4|0,0:0|0:0,0:0:0:0:
472,316,1208,1,12,0:0:0:0:
472,316,1358,1,0,0:0:0:0:
408,252,1508,2,0,P|396:224|390:195,2,60,4|4|8,3:0|3:0|0:0,0:0:0:0:
472,316,1958,1,0,0:0:0:0:
383,334,2108,2,0,P|346:323|322:311,1,60,4|0,3:0|0:0,0:0:0:0:
253,261,2408,1,8,0:0:0:0:
168,291,2558,2,0,B|92:289|132:333|45:330,1,120,0|4,0:0|3:0,0:0:0:0:
48,240,3008,2,0,L|37:173,1,60,8|0,0:0|0:0,0:0:0:0:
130,67,3308,6,0,P|114:91|115:136,1,60,4|0,3:0|0:0,0:0:0:0:
205,122,3608,1,8,0:0:0:0:
205,122,3758,1,0,0:0:0:0:
283,88,3908,2,0,P|270:62|230:40,2,60,4|4|8,3:0|3:0|0:0,0:0:0:0:
205,122,4358,1,0,0:0:0:0:
192,207,4508,2,0,P|220:208|259:185,1,60,4|0,3:0|0:0,0:0:0:0:
332,163,4808,1,8,0:0:0:0:
418,138,4958,2,0,B|410:202|410:202|412:208|412:208|404:279,1,120,0|4,0:0|3:0,0:0:0:0:
395,346,5408,2,0,L|473:338,1,60,8|4,0:0|3:0,0:0:0:0:
309,312,5708,6,0,P|283:311|250:294,2,60,4|0|12,3:1|0:0|0:0,0:0:0:0:
307,222,6158,1,0,0:0:0:0:
307,222,6308,1,4,3:0:0:0:
489,203,6608,1,8,0:0:0:0:
489,203,6758,1,0,0:0:0:0:
441,126,6908,2,0,L|452:54,1,60,4|0,3:0|0:0,0:0:0:0:
360,78,7208,2,0,L|349:150,2,60,8|0|4,0:0|0:0|3:0,0:0:0:0:
284,29,7658,5,4,3:0:0:0:
284,29,7808,2,0,P|247:37|217:35,1,60,8|0,0:0|0:0,0:0:0:0:
93,26,8108,2,0,P|140:52|160:117,1,120,4|8,3:0|3:0,0:0:0:0:
128,199,8558,1,12,3:0:0:0:
128,199,8708,2,0,L|55:189,1,60,4|4,3:0|3:0,0:0:0:0:
192,265,9008,1,4,3:0:0:0:
192,265,9158,2,0,B|256:253|256:253|265:256|265:256|315:248,1,120,4|4,3:0|3:0,0:0:0:0:
399,238,9608,6,0,L|388:303,1,60,4|0,1:0|0:0,0:0:0:0:
488,225,9908,2,0,L|477:290,2,60,4|8|4,0:3|0:0|0:3,0:0:0:0:
498,135,10358,1,0,0:0:0:0:
498,135,10433,1,0,0:0:0:0:
498,135,10508,6,0,P|449:142|432:141,1,60,4|0,0:0|0:0,0:0:0:0:
356,135,10808,1,8,0:0:0:0:
356,135,10958,1,0,0:0:0:0:
301,56,11108,2,0,P|285:30|265:7,2,60,4|4|8,3:0|3:0|0:0,0:0:0:0:
356,135,11558,1,0,0:0:0:0:
322,216,11708,2,0,P|307:242|298:270,1,60,4|0,3:0|0:0,0:0:0:0:
283,360,12008,1,8,0:0:0:0:
213,303,12158,2,0,B|172:243|223:251|173:172,1,120,0|4,0:0|3:0,0:0:0:0:
106,236,12608,2,0,L|39:245,1,60,8|0,0:0|0:0,0:0:0:0:
0,139,12908,6,0,P|4:107|24:77,1,60,4|0,3:0|0:0,0:0:0:0:
83,21,13208,1,8,0:0:0:0:
83,21,13358,1,0,0:0:0:0:
108,107,13508,2,0,P|114:140|129:170,2,60,4|4|8,3:0|3:0|0:0,0:0:0:0:
83,21,13958,1,0,0:0:0:0:
169,45,14108,2,0,P|197:61|228:69,1,60,4|0,3:0|0:0,0:0:0:0:
314,62,14408,1,8,0:0:0:0:
395,24,14558,2,0,B|397:83|397:83|400:90|400:90|401:151,1,120,0|4,0:0|3:0,0:0:0:0:
404,233,15008,2,0,L|482:220,1,60,8|4,0:0|3:0,0:0:0:0:
346,306,15308,6,0,L|282:296,2,60,4|0|12,3:1|0:0|0:0,0:0:0:0:
435,319,15758,1,0,0:0:0:0:
435,319,15908,1,4,3:0:0:0:
488,149,16208,1,8,0:0:0:0:
488,149,16358,1,0,0:0:0:0:
408,110,16508,2,0,L|421:44,1,60,4|0,3:0|0:0,0:0:0:0:
335,42,16808,2,0,L|323:100,2,60,8|4|0,0:0|3:0|0:0,0:0:0:0:
245,53,17258,5,8,0:0:0:0:
164,92,17408,2,0,P|177:128|180:157,1,60
179,171,17633,1,0,0:0:0:0:
179,171,17708,6,0,P|229:163|120:238,1,557.999982971192,2|0,0:2|2:0,2:0:0:0:
157,215,20108,5,4,3:2:0:0:
45,102,20408,1,8,1:0:0:0:
45,102,20558,2,0,P|48:128|57:151,1,48,0|4,0:0|3:0,0:0:0:0:
127,107,20858,1,4,3:0:0:0:
206,88,21008,2,0,P|216:57|231:39,2,48,8|0|4,1:0|0:0|3:0,0:0:0:0:
188,167,21458,1,0,0:0:0:0:
267,147,21608,1,8,1:0:0:0:
410,235,21908,1,4,3:0:0:0:
410,235,22058,1,4,3:0:0:0:
455,167,22208,2,0,L|511:160,1,48,8|0,1:0|0:0,0:0:0:0:
400,107,22508,6,0,B|352:103|352:103|344:106|344:106|297:100,1,96,4|8,3:0|1:0,0:0:0:0:
224,86,22958,2,0,L|229:146,1,48,0|4,0:0|3:0,0:0:0:0:
147,119,23258,1,4,3:0:0:0:
177,194,23408,2,0,L|170:248,1,48,8|4,1:0|3:0,0:0:0:0:
300,341,23858,1,4,3:0:0:0:
346,273,24008,2,0,L|338:212,1,48,8|0,1:0|0:0,0:0:0:0:
403,174,24308,1,4,3:0:0:0:
403,174,24458,1,4,3:0:0:0:
435,98,24608,2,0,L|492:93,1,48,8|2,1:0|2:0,0:0:0:0:
364,59,24908,6,0,B|317:54|317:54|308:58|308:58|262:54,1,96,6|8,3:0|1:0,0:0:0:0:
208,108,25358,2,0,L|154:114,1,48,0|4,0:0|3:0,0:0:0:0:
169,32,25658,1,4,3:0:0:0:
95,68,25808,2,0,L|39:63,1,48,8|0,1:0|0:0,0:0:0:0:
61,144,26108,1,4,3:0:0:0:
41,305,26408,1,8,1:0:0:0:
187,233,26708,1,4,3:0:0:0:
187,233,26858,1,4,3:0:0:0:
245,289,27008,2,0,P|247:311|248:340,1,48,8|0,1:0|0:0,0:0:0:0:
307,237,27308,6,0,B|311:181|337:201|341:136,1,96,4|8,3:0|1:0,0:0:0:0:
337,66,27758,1,0,0:0:0:0:
267,108,27908,2,0,P|236:114|208:109,1,48,4|4,3:0|3:0,0:0:0:0:
153,160,28208,2,0,P|125:132|118:111,1,48,8|4,1:0|3:0,0:0:0:0:
40,115,28508,2,0,P|33:86|37:54,2,48,0|4|8,0:0|3:0|1:0,0:0:0:0:
70,275,29108,1,4,3:0:0:0:
70,275,29258,1,4,3:0:0:0:
136,321,29408,2,0,L|211:311,1,72,8|2,1:0|2:0,0:0:0:0:
229,308,29708,6,0,P|236:328|240:358,1,48,6|0,3:0|0:0,0:0:0:0:
288,249,30008,1,10,1:2:0:0:
373,236,30158,2,0,P|367:263|365:289,1,48,0|4,0:0|3:0,0:0:0:0:
318,169,30458,1,4,3:0:0:0:
237,179,30608,2,0,P|230:131|207:69,1,96,8|4,1:0|3:0,0:0:0:0:
371,39,31208,1,8,1:0:0:0:
469,168,31508,1,4,3:0:0:0:
469,168,31658,1,4,3:0:0:0:
415,229,31808,2,0,L|424:283,1,48,8|0,1:0|0:0,0:0:0:0:
345,187,32108,6,0,B|335:231|335:231|336:237|336:237|326:289,1,96,6|8,3:0|1:0,0:0:0:0:
300,357,32558,2,0,P|265:347|245:344,1,48,0|4,0:0|3:0,0:0:0:0:
171,344,32858,1,4,3:0:0:0:
171,262,33008,2,0,P|143:270|121:276,1,48,8|4,1:0|3:0,0:0:0:0:
49,130,33458,1,4,3:0:0:0:
105,70,33608,2,0,L|162:79,1,48,8|0,1:0|0:0,0:0:0:0:
215,129,33908,2,0,L|272:117,1,48,4|4,3:0|3:0,0:0:0:0:
342,103,34208,1,8,1:0:0:0:
491,168,34508,6,0,P|492:139|501:111,1,48,6|0,3:0|0:0,0:0:0:0:
487,247,34808,1,8,1:0:0:0:
412,285,34958,2,0,P|406:254|398:235,1,48,0|4,0:0|3:0,0:0:0:0:
484,326,35258,1,4,3:0:0:0:
411,363,35408,2,0,L|351:354,1,48,8|0,1:0|0:0,0:0:0:0:
270,289,35708,6,0,B|227:308|227:308|222:315|222:315|179:335,1,96,6|8,3:0|1:0,0:0:0:0:
104,318,36158,1,0,0:0:0:0:
27,289,36308,2,0,L|6:240,2,48,4|4|8,3:0|3:0|1:0,0:0:0:0:
104,318,36758,1,0,0:0:0:0:
114,237,36908,6,0,L|119:176,2,48,4|8|4,3:0|1:0|3:0,0:0:0:0:
194,224,37358,1,4,3:0:0:0:
264,265,37508,2,0,L|376:258,1,96,8|4,1:0|3:0,0:0:0:0:
441,255,37958,1,8,1:0:0:0:
458,92,38258,1,4,3:0:0:0:
492,165,38408,2,0,P|438:172|399:145,1,96,12|4,1:2|3:0,0:0:0:0:
373,75,38858,2,0,L|368:26,1,48,8|4,1:0|3:0,0:0:0:0:
284,48,39158,1,2,2:0:0:0:
284,48,39233,1,2,2:0:0:0:
284,48,39308,6,0,L|293:-6,2,48,4|0|8,3:2|0:0|1:0,0:0:0:0:
270,128,39758,1,0,0:0:0:0:
134,217,40058,1,4,3:0:0:0:
134,217,40208,2,0,L|141:267,2,48,8|0|4,1:0|0:0|3:0,0:0:0:0:
119,136,40658,1,0,0:0:0:0:
106,55,40808,2,0,L|99:5,1,48,8|0,1:0|0:0,0:0:0:0:
185,19,41108,2,0,B|245:25|217:52|275:58,1,96,4|8,3:0|1:0,0:0:0:0:
388,170,41708,6,0,L|338:176,2,48,4|0|8,3:0|0:0|1:0,0:0:0:0:
469,159,42158,1,0,0:0:0:0:
386,299,42458,1,4,3:0:0:0:
386,299,42608,2,0,L|438:304,2,48,8|0|4,1:0|0:0|3:0,0:0:0:0:
304,290,43058,1,0,0:0:0:0:
223,279,43208,2,0,L|171:274,1,48,8|0,1:0|0:0,0:0:0:0:
196,358,43508,1,4,3:0:0:0:
196,358,43658,1,4,3:0:0:0:
118,333,43808,2,0,P|89:339|66:336,1,48,8|4,1:0|3:0,0:0:0:0:
55,332,44033,1,4,3:0:0:0:
55,332,44108,6,0,P|49:262|53:219,1,96,4|8,3:0|1:0,0:0:0:0:
54,154,44558,1,0,0:0:0:0:
295,196,45008,2,0,P|269:205|234:201,1,48,8|0,1:0|0:0,0:0:0:0:
190,116,45308,2,0,P|216:126|240:127,1,48,4|0,3:0|0:0,0:0:0:0:
314,87,45608,1,8,1:0:0:0:
476,76,45908,6,0,P|452:80|439:146,1,96,4|8,3:0|1:0,0:0:0:0:
480,208,46358,1,0,0:0:0:0:
494,288,46508,2,0,L|434:283,1,48,4|8,3:0|1:0,0:0:0:0:
371,251,46808,2,0,L|312:258,1,48,4|4,3:0|3:0,0:0:0:0:
266,316,47108,2,0,L|218:305,1,48,8|4,1:0|3:0,0:0:0:0:
139,288,47408,5,4,3:0:0:0:
57,282,47558,2,0,P|53:313|53:342,2,48,8|4|4,3:1|3:0|1:3,0:0:0:0:
103,214,48008,2,0,P|101:174|94:131,1,72,8|0,1:0|0:0,0:0:0:0:
89,127,48308,2,0,L|35:137,2,48,4|8|4,3:0|1:0|3:0,0:0:0:0:
164,71,48758,1,0,1:0:0:0:
164,71,48833,1,0,1:0:0:0:
164,71,48908,6,0,L|151:12,2,48,4|0|8,3:2|0:0|1:0,0:0:0:0:
235,109,49358,1,0,0:0:0:0:
323,252,49658,1,4,3:0:0:0:
323,252,49808,2,0,L|314:310,2,48,8|0|4,1:0|0:0|3:0,0:0:0:0:
398,219,50258,1,0,0:0:0:0:
474,189,50408,2,0,L|483:131,1,48,8|0,1:0|0:0,0:0:0:0:
488,59,50708,2,0,B|430:52|461:82|386:70,1,96,4|8,3:0|1:0,0:0:0:0:
240,125,51308,6,0,L|244:64,2,48,4|0|8,3:0|0:0|1:0,0:0:0:0:
287,191,51758,1,0,0:0:0:0:
149,275,52058,1,4,3:0:0:0:
149,275,52208,2,0,L|154:333,2,48,8|0|4,1:0|0:0|3:0,0:0:0:0:
86,222,52658,1,0,0:0:0:0:
24,168,52808,2,0,L|19:110,1,48,8|0,1:0|0:0,0:0:0:0:
86,73,53108,1,4,3:0:0:0:
86,73,53258,1,4,3:0:0:0:
156,114,53408,2,0,B|208:122|197:94|256:108,1,96,8|4,1:0|3:0,0:0:0:0:
445,182,54008,6,0,L|457:45,1,120,4|4,0:2|3:0,0:0:0:0:
383,17,54458,1,4,3:0:0:0:
321,66,54608,2,0,P|347:91|375:96,1,60,8|0,3:1|0:0,0:0:0:0:
477,57,54908,2,0,L|466:176,1,120,4|8,3:0|3:1,0:0:0:0:
512,351,55508,5,4,3:0:0:0:
482,352,55658,1,4,3:0:0:0:
402,325,55808,1,8,3:1:0:0:
371,323,55958,1,4,3:0:0:0:
271,358,56108,5,12,1:0:0:0:
271,358,57308,6,0,L|265:320,1,30,4|0,3:0|0:0,0:0:0:0:
337,216,57608,6,0,L|190:234,1,143.999995605469,8|0,0:1|0:0,0:0:0:0:
7,110,58508,6,0,P|42:135|135:138,1,132.00000402832,4|12,3:0|0:2,0:0:0:0:
208,107,58958,1,2,2:2:0:0:
284,69,59108,2,0,L|278:2,2,66.0000020141602,4|4|8,3:0|3:0|0:0,0:0:0:0:
355,116,59558,1,0,0:0:0:0:
436,89,59708,2,0,L|418:242,1,132.00000402832,4|8,3:0|0:0,0:0:0:0:
289,332,60308,6,0,P|248:319|156:320,1,132.00000402832,4|8,3:0|0:0,0:0:0:0:
80,353,60758,1,0,0:0:0:0:
85,267,60908,2,0,P|104:236|134:213,1,66.0000020141602,4|0,3:0|0:0,0:0:0:0:
53,162,61208,2,0,P|29:139|-7:121,1,66.0000020141602,8|2,0:0|2:2,0:0:0:0:
80,66,61508,2,0,P|113:55|125:134,1,132.00000402832,4|8,3:0|0:0,0:0:0:0:
275,31,62108,1,4,3:0:0:0:
370,173,62408,6,0,P|378:134|437:48,2,132.00000402832,8|4|8,0:0|3:0|3:1,0:0:0:0:
358,258,63158,1,0,0:0:0:0:
437,225,63308,2,0,P|465:204|500:194,1,66.0000020141602,4|0,3:1|0:0,0:0:0:0:
493,325,63608,2,0,P|460:310|424:308,1,66.0000020141602,8|2,0:0|2:2,0:0:0:0:
352,347,63908,2,0,P|305:326|260:253,1,132.00000402832,4|8,3:0|0:0,0:0:0:0:
248,175,64358,1,0,0:0:0:0:
192,109,64508,2,0,P|248:88|320:126,2,132.00000402832,4|8|4,3:0|0:0|3:0,0:0:0:0:
159,188,65258,1,4,3:0:0:0:
159,188,65408,2,0,L|154:262,1,66.0000020141602,8|0,0:0|0:0,0:0:0:0:
284,300,65708,5,4,3:0:0:0:
306,217,65858,2,0,L|236:225,1,66.0000020141602,12|4,0:2|3:0,0:0:0:0:
394,203,66158,1,4,3:0:0:0:
372,286,66308,2,0,L|442:278,2,66.0000020141602,8|0|0,0:0|0:0|0:0,0:0:0:0:
284,300,66758,6,0,P|241:318|212:319,1,66.0000020141602,12|0,0:0|0:0,0:0:0:0:
145,273,67058,2,0,L|137:354,2,66.0000020141602,4|2|2,3:0|1:3|1:3,0:0:0:0:
59,257,67508,2,0,L|51:181,1,66.0000020141602,2|2,1:3|1:3,0:0:0:0:
38,106,67808,1,0,0:0:0:0:
125,147,67958,1,0,0:0:0:0:
125,147,68033,1,0,0:0:0:0:
125,147,68108,6,0,P|167:160|234:100,1,132.00000402832,4|8,0:0|0:0,0:0:0:0:
246,25,68558,1,2,2:2:0:0:
314,76,68708,2,0,P|349:126|327:210,1,132.00000402832,4|8,3:0|0:0,0:0:0:0:
298,269,69158,1,0,0:0:0:0:
220,233,69308,1,4,3:0:0:0:
423,216,69608,1,8,0:0:0:0:
333,358,69908,6,0,L|192:342,1,132.00000402832,4|8,3:0|0:0,0:0:0:0:
116,329,70358,1,0,0:0:0:0:
41,286,70508,2,0,P|20:252|16:221,1,66.0000020141602,4|0,3:0|0:0,0:0:0:0:
64,149,70808,2,0,P|52:179|51:221,1,66.0000020141602,8|2,0:0|2:2,0:0:0:0:
197,206,71108,2,0,P|190:232|141:188,1,132.00000402832,4|8,3:0|0:0,0:0:0:0:
78,29,71708,1,4,3:0:0:0:
297,33,72008,6,0,P|285:81|282:163,2,132.00000402832,8|4|8,0:0|3:0|3:1,0:0:0:0:
390,44,72758,1,4,3:0:0:0:
390,44,72833,1,4,3:0:0:0:
390,44,72908,2,0,L|482:53,1,66.0000020141602,4|0,3:2|0:0,0:0:0:0:
477,133,73208,2,0,L|385:124,1,66.0000020141602,8|2,0:0|2:2,0:0:0:0:
371,203,73508,2,0,L|463:212,1,66.0000020141602,4|8,3:0|0:0,0:0:0:0:
462,291,73808,2,0,L|370:282,1,66.0000020141602,4|0,3:0|0:0,0:0:0:0:
383,298,74033,1,0,0:0:0:0:
371,312,74108,6,0,B|267:302|267:302|256:306|256:306|79:290,1,288,4|2,0:2|0:0,0:0:0:0:
0,143,75308,6,0,P|18:159|93:112,1,120,6|8,1:0|0:0,0:0:0:0:
174,82,75758,1,2,0:1:0:0:
174,82,75908,2,0,L|165:7,1,60,4|4,3:0|3:0,0:0:0:0:
254,41,76208,2,0,B|307:47|307:47|324:45|324:45|378:51,1,120,10|4,0:0|3:0,0:0:0:0:
463,59,76658,1,0,0:0:0:0:
412,133,76808,2,0,L|421:200,1,60,10|0,0:0|0:0,0:0:0:0:
491,246,77108,2,0,L|475:311,2,60,4|4|8,3:0|3:0|0:0,0:0:0:0:
314,209,77708,6,0,P|269:194|205:230,1,120,2|8,1:1|0:0,0:0:0:0:
177,311,78158,1,2,0:1:0:0:
177,311,78308,2,0,L|110:297,1,60,4|4,3:0|3:0,0:0:0:0:
35,334,78608,2,0,L|15:199,1,120,10|4,0:0|3:0,0:0:0:0:
72,144,79058,1,0,0:0:0:0:
129,75,79208,2,0,L|195:64,1,60,10|0,0:0|0:0,0:0:0:0:
251,128,79508,1,4,3:0:0:0:
251,128,79658,2,0,L|318:133,2,60,4|8|4,3:0|0:0|3:0,0:0:0:0:
202,203,80108,6,0,P|192:245|197:278,2,60,6|0|12,1:1|0:0|0:0,0:0:0:0:
281,246,80558,1,2,0:1:0:0:
281,246,80708,1,4,3:0:0:0:
456,284,81008,2,0,P|466:326|461:359,2,60,10|0|4,0:0|0:0|3:0,0:0:0:0:
377,327,81458,1,0,0:0:0:0:
377,327,81608,2,0,L|310:323,2,60,10|0|4,0:0|0:0|3:0,0:0:0:0:
378,237,82058,5,4,3:0:0:0:
445,177,82208,2,0,L|453:103,1,60,8|0,0:0|0:0,0:0:0:0:
378,63,82508,2,0,P|355:84|324:97,1,60,4|8,3:0|0:0,0:0:0:0:
241,74,82808,2,0,P|209:81|166:80,1,60,8|12,3:0|3:0,0:0:0:0:
106,132,83108,2,0,P|62:127|36:116,2,60,4|4|4,3:0|3:0|3:0,0:0:0:0:
224,162,83558,6,0,B|220:234|254:212|253:295,1,120,4|4,3:0|3:0,0:0:0:0:
247,367,84008,2,0,L|324:351,1,60,4|0,1:0|0:0,0:0:0:0:
387,317,84308,2,0,L|450:329,2,60,4|8|4,0:3|0:0|0:3,0:0:0:0:
341,238,84758,1,0,0:0:0:0:
341,238,84833,1,0,0:0:0:0:
341,238,84908,6,0,L|343:166,1,60,4|0,0:0|0:0,0:0:0:0:
347,88,85208,1,8,0:0:0:0:
347,88,85358,1,0,0:0:0:0:
422,137,85508,2,0,L|486:172,2,60,4|4|8,3:0|3:0|0:0,0:0:0:0:
347,88,85958,1,0,0:0:0:0:
261,116,86108,2,0,L|193:139,1,60,4|0,3:0|0:0,0:0:0:0:
122,173,86408,1,8,0:0:0:0:
42,130,86558,2,0,P|31:185|82:254,1,120,0|4,0:0|3:0,0:0:0:0:
148,259,87008,2,0,L|228:262,1,60,8|0,0:0|0:0,0:0:0:0:
300,277,87308,6,0,P|309:304|345:331,1,60,4|0,3:0|0:0,0:0:0:0:
387,270,87608,1,8,0:0:0:0:
387,270,87758,1,0,0:0:0:0:
404,186,87908,2,0,P|375:180|333:198,2,60,4|4|8,3:0|3:0|0:0,0:0:0:0:
387,270,88358,1,0,0:0:0:0:
440,330,88508,2,0,P|458:306|465:277,1,60,4|0,3:0|0:0,0:0:0:0:
493,191,88808,1,8,0:0:0:0:
506,102,88958,2,0,L|371:90,1,120,0|4,0:0|3:0,0:0:0:0:
308,47,89408,2,0,L|298:127,1,60,8|4,0:0|3:0,0:0:0:0:
217,70,89708,5,4,3:1:0:0:
217,70,89858,1,0,0:0:0:0:
137,111,90008,2,0,L|70:105,2,60,12|0|4,0:0|0:0|3:0,0:0:0:0:
203,253,90608,1,8,0:0:0:0:
203,253,90758,1,0,0:0:0:0:
283,212,90908,2,0,L|350:218,1,60,4|0,3:0|0:0,0:0:0:0:
423,257,91208,2,0,L|432:179,2,60,8|4|2,0:0|3:0|2:0,0:0:0:0:
435,336,91658,5,8,0:0:0:0:
350,310,91808,2,0,L|357:355,2,40,4|4|4,3:0|3:0|3:0,0:0:0:0:
326,309,92108,6,0,B|164:284|242:363|91:340|39:324|-2:214|89:100|217:205|156:296,1,503.999984619141,4|0,3:1|0:0,2:0:0:0:
13,146,94508,5,4,0:2:0:0:
426,63,104108,6,0,L|413:119,1,48,4|0,3:2|0:0,0:0:0:0:
344,157,104408,2,0,L|350:207,3,48,0|0|0|0,3:0|3:0|3:0|3:0,3:0:0:0:
426,63,106508,6,0,L|413:119,1,48,4|4,3:0|3:0,0:0:0:0:
344,157,106808,1,0,3:0:0:0:
344,157,106958,1,0,0:0:0:0:
261,193,107108,2,0,B|170:199|227:149|127:155,1,144,0|2,3:0|3:0,0:0:0:0:
128,154,108008,6,0,P|134:173|139:193,1,24,0|0,3:0|0:0,0:0:0:0:
54,56,108308,2,0,P|43:83|34:152,1,96,0|2,3:0|3:2,0:0:0:0:
38,343,108908,6,0,L|95:336,1,48,6|4,3:0|3:0,0:0:0:0:
165,293,109208,1,0,3:0:0:0:
165,293,109358,2,0,L|225:298,1,48,0|0,0:0|3:0,0:0:0:0:
179,303,109808,2,0,L|239:308,1,48,0|0,3:0|0:0,0:0:0:0:
317,338,110108,6,0,L|312:277,1,48,2|0,3:0|0:0,0:0:0:0:
383,231,110408,1,0,3:0:0:0:
383,231,110558,2,0,L|389:172,1,48,0|0,3:0|3:0,0:0:0:0:
395,224,111008,2,0,L|401:165,1,48,2|0,3:2|0:0,0:0:0:0:
437,97,111308,5,2,2:0:0:0:
437,97,111458,1,8,1:0:0:0:
495,178,111608,2,0,L|505:254,2,60,2|4|8,2:0|3:0|1:0,0:0:0:0:
311,58,112208,1,12,3:0:0:0:
311,58,112358,1,8,1:0:0:0:
265,128,112508,2,0,L|199:125,2,60,12|4|8,3:0|3:0|1:0,0:0:0:0:
311,305,113108,2,0,P|336:288|430:301,1,120,0|0,1:0|1:0,0:0:0:0:
498,341,113558,5,0,1:0:0:0:
498,341,113633,1,0,1:0:0:0:
498,341,113708,2,0,L|506:278,2,48,4|0|8,3:2|0:0|1:0,0:0:0:0:
423,379,114158,1,0,0:0:0:0:
251,313,114458,1,4,3:0:0:0:
251,313,114608,2,0,L|260:377,2,48,8|0|4,1:0|0:0|3:0,0:0:0:0:
235,232,115058,1,12,3:0:0:0:
221,151,115208,2,0,L|212:87,1,48,8|0,1:0|0:0,0:0:0:0:
295,109,115508,2,0,B|363:106|336:147|404:140,1,96,4|8,3:0|1:0,0:0:0:0:
128,86,116108,6,0,P|98:93|72:98,2,48,4|0|8,3:0|0:0|1:0,0:0:0:0:
205,60,116558,1,0,0:0:0:0:
402,62,116858,1,4,3:0:0:0:
402,62,117008,2,0,P|404:92|408:110,1,48,8|0,1:0|0:0,0:0:0:0:
463,169,117308,2,0,P|457:205|450:226,1,48,4|4,3:0|3:0,0:0:0:0:
390,268,117608,2,0,P|395:300|402:321,1,48,8|0,1:0|0:0,0:0:0:0:
399,314,118058,1,4,3:0:0:0:
329,357,118208,2,0,P|293:354|272:349,1,48,8|4,1:0|3:0,0:0:0:0:
231,286,118508,2,0,P|200:310|135:315,1,96,4|8,3:0|1:0,0:0:0:0:
63,306,118958,1,0,0:0:0:0:
30,129,119258,5,4,3:0:0:0:
30,129,119408,2,0,P|51:129|87:139,1,48,8|0,1:0|0:0,0:0:0:0:
153,163,119708,1,4,3:0:0:0:
153,163,119858,2,0,P|186:156|208:141,1,48,12|8,3:0|1:0,0:0:0:0:
274,126,120158,1,0,0:0:0:0:
274,126,120308,2,0,P|299:139|318:167,1,48,4|4,3:0|3:0,0:0:0:0:
318,231,120608,2,0,P|346:228|375:216,1,48,8|0,1:0|0:0,0:0:0:0:
440,190,120908,2,0,L|442:139,1,48,4|8,3:0|1:0,0:0:0:0:
498,251,121208,5,4,3:0:0:0:
465,326,121358,1,4,3:0:0:0:
465,326,121508,2,0,L|403:320,1,48,8|4,1:0|3:0,0:0:0:0:
338,343,121808,2,0,L|275:337,2,48,4|8|4,3:0|3:1|3:0,0:0:0:0:
351,262,122258,1,4,1:3:0:0:
351,262,122408,2,0,L|357:208,1,48,8|0,1:0|0:0,0:0:0:0:
320,140,122708,2,0,L|325:87,2,48,4|8|4,3:0|1:0|3:0,0:0:0:0:
245,107,123158,5,0,1:0:0:0:
245,107,123233,1,0,1:0:0:0:
245,107,123308,2,0,P|209:114|186:126,2,48,4|0|8,3:2|0:0|1:0,0:0:0:0:
243,189,123758,1,0,0:0:0:0:
391,256,124058,1,4,3:0:0:0:
391,256,124208,2,0,P|393:221|400:194,1,48,8|0,1:0|0:0,0:0:0:0:
462,160,124508,2,0,P|458:122|449:98,1,48,4|12,3:0|3:0,0:0:0:0:
403,49,124808,2,0,L|336:45,1,48,8|0,1:0|0:0,0:0:0:0:
273,36,125108,1,4,3:0:0:0:
129,114,125408,2,0,L|134:175,1,48,8|0,1:0|0:0,0:0:0:0:
49,191,125708,6,0,L|56:138,2,48,4|4|8,3:0|3:0|1:0,0:0:0:0:
39,272,126158,1,0,0:0:0:0:
195,318,126458,1,4,3:0:0:0:
195,318,126608,2,0,P|219:312|254:315,1,48,8|0,1:0|0:0,0:0:0:0:
307,361,126908,2,0,P|333:358|354:350,1,48,4|12,3:0|3:0,0:0:0:0:
427,315,127208,2,0,P|457:318|480:327,2,48,8|0|4,1:0|0:0|3:0,0:0:0:0:
367,258,127658,1,4,3:0:0:0:
312,196,127808,2,0,L|317:133,1,48,8|0,1:0|0:0,0:0:0:0:
264,84,128108,1,4,3:0:0:0:
421,41,128408,6,0,P|410:78|401:161,1,120,4|4,0:2|3:0,0:0:0:0:
512,228,128858,1,4,3:0:0:0:
512,228,129008,2,0,P|485:226|447:210,1,60,8|0,3:1|0:0,0:0:0:0:
386,162,129308,2,0,P|390:102|406:44,1,120,4|8,3:0|3:1,0:0:0:0:
214,23,129908,5,4,3:2:0:0:
239,137,130108,2,0,L|186:128,3,40,8|12|4|4,3:0|3:0|3:0|3:0,0:0:0:0:
270,119,130508,1,4,3:2:0:0:
55,291,131708,6,0,L|51:259,1,30,4|0,3:0|0:0,0:0:0:0:
48,241,131858,5,2,3:1:0:0:
48,240,132008,1,2,1:1:0:0:
48,241,132158,1,2,3:1:0:0:
108,174,132308,5,10,1:1:0:0:
108,174,132458,1,10,1:1:0:0:
194,198,132608,1,10,1:1:0:0:
194,198,132758,1,10,1:1:0:0:
206,285,132908,6,0,P|265:291|336:261,1,132.00000402832,4|8,3:2|0:0,0:0:0:0:
388,199,133358,1,2,2:2:0:0:
445,262,133508,2,0,L|444:330,2,66.0000020141602,4|4|8,3:0|3:0|0:0,0:0:0:0:
508,203,133958,1,0,0:0:0:0:
453,136,134108,2,0,P|376:112|324:138,1,132.00000402832,4|8,3:0|0:0,0:0:0:0:
190,32,134708,6,0,P|174:70|149:165,1,132.00000402832,4|8,3:0|0:0,0:0:0:0:
139,242,135158,1,0,0:0:0:0:
70,190,135308,2,0,P|52:153|46:118,1,66.0000020141602,4|0,3:0|0:0,0:0:0:0:
61,271,135608,2,0,P|28:263|-4:245,1,66.0000020141602,8|2,0:0|2:2,0:0:0:0:
139,242,135908,2,0,B|220:244|181:295|272:296,1,132.00000402832,4|8,3:0|0:0,0:0:0:0:
419,244,136508,1,4,3:0:0:0:
289,85,136808,6,0,P|277:115|264:217,2,132.00000402832,8|4|8,0:0|3:0|3:1,0:0:0:0:
365,45,137558,1,0,0:0:0:0:
433,96,137708,2,0,P|437:128|437:165,1,66.0000020141602,4|0,3:1|0:0,0:0:0:0:
473,240,138008,2,0,P|462:284|446:313,1,66.0000020141602,8|2,0:0|2:2,0:0:0:0:
372,333,138308,2,0,L|217:311,1,132.00000402832,4|8,3:0|0:0,0:0:0:0:
155,302,138758,1,0,0:0:0:0:
113,227,138908,2,0,P|72:277|79:341,2,132.00000402832,4|8|4,3:0|0:0|3:0,0:0:0:0:
198,227,139658,1,4,3:0:0:0:
198,227,139808,2,0,L|192:158,1,66.0000020141602,8|0,0:0|0:0,0:0:0:0:
251,97,140108,5,4,3:0:0:0:
336,90,140258,2,0,L|412:85,1,66.0000020141602,12|4,0:2|3:0,0:0:0:0:
495,161,140558,1,4,3:0:0:0:
410,168,140708,2,0,L|334:173,2,66.0000020141602,8|0|0,0:0|0:0|0:0,0:0:0:0:
460,237,141158,6,0,P|464:266|446:306,1,66.0000020141602,12|0,0:0|0:0,0:0:0:0:
366,280,141458,2,0,L|293:269,2,66.0000020141602,4|2|2,3:0|1:3|1:3,0:0:0:0:
389,362,141908,2,0,L|299:348,1,66.0000020141602,2|2,1:3|1:3,0:0:0:0:
239,338,142208,2,0,L|243:372,3,33.0000010070801
220,323,142508,6,0,P|184:338|117:274,1,132.00000402832,4|8,0:0|0:0,0:0:0:0:
102,200,142958,1,2,2:2:0:0:
167,144,143108,2,0,L|179:74,2,66.0000020141602,4|4|8,3:0|3:0|0:0,0:0:0:0:
220,211,143558,1,0,0:0:0:0:
304,194,143708,2,0,L|287:43,1,132.00000402832,4|8,3:0|0:0,0:0:0:0:
461,53,144308,6,0,P|440:106|421:190,1,132.00000402832,4|8,3:0|0:0,0:0:0:0:
410,264,144758,1,0,0:0:0:0:
430,347,144908,2,0,P|461:337|488:301,1,66.0000020141602,4|0,3:0|0:0,0:0:0:0:
353,235,145208,2,0,P|378:256|418:263,1,66.0000020141602,8|2,0:0|2:2,0:0:0:0:
506,160,145508,2,0,P|478:192|436:130,1,132.00000402832,4|8,3:0|0:0,0:0:0:0:
289,42,146108,1,4,3:0:0:0:
140,127,146408,6,0,P|98:140|5:152,2,132.00000402832,8|4|8,0:0|3:0|3:1,0:0:0:0:
224,95,147158,1,0,0:0:0:0:
224,95,147233,1,0,0:0:0:0:
224,95,147308,2,0,P|234:117|242:163,1,66.0000020141602,4|0,3:1|0:0,0:0:0:0:
159,224,147608,2,0,P|181:214|227:206,1,66.0000020141602,8|2,0:0|2:2,0:0:0:0:
288,289,147908,2,0,P|278:267|270:221,1,66.0000020141602,4|6,3:0|3:0,0:0:0:0:
353,160,148208,2,0,P|331:170|285:178,1,66.0000020141602,2|0,1:3|0:0,0:0:0:0:
224,95,148508,5,4,0:2:0:0:
288,289,148808,1,2,1:3:0:0:
353,160,149108,1,0,0:0:0:0:
159,224,149408,1,2,1:3:0:0:
373,256,149708,5,6,3:0:0:0:
445,301,149858,2,0,L|454:234,1,66.0000020141602,8|12,3:0|3:0,0:0:0:0:
497,160,150158,1,12,3:0:0:0:
497,160,150308,2,0,P|455:149|434:134,1,66.0000020141602,12|12,3:0|3:0,0:0:0:0:
375,75,150608,2,0,P|339:81|304:95,2,66.0000020141602,8|8|8,3:0|3:0|3:0,0:0:0:0:
205,39,151208,5,0,3:0:0:0:
205,39,151508,2,0,P|187:77|104:47,1,144,0|0,0:0|2:0,0:0:0:0:
27,17,152108,6,0,P|16:60|16:107,1,66.0000020141602,4|0,3:0|0:0,0:0:0:0:
45,161,152408,2,0,P|46:200|56:232,1,66.0000020141602,8|2,0:0|2:2,0:0:0:0:
137,242,152708,2,0,P|167:237|211:235,2,66.0000020141602,4|4|8,3:0|3:0|0:0,0:0:0:0:
79,305,153158,1,0,0:0:0:0:
150,352,153308,2,0,P|201:355|285:335,1,132.00000402832,4|8,3:0|0:0,0:0:0:0:
350,288,153758,1,2,2:2:0:0:
406,223,153908,2,0,P|428:257|419:344,2,132.00000402832,4|8|4,3:0|0:0|3:0,0:0:0:0:
459,45,154808,6,0,P|453:71|446:114,1,66.0000020141602,8|2,0:0|2:2,0:0:0:0:
364,83,155108,2,0,P|362:41|354:0,2,66.0000020141602,4|4|8,3:0|3:0|0:0,0:0:0:0:
296,135,155558,1,0,0:0:0:0:
296,135,155708,2,0,B|212:145|250:98|160:110,1,132.00000402832,4|8,3:0|0:0,0:0:0:0:
96,152,156158,1,2,2:2:0:0:
96,152,156308,2,0,P|82:114|127:32,1,132.00000402832,4|8,3:0|3:1,0:0:0:0:
205,25,156758,1,4,3:0:0:0:
205,25,156833,1,4,3:0:0:0:
205,25,156908,6,0,P|232:40|270:43,1,66.0000020141602,4|0,3:1|0:0,0:0:0:0:
330,100,157208,2,0,P|372:89|399:66,1,66.0000020141602,8|2,0:0|2:2,0:0:0:0:
469,110,157508,2,0,P|488:82|495:41,2,66.0000020141602,4|4|8,3:0|3:0|0:0,0:0:0:0:
398,158,157958,1,0,0:0:0:0:
474,196,158108,2,0,P|488:238|480:325,1,132.00000402832,4|8,3:0|0:0,0:0:0:0:
404,365,158558,1,2,2:2:0:0:
327,326,158708,2,0,P|311:263|328:188,2,132.00000402832,4|8|4,3:0|0:0|3:0,0:0:0:0:
155,336,159608,5,4,3:0:0:0:
155,336,159758,1,4,3:0:0:0:
97,272,159908,2,0,L|51:282,3,33.0000010070801,4|4|4|4,3:0|3:0|3:0|3:0,0:0:0:0:
117,256,160208,2,0,L|122:171,1,66.0000020141602,4|4,3:0|0:0,0:0:0:0:
31,130,160508,2,0,L|35:203,1,66.0000020141602,0|4,0:0|3:0,0:0:0:0:
112,112,160808,2,0,B|188:108|164:154|242:150,1,132.00000402832,4|4,1:0|3:0,0:0:0:0:
318,128,161258,1,0,1:0:0:0:
318,128,161333,1,0,1:0:0:0:
318,128,161408,2,0,L|310:81,3,33.0000010070801,0|0|0|0,1:0|1:0|1:0|1:0,0:0:0:0:
333,137,161708,6,0,L|319:279,1,132.00000402832,4|8,0:0|0:0,0:0:0:0:
371,337,162158,1,2,2:2:0:0:
428,273,162308,2,0,P|451:269|499:274,2,66.0000020141602,4|4|8,3:0|3:0|0:0,0:0:0:0:
237,316,162908,1,4,3:0:0:0:
74,260,163208,6,0,P|111:263|197:214,1,132.00000402832,8|4,0:0|3:0,0:0:0:0:
235,145,163658,1,4,3:0:0:0:
156,109,163808,2,0,P|150:76|151:35,2,66.0000020141602,8|0|4,0:0|0:0|3:0,0:0:0:0:
282,248,164408,1,8,0:0:0:0:
410,134,164708,1,4,3:0:0:0:
410,134,164858,1,4,3:0:0:0:
501,109,165008,2,0,P|486:169|486:260,1,132.00000402832,8|4,0:0|3:0,0:0:0:0:
329,363,165608,6,0,P|331:333|326:295,1,66.0000020141602,8|2,0:0|2:2,0:0:0:0:
246,273,165908,2,0,P|241:316|246:350,1,66.0000020141602,4|4,3:0|3:0,0:0:0:0:
164,368,166208,2,0,P|161:317|154:290,1,66.0000020141602,8|0,3:1|0:0,0:0:0:0:
75,265,166508,2,0,P|77:302|11:275,1,132.00000402832,4|8,3:1|0:0,0:0:0:0:
7,200,166958,1,2,2:2:0:0:
36,119,167108,2,0,P|79:121|109:127,1,66.0000020141602,4|6,3:0|3:0,0:0:0:0:
178,163,167408,2,0,P|210:158|250:148,1,66.0000020141602,8|0,0:0|0:0,0:0:0:0:
311,98,167708,2,0,B|386:97|373:141|448:134,2,132.00000402832,4|8|4,0:2|1:0|3:0,0:0:0:0:
101,125,168608,5,8,1:0:0:0:
111,296,168908,1,0,1:0:0:0:
111,296,169058,1,8,1:0:0:0:
30,266,169208,2,0,L|19:192,1,66.0000020141602,12|4,3:0|3:0,0:0:0:0:
115,143,169508,2,0,L|107:221,1,66.0000020141602,8|12,1:0|3:0,0:0:0:0:
182,252,169808,1,4,3:0:0:0:
255,207,169958,6,0,B|317:226|317:226|330:224|330:224|396:240,1,132.00000402832,8|4,0:0|3:0,0:0:0:0:
450,178,170408,2,0,B|388:197|388:197|375:195|375:195|309:211,1,132.00000402832,8|0,0:0|1:0,0:0:0:0:
249,121,170858,1,0,1:0:0:0:
249,121,170933,1,0,1:0:0:0:
249,121,171008,2,0,L|237:76,3,33.0000010070801,0|0|0|0,1:0|1:0|1:0|1:0,0:0:0:0:
229,138,171308,5,2,1:3:0:0:
339,242,173708,6,2,P|359:253|391:344,1,116.999994644165,2|0,1:0|2:0,0:1:0:0:
416,336,174008,2,2,P|426:279|470:242,1,116.999994644165,2|0,1:0|2:0,0:1:0:0:
455,224,174308,2,2,P|400:242|346:223,1,116.999994644165,2|0,1:0|2:0,0:1:0:0:
360,142,174608,2,2,B|268:135|310:200|192:190,1,155.999992858887,2|4,1:0|3:0,0:1:0:0:
121,126,175058,5,0,1:0:0:0:
121,126,175133,1,0,1:0:0:0:
121,126,175208,2,0,L|112:80,7,33.0000010070801,2|0|0|0|2|0|0|0,1:3|1:0|1:0|1:0|1:3|1:0|1:0|1:0,0:0:0:0:
104,147,175808,2,0,L|93:232,1,66.0000020141602,2|12,1:3|3:0,0:0:0:0:
98,238,176033,1,12,3:0:0:0:
98,238,176108,6,0,P|134:261|218:227,1,132.00000402832,4|12,3:0|0:2,0:0:0:0:
270,169,176558,1,2,2:2:0:0:
300,249,176708,2,0,P|314:271|320:315,1,66.0000020141602,4|4,3:0|3:0,0:0:0:0:
352,185,177008,2,0,P|384:206|400:240,1,66.0000020141602,8|0,0:0|0:0,0:0:0:0:
270,169,177308,2,0,P|299:116|367:105,2,132.00000402832,4|8|4,3:0|0:0|3:0,0:0:0:0:
252,252,178058,1,4,3:0:0:0:
252,252,178208,2,0,L|178:242,1,66.0000020141602,8|0,0:0|0:0,0:0:0:0:
121,299,178508,5,4,3:2:0:0:
47,254,178658,2,0,L|36:187,1,66.0000020141602,0|8,0:0|0:0,0:0:0:0:
25,103,178958,1,4,3:0:0:0:
111,142,179108,2,0,L|119:188,2,33.0000010070801,4|4|4,3:0|3:0|3:0,0:0:0:0:
162,73,179408,1,4,3:0:0:0:
228,126,179558,2,0,L|306:114,1,66.0000020141602,4|0,0:2|0:0,0:0:0:0:
374,156,179858,5,4,3:0:0:0:
374,156,180008,2,0,L|377:81,1,66.0000020141602,8|2,0:0|2:2,0:0:0:0:
455,54,180308,1,4,3:0:0:0:
494,140,180458,1,4,3:0:0:0:
494,140,180533,1,0,0:0:0:0:
494,140,180608,2,0,L|451:136,3,33.0000010070801
501,159,180908,6,0,P|485:209|474:299,1,132.00000402832,4|8,3:1|0:0,0:0:0:0:
470,373,181358,1,2,2:2:0:0:
396,328,181508,2,0,P|386:283|388:248,2,66.0000020141602,4|4|8,3:0|3:0|0:0,0:0:0:0:
318,365,181958,1,0,0:0:0:0:
252,309,182108,2,0,P|213:305|112:329,1,132.00000402832,4|8,3:0|0:0,0:0:0:0:
28,149,182708,6,0,P|52:197|128:195,1,132.00000402832,4|8,3:0|0:0,0:0:0:0:
191,146,183158,1,0,0:0:0:0:
118,100,183308,2,0,P|105:77|93:24,1,66.0000020141602,4|0,3:0|0:0,0:0:0:0:
197,64,183608,2,0,P|207:29|229:3,1,66.0000020141602,8|2,0:0|2:2,0:0:0:0:
269,111,183908,2,0,B|345:85|332:138|416:104,1,132.00000402832,4|8,3:0|0:0,0:0:0:0:
510,274,184508,1,4,3:0:0:0:
288,318,184808,6,0,P|290:259|317:170,2,132.00000402832,8|4|8,0:0|3:0|3:1,0:0:0:0:
363,360,185558,1,0,0:0:0:0:
429,305,185708,2,0,P|427:261|414:224,1,66.0000020141602,4|0,3:1|0:0,0:0:0:0:
391,159,186008,2,0,P|399:128|421:88,1,66.0000020141602,8|2,0:0|2:2,0:0:0:0:
487,52,186308,2,0,P|451:23|357:32,1,132.00000402832,4|8,3:0|0:0,0:0:0:0:
306,85,186758,1,0,0:0:0:0:
232,128,186908,2,0,P|184:141|115:102,2,132.00000402832,4|8|4,3:0|0:0|3:0,0:0:0:0:
306,85,187658,1,4,3:0:0:0:
306,85,187808,2,0,L|315:161,1,66.0000020141602,8|0,0:0|0:0,0:0:0:0:
452,189,188108,6,0,L|446:232,5,33.0000010070801,2|0|0|0|0|0,1:3|1:0|1:0|1:0|1:0|1:0,0:0:0:0:
428,210,188558,2,0,L|385:217,5,33.0000010070801,2|0|0|0|0|0,1:3|1:0|1:0|1:0|1:0|1:0,0:0:0:0:
406,193,189008,2,0,L|385:154,5,33.0000010070801,2|0|0|0|0|0,1:3|1:0|1:0|1:0|1:0|1:0,0:0:0:0:
417,168,189458,2,0,L|447:136,5,33.0000010070801,2|0|0|0|0|0,1:3|1:0|1:0|1:0|1:0|1:0,0:0:0:0:
442,169,189908,2,0,L|481:187,7,33.0000010070801,0|0|0|0|8|8|4|4,1:0|1:0|1:0|1:0|3:0|3:0|3:0|3:0,0:0:0:0:
452,189,190508,6,0,P|436:232|423:331,1,132.00000402832,4|12,3:2|0:2,0:0:0:0:
346,355,190958,1,2,2:2:0:0:
281,298,191108,2,0,P|248:301|215:316,2,66.0000020141602,4|4|8,3:0|3:0|0:0,0:0:0:0:
353,252,191558,1,0,0:0:0:0:
284,199,191708,2,0,P|275:155|269:50,1,132.00000402832,4|8,3:0|0:0,0:0:0:0:
107,7,192308,6,0,P|97:57|100:142,1,132.00000402832,4|8,3:0|0:0,0:0:0:0:
114,222,192758,1,0,0:0:0:0:
55,285,192908,2,0,P|34:255|25:213,1,66.0000020141602,4|0,3:0|0:0,0:0:0:0:
114,222,193208,2,0,P|141:203|182:190,1,66.0000020141602,8|2,0:0|2:2,0:0:0:0:
182,280,193508,2,0,B|267:276|229:327|311:325,1,132.00000402832,4|8,3:0|0:0,0:0:0:0:
462,267,194108,1,4,3:0:0:0:
326,116,194408,6,0,P|360:120|467:107,2,132.00000402832,8|4|8,0:0|3:0|3:1,0:0:0:0:
245,86,195158,1,0,0:0:0:0:
168,47,195308,2,0,P|160:94|171:126,1,66.0000020141602,4|0,3:0|0:0,0:0:0:0:
227,168,195608,2,0,P|223:208|210:238,1,66.0000020141602,8|2,0:0|2:2,0:0:0:0:
169,305,195908,2,0,P|124:307|30:284,2,132.00000402832,4|8|4,3:0|0:0|3:0,0:0:0:0:
255,300,196658,1,0,0:0:0:0:
255,300,196808,2,0,P|265:318|278:369,1,66.0000020141602,8|2,0:0|2:2,0:0:0:0:
357,338,197108,2,0,P|354:297|363:260,1,66.0000020141602,4|4,3:0|3:0,0:0:0:0:
441,296,197408,2,0,P|445:332|441:363,1,66.0000020141602,8|0,0:0|0:0,0:0:0:0:
504,232,197708,5,4,3:0:0:0:
464,155,197858,2,0,L|473:83,1,66.0000020141602,2|4,2:3|3:0,0:0:0:0:
344,38,198158,1,4,3:0:0:0:
384,115,198308,2,0,L|375:187,2,66.0000020141602,4|0|0,0:2|0:0|0:0,0:0:0:0:
297,113,198758,1,12,0:0:0:0:
297,113,198908,2,0,L|225:119,1,66.0000020141602,0|4,0:0|3:0,0:0:0:0:
157,163,199208,2,0,L|86:152,1,66.0000020141602,2|2,1:3|1:3,0:0:0:0:
6,142,199508,1,2,1:3:0:0:
41,228,199658,1,2,1:3:0:0:
41,228,199733,1,0,1:0:0:0:
41,228,199808,2,0,L|-9:237,3,33.0000010070801,0|0|0|0,1:0|1:0|1:0|1:0,0:0:0:0:
58,241,200108,6,0,P|62:315|103:370,1,132.00000402832,4|8,0:0|0:0,0:0:0:0:
173,330,200558,1,2,2:2:0:0:
257,343,200708,2,0,L|321:361,2,66.0000020141602,4|4|8,3:0|3:0|0:0,0:0:0:0:
227,262,201158,1,0,0:0:0:0:
142,247,201308,2,0,L|156:109,1,132.00000402832,4|8,3:0|0:0,0:0:0:0:
319,62,201908,6,0,P|321:104|407:119,1,132.00000402832,4|8,3:0|0:0,0:0:0:0:
474,89,202358,1,0,0:0:0:0:
471,174,202508,2,0,P|478:206|483:244,1,66.0000020141602,4|0,3:0|0:0,0:0:0:0:
444,315,202808,2,0,P|456:287|468:237,1,66.0000020141602,8|2,0:0|2:2,0:0:0:0:
342,228,203108,2,0,P|374:245|323:252,1,132.00000402832,4|8,3:0|0:0,0:0:0:0:
199,106,203708,1,4,3:0:0:0:
95,279,204008,6,0,P|138:280|232:322,2,132.00000402832,8|4|8,0:0|3:0|3:1,0:0:0:0:
17,318,204758,1,4,3:0:0:0:
22,232,204908,2,0,P|15:200|8:153,1,66.0000020141602,4|0,3:2|0:0,0:0:0:0:
110,109,205208,2,0,P|98:149|94:187,1,66.0000020141602,8|2,0:0|2:2,0:0:0:0:
193,220,205508,2,0,P|184:175|180:136,1,66.0000020141602,4|4,3:0|3:0,0:0:0:0:
288,100,205808,2,0,P|268:146|260:179,1,66.0000020141602,8|0,0:0|0:0,0:0:0:0:
338,241,206108,6,0,P|405:271|390:126,1,288,4|2,0:2|0:0,0:0:0:0:
254,218,207308,6,0,L|249:352,1,120,6|8,1:0|0:0,0:0:0:0:
164,354,207758,1,2,0:1:0:0:
164,354,207908,2,0,L|98:339,1,60,4|4,3:0|3:0,0:0:0:0:
22,375,208208,2,0,L|6:243,1,120,10|4,0:0|3:0,0:0:0:0:
0,166,208658,1,0,0:0:0:0:
81,204,208808,2,0,L|140:211,1,60,10|0,0:0|0:0,0:0:0:0:
135,121,209108,2,0,L|61:114,2,60,4|4|8,3:0|3:0|0:0,0:0:0:0:
295,38,209708,6,0,P|277:74|296:157,1,120,2|8,1:1|0:0,0:0:0:0:
368,196,210158,1,2,0:1:0:0:
368,196,210308,2,0,L|442:184,1,60,4|4,3:0|3:0,0:0:0:0:
501,237,210608,2,0,P|517:293|496:348,1,120,10|4,0:0|3:0,0:0:0:0:
408,368,211058,1,0,0:0:0:0:
340,308,211208,2,0,L|265:316,1,60,10|0,0:0|0:0,0:0:0:0:
193,337,211508,1,4,3:0:0:0:
193,337,211658,2,0,L|119:323,2,60,4|8|4,3:0|0:0|3:0,0:0:0:0:
213,248,212108,5,6,1:1:0:0:
213,248,212258,2,0,P|203:205|206:172,1,60,0|12,0:0|0:0,0:0:0:0:
296,126,212558,1,2,0:1:0:0:
296,126,212708,2,0,P|286:173|286:196,1,60,4|4,3:0|3:0,0:0:0:0:
372,255,213008,1,10,0:0:0:0:
372,255,213158,2,0,P|364:210|366:186,1,60,0|4,0:0|3:0,0:0:0:0:
481,58,213608,5,10,0:0:0:0:
481,58,213758,1,0,0:0:0:0:
440,138,213908,2,0,L|448:217,1,60,4|4,3:0|3:0,0:0:0:0:
373,82,214208,2,0,P|338:88|306:105,1,60,8|0,0:0|0:0,0:0:0:0:
246,155,214508,2,0,P|216:154|185:142,1,60,4|8,3:0|0:0,0:0:0:0:
124,80,214808,2,0,P|97:75|55:80,1,60,8|12,3:0|3:0,0:0:0:0:
19,155,215108,2,0,P|37:200|40:227,1,60,4|4,3:0|3:0,0:0:0:0:
52,300,215408,1,4,3:0:0:0:
121,242,215558,2,0,B|199:241|165:280|239:279,1,120,4|4,3:2|3:0,0:0:0:0:
316,249,216008,1,4,1:2:0:0:
316,249,216158,1,0,0:0:0:0:
405,256,216308,2,0,P|405:275|401:325,1,60,4|0,0:3|0:0,0:0:0:0:
398,336,216533,1,0,0:0:0:0:
398,336,216608,2,0,L|355:332,2,30,0|0|0,1:0|1:0|1:0,0:0:0:0:
498,275,216908,6,0,P|493:218|485:193,1,60,4|0,0:0|0:0,0:0:0:0:
431,156,217208,1,8,0:0:0:0:
431,156,217358,1,0,0:0:0:0:
350,195,217508,2,0,P|316:207|274:218,2,60,4|4|8,3:0|3:0|0:0,0:0:0:0:
431,156,217958,1,0,0:0:0:0:
399,71,218108,2,0,P|392:39|392:9,1,60,4|0,3:0|0:0,0:0:0:0:
431,156,218408,1,8,0:0:0:0:
331,114,218558,2,0,B|258:115|296:72|209:72,1,120,0|4,0:0|3:0,0:0:0:0:
141,34,219008,2,0,P|141:84|139:121,1,60,8|0,0:0|0:0,0:0:0:0:
26,169,219308,6,0,P|60:163|99:162,1,60,4|0,3:0|0:0,0:0:0:0:
175,172,219608,1,8,0:0:0:0:
175,172,219758,1,0,0:0:0:0:
166,261,219908,2,0,P|160:299|156:327,2,60,4|4|8,3:0|3:0|0:0,0:0:0:0:
175,172,220358,1,0,0:0:0:0:
259,201,220508,2,0,P|293:209|325:209,1,60,4|0,3:0|0:0,0:0:0:0:
175,172,220808,1,8,0:0:0:0:
248,279,220958,2,0,P|279:311|374:323,1,120,0|4,0:0|3:0,0:0:0:0:
440,335,221408,2,0,P|444:298|453:270,1,60,8|4,0:0|3:0,0:0:0:0:
485,169,221708,5,4,3:1:0:0:
485,169,221858,2,0,P|445:175|410:173,1,60,0|12,0:0|0:0,0:0:0:0:
344,181,222158,1,0,0:0:0:0:
344,181,222308,2,0,P|382:195|407:196,1,60,4|4,3:0|3:0,0:0:0:0:
502,119,222608,1,8,0:0:0:0:
502,119,222758,2,0,P|468:135|443:143,1,60,0|4,0:0|3:0,0:0:0:0:
320,74,223058,1,0,0:0:0:0:
320,74,223208,2,0,P|342:96|374:111,2,60,8|4|0,0:0|3:0|3:0,0:0:0:0:
248,17,223658,5,8,0:0:0:0:
175,70,223808,2,0,P|164:101|160:141,1,60,4|2,3:0|2:0,0:0:0:0:
143,216,224108,1,0,2:2:0:0:
336,207,224408,5,2,3:0:0:0:
336,207,225008,1,2,3:0:0:0:
336,207,225608,1,2,3:0:0:0:
336,207,226208,1,2,3:0:0:0:
