osu file format v14

[General]
AudioFilename: audio.mp3
AudioLeadIn: 0
PreviewTime: 58506
Countdown: 0
SampleSet: Normal
StackLeniency: 0.4
Mode: 0
LetterboxInBreaks: 0
WidescreenStoryboard: 1

[Editor]
DistanceSpacing: 0.9
BeatDivisor: 4
GridSize: 32
TimelineZoom: 1.8

[Metadata]
Title:Matasaburo
TitleUnicode:又三郎
Artist:Yorushika
ArtistUnicode:ヨルシカ
Creator:Ryuusei Aika
Version:Battle's Insane
Source:
Tags:matasaburou japanese rock j-rock jrock pop j-pop jpop female vocal alevi lobelia [ abhor ] battle ドコモ dアニメストア docomo d anime store theme song
BeatmapID:3054840
BeatmapSetID:1485265

[Difficulty]
HPDrainRate:5
CircleSize:4
OverallDifficulty:7.5
ApproachRate:9
SliderMultiplier:1.6
SliderTickRate:1

[Events]
//Background and Video events
0,0,"BG2.jpg",0,0
//Break Periods
2,94708,103508
//Storyboard Layer 0 (Background)
//Storyboard Layer 1 (Fail)
//Storyboard Layer 2 (Pass)
//Storyboard Layer 3 (Foreground)
//Storyboard Layer 4 (Overlay)
//Storyboard Sound Samples

[TimingPoints]
-2692,300,4,1,0,55,1,0
8,-100,4,3,0,25,0,0
908,-100,4,1,0,55,0,0
17708,-400,4,1,0,45,0,0
19958,-400,4,1,0,5,0,0
20108,-133.333333333333,4,2,0,25,0,0
20408,-133.333333333333,4,2,0,25,0,0
29708,-133.333333333333,4,2,0,25,0,0
36908,-133.333333333333,4,3,0,30,0,0
38408,-105.263157894737,4,3,0,30,0,0
39308,-105.263157894737,4,3,0,30,0,0
56108,-133.333333333333,4,3,0,20,0,0
57458,-133.333333333333,4,2,0,5,0,0
57608,-133.333333333333,4,2,0,35,0,0
58508,-83.3333333333333,4,1,0,60,0,1
58583,-90.9090909090909,4,1,0,60,0,0
68108,-90.9090909090909,4,1,0,60,0,1
68183,-90.9090909090909,4,1,0,60,0,0
74108,-133.333333333333,4,2,0,60,0,0
75308,-100,4,1,0,60,0,1
75383,-100,4,1,0,60,0,0
82508,-100,4,1,0,55,0,0
94508,-100,4,2,0,25,0,0
104108,-153.846153846154,4,2,0,25,0,0
111308,-142.857142857143,4,3,0,30,0,0
113708,-105.263157894737,4,3,0,35,0,0
131858,-133.333333333333,4,1,0,50,0,0
132308,-133.333333333333,4,1,0,55,0,0
132908,-90.9090909090909,4,1,0,60,0,1
132983,-90.9090909090909,4,1,0,60,0,0
142508,-90.9090909090909,4,1,0,60,0,1
142583,-90.9090909090909,4,1,0,60,0,0
149708,-100,4,1,0,55,0,0
150908,-100,4,1,0,40,0,0
152108,-90.9090909090909,4,1,0,60,0,1
152183,-90.9090909090909,4,1,0,60,0,0
173708,-66.6666666666667,4,1,0,60,0,1
174008,-55.5555555555556,4,1,0,60,0,1
174308,-66.6666666666667,4,1,0,60,0,1
174608,-83.3333333333333,4,1,0,60,0,1
174908,-66.6666666666667,4,1,0,60,0,0
175358,-66.6666666666667,4,1,0,55,0,0
175808,-66.6666666666667,4,1,0,50,0,0
176108,-86.9565217391304,4,1,0,60,0,1
176183,-86.9565217391304,4,1,0,60,0,0
190208,-86.9565217391304,4,1,0,50,0,0
190508,-86.9565217391304,4,1,0,60,0,1
190583,-86.9565217391304,4,1,0,60,0,0
206108,-133.333333333333,4,2,0,60,0,0
207308,-100,4,1,0,60,0,1
207383,-100,4,1,0,60,0,0
216908,-100,4,1,0,55,0,0
224108,-166.666666666667,4,3,0,55,0,0

[Colours]
Combo1 : 117,227,197
Combo2 : 173,255,95
Combo3 : 17,254,176
Combo4 : 113,173,223

[HitObjects]
44,309,8,5,0,0:0:0:0:
49,323,608,1,0,0:0:0:0:
63,342,908,2,0,P|96:318|138:304,1,80,4|0,0:0|0:0,0:0:0:0:
265,234,1208,2,0,P|205:224|175:201,1,80,12|0,0:0|0:0,0:0:0:0:
97,175,1508,1,4,3:0:0:0:
169,99,1658,1,4,3:0:0:0:
94,16,1808,2,0,P|61:55|83:98,1,80,8|0,0:0|0:0,0:0:0:0:
226,22,2108,6,0,P|276:32|313:38,2,80,4|0|8,3:0|0:0|0:0,0:0:0:0:
134,205,2558,1,0,0:0:0:0:
143,111,2708,2,0,P|93:127|60:137,1,80,4|4,3:0|3:0,0:0:0:0:
240,202,3008,2,0,P|290:218|323:228,1,80,8|0,0:0|0:0,0:0:0:0:
492,179,3308,6,0,P|498:132|457:101,2,80,4|0|8,3:0|0:0|0:0,0:0:0:0:
461,340,3758,1,0,0:0:0:0:
369,310,3908,2,0,P|394:259|431:253,1,80,4|4,3:0|3:0,0:0:0:0:
414,157,4133,1,0,0:0:0:0:
414,157,4208,2,0,P|347:166|312:172,1,80,8|0,0:0|0:0,0:0:0:0:
230,100,4508,6,0,P|254:59|301:57,2,80,4|0|8,3:0|0:0|0:0,0:0:0:0:
112,165,4958,1,0,0:0:0:0:
112,165,5033,1,0,0:0:0:0:
112,165,5108,2,0,P|135:210|175:225,1,80,4|4,3:0|3:0,0:0:0:0:
276,255,5408,1,8,0:0:0:0:
224,352,5558,1,4,3:0:0:0:
225,165,5708,5,4,3:1:0:0:
225,165,5858,1,0,0:0:0:0:
360,287,6008,1,12,0:0:0:0:
353,161,6158,5,0,0:0:0:0:
353,161,6308,1,4,3:0:0:0:
240,271,6458,1,4,3:0:0:0:
447,168,6608,6,0,P|448:118|414:91,1,80,8|0,0:0|0:0,0:0:0:0:
315,27,6908,2,0,P|243:56|206:53,2,80,4|8|8,3:0|0:0|0:0,0:0:0:0:
66,138,7358,2,0,P|104:146|139:167,2,80,4|4|4,3:0|3:0|3:0,0:0:0:0:
56,269,7808,1,8,0:0:0:0:
56,269,7958,1,0,0:0:0:0:
174,384,8108,6,0,P|185:330|209:321,1,80,4|8,3:0|0:0,0:0:0:0:
346,234,8408,2,0,P|294:245|260:220,1,80,8|12,3:0|3:0,0:0:0:0:
88,145,8708,1,4,3:0:0:0:
166,215,8858,1,4,3:0:0:0:
190,114,9008,1,4,3:0:0:0:
7,188,9158,6,0,P|-4:104|66:57,1,160,4|4,3:0|3:0,0:0:0:0:
185,7,9608,2,0,P|235:31|285:38,1,80,4|0,1:0|0:0,0:0:0:0:
153,202,9908,1,4,0:3:0:0:
83,141,10058,1,8,0:0:0:0:
179,188,10208,2,0,P|229:164|279:157,1,80,4|0,0:3|0:0,0:0:0:0:
367,160,10433,1,0,0:0:0:0:
367,160,10508,6,0,P|344:221|347:239,1,80,4|0,0:0|0:0,0:0:0:0:
484,373,10808,2,0,P|482:333|462:299,1,80,8|0,0:0|0:0,0:0:0:0:
341,345,11108,2,0,P|278:362|248:376,1,80,4|4,3:0|3:0,0:0:0:0:
161,232,11408,2,0,P|198:246|237:254,1,80,8|0,0:0|0:0,0:0:0:0:
353,233,11708,5,4,3:0:0:0:
353,233,11858,1,0,0:0:0:0:
265,146,12008,1,8,0:0:0:0:
356,90,12158,1,0,0:0:0:0:
279,0,12308,2,0,P|237:23|230:57,1,80,4|4,3:0|3:0,0:0:0:0:
177,241,12608,2,0,P|171:186|141:163,1,80,8|0,0:0|0:0,0:0:0:0:
25,76,12908,6,0,P|75:65|112:57,2,80,4|0|8,3:0|0:0|0:0,0:0:0:0:
248,234,13358,1,0,0:0:0:0:
148,143,13508,2,0,P|201:148|243:152,1,80,4|4,3:0|3:0,0:0:0:0:
308,98,13733,1,0,0:0:0:0:
308,98,13808,2,0,P|284:64|223:63,1,80,8|0,0:0|0:0,0:0:0:0:
128,220,14108,6,0,P|142:165|150:132,2,80,4|0|8,3:0|0:0|0:0,0:0:0:0:
0,372,14558,1,0,0:0:0:0:
50,289,14708,2,0,P|79:347|89:373,1,80,4|4,3:0|3:0,0:0:0:0:
216,245,15008,2,0,P|233:186|237:151,1,80,8|4,0:0|3:0,0:0:0:0:
163,85,15308,5,4,3:1:0:0:
163,85,15458,1,0,0:0:0:0:
34,138,15608,1,12,0:0:0:0:
262,78,15758,5,0,0:0:0:0:
262,78,15908,1,4,3:0:0:0:
84,27,16058,1,4,3:0:0:0:
94,252,16208,6,0,P|135:215|183:213,1,80,8|0,0:0|0:0,0:0:0:0:
249,76,16508,2,0,P|306:127|335:127,2,80,4|8|8,3:0|0:0|0:0,0:0:0:0:
479,93,16958,2,0,P|467:131|469:171,2,80,4|8|8,3:0|0:0|0:0,0:0:0:0:
434,307,17408,1,0,0:0:0:0:
320,270,17558,1,0,0:0:0:0:
320,270,17633,1,0,0:0:0:0:
320,270,17708,1,2,0:2:0:0:
256,192,17783,12,0,19958,2:0:0:0:
25,379,20108,6,0,P|39:341|114:312,1,120.000004577637,4|8,3:2|1:0,0:0:0:0:
181,217,20558,2,0,P|251:273|297:273,1,120.000004577637,0|4,0:0|3:0,0:0:0:0:
362,220,21008,1,8,1:0:0:0:
362,220,21158,1,0,0:0:0:0:
311,127,21308,2,0,P|266:155|257:177,1,60.0000022888184,4|0,3:0|0:0,0:0:0:0:
394,72,21608,2,0,P|370:41|336:29,1,60.0000022888184,8|0,1:0|0:0,0:0:0:0:
225,33,21908,1,4,3:0:0:0:
225,33,22058,1,4,3:0:0:0:
263,159,22208,1,8,1:0:0:0:
263,159,22508,6,0,P|195:160|130:130,1,120.000004577637,4|8,3:0|1:0,0:0:0:0:
57,32,22958,2,0,P|58:86|19:164,1,120.000004577637,0|4,0:0|3:0,0:0:0:0:
16,263,23408,1,8,1:0:0:0:
108,225,23558,1,4,3:0:0:0:
16,263,23858,1,4,3:0:0:0:
171,297,24008,2,0,P|165:245|85:236,1,120.000004577637,8|4,1:0|3:0,0:0:0:0:
79,327,24458,1,4,3:0:0:0:
203,220,24608,2,0,P|246:214|281:208,1,60.0000022888184,8|2,1:0|2:0,0:0:0:0:
383,144,24833,1,2,2:0:0:0:
383,144,24908,6,0,P|320:126|278:61,1,120.000004577637,6|8,3:0|1:0,0:0:0:0:
489,170,25358,2,0,P|457:228|391:250,1,120.000004577637,0|4,0:0|3:0,0:0:0:0:
317,329,25808,2,0,P|340:359|346:394,1,60.0000022888184,8|0,1:0|0:0,0:0:0:0:
174,378,26108,2,0,P|182:318|226:267,1,120.000004577637,4|8,3:0|1:0,0:0:0:0:
218,272,26708,1,4,3:0:0:0:
252,180,26858,1,4,3:0:0:0:
159,145,27008,2,0,P|117:153|85:159,1,60.0000022888184,8|0,1:0|0:0,0:0:0:0:
25,19,27308,6,0,P|80:24|166:31,1,120.000004577637,4|8,3:0|1:0,0:0:0:0:
450,95,27908,2,0,P|395:100|309:107,1,120.000004577637,4|8,3:0|1:0,0:0:0:0:
80,319,28508,1,0,0:0:0:0:
19,248,28658,1,4,3:0:0:0:
106,204,28808,2,0,P|149:213|191:218,1,60.0000022888184,8|0,1:0|0:0,0:0:0:0:
264,282,29108,1,4,3:0:0:0:
264,282,29258,1,4,3:0:0:0:
349,203,29408,2,0,P|324:164|290:156,1,60.0000022888184,8|2,1:0|2:0,0:0:0:0:
196,93,29633,1,2,2:0:0:0:
196,93,29708,6,0,P|260:74|301:10,1,120.000004577637,6|10,3:0|1:2,0:0:0:0:
445,0,30158,2,0,P|435:58|428:129,1,120.000004577637,0|4,0:0|3:0,0:0:0:0:
347,195,30608,2,0,P|296:208|268:213,1,60.0000022888184,8|0,1:0|0:0,0:0:0:0:
443,289,30908,2,0,P|476:302|510:315,2,60.0000022888184,4|0|8,3:0|0:0|1:0,0:0:0:0:
328,384,31358,1,0,0:0:0:0:
245,341,31508,2,0,P|270:297|354:305,1,120.000004577637,4|8,3:0|1:0,0:0:0:0:
474,167,31958,1,0,0:0:0:0:
474,167,32108,6,0,P|397:182|332:192,1,120.000004577637,6|8,3:0|1:0,0:0:0:0:
299,94,32558,2,0,P|240:82|180:72,1,120.000004577637,0|4,0:0|3:0,0:0:0:0:
92,124,33008,1,8,1:0:0:0:
48,36,33158,1,4,3:0:0:0:
49,214,33458,1,4,3:0:0:0:
92,124,33608,2,0,P|138:155|145:181,1,60.0000022888184,8|0,1:0|0:0,0:0:0:0:
58,346,33908,2,0,P|76:309|104:305,1,60.0000022888184,4|4,3:0|3:0,0:0:0:0:
191,262,34208,2,0,P|224:278|263:292,1,60.0000022888184,8|2,1:0|2:0,0:0:0:0:
338,384,34433,1,2,2:0:0:0:
338,384,34508,6,0,P|352:301|397:268,1,120.000004577637,6|8,3:0|1:0,0:0:0:0:
249,89,34958,2,0,P|263:172|308:205,1,120.000004577637,0|4,0:0|3:0,0:0:0:0:
398,185,35408,1,8,1:0:0:0:
398,185,35558,1,0,0:0:0:0:
454,64,35708,6,0,P|406:45|342:100,1,120.000004577637,6|8,3:0|1:0,0:0:0:0:
183,181,36158,2,0,P|231:212|286:194,1,120.000004577637,0|4,0:0|3:0,0:0:0:0:
232,73,36608,2,0,P|180:82|148:87,1,60.0000022888184,8|0,1:0|0:0,0:0:0:0:
0,99,36908,5,4,3:0:0:0:
0,99,37058,1,8,1:0:0:0:
71,20,37208,1,4,3:0:0:0:
38,210,37358,1,4,3:0:0:0:
139,143,37508,2,0,P|189:153|224:159,1,60.0000022888184,8|0,1:0|0:0,0:0:0:0:
105,350,37808,1,4,3:0:0:0:
4,326,37958,2,0,P|14:273|87:255,1,120.000004577637,8|4,1:0|3:0,0:0:0:0:
231,377,38408,2,0,P|222:304|189:255,1,113.999996955872,12|0,1:2|2:0,0:0:0:0:
176,243,38708,5,4,3:0:0:0:
306,276,38858,1,8,1:0:0:0:
278,150,39008,1,4,3:0:0:0:
413,177,39158,5,4,3:0:0:0:
413,177,39233,1,4,3:0:0:0:
413,177,39308,2,0,P|469:163|501:159,2,75.9999979705811,4|0|8,3:2|0:0|1:0,0:0:0:0:
332,52,39758,2,0,P|276:100|188:102,1,151.999995941162,0|4,0:0|3:0,0:0:0:0:
11,106,40208,1,8,1:0:0:0:
11,106,40358,1,0,0:0:0:0:
67,17,40508,2,0,P|95:61|100:96,1,75.9999979705811,4|0,3:0|0:0,0:0:0:0:
104,197,40808,1,8,1:0:0:0:
200,105,40958,1,0,0:0:0:0:
300,192,41108,2,0,P|366:182|477:174,1,151.999995941162,4|8,3:0|1:0,0:0:0:0:
209,379,41708,6,0,P|155:359|118:349,2,75.9999979705811,4|0|8,3:0|0:0|1:0,0:0:0:0:
0,303,42158,2,0,P|53:287|158:214,1,151.999995941162,0|4,0:0|3:0,0:0:0:0:
48,160,42608,1,8,1:0:0:0:
48,160,42758,1,0,0:0:0:0:
147,79,42908,2,0,P|112:52|92:16,1,75.9999979705811,4|0,3:0|0:0,0:0:0:0:
233,162,43208,2,0,P|271:145|320:134,1,75.9999979705811,8|0,1:0|0:0,0:0:0:0:
248,37,43508,1,4,3:0:0:0:
248,37,43658,1,4,3:0:0:0:
398,117,43808,1,8,1:0:0:0:
437,7,43958,5,4,3:0:0:0:
437,7,44033,1,4,3:0:0:0:
437,7,44108,2,0,P|506:15|544:20,2,75.9999979705811,4|0|8,3:0|0:0|1:0,0:0:0:0:
231,139,44558,2,0,P|311:126|396:111,1,151.999995941162,0|4,0:0|3:0,0:0:0:0:
504,189,45008,2,0,P|488:235|475:276,1,75.9999979705811,8|0,1:0|0:0,0:0:0:0:
285,377,45308,2,0,P|312:297|392:299,2,151.999995941162,4|8|4,3:0|1:0|3:0,0:0:0:0:
376,376,46058,1,4,3:0:0:0:
204,349,46208,2,0,P|228:302|266:306,1,75.9999979705811,8|0,1:0|0:0,0:0:0:0:
334,122,46508,5,4,3:0:0:0:
424,227,46658,2,0,P|337:208|246:183,1,151.999995941162,8|4,1:0|3:0,0:0:0:0:
194,120,47108,1,8,1:0:0:0:
299,32,47258,1,4,3:0:0:0:
171,225,47408,1,4,3:0:0:0:
171,225,47558,2,0,P|117:232|77:240,1,75.9999979705811,8|4,3:1|3:0,0:0:0:0:
315,115,47858,1,4,1:3:0:0:
315,115,48008,2,0,P|369:122|409:130,1,75.9999979705811,8|0,1:0|0:0,0:0:0:0:
173,39,48308,1,4,3:0:0:0:
229,133,48458,1,8,1:0:0:0:
171,225,48608,1,4,3:0:0:0:
171,225,48758,5,0,1:0:0:0:
171,225,48833,1,0,1:0:0:0:
171,225,48908,2,0,P|200:287|191:322,2,75.9999979705811,4|0|8,3:2|0:0|1:0,0:0:0:0:
155,384,49358,2,0,P|217:322|309:334,1,151.999995941162,0|4,0:0|3:0,0:0:0:0:
400,267,49808,1,8,1:0:0:0:
400,267,49958,1,0,0:0:0:0:
338,165,50108,2,0,P|299:190|298:229,1,75.9999979705811,4|0,3:0|0:0,0:0:0:0:
512,156,50408,2,0,P|468:184|433:173,1,75.9999979705811,8|0,1:0|0:0,0:0:0:0:
196,207,50708,2,0,P|242:98|284:85,1,151.999995941162,4|8,3:0|1:0,0:0:0:0:
196,207,51308,6,0,P|134:218|117:222,2,75.9999979705811,4|0|8,3:0|0:0|1:0,0:0:0:0:
15,34,51758,2,0,P|68:108|143:109,1,151.999995941162,0|4,0:0|3:0,0:0:0:0:
268,19,52208,2,0,P|244:73|233:100,1,75.9999979705811,8|0,1:0|0:0,0:0:0:0:
196,207,52508,2,0,P|246:220|288:233,1,75.9999979705811,4|0,3:0|0:0,0:0:0:0:
413,126,52808,2,0,P|375:134|338:141,1,75.9999979705811,8|0,1:0|0:0,0:0:0:0:
139,284,53108,2,0,P|243:314|313:333,1,151.999995941162,4|8,3:0|1:0,0:0:0:0:
420,320,53558,5,4,3:0:0:0:
420,320,53633,1,4,3:0:0:0:
420,320,53708,2,0,P|387:358|387:405,1,75.9999979705811,4|0,3:0|0:0,0:0:0:0:
488,198,54008,2,0,P|404:212|310:231,2,151.999995941162,4|4|8,0:2|3:0|3:1,0:0:0:0:
239,169,54758,1,0,0:0:0:0:
355,57,54908,2,0,P|333:107|316:141,1,75.9999979705811,4|4,3:0|3:0,0:0:0:0:
189,319,55208,2,0,P|217:275|261:272,1,75.9999979705811,8|0,3:1|0:0,0:0:0:0:
338,224,55508,1,4,3:0:0:0:
242,78,55658,1,4,3:0:0:0:
435,106,55808,1,8,3:1:0:0:
179,175,55958,1,4,3:0:0:0:
354,327,56108,5,12,1:0:0:0:
354,327,57233,5,0,0:0:0:0:
354,327,57308,2,0,L|420:316,1,60.0000022888184,4|0,3:0|2:0,0:0:0:0:
512,341,57608,6,0,B|426:354|372:273|415:218|507:204|486:281,1,240.000009155274,8|0,0:1|0:0,0:0:0:0:
488,262,58508,6,0,P|365:273|331:308,1,143.999995605469,4|0,3:0|2:0,0:0:0:0:
273,382,58808,2,0,P|267:320|230:293,1,88.000002685547,12|2,0:2|2:2,0:0:0:0:
189,164,59108,1,4,3:0:0:0:
297,211,59258,1,4,3:0:0:0:
154,267,59408,2,0,P|90:282|46:295,1,88.000002685547,8|0,0:0|0:0,0:0:0:0:
284,107,59708,6,0,P|350:126|469:151,1,176.000005371094,4|8,3:0|0:0,0:0:0:0:
454,148,60158,1,2,2:2:0:0:
131,28,60308,2,0,P|187:68|178:183,1,176.000005371094,4|8,3:0|0:0,0:0:0:0:
107,119,60758,1,0,0:0:0:0:
232,299,60908,6,0,P|259:243|308:240,1,88.000002685547,4|0,3:0|0:0,0:0:0:0:
338,144,61208,2,0,P|401:159|424:189,1,88.000002685547,8|2,0:0|2:2,0:0:0:0:
155,356,61508,2,0,P|139:278|168:256,1,88.000002685547,4|4,3:0|3:0,0:0:0:0:
239,50,61808,2,0,P|254:116|218:147,1,88.000002685547,8|0,0:0|0:0,0:0:0:0:
1,217,62108,6,0,P|101:196|214:175,1,176.000005371094,4|8,3:0|0:0,0:0:0:0:
68,108,62558,1,2,2:2:0:0:
251,326,62708,2,0,P|248:271|293:251,1,88.000002685547,4|4,3:0|3:0,0:0:0:0:
369,102,63008,2,0,P|364:171|342:180,1,88.000002685547,8|0,3:1|0:0,0:0:0:0:
258,134,63233,1,0,0:0:0:0:
258,134,63308,6,0,P|247:88|231:34,1,88.000002685547,4|0,3:1|0:0,0:0:0:0:
391,16,63608,2,0,P|378:58|368:101,1,88.000002685547,8|2,0:0|2:2,0:0:0:0:
267,309,63908,2,0,P|323:297|371:288,1,88.000002685547,4|4,3:0|3:0,0:0:0:0:
459,211,64208,2,0,P|403:199|355:190,1,88.000002685547,8|0,0:0|0:0,0:0:0:0:
168,305,64508,6,0,P|192:238|238:232,1,88.000002685547,4|0,3:0|0:0,0:0:0:0:
234,57,64808,2,0,P|272:101|267:142,1,88.000002685547,8|2,0:0|2:2,0:0:0:0:
165,148,65108,1,4,3:0:0:0:
288,230,65258,1,4,3:0:0:0:
97,340,65408,2,0,P|132:304|187:316,1,88.000002685547,8|0,0:0|0:0,0:0:0:0:
447,257,65708,5,4,3:0:0:0:
447,257,65858,2,0,P|377:274|274:211,1,176.000005371094,12|4,0:2|3:0,0:0:0:0:
183,187,66308,1,8,0:0:0:0:
255,340,66458,1,0,0:0:0:0:
272,112,66608,1,0,0:0:0:0:
71,230,66758,2,0,P|67:124|147:106,1,176.000005371094,12|4,0:0|3:0,0:0:0:0:
290,25,67208,6,0,P|226:12|197:-4,1,88.000002685547,2|2,1:3|1:3,0:0:0:0:
160,203,67508,2,0,P|200:185|243:179,1,88.000002685547,2|2,1:3|1:3,0:0:0:0:
325,116,67733,1,0,0:0:0:0:
325,116,67808,2,0,P|374:134|397:135,3,44.0000013427735
512,33,68108,6,0,P|470:112|467:231,1,176.000005371094,4|8,0:0|0:0,0:0:0:0:
352,364,68558,1,2,2:2:0:0:
357,267,68708,2,0,P|413:284|440:313,2,88.000002685547,4|4|8,3:0|3:0|0:0,0:0:0:0:
185,155,69158,1,0,0:0:0:0:
295,165,69308,6,0,P|216:253|143:257,1,176.000005371094,4|8,3:0|0:0,0:0:0:0:
163,260,69758,1,2,2:2:0:0:
248,67,69908,2,0,P|291:32|326:33,1,88.000002685547,4|4,3:0|3:0,0:0:0:0:
185,155,70208,2,0,P|129:168|81:175,1,88.000002685547,8|0,0:0|0:0,0:0:0:0:
0,2,70508,6,0,P|87:5|133:83,1,176.000005371094,4|8,3:0|0:0,0:0:0:0:
60,352,71108,1,4,3:0:0:0:
30,250,71258,1,4,3:0:0:0:
199,256,71408,2,0,P|148:294|109:281,1,88.000002685547,8|0,0:0|0:0,0:0:0:0:
5,130,71708,6,0,P|88:157|193:165,1,176.000005371094,4|8,3:0|0:0,0:0:0:0:
264,101,72158,1,2,2:2:0:0:
225,13,72308,2,0,P|182:21|169:81,1,88.000002685547,4|4,3:0|3:0,0:0:0:0:
242,276,72608,2,0,P|259:219|300:210,1,88.000002685547,8|4,3:1|3:0,0:0:0:0:
360,162,72833,1,4,3:0:0:0:
360,162,72908,6,0,P|422:182|460:193,1,88.000002685547,4|0,3:2|0:0,0:0:0:0:
355,59,73208,2,0,P|312:71|271:85,1,88.000002685547,8|2,0:0|2:2,0:0:0:0:
393,266,73508,1,4,3:0:0:0:
439,97,73658,1,8,0:0:0:0:
281,209,73808,1,4,3:0:0:0:
385,372,73958,1,0,0:0:0:0:
385,372,74033,1,0,0:0:0:0:
385,372,74108,1,4,0:2:0:0:
385,372,75308,5,6,1:0:0:0:
385,372,75458,2,0,P|438:355|475:350,1,80,0|8,0:0|0:0,0:0:0:0:
273,330,75758,5,2,0:1:0:0:
273,330,75908,2,0,P|305:285|332:259,1,80,4|4,3:0|3:0,0:0:0:0:
162,378,76208,6,0,P|168:294|211:211,1,160,10|4,0:0|3:0,0:0:0:0:
287,173,76658,1,0,0:0:0:0:
185,96,76808,2,2,P|105:74|98:153,1,160,10|4,0:0|3:0,0:0:0:0:
199,227,77258,1,4,3:0:0:0:
291,78,77408,2,0,P|355:67|371:65,1,80,8|0,0:0|0:0,0:0:0:0:
485,207,77708,5,2,1:1:0:0:
486,123,77858,2,0,P|470:187|466:207,1,80,0|8,0:0|0:0,0:0:0:0:
368,269,78158,5,2,0:1:0:0:
369,185,78308,2,0,P|353:249|349:269,1,80,4|4,3:0|3:0,0:0:0:0:
161,375,78608,6,0,P|177:294|260:309,1,160,10|4,0:0|3:0,0:0:0:0:
310,361,79058,1,0,0:0:0:0:
423,163,79208,2,2,P|374:216|286:176,1,160,10|4,0:0|3:0,0:0:0:0:
187,169,79658,1,4,3:0:0:0:
272,94,79808,1,8,0:0:0:0:
185,29,79958,5,4,3:0:0:0:
185,29,80033,1,4,3:0:0:0:
185,29,80108,2,0,P|111:23|78:19,1,80,6|0,1:1|0:0,0:0:0:0:
91,142,80408,5,12,0:0:0:0:
7,141,80558,2,0,P|64:128|97:120,1,80,2|4,0:1|3:0,0:0:0:0:
146,243,80858,5,4,3:0:0:0:
286,234,81008,2,0,P|226:230|114:215,1,160,10|4,0:0|3:0,0:0:0:0:
23,312,81458,1,0,0:0:0:0:
37,224,81608,1,10,0:0:0:0:
37,224,81758,1,0,0:0:0:0:
154,328,81908,2,0,P|114:356|112:390,1,80,4|4,3:0|3:0,0:0:0:0:
325,262,82208,2,0,P|243:256|205:223,1,120,8|0,0:0|2:0,0:0:0:0:
134,158,82508,6,0,P|120:204|111:247,2,80,4|8|8,3:0|0:0|3:0,0:0:0:0:
232,138,82958,1,12,3:0:0:0:
214,234,83108,1,4,3:0:0:0:
153,68,83258,1,4,3:0:0:0:
324,144,83408,1,4,3:0:0:0:
424,30,83558,6,0,P|351:51|274:6,1,160,4|4,3:0|3:0,0:0:0:0:
153,215,84008,2,0,P|184:158|223:150,1,80,4|0,1:0|0:0,0:0:0:0:
360,226,84308,1,4,0:3:0:0:
360,226,84458,1,8,0:0:0:0:
310,127,84608,1,4,0:3:0:0:
269,297,84758,5,0,0:0:0:0:
269,297,84833,1,0,0:0:0:0:
269,297,84908,2,0,P|310:341|313:379,1,80,4|0,0:0|0:0,0:0:0:0:
105,226,85208,2,0,P|151:219|196:211,1,80,8|0,0:0|0:0,0:0:0:0:
325,111,85508,1,4,3:0:0:0:
288,194,85658,1,4,3:0:0:0:
216,119,85808,2,0,P|201:69|194:30,1,80,8|0,0:0|0:0,0:0:0:0:
389,194,86108,6,0,P|441:203|479:208,2,80,4|0|8,3:0|0:0|0:0,0:0:0:0:
441,103,86558,1,0,0:0:0:0:
358,282,86708,2,0,P|318:287|279:294,1,80,4|4,3:0|3:0,0:0:0:0:
174,177,87008,2,0,P|213:182|252:189,1,80,8|0,0:0|0:0,0:0:0:0:
210,368,87308,5,4,3:0:0:0:
163,279,87458,1,0,0:0:0:0:
319,158,87608,2,0,P|278:190|239:184,1,80,8|0,0:0|0:0,0:0:0:0:
62,300,87908,2,0,P|66:240|91:222,1,80,4|4,3:0|3:0,0:0:0:0:
153,162,88133,1,0,0:0:0:0:
153,162,88208,2,0,P|161:111|134:78,1,80,8|0,0:0|0:0,0:0:0:0:
20,29,88508,6,0,P|38:94|44:121,2,80,4|0|8,3:0|0:0|0:0,0:0:0:0:
230,179,88958,1,0,0:0:0:0:
230,179,89108,2,0,P|167:164|129:157,1,80,4|4,3:0|3:0,0:0:0:0:
1,283,89408,2,0,P|64:268|102:261,1,80,8|4,0:0|3:0,0:0:0:0:
150,336,89633,1,4,3:0:0:0:
150,336,89708,5,4,3:1:0:0:
232,280,89858,1,0,0:0:0:0:
333,306,90008,2,0,P|324:354|319:392,1,80,12|0,0:0|0:0,0:0:0:0:
157,249,90308,5,4,3:0:0:0:
298,214,90458,2,0,P|259:167|208:171,1,80,4|8,3:0|0:0,0:0:0:0:
73,26,90758,1,0,0:0:0:0:
75,135,90908,6,0,P|101:129|149:79,2,80,4|8|8,3:0|0:0|0:0,0:0:0:0:
306,205,91358,2,0,P|288:181|213:169,2,80,4|2|8,3:0|2:0|0:0,0:0:0:0:
158,243,91808,5,4,3:0:0:0:
158,243,91908,6,0,L|171:301,1,53.3333333333333,4|4,3:0|3:0,0:0:0:0:
228,377,92108,5,4,3:1:0:0:
256,192,92183,12,4,94508,0:2:0:0:
66,339,104108,5,4,3:2:0:0:
71,356,104408,2,0,P|81:314|95:306,1,51.999997619629,0|0,3:0|0:0,0:0:0:0:
36,237,104708,2,0,P|76:221|93:224,1,51.999997619629,0|0,3:0|0:0,0:0:0:0:
91,228,106508,5,4,3:0:0:0:
162,188,106658,1,4,3:0:0:0:
205,256,106808,2,0,L|260:243,1,51.999997619629,0|0,3:0|0:0,0:0:0:0:
300,172,107108,2,0,B|391:171|346:229|455:228,1,155.999992858887,0|2,3:0|3:0,0:0:0:0:
439,227,108008,6,0,L|450:184,1,25.9999988098145,0|0,3:0|0:0,0:0:0:0:
473,106,108308,2,0,P|407:113|349:120,1,103.999995239258,0|2,3:0|3:2,0:0:0:0:
155,84,108908,6,0,P|183:32|285:46,2,155.999992858887,6|0|0,3:0|0:0|3:0,0:0:0:0:
79,166,110108,2,0,P|44:120|77:21,2,155.999992858887,2|0|2,3:0|3:0|3:2,0:0:0:0:
247,172,111308,6,0,L|173:158,2,55.9999982910157,2|8|2,2:0|1:0|2:0,0:0:0:0:
324,102,111758,1,4,3:0:0:0:
141,253,111908,2,0,L|67:270,1,55.9999982910157,8|8,1:0|3:0,0:0:0:0:
196,343,112208,1,12,3:0:0:0:
196,343,112358,2,0,L|325:364,1,111.999996582031,8|4,1:0|3:0,0:0:0:0:
434,329,112808,2,0,P|421:367|413:391,1,55.9999982910157,8|0,1:0|0:0,0:0:0:0:
322,265,113108,1,0,1:0:0:0:
322,265,113258,1,8,1:0:0:0:
442,210,113408,1,0,1:0:0:0:
336,138,113558,5,0,1:0:0:0:
336,138,113633,1,0,1:0:0:0:
336,138,113708,2,0,P|284:147|250:155,2,75.9999979705811,4|0|8,3:2|0:0|1:0,0:0:0:0:
495,65,114158,2,0,P|411:56|357:-15,1,151.999995941162,0|4,0:0|3:0,0:0:0:0:
249,47,114608,1,8,1:0:0:0:
249,47,114758,1,0,0:0:0:0:
336,207,114908,2,0,P|344:151|321:126,1,75.9999979705811,4|12,3:0|3:0,0:0:0:0:
207,50,115208,2,0,P|199:106|222:131,1,75.9999979705811,8|0,1:0|0:0,0:0:0:0:
384,278,115508,2,0,P|324:232|239:248,1,151.999995941162,4|8,3:0|1:0,0:0:0:0:
1,357,116108,6,0,P|40:357|42:392,2,75.9999979705811,4|0|8,3:0|0:0|1:0,0:0:0:0:
135,377,116558,2,0,P|96:288|37:267,1,151.999995941162,0|4,0:0|3:0,0:0:0:0:
172,230,117008,2,0,P|194:184|182:148,1,75.9999979705811,8|0,1:0|0:0,0:0:0:0:
23,96,117308,2,0,P|36:142|48:180,1,75.9999979705811,4|4,3:0|3:0,0:0:0:0:
117,98,117608,1,8,1:0:0:0:
189,161,117758,1,0,0:0:0:0:
262,72,117908,2,0,P|304:25|400:48,1,151.999995941162,4|8,3:0|1:0,0:0:0:0:
322,191,118358,1,4,3:0:0:0:
342,113,118508,6,0,P|361:174|359:194,2,75.9999979705811,4|0|8,3:0|0:0|1:0,0:0:0:0:
512,0,118958,2,0,P|480:77|483:145,1,151.999995941162,0|4,0:0|3:0,0:0:0:0:
506,307,119408,2,0,P|473:260|449:264,1,75.9999979705811,8|0,1:0|0:0,0:0:0:0:
252,212,119708,2,0,P|339:212|392:161,1,151.999995941162,4|8,3:0|1:0,0:0:0:0:
212,115,120158,2,0,P|136:149|145:215,1,151.999995941162,0|4,0:0|3:0,0:0:0:0:
251,365,120608,2,0,P|225:307|197:302,1,75.9999979705811,8|0,1:0|0:0,0:0:0:0:
0,174,120908,1,4,3:0:0:0:
0,174,121058,6,0,P|70:164|172:148,1,151.999995941162,8|4,1:0|3:0,0:0:0:0:
234,81,121508,1,8,1:0:0:0:
145,40,121658,1,4,3:0:0:0:
243,177,121808,5,4,3:0:0:0:
243,177,121958,2,0,L|258:259,1,75.9999979705811,8|4,3:1|3:0,0:0:0:0:
405,86,122258,1,4,1:3:0:0:
405,86,122408,2,0,L|390:168,1,75.9999979705811,8|0,1:0|0:0,0:0:0:0:
204,294,122708,2,0,P|235:253|266:254,1,75.9999979705811,4|8,3:0|1:0,0:0:0:0:
450,214,123008,2,0,P|385:193|371:166,1,75.9999979705811,4|0,3:0|1:0,0:0:0:0:
277,77,123233,1,0,1:0:0:0:
277,77,123308,6,0,P|285:134|292:172,2,75.9999979705811,4|0|8,3:2|0:0|1:0,0:0:0:0:
164,0,123758,2,0,P|100:32|100:113,1,151.999995941162,0|4,0:0|3:0,0:0:0:0:
162,188,124208,1,8,1:0:0:0:
193,95,124358,1,0,0:0:0:0:
0,221,124508,2,0,L|85:193,1,75.9999979705811,4|12,3:0|3:0,0:0:0:0:
198,304,124808,2,0,L|109:265,1,75.9999979705811,8|0,1:0|0:0,0:0:0:0:
42,336,125108,1,4,3:0:0:0:
42,336,125258,1,4,3:0:0:0:
174,136,125408,2,0,P|202:177|188:214,1,75.9999979705811,8|0,1:0|0:0,0:0:0:0:
74,93,125708,6,0,L|39:1,2,75.9999979705811,4|4|8,3:0|3:0|1:0,0:0:0:0:
325,143,126158,2,0,L|163:135,1,151.999995941162,0|4,0:0|3:0,0:0:0:0:
37,257,126608,2,0,P|62:226|108:226,1,75.9999979705811,8|0,1:0|0:0,0:0:0:0:
253,29,126908,2,0,P|227:113|139:127,1,151.999995941162,4|8,3:0|1:0,0:0:0:0:
157,39,127358,1,0,0:0:0:0:
51,66,127508,2,0,P|81:108|71:150,1,75.9999979705811,4|4,3:0|3:0,0:0:0:0:
244,242,127808,1,8,1:0:0:0:
173,134,127958,1,0,0:0:0:0:
13,341,128108,6,0,P|47:283|92:272,1,113.999996955872,4|0,3:0|2:0,0:0:0:0:
128,271,128408,2,0,P|166:318|192:323,1,75.9999979705811,4|0,0:2|0:0,0:0:0:0:
256,163,128708,2,0,P|226:206|230:243,1,75.9999979705811,4|4,3:0|3:0,0:0:0:0:
411,201,129008,2,0,P|357:203|338:226,1,75.9999979705811,8|0,3:1|0:0,0:0:0:0:
343,216,129308,6,0,P|385:189|390:156,1,75.9999979705811,4|4,3:0|3:0,0:0:0:0:
296,100,129608,2,0,P|289:48|261:29,1,75.9999979705811,8|0,3:1|0:0,0:0:0:0:
185,91,129908,2,0,P|147:65|106:73,1,50.6666653137207,4|0,3:2|0:0,0:0:0:0:
52,116,130108,1,8,3:0:0:0:
52,116,130208,2,0,L|65:193,2,50.6666653137207,12|4|4,3:0|3:0|3:0,0:0:0:0:
129,248,130508,2,0,L|115:309,1,37.9999989852906,4|0,3:2|0:0,0:0:0:0:
76,362,131633,5,0,0:0:0:0:
82,370,131708,1,4,3:0:0:0:
46,306,131858,1,2,3:1:0:0:
86,249,132008,1,2,1:1:0:0:
161,214,132158,1,2,3:1:0:0:
190,132,132308,1,10,1:1:0:0:
137,65,132458,1,10,1:1:0:0:
87,145,132608,1,10,1:1:0:0:
264,72,132758,5,10,1:1:0:0:
264,72,132908,2,0,P|346:129|424:91,1,176.000005371094,4|8,3:2|0:0,0:0:0:0:
351,31,133358,1,2,2:2:0:0:
512,251,133508,2,0,P|480:222|432:220,2,88.000002685547,4|4|8,3:0|3:0|0:0,0:0:0:0:
363,384,133958,1,0,0:0:0:0:
363,384,134108,6,0,P|352:287|291:207,1,176.000005371094,4|8,3:0|0:0,0:0:0:0:
213,166,134558,1,2,2:2:0:0:
139,237,134708,2,0,P|178:280|221:279,1,88.000002685547,4|4,3:0|3:0,0:0:0:0:
72,132,135008,2,0,P|35:174|41:228,1,88.000002685547,8|0,0:0|0:0,0:0:0:0:
218,131,135308,6,0,P|206:52|107:16,1,176.000005371094,4|8,3:0|0:0,0:0:0:0:
110,354,135908,1,4,3:0:0:0:
61,261,136058,1,4,3:0:0:0:
252,256,136208,2,0,P|196:286|164:261,1,88.000002685547,8|0,0:0|0:0,0:0:0:0:
8,132,136508,6,0,P|86:166|191:159,1,176.000005371094,4|8,3:0|0:0,0:0:0:0:
271,89,136958,1,2,2:2:0:0:
210,2,137108,2,0,P|157:45|158:75,1,88.000002685547,4|4,3:0|3:0,0:0:0:0:
324,199,137408,2,0,P|312:158|239:132,1,88.000002685547,8|0,3:1|0:0,0:0:0:0:
141,276,137633,1,0,0:0:0:0:
141,276,137708,6,0,P|204:261|246:256,1,88.000002685547,4|0,3:1|0:0,0:0:0:0:
357,376,138008,2,0,P|313:368|271:357,1,88.000002685547,8|2,0:0|2:2,0:0:0:0:
220,170,138308,1,4,3:0:0:0:
332,261,138458,1,4,3:0:0:0:
419,156,138608,2,0,P|353:156|317:133,1,88.000002685547,8|0,0:0|0:0,0:0:0:0:
102,180,138908,6,0,P|131:80|213:70,1,176.000005371094,4|8,3:0|0:0,0:0:0:0:
294,97,139358,1,2,2:2:0:0:
230,240,139508,2,0,P|209:176|202:142,1,88.000002685547,4|4,3:0|3:0,0:0:0:0:
397,112,139808,2,0,P|386:154|371:196,1,88.000002685547,8|0,0:0|0:0,0:0:0:0:
368,377,140108,5,4,3:0:0:0:
368,377,140258,2,0,P|413:313|520:323,1,176.000005371094,12|4,0:2|3:0,0:0:0:0:
319,272,140708,1,8,0:0:0:0:
459,384,140858,1,0,0:0:0:0:
398,220,141008,1,0,0:0:0:0:
230,360,141158,6,0,P|231:281|138:226,1,176.000005371094,12|4,0:0|3:0,0:0:0:0:
38,218,141608,2,0,P|39:175|71:146,1,88.000002685547,2|2,1:3|1:3,0:0:0:0:
190,110,141833,1,0,0:0:0:0:
190,110,141908,2,0,L|261:126,3,44.0000013427735,2|0|2|0,1:3|0:0|1:3|0:0,0:0:0:0:
127,18,142208,1,0,0:0:0:0:
127,18,142283,1,0,0:0:0:0:
127,18,142358,1,0,0:0:0:0:
127,18,142433,1,0,0:0:0:0:
127,18,142508,6,0,P|41:36|-27:110,1,176.000005371094,4|8,0:0|0:0,0:0:0:0:
300,164,143108,1,4,3:0:0:0:
196,182,143258,1,4,3:0:0:0:
244,74,143408,2,0,P|309:59|352:85,1,88.000002685547,8|0,0:0|0:0,0:0:0:0:
169,286,143708,6,0,P|165:181|98:105,1,176.000005371094,4|8,3:0|0:0,0:0:0:0:
73,231,144158,1,2,2:2:0:0:
263,384,144308,2,0,P|287:322|326:324,1,88.000002685547,4|4,3:0|3:0,0:0:0:0:
477,236,144608,2,0,P|420:260|383:237,1,88.000002685547,8|0,0:0|0:0,0:0:0:0:
284,200,144908,6,0,P|341:172|374:159,1,88.000002685547,4|0,3:0|0:0,0:0:0:0:
155,194,145208,2,0,P|188:125|230:97,1,88.000002685547,8|2,0:0|2:2,0:0:0:0:
67,285,145508,2,0,P|39:232|27:194,1,88.000002685547,4|4,3:0|3:0,0:0:0:0:
181,294,145808,1,8,0:0:0:0:
181,294,145958,1,0,0:0:0:0:
41,103,146108,6,0,P|126:117|147:218,1,176.000005371094,4|8,3:0|0:0,0:0:0:0:
131,24,146558,1,2,2:2:0:0:
252,67,146708,2,0,P|193:124|160:119,1,88.000002685547,4|4,3:0|3:0,0:0:0:0:
15,272,147008,2,0,P|28:214|74:209,1,88.000002685547,8|0,3:1|0:0,0:0:0:0:
154,281,147233,1,0,0:0:0:0:
154,281,147308,6,0,P|198:333|199:372,1,88.000002685547,4|0,3:1|0:0,0:0:0:0:
325,159,147608,2,0,P|314:215|279:243,1,88.000002685547,8|2,0:0|2:2,0:0:0:0:
190,194,147908,2,0,P|202:133|237:112,1,88.000002685547,4|6,3:0|3:0,0:0:0:0:
395,69,148208,2,0,P|434:111|427:167,1,88.000002685547,2|0,1:3|0:0,0:0:0:0:
337,370,148508,6,0,P|373:275|465:281,1,176.000005371094,4|2,0:2|1:3,0:0:0:0:
427,358,148958,1,2,3:0:0:0:
243,271,149108,2,0,P|200:239|196:192,1,88.000002685547,0|2,0:0|3:0,0:0:0:0:
290,158,149408,2,0,P|306:102|349:92,1,88.000002685547,2|0,1:3|0:0,0:0:0:0:
413,156,149708,5,6,3:0:0:0:
233,44,149858,1,8,3:0:0:0:
233,44,149933,1,8,3:0:0:0:
233,44,150008,2,0,P|180:54|140:59,1,80,12|12,3:0|3:0,0:0:0:0:
11,151,150308,2,0,P|50:156|89:165,1,80,12|12,3:0|3:0,0:0:0:0:
305,226,150608,1,8,3:0:0:0:
205,151,150758,1,8,3:0:0:0:
206,279,150908,1,8,3:0:0:0:
204,257,152108,6,0,P|244:274|258:325,1,88.000002685547,4|0,3:0|0:0,0:0:0:0:
165,374,152408,2,0,P|130:333|141:292,1,88.000002685547,8|2,0:0|2:2,0:0:0:0:
235,182,152708,2,0,P|220:245|184:262,1,88.000002685547,4|4,3:0|3:0,0:0:0:0:
25,304,153008,2,0,P|50:240|90:230,1,88.000002685547,8|0,0:0|0:0,0:0:0:0:
151,156,153233,1,0,0:0:0:0:
151,156,153308,6,0,P|70:141|38:136,1,88.000002685547,4|0,3:0|0:0,0:0:0:0:
0,45,153608,2,0,P|81:30|113:25,1,88.000002685547,8|2,0:0|2:2,0:0:0:0:
288,75,153908,1,4,3:0:0:0:
288,75,154058,1,4,3:0:0:0:
223,0,154208,2,0,P|176:34|186:78,1,88.000002685547,8|0,0:0|0:0,0:0:0:0:
391,214,154508,6,0,P|318:166|230:214,2,176.000005371094,4|8|4,3:0|0:0|3:0,0:0:0:0:
151,246,155258,1,4,3:0:0:0:
151,246,155408,2,0,P|139:176|163:151,1,88.000002685547,8|0,0:0|0:0,0:0:0:0:
391,214,155708,6,0,P|362:295|347:401,1,176.000005371094,4|8,3:0|0:0,0:0:0:0:
121,214,156308,2,0,P|150:295|165:401,1,176.000005371094,4|8,3:0|3:1,0:0:0:0:
302,153,156758,5,4,3:0:0:0:
302,153,156833,1,4,3:0:0:0:
302,153,156908,2,0,P|271:184|217:188,1,88.000002685547,4|0,3:1|0:0,0:0:0:0:
32,200,157208,2,0,P|56:149|96:138,1,88.000002685547,8|2,0:0|2:2,0:0:0:0:
187,100,157508,1,4,3:0:0:0:
187,100,157658,1,4,3:0:0:0:
111,22,157808,2,0,P|63:17|17:14,1,88.000002685547,8|0,0:0|0:0,0:0:0:0:
196,127,158108,6,0,P|286:113|393:101,1,176.000005371094,4|8,3:0|0:0,0:0:0:0:
203,367,158708,1,4,3:0:0:0:
143,301,158858,1,4,3:0:0:0:
219,238,159008,2,0,P|266:232|323:223,1,88.000002685547,8|0,0:0|0:0,0:0:0:0:
429,384,159308,6,0,P|426:273|477:244,1,176.000005371094,4|4,3:0|3:0,0:0:0:0:
423,85,159758,1,4,3:0:0:0:
423,85,159833,1,0,0:0:0:0:
423,85,159908,2,0,P|462:102|477:142,2,88.000002685547,4|4|4,3:0|3:0|3:0,0:0:0:0:
331,0,160358,6,0,P|320:79|304:186,1,176.000005371094,4|4,0:0|3:0,0:0:0:0:
171,186,160808,2,0,P|171:137|210:112,1,88.000002685547,4|0,1:0|0:0,0:0:0:0:
325,306,161108,2,0,P|282:272|239:282,1,88.000002685547,4|0,3:0|1:0,0:0:0:0:
172,350,161333,1,0,1:0:0:0:
172,350,161408,2,0,L|99:368,3,44.0000013427735,0|0|0|0,1:0|1:0|1:0|1:0,0:0:0:0:
10,289,161708,6,0,P|81:273|126:265,1,88.000002685547,4|0,0:0|0:0,0:0:0:0:
90,152,162008,2,0,P|161:168|206:176,1,88.000002685547,8|2,0:0|2:2,0:0:0:0:
273,226,162308,1,4,3:0:0:0:
273,226,162458,1,4,3:0:0:0:
287,94,162608,2,0,P|268:60|205:57,1,88.000002685547,8|0,0:0|0:0,0:0:0:0:
90,152,162908,1,4,3:0:0:0:
90,152,163208,6,0,P|117:209|111:248,1,88.000002685547,8|2,0:0|2:2,0:0:0:0:
0,384,163508,2,0,P|54:345|180:334,1,176.000005371094,4|8,3:0|0:0,0:0:0:0:
267,261,163958,1,0,0:0:0:0:
267,261,164108,6,0,P|246:206|206:190,1,88.000002685547,4|0,3:0|0:0,0:0:0:0:
366,172,164408,2,0,P|378:126|349:80,1,88.000002685547,8|2,0:0|2:2,0:0:0:0:
261,70,164708,1,4,3:0:0:0:
261,70,164858,1,4,3:0:0:0:
408,0,165008,1,8,0:0:0:0:
408,0,165308,6,0,P|451:10|510:17,1,88.000002685547,4|0,3:0|0:0,0:0:0:0:
512,137,165608,2,0,P|469:147|410:154,1,88.000002685547,8|2,0:0|2:2,0:0:0:0:
310,217,165908,2,0,P|317:173|329:131,1,88.000002685547,4|4,3:0|3:0,0:0:0:0:
208,35,166208,2,0,P|220:77|227:120,1,88.000002685547,8|0,3:1|0:0,0:0:0:0:
311,33,166508,6,0,P|358:27|415:27,1,88.000002685547,4|0,3:1|0:0,0:0:0:0:
227,120,166808,2,0,P|183:118|139:113,1,88.000002685547,8|2,0:0|2:2,0:0:0:0:
390,152,167108,2,0,P|419:204|406:251,1,88.000002685547,4|6,3:0|3:0,0:0:0:0:
307,272,167408,2,0,P|278:220|291:173,1,88.000002685547,8|0,0:0|0:0,0:0:0:0:
474,358,167708,6,0,P|409:340|297:411,1,176.000005371094,4|8,0:2|1:0,0:0:0:0:
13,255,168308,1,4,3:0:0:0:
87,336,168458,1,4,3:0:0:0:
138,234,168608,2,0,P|190:245|207:295,1,88.000002685547,8|0,1:0|0:0,0:0:0:0:
361,176,168908,5,0,1:0:0:0:
361,176,169058,2,0,L|256:190,2,88.000002685547,8|12|4,1:0|3:0|3:0,0:0:0:0:
493,356,169508,1,8,1:0:0:0:
407,271,169658,1,12,3:0:0:0:
394,381,169808,1,4,3:0:0:0:
170,372,169958,6,0,P|227:312|334:316,1,176.000005371094,8|4,0:0|3:0,0:0:0:0:
477,244,170408,2,0,P|409:222|377:187,1,88.000002685547,8|0,0:0|1:0,0:0:0:0:
306,130,170708,5,0,1:0:0:0:
306,130,170783,1,0,1:0:0:0:
306,130,170858,2,0,L|239:119,1,44.0000013427735,0|0,1:0|1:0,0:0:0:0:
171,187,171008,5,0,1:0:0:0:
171,187,171083,1,0,1:0:0:0:
171,187,171158,2,0,L|104:198,1,44.0000013427735,0|0,1:0|1:0,0:0:0:0:
25,130,171308,5,2,1:3:0:0:
25,130,173708,6,2,B|140:83|91:167|204:133,1,180.000006866455,2|0,1:0|2:0,0:1:0:0:
282,40,174008,2,2,B|228:5|228:5|135:67|218:165,1,215.999993408203,2|0,1:1|2:0,0:1:0:0:
282,230,174308,2,2,P|317:157|412:162,1,180.000006866455,2|0,1:1|2:0,0:1:0:0:
512,150,174608,2,2,P|426:40|353:51,1,191.999994140625,2|4,1:0|3:0,0:1:0:0:
286,119,175058,5,0,1:0:0:0:
286,119,175133,1,0,1:0:0:0:
286,119,175208,2,0,L|300:190,3,60.0000022888184,2|0|0|0,1:3|1:0|1:0|1:0,0:0:0:0:
167,76,175508,2,0,L|178:17,3,60.0000022888184,2|0|0|0,1:3|1:0|1:0|1:0,0:0:0:0:
54,117,175808,2,0,P|3:127|6:193,1,120.000004577637,2|12,1:3|3:0,0:0:0:0:
11,304,176033,1,12,3:0:0:0:
11,304,176108,6,0,P|57:261|107:263,1,92.0000017547608,4|0,3:0|0:0,0:0:0:0:
244,352,176408,2,0,P|181:349|164:313,1,92.0000017547608,12|2,0:2|2:2,0:0:0:0:
118,151,176708,2,0,P|169:168|186:221,1,92.0000017547608,4|4,3:0|3:0,0:0:0:0:
327,257,177008,1,8,0:0:0:0:
277,153,177158,1,0,0:0:0:0:
386,109,177308,6,0,P|439:96|491:93,1,92.0000017547608,4|0,3:0|0:0,0:0:0:0:
476,291,177608,2,0,P|430:286|386:275,1,92.0000017547608,8|2,0:0|2:2,0:0:0:0:
221,253,177908,1,4,3:0:0:0:
307,179,178058,1,4,3:0:0:0:
252,83,178208,2,0,P|202:119|215:164,1,92.0000017547608,8|0,0:0|0:0,0:0:0:0:
291,353,178508,6,0,P|224:288|100:296,1,184.000003509522,4|8,3:2|0:0,0:0:0:0:
73,92,178958,1,4,3:0:0:0:
0,151,179108,2,0,P|56:188|98:183,2,92.0000017547608,4|4|4,3:0|3:0|3:0,0:0:0:0:
176,384,179558,2,0,P|198:237|233:193,1,184.000003509522,4|4,0:2|3:0,0:0:0:0:
345,340,180008,6,0,P|294:302|250:320,1,92.0000017547608,8|2,0:0|2:2,0:0:0:0:
161,142,180308,2,0,P|212:120|260:140,1,92.0000017547608,4|4,3:0|3:0,0:0:0:0:
326,197,180533,1,0,0:0:0:0:
326,197,180608,2,0,L|386:185,3,46.0000008773804
512,131,180908,6,0,P|432:107|388:5,1,184.000003509522,4|8,3:1|0:0,0:0:0:0:
350,375,181508,1,4,3:0:0:0:
307,268,181658,1,4,3:0:0:0:
473,241,181808,2,0,P|421:291|374:265,1,92.0000017547608,8|0,0:0|0:0,0:0:0:0:
209,285,182108,6,0,P|219:191|298:167,1,184.000003509522,4|8,3:0|0:0,0:0:0:0:
307,268,182558,1,2,2:2:0:0:
419,82,182708,2,0,P|354:73|231:56,1,184.000003509522,4|8,3:0|0:0,0:0:0:0:
57,89,183158,1,0,0:0:0:0:
117,15,183308,6,0,P|146:80|150:120,1,92.0000017547608,4|0,3:0|0:0,0:0:0:0:
216,261,183608,2,0,P|226:216|248:175,1,92.0000017547608,8|2,0:0|2:2,0:0:0:0:
140,354,183908,2,0,P|113:288|111:254,1,92.0000017547608,4|4,3:0|3:0,0:0:0:0:
385,207,184208,2,0,P|350:253|326:237,1,92.0000017547608,8|0,0:0|0:0,0:0:0:0:
13,274,184508,6,0,P|44:192|156:189,1,184.000003509522,4|8,3:0|0:0,0:0:0:0:
274,101,184958,1,2,2:2:0:0:
206,25,185108,2,0,P|158:57|162:104,1,92.0000017547608,4|4,3:0|3:0,0:0:0:0:
218,278,185408,2,0,P|238:206|284:193,1,92.0000017547608,8|0,3:1|0:0,0:0:0:0:
425,220,185708,6,0,P|381:210|350:178,1,92.0000017547608,4|0,3:1|0:0,0:0:0:0:
445,107,186008,2,0,P|441:62|468:26,1,92.0000017547608,8|2,0:0|2:2,0:0:0:0:
463,293,186308,2,0,P|440:227|402:217,1,92.0000017547608,4|4,3:0|3:0,0:0:0:0:
273,371,186608,1,8,0:0:0:0:
357,303,186758,1,0,0:0:0:0:
264,262,186908,6,0,P|205:278|174:321,1,92.0000017547608,4|0,3:0|0:0,0:0:0:0:
50,146,187208,2,0,P|84:175|129:183,1,92.0000017547608,8|2,0:0|2:2,0:0:0:0:
251,146,187508,1,4,3:0:0:0:
164,61,187658,1,4,3:0:0:0:
282,6,187808,2,0,P|340:29|335:68,1,92.0000017547608,8|0,0:0|0:0,0:0:0:0:
251,146,188108,6,0,L|265:215,3,46.0000008773804,2|0|0|0,1:3|1:0|1:0|1:0,0:0:0:0:
404,208,188408,2,0,L|327:194,1,46.0000008773804,0|0,1:0|1:0,0:0:0:0:
230,285,188558,6,0,L|299:274,3,46.0000008773804,2|0|0|0,1:3|1:0|1:0|1:0,0:0:0:0:
395,365,188858,2,0,L|337:353,1,46.0000008773804,0|0,1:0|1:0,0:0:0:0:
224,384,189008,6,0,P|189:292|107:296,1,184.000003509522,2|0,1:3|1:0,0:0:0:0:
10,202,189458,2,0,L|75:210,3,46.0000008773804,2|0|0|0,1:3|1:0|1:0|1:0,0:0:0:0:
123,130,189758,1,0,1:0:0:0:
123,130,189833,1,0,1:0:0:0:
123,130,189908,2,0,L|181:117,3,46.0000008773804,0|0|0|0,1:0|1:0|1:0|1:0,0:0:0:0:
245,184,190208,2,0,L|354:198,1,92.0000017547608,8|4,3:0|3:0,0:0:0:0:
438,30,190508,6,0,P|343:18|311:110,1,184.000003509522,4|12,3:2|0:2,0:0:0:0:
470,374,191108,2,0,P|467:324|494:287,2,92.0000017547608,4|4|8,3:0|3:0|0:0,0:0:0:0:
403,221,191558,1,0,0:0:0:0:
340,382,191708,6,0,P|343:305|258:207,1,184.000003509522,4|8,3:0|0:0,0:0:0:0:
205,291,192158,1,2,2:2:0:0:
296,120,192308,2,0,P|269:114|213:163,2,92.0000017547608,4|4|8,3:0|3:0|0:0,0:0:0:0:
405,128,192758,1,0,0:0:0:0:
328,29,192908,6,0,P|280:-4|223:18,1,92.0000017547608,4|0,3:0|0:0,0:0:0:0:
63,104,193208,2,0,P|121:98|147:69,1,92.0000017547608,8|2,0:0|2:2,0:0:0:0:
315,185,193508,1,4,3:0:0:0:
242,108,193658,1,4,3:0:0:0:
162,278,193808,2,0,P|173:220|220:218,1,92.0000017547608,8|0,0:0|0:0,0:0:0:0:
356,79,194108,6,0,P|435:143|526:131,1,184.000003509522,4|8,3:0|0:0,0:0:0:0:
455,57,194558,1,2,2:2:0:0:
379,238,194708,2,0,P|365:296|385:319,1,92.0000017547608,4|4,3:0|3:0,0:0:0:0:
290,157,195008,2,0,P|247:199|257:243,1,92.0000017547608,8|0,3:1|0:0,0:0:0:0:
456,373,195308,6,0,P|335:345|261:371,1,184.000003509522,4|8,3:0|0:0,0:0:0:0:
165,316,195758,1,2,2:2:0:0:
221,195,195908,2,0,P|261:239|234:297,1,92.0000017547608,4|4,3:0|3:0,0:0:0:0:
60,368,196208,2,0,P|46:308|74:277,1,92.0000017547608,8|0,0:0|0:0,0:0:0:0:
249,127,196508,6,0,P|195:199|89:179,1,184.000003509522,4|8,3:0|0:0,0:0:0:0:
39,119,196958,1,2,2:2:0:0:
116,30,197108,2,0,P|155:72|148:124,1,92.0000017547608,4|4,3:0|3:0,0:0:0:0:
189,311,197408,2,0,P|195:253|232:231,1,92.0000017547608,8|0,0:0|0:0,0:0:0:0:
345,45,197708,5,4,3:0:0:0:
249,127,197858,2,0,P|323:148|377:159,1,92.0000017547608,2|4,2:3|3:0,0:0:0:0:
479,44,198158,2,0,B|437:149|518:110|459:260,1,184.000003509522,4|0,3:0|0:0,0:0:0:0:
324,372,198608,1,0,0:0:0:0:
377,279,198758,6,0,P|292:293|185:309,1,184.000003509522,12|4,0:0|3:0,0:0:0:0:
83,263,199208,1,2,1:3:0:0:
173,196,199358,1,2,1:3:0:0:
68,86,199508,2,0,L|85:145,3,46.0000008773804,2|0|2|0,1:3|0:0|1:3|1:0,0:0:0:0:
154,15,199808,1,0,1:0:0:0:
154,15,199883,1,0,1:0:0:0:
154,15,199958,1,0,1:0:0:0:
154,15,200033,1,0,1:0:0:0:
154,15,200108,6,0,P|241:26|355:41,1,184.000003509522,4|8,0:0|0:0,0:0:0:0:
91,262,200708,1,4,3:0:0:0:
34,179,200858,1,4,3:0:0:0:
123,119,201008,2,0,P|174:166|161:203,1,92.0000017547608,8|0,0:0|0:0,0:0:0:0:
29,384,201308,6,0,P|71:305|188:329,1,184.000003509522,4|8,3:0|0:0,0:0:0:0:
259,232,201758,1,2,2:2:0:0:
268,344,201908,1,4,3:0:0:0:
162,197,202058,1,4,3:0:0:0:
357,277,202208,2,0,P|409:266|452:255,1,92.0000017547608,8|0,0:0|0:0,0:0:0:0:
426,102,202508,6,0,P|375:145|378:179,1,92.0000017547608,4|0,3:0|0:0,0:0:0:0:
356,8,202808,2,0,P|303:26|277:78,1,92.0000017547608,8|2,0:0|2:2,0:0:0:0:
134,174,203108,1,4,3:0:0:0:
142,75,203258,1,4,3:0:0:0:
248,146,203408,2,0,P|233:213|270:251,1,92.0000017547608,8|0,0:0|0:0,0:0:0:0:
385,384,203708,6,0,P|343:340|208:361,1,184.000003509522,4|8,3:0|0:0,0:0:0:0:
142,271,204158,1,2,2:2:0:0:
314,189,204308,2,0,P|273:230|229:225,1,92.0000017547608,4|4,3:0|3:0,0:0:0:0:
46,311,204608,2,0,P|37:251|77:212,1,92.0000017547608,8|4,3:1|3:0,0:0:0:0:
131,147,204833,1,4,3:0:0:0:
131,147,204908,6,0,P|62:129|28:122,1,92.0000017547608,4|0,3:2|0:0,0:0:0:0:
255,14,205208,2,0,P|186:32|152:39,1,92.0000017547608,8|2,0:0|2:2,0:0:0:0:
183,241,205508,1,4,3:0:0:0:
236,130,205658,1,4,3:0:0:0:
294,239,205808,1,8,0:0:0:0:
125,147,205958,1,0,0:0:0:0:
344,76,206108,1,4,0:2:0:0:
350,75,207308,5,6,1:0:0:0:
350,75,207458,2,0,P|415:99|441:100,1,80,0|8,0:0|0:0,0:0:0:0:
194,198,207758,5,2,0:1:0:0:
194,198,207908,2,0,P|259:174|285:173,1,80,4|4,3:0|3:0,0:0:0:0:
370,371,208208,6,0,P|363:277|411:199,1,160,10|4,0:0|3:0,0:0:0:0:
461,295,208658,1,0,0:0:0:0:
269,173,208808,2,2,P|282:118|378:112,1,160,10|4,0:0|3:0,0:0:0:0:
462,157,209258,1,4,3:0:0:0:
339,295,209408,2,0,P|268:276|238:265,1,80,8|0,0:0|0:0,0:0:0:0:
161,317,209708,5,2,1:1:0:0:
171,228,209858,2,0,P|136:271|143:306,1,80,0|8,0:0|0:0,0:0:0:0:
47,210,210158,5,2,0:1:0:0:
107,143,210308,2,0,P|53:157|38:189,1,80,4|4,3:0|3:0,0:0:0:0:
249,105,210608,6,0,P|173:86|139:-20,1,160,10|4,0:0|3:0,0:0:0:0:
232,9,211058,1,0,0:0:0:0:
259,222,211208,2,2,P|306:173|404:173,1,160,10|4,0:0|3:0,0:0:0:0:
350,257,211658,1,4,3:0:0:0:
428,81,211808,2,0,P|467:104|480:151,1,80,8|4,0:0|3:0,0:0:0:0:
443,330,212108,5,6,1:1:0:0:
511,262,212258,2,0,P|465:279|439:312,1,80,0|12,0:0|0:0,0:0:0:0:
300,226,212558,5,2,0:1:0:0:
232,158,212708,2,0,P|278:175|304:208,1,80,4|4,3:0|3:0,0:0:0:0:
491,19,213008,6,0,P|430:65|417:161,1,160,10|4,0:0|3:0,0:0:0:0:
510,114,213458,1,0,0:0:0:0:
349,42,213608,2,2,P|303:36|284:-4,1,80,10|0,0:0|0:0,0:0:0:0:
148,159,213908,2,0,P|186:107|222:109,1,80,4|4,3:0|3:0,0:0:0:0:
309,161,214208,1,8,0:0:0:0:
309,161,214358,1,0,0:0:0:0:
229,257,214508,6,0,P|181:274|132:292,2,80,4|8|8,3:0|0:0|3:0,0:0:0:0:
154,183,214958,1,12,3:0:0:0:
302,384,215108,2,0,P|319:331|358:321,1,80,4|4,3:0|3:0,0:0:0:0:
452,176,215408,1,4,3:0:0:0:
504,257,215558,6,0,P|430:267|366:198,1,160,4|4,3:2|3:0,0:0:0:0:
273,105,216008,2,0,P|250:150|269:196,1,80,4|0,1:2|0:0,0:0:0:0:
371,112,216308,1,4,0:3:0:0:
292,8,216458,1,0,0:0:0:0:
292,8,216533,1,0,0:0:0:0:
292,8,216608,2,0,L|219:16,3,40,0|0|0|0,1:0|1:0|1:0|1:0,0:0:0:0:
149,74,216908,6,0,P|136:17|155:-15,1,80,4|0,0:0|0:0,0:0:0:0:
39,13,217208,2,0,P|29:51|44:87,1,80,8|0,0:0|0:0,0:0:0:0:
20,236,217508,2,0,P|59:195|97:193,1,80,4|4,3:0|3:0,0:0:0:0:
178,186,217733,1,0,0:0:0:0:
178,186,217808,2,0,P|225:214|266:214,1,80,8|0,0:0|0:0,0:0:0:0:
309,148,218108,5,4,3:0:0:0:
237,58,218258,1,0,0:0:0:0:
342,6,218408,2,0,P|384:24|391:76,1,80,8|0,0:0|0:0,0:0:0:0:
391,243,218708,2,0,P|386:181|418:158,1,80,4|4,3:0|3:0,0:0:0:0:
493,185,219008,2,0,P|498:247|466:270,1,80,8|0,0:0|0:0,0:0:0:0:
416,355,219308,6,0,P|353:346|320:340,2,80,4|0|8,3:0|0:0|0:0,0:0:0:0:
192,189,219758,1,0,0:0:0:0:
181,282,219908,2,0,P|241:265|281:257,1,80,4|4,3:0|3:0,0:0:0:0:
347,190,220133,1,0,0:0:0:0:
347,190,220208,2,0,P|328:135|283:126,1,80,8|0,0:0|0:0,0:0:0:0:
254,11,220508,6,0,P|211:62|175:68,2,80,4|0|8,3:0|0:0|0:0,0:0:0:0:
91,31,220958,1,0,0:0:0:0:
91,31,221033,1,0,0:0:0:0:
91,31,221108,2,0,P|103:89|111:123,1,80,4|4,3:0|3:0,0:0:0:0:
195,250,221408,2,0,P|203:210|211:171,1,80,8|4,0:0|3:0,0:0:0:0:
104,209,221708,5,4,3:1:0:0:
104,209,221858,1,0,0:0:0:0:
256,311,222008,1,12,0:0:0:0:
83,313,222158,5,0,0:0:0:0:
83,313,222308,1,4,3:0:0:0:
285,225,222458,1,4,3:0:0:0:
76,123,222608,2,0,P|27:145|18:176,1,80,8|0,0:0|0:0,0:0:0:0:
38,374,222908,6,0,P|66:322|115:307,2,80,4|8|8,3:0|0:0|0:0,0:0:0:0:
290,275,223358,2,0,P|250:273|217:251,2,80,4|0|8,3:0|3:0|0:0,0:0:0:0:
119,196,223808,1,4,3:0:0:0:
239,120,223958,1,2,2:0:0:0:
138,39,224108,5,0,2:2:0:0:
256,192,224183,12,2,226208,3:0:0:0:
