osu file format v14

[General]
AudioFilename: audio.mp3
AudioLeadIn: 0
PreviewTime: 58714
Countdown: 0
SampleSet: Soft
StackLeniency: 0.6
Mode: 0
LetterboxInBreaks: 0
WidescreenStoryboard: 0

[Editor]
Bookmarks: 20314,39514,58714,75514,94714,113914,133114,152314,171514,176314,190714,207530
DistanceSpacing: 0.5
BeatDivisor: 16
GridSize: 8
TimelineZoom: 1.600006

[Metadata]
Title:Matasaburo
TitleUnicode:又三郎
Artist:Yorushika
ArtistUnicode:ヨルシカ
Creator:Aragon
Version:Delight
Source:
Tags:suis nbuna matasaburou japanese rock j-rock jrock pop j-pop jpop female vocal raijodo a_blue yamadarkness florescence mystiarch ponbot
BeatmapID:3198042
BeatmapSetID:1566187

[Difficulty]
HPDrainRate:6
CircleSize:4
OverallDifficulty:8.7
ApproachRate:9.3
SliderMultiplier:1.8
SliderTickRate:1

[Events]
//Background and Video events
0,0,"bg.jpg",0,0
//Break Periods
2,18130,19776
2,92530,94176
2,94930,96576
2,97330,98376
2,99730,101376
//Storyboard Layer 0 (Background)
//Storyboard Layer 1 (Fail)
//Storyboard Layer 2 (Pass)
//Storyboard Layer 3 (Foreground)
//Storyboard Layer 4 (Overlay)
//Storyboard Sound Samples

[TimingPoints]
1130,300,4,2,1,70,1,0
1130,-100,4,2,1,70,0,0
20330,-125,4,2,1,55,0,0
58430,-125,4,2,1,45,0,0
58730,-90.9090909090909,4,2,1,70,0,0
75530,-100,4,2,1,70,0,0
76205,-100,4,2,1,5,0,0
76280,-100,4,2,1,70,0,0
78605,-100,4,2,1,5,0,0
78680,-100,4,2,1,70,0,0
92030,-100,4,2,1,60,0,0
94730,-100,4,2,1,40,0,0
104030,-133.333333333333,4,2,1,45,0,0
107330,-142.857142857143,4,2,1,45,0,0
111530,-125,4,2,1,55,0,0
128330,-111.111111111111,4,2,1,55,0,0
132530,-111.111111111111,4,2,1,65,0,0
133130,-83.3333333333333,4,2,1,70,0,0
133880,-90.9090909090909,4,2,1,70,0,0
164330,-86.9565217391304,4,2,1,70,0,0
164630,-95.2380952380952,4,2,1,70,0,0
165530,-90.9090909090909,4,2,1,70,0,0
173930,-80,4,2,1,70,0,0
175280,-100,4,2,1,70,0,0
176330,-83.3333333333333,4,2,1,70,0,0
176930,-90.9090909090909,4,2,1,70,0,0
188330,-111.111111111111,4,2,1,70,0,0
188780,-133.333333333333,4,2,1,70,0,0
189680,-111.111111111111,4,2,1,70,0,0
190730,-83.3333333333333,4,2,2,75,0,1
205130,-83.3333333333333,4,2,2,75,0,1
207530,-90.9090909090909,4,2,1,65,0,0
215780,-90.9090909090909,4,2,3,65,0,0
217130,-90.9090909090909,4,2,1,65,0,0
224330,-153.846153846153,4,2,1,45,0,0

[Colours]
Combo1 : 255,128,128
Combo2 : 108,207,255
Combo3 : 162,234,207
Combo4 : 198,236,125

[HitObjects]
104,337,1130,5,6,3:2:0:0:
217,224,1280,1,2,0:2:0:0:
75,154,1430,1,10,0:2:0:0:
131,252,1580,1,2,0:2:0:0:
215,138,1730,1,2,3:2:0:0:
295,309,1880,1,2,3:2:0:0:
295,309,1955,1,2,3:2:0:0:
295,309,2030,2,0,P|299:264|309:214,1,90,10|0,0:2|0:0,0:0:0:0:
483,113,2330,6,0,P|437:96|387:81,1,90,2|0,3:2|0:0,0:0:0:0:
356,9,2630,1,8,0:0:0:0:
193,164,2780,2,0,P|199:122|204:72,1,90,2|0,0:2|3:0,0:0:0:0:
335,313,3080,5,2,3:2:0:0:
311,234,3230,1,10,0:2:0:0:
254,292,3380,1,2,0:2:0:0:
465,145,3530,5,2,3:2:0:0:
329,84,3680,1,2,0:2:0:0:
438,59,3830,1,10,0:2:0:0:
331,171,3980,1,2,0:2:0:0:
217,75,4130,1,2,3:2:0:0:
328,0,4280,1,2,3:2:0:0:
328,0,4355,1,2,3:2:0:0:
328,0,4430,1,10,0:2:0:0:
141,36,4580,5,0,0:2:0:0:
248,148,4730,2,0,P|240:197|236:237,1,90,2|0,3:2|0:0,0:0:0:0:
160,204,5030,1,8,0:0:0:0:
200,363,5180,2,0,P|294:335|315:261,1,180,2|2,0:2|3:2,0:0:0:0:
458,79,5630,2,0,P|413:87|368:90,1,90,10|2,0:2|1:2,0:0:0:0:
368,90,5855,1,2,1:2:0:0:
368,90,5930,5,6,3:2:0:0:
280,115,6080,1,0,3:2:0:0:
191,130,6230,1,10,0:2:0:0:
196,208,6380,5,0,0:2:0:0:
280,158,6530,1,2,3:2:0:0:
205,106,6680,1,2,3:2:0:0:
229,238,6830,5,8,0:2:0:0:
306,161,6980,1,0,0:2:0:0:
205,106,7130,1,2,3:2:0:0:
270,258,7280,5,0,0:2:0:0:
335,149,7430,1,8,0:2:0:0:
205,106,7580,1,2,0:2:0:0:
74,287,7730,5,0,3:2:0:0:
11,222,7880,1,0,3:2:0:0:
81,166,8030,2,0,P|147:180|209:186,1,90,10|0,0:2|0:0,0:0:0:0:
327,377,8330,5,2,3:2:0:0:
392,303,8480,2,0,P|378:223|366:106,1,180,10|2,0:2|3:2,0:0:0:0:
252,40,8930,5,10,0:2:0:0:
87,171,9080,1,0,3:2:0:0:
243,280,9230,1,2,3:2:0:0:
189,116,9380,5,10,0:2:0:0:
169,220,9530,1,0,3:2:0:0:
273,179,9680,1,2,3:2:0:0:
153,301,9830,2,0,P|109:290|64:285,1,90,10|0,0:2|0:0,0:0:0:0:
85,120,10130,5,2,3:2:0:0:
157,190,10280,1,10,0:2:0:0:
189,116,10430,1,2,3:2:0:0:
59,200,10580,1,10,0:2:0:0:
59,200,10655,1,10,0:2:0:0:
59,200,10730,5,6,3:2:0:0:
167,203,10880,1,2,0:2:0:0:
186,306,11030,1,10,0:2:0:0:
107,327,11180,1,2,0:2:0:0:
249,186,11330,1,2,3:2:0:0:
301,380,11480,1,2,3:2:0:0:
301,380,11555,1,2,3:2:0:0:
301,380,11630,1,10,0:2:0:0:
265,285,11780,5,0,0:0:0:0:
402,146,11930,2,0,P|406:97|415:49,1,90,2|0,3:2|0:0,0:0:0:0:
340,0,12230,1,8,0:0:0:0:
272,68,12380,2,0,P|227:76|183:80,1,90,2|0,0:2|3:0,0:0:0:0:
188,228,12680,5,2,3:2:0:0:
112,261,12830,1,10,0:2:0:0:
195,241,12980,1,2,0:2:0:0:
428,196,13130,5,2,3:2:0:0:
301,151,13280,1,2,0:2:0:0:
274,28,13430,1,10,0:2:0:0:
372,81,13580,1,2,0:2:0:0:
204,127,13730,1,2,1:2:0:0:
331,247,13880,1,2,3:2:0:0:
331,247,13955,1,2,3:2:0:0:
331,247,14030,2,0,P|289:250|243:261,1,90,10|0,0:2|0:0,0:0:0:0:
85,137,14330,6,0,P|116:179|138:219,1,90,2|0,3:2|0:0,0:0:0:0:
225,342,14630,1,8,0:0:0:0:
133,354,14780,2,0,P|152:259|179:169,1,180,2|2,0:2|3:2,0:0:0:0:
219,75,15230,2,0,P|243:114|270:150,1,90,10|0,0:2|0:0,0:0:0:0:
67,33,15530,5,6,3:2:0:0:
110,100,15680,1,0,0:0:0:0:
45,154,15830,1,10,0:2:0:0:
67,33,15980,5,0,0:2:0:0:
127,97,16130,1,2,3:2:0:0:
30,157,16280,1,2,3:2:0:0:
67,33,16430,5,8,0:2:0:0:
144,100,16580,1,0,0:2:0:0:
15,160,16730,1,2,3:2:0:0:
67,33,16880,5,0,3:2:0:0:
159,106,17030,1,8,0:0:0:0:
0,163,17180,1,2,1:2:0:0:
185,21,17330,5,0,3:2:0:0:
81,136,17480,1,10,0:2:0:0:
239,183,17630,1,2,3:2:0:0:
46,337,17780,5,10,0:2:0:0:
46,337,17855,1,10,0:2:0:0:
46,337,17930,1,6,3:2:0:0:
70,246,20330,6,0,P|145:224|211:211,1,144,2|8,3:2|0:0,0:0:0:0:
251,111,20780,2,0,P|286:125|324:134,1,72,0|0,0:2|3:0,0:0:0:0:
417,137,21080,1,2,3:2:0:0:
365,252,21230,2,0,P|397:237|432:228,1,72,10|0,0:2|0:2,0:0:0:0:
283,362,21530,6,0,P|280:324|256:284,1,72,2|0,3:2|0:0,0:0:0:0:
117,229,21830,2,0,P|120:267|144:307,1,72,10|0,0:2|0:0,0:0:0:0:
198,242,22130,1,2,3:2:0:0:
51,185,22280,1,2,3:2:0:0:
135,59,22430,1,10,0:2:0:0:
135,59,22730,6,0,L|290:44,1,144,2|10,3:2|0:2,0:0:0:0:
391,26,23180,2,0,P|369:60|357:121,1,72,0|0,0:2|3:0,0:0:0:0:
281,130,23480,1,0,3:0:0:0:
429,259,23630,5,10,0:2:0:0:
346,315,23780,2,0,P|349:241|359:165,1,144,2|0,3:2|3:0,0:0:0:0:
253,300,24230,2,0,P|250:265|242:225,1,72,10|0,0:2|0:0,0:0:0:0:
163,285,24530,5,0,3:0:0:0:
231,218,24680,1,0,3:0:0:0:
157,161,24830,2,0,P|152:125|143:90,1,72,8|0,0:0|0:0,0:0:0:0:
312,32,25130,6,0,P|394:34|456:52,1,144,2|8,3:2|0:0,0:0:0:0:
512,148,25580,2,0,P|430:146|368:128,1,144,0|2,0:2|3:2,0:0:0:0:
247,282,26030,5,10,0:2:0:0:
196,217,26180,1,2,0:2:0:0:
117,230,26330,2,0,P|105:268|97:317,1,72,2|0,3:2|0:0,0:0:0:0:
230,352,26630,2,0,P|241:313|249:264,1,72,10|0,0:2|0:0,0:0:0:0:
196,217,26930,5,2,3:2:0:0:
173,291,27080,1,2,3:2:0:0:
219,143,27230,2,0,P|230:104|238:55,1,72,10|0,0:2|0:0,0:0:0:0:
318,220,27530,6,0,P|317:156|393:105,1,144,2|8,3:2|0:0,0:0:0:0:
455,147,27980,1,0,0:2:0:0:
421,327,28130,2,0,P|413:288|396:246,1,72,2|0,3:2|3:0,0:0:0:0:
249,115,28430,5,10,0:2:0:0:
177,196,28580,2,0,P|246:202|329:225,1,144,0|2,3:0|3:2,0:0:0:0:
192,309,29030,2,0,P|226:299|262:295,1,72,10|0,0:2|0:0,0:0:0:0:
430,345,29330,5,2,3:2:0:0:
481,273,29480,1,2,3:2:0:0:
392,264,29630,1,10,0:2:0:0:
339,357,29780,1,2,1:2:0:0:
339,357,29855,1,2,1:2:0:0:
339,357,29930,6,0,L|352:211,1,144,2|8,3:2|0:2,0:0:0:0:
455,71,30380,2,0,L|468:215,1,144,0|2,0:2|3:2,0:0:0:0:
455,71,30830,1,10,0:2:0:0:
384,29,30980,1,2,0:2:0:0:
323,79,31130,6,0,P|320:113|314:159,1,72,2|0,3:2|0:0,0:0:0:0:
245,23,31430,2,0,P|210:14|174:8,1,72,10|0,0:2|0:0,0:0:0:0:
233,110,31730,1,2,3:2:0:0:
147,140,31880,1,2,3:2:0:0:
195,264,32030,2,0,P|201:227|216:184,1,72,10|0,0:2|0:0,0:0:0:0:
318,383,32330,6,0,P|304:312|296:240,1,144,2|10,3:2|0:2,0:0:0:0:
397,228,32780,2,0,P|407:193|413:158,1,72,0|0,0:2|3:0,0:0:0:0:
322,157,33080,1,0,3:0:0:0:
241,22,33230,5,8,0:2:0:0:
151,14,33380,2,0,P|90:57|111:145,1,144,0|0,3:0|3:0,0:0:0:0:
198,152,33830,2,0,P|173:190|156:233,1,72,8|0,0:0|0:0,0:0:0:0:
3,263,34130,5,2,3:2:0:0:
78,201,34280,1,0,3:2:0:0:
145,331,34430,1,10,0:2:0:0:
145,331,34730,6,0,B|223:295|218:347|303:313,1,144,2|10,3:2|0:2,0:0:0:0:
423,245,35180,2,0,P|413:200|410:169,1,72,2|0,0:2|3:0,0:0:0:0:
315,197,35480,1,0,3:0:0:0:
215,227,35630,2,0,P|225:182|228:151,1,72,8|0,0:2|0:0,0:0:0:0:
17,69,35930,6,0,B|95:33|90:85|175:51,1,144,2|8,3:2|0:0,0:0:0:0:
298,143,36380,2,0,P|263:151|227:155,1,72,2|0,0:2|3:0,0:0:0:0:
341,69,36680,1,0,3:0:0:0:
465,15,36830,2,0,P|430:6|394:2,1,72,10|0,0:2|0:0,0:0:0:0:
415,277,37130,5,2,3:2:0:0:
298,143,37280,1,10,0:2:0:0:
380,179,37430,1,0,3:2:0:0:
332,245,37580,1,2,3:2:0:0:
145,126,37730,6,0,P|109:139|74:149,1,72,10|0,0:2|0:0,0:0:0:0:
186,196,38030,1,2,3:2:0:0:
339,66,38180,2,0,P|374:79|409:89,1,72,10|0,0:2|0:0,0:0:0:0:
378,164,38480,1,2,3:2:0:0:
244,72,38630,5,10,0:2:0:0:
261,0,38780,1,2,1:2:0:0:
244,72,38930,5,2,3:2:0:0:
80,131,39080,1,10,0:2:0:0:
230,234,39230,1,2,3:2:0:0:
54,311,39380,5,2,1:2:0:0:
54,311,39455,1,2,1:2:0:0:
54,311,39530,1,2,3:2:0:0:
86,380,39680,1,2,0:2:0:0:
155,348,39830,1,10,0:2:0:0:
123,279,39980,2,0,P|121:239|123:198,1,72,2|0,0:2|3:0,0:0:0:0:
212,57,40280,5,0,3:0:0:0:
212,57,40430,1,10,0:2:0:0:
291,46,40580,1,2,0:2:0:0:
339,108,40730,1,2,3:2:0:0:
260,119,40880,2,0,P|257:165|261:207,1,72,2|8,0:2|0:0,0:0:0:0:
174,201,41180,5,0,0:0:0:0:
338,296,41330,2,0,P|373:291|409:293,1,72,2|0,3:2|3:0,2:0:0:0:
342,375,41630,2,0,P|377:377|414:372,1,72,8|0,2:0|2:0,2:0:0:0:
122,265,41930,5,2,3:2:0:0:
53,298,42080,1,2,0:2:0:0:
35,222,42230,1,10,0:2:0:0:
103,190,42380,2,0,P|138:188|176:192,1,72,2|0,0:2|3:0,0:0:0:0:
342,344,42680,5,0,3:2:0:0:
342,344,42830,1,10,0:2:0:0:
412,308,42980,1,2,0:2:0:0:
363,250,43130,1,2,3:2:0:0:
291,283,43280,2,0,P|254:286|206:281,1,72,2|8,0:2|0:2,0:0:0:0:
178,352,43580,1,0,0:0:0:0:
2,209,43730,2,0,B|82:184|67:221|144:200,1,144,2|10,3:2|0:2,0:0:0:0:
3,45,44180,5,2,3:2:0:0:
3,45,44255,1,2,3:2:0:0:
3,45,44330,1,2,3:2:0:0:
73,77,44480,1,2,0:2:0:0:
137,31,44630,1,10,0:2:0:0:
208,64,44780,2,0,P|211:104|209:142,1,72,2|0,0:2|3:0,0:0:0:0:
315,334,45080,5,0,3:2:0:0:
315,334,45230,1,10,0:2:0:0:
389,311,45380,1,2,0:2:0:0:
408,236,45530,1,2,3:2:0:0:
354,177,45680,2,0,P|313:180|274:177,1,72,2|8,0:2|0:0,0:0:0:0:
290,102,45980,1,0,0:0:0:0:
188,287,46130,5,2,3:2:0:0:
121,243,46280,1,0,3:0:0:0:
42,361,46430,5,10,0:2:0:0:
113,324,46580,1,2,1:2:0:0:
41,282,46730,5,2,3:2:0:0:
183,368,46880,1,10,0:2:0:0:
195,206,47030,1,0,3:2:0:0:
141,282,47180,1,2,3:2:0:0:
306,384,47330,6,0,L|311:310,1,72,10|0,0:2|3:0,0:0:0:0:
386,285,47630,1,2,3:2:0:0:
195,206,47780,6,0,L|190:132,1,72,10|0,0:2|3:0,0:0:0:0:
115,107,48080,1,2,3:2:0:0:
342,21,48230,5,10,0:2:0:0:
379,193,48380,1,0,1:0:0:0:
297,122,48530,5,2,3:2:0:0:
444,78,48680,1,10,0:2:0:0:
488,225,48830,1,2,3:2:0:0:
379,193,48980,5,2,1:2:0:0:
379,193,49055,1,2,1:2:0:0:
379,193,49130,1,2,3:2:0:0:
305,218,49280,1,2,0:2:0:0:
235,249,49430,1,10,0:2:0:0:
266,319,49580,2,0,P|299:317|340:321,1,72,2|0,0:2|3:0,0:0:0:0:
214,382,49880,5,0,3:0:0:0:
214,382,50030,1,10,0:2:0:0:
140,357,50180,1,2,0:2:0:0:
70,326,50330,1,2,3:2:0:0:
120,264,50480,2,0,P|118:226|120:188,1,72,2|8,0:2|0:0,0:0:0:0:
274,17,50780,1,0,0:0:0:0:
223,78,50930,2,0,P|224:115|221:152,1,72,2|0,3:2|3:0,0:0:0:0:
298,279,51230,2,0,P|297:243|301:208,1,72,8|0,0:0|0:0,0:0:0:0:
466,123,51530,5,2,3:2:0:0:
479,50,51680,1,2,0:2:0:0:
404,20,51830,1,10,0:2:0:0:
391,95,51980,2,0,P|389:130|384:166,1,72,2|0,0:2|3:0,0:0:0:0:
287,280,52280,5,0,3:0:0:0:
287,280,52430,1,10,0:2:0:0:
207,292,52580,1,2,0:2:0:0:
165,228,52730,1,2,3:2:0:0:
243,217,52880,1,2,0:2:0:0:
287,280,53030,1,8,0:0:0:0:
207,292,53180,1,0,0:0:0:0:
58,384,53330,2,0,P|61:308|57:230,1,144,2|8,3:2|0:2,0:0:0:0:
256,103,53780,5,2,1:2:0:0:
256,103,53855,1,2,1:2:0:0:
256,103,53930,1,2,3:2:0:0:
256,103,54230,2,0,P|253:157|255:211,1,108,10|0,0:2|0:0,0:0:0:0:
205,300,54530,5,2,3:2:0:0:
343,180,54680,1,0,3:0:0:0:
165,68,54830,2,0,P|130:63|77:59,1,72,10|0,0:2|0:0,0:0:0:0:
351,38,55130,2,0,B|431:13|416:50|493:29,1,144,2|8,3:2|0:2,0:0:0:0:
233,8,55580,5,2,1:2:0:0:
233,8,55655,1,2,1:2:0:0:
233,8,55730,1,2,3:2:0:0:
289,79,55880,1,2,3:2:0:0:
173,160,56030,1,10,0:2:0:0:
354,241,56180,1,2,3:2:0:0:
204,373,56330,5,8,0:2:0:0:
204,373,57455,5,0,1:0:0:0:
239,363,57530,1,0,3:0:0:0:
256,192,57830,12,0,58430,0:0:0:0:
66,126,58730,6,0,P|151:129|196:221,2,198.000006042481,6|8|2,3:2|0:2|3:2,0:0:0:0:
73,316,59480,2,0,B|118:294|118:294|166:304,1,99.0000030212403,2|10,3:2|0:2,0:0:0:0:
244,351,59780,1,0,0:0:0:0:
356,199,59930,6,0,P|360:149|367:100,1,99.0000030212403,2|0,3:2|0:0,0:0:0:0:
444,73,60230,1,8,0:0:0:0:
121,20,60380,2,0,B|230:22|191:116|287:119,1,198.000006042481,0|0,0:0|3:2,0:0:0:0:
253,340,60830,5,8,0:2:0:0:
438,260,60980,1,2,0:2:0:0:
196,113,61130,2,0,P|140:136|131:221,1,148.50000453186,2|0,3:2|0:0,0:0:0:0:
167,298,61430,5,10,0:2:0:0:
348,146,61580,1,2,0:2:0:0:
129,42,61730,5,2,3:2:0:0:
231,190,61880,1,2,3:2:0:0:
437,132,62030,5,10,0:2:0:0:
282,268,62180,1,0,0:2:0:0:
512,241,62330,2,0,P|416:217|320:189,1,198.000006042481,2|10,3:2|0:2,0:0:0:0:
466,34,62780,2,0,P|420:52|372:66,1,99.0000030212403,0|2,0:2|3:2,0:0:0:0:
94,0,63080,1,0,3:0:0:0:
162,49,63230,2,0,P|233:54|268:116,1,148.50000453186,10|0,0:2|0:0,0:0:0:0:
329,260,63530,6,0,P|348:162|373:66,1,198.000006042481,6|10,3:2|0:2,0:0:0:0:
242,204,63980,1,0,0:0:0:0:
407,326,64130,1,2,3:2:0:0:
244,384,64280,1,2,3:2:0:0:
329,260,64430,2,0,P|380:251|439:246,1,99.0000030212403,10|0,0:2|0:0,0:0:0:0:
124,365,64730,6,0,P|116:318|103:267,1,99.0000030212403,2|0,3:2|0:0,0:0:0:0:
348,140,65030,2,0,P|329:187|314:235,1,99.0000030212403,10|0,0:2|0:0,0:0:0:0:
79,168,65330,5,2,3:2:0:0:
227,73,65480,1,2,3:2:0:0:
112,0,65630,1,10,0:2:0:0:
182,159,65780,1,2,0:2:0:0:
301,274,65930,5,2,3:2:0:0:
416,180,66080,2,0,P|421:130|430:82,1,99.0000030212403,10|0,0:2|0:0,0:0:0:0:
488,242,66380,5,2,3:2:0:0:
326,98,66530,1,10,0:2:0:0:
503,26,66680,1,2,3:2:0:0:
416,180,66830,1,2,3:2:0:0:
497,360,66980,6,0,B|398:348|424:273|301:261,1,198.000006042481,10|0,0:2|3:2,0:0:0:0:
223,361,67430,5,10,0:2:0:0:
123,329,67580,1,2,1:2:0:0:
26,247,67730,5,2,3:2:0:0:
181,168,67880,1,2,1:2:0:0:
295,71,68030,5,10,0:2:0:0:
319,28,68105,1,2,1:2:0:0:
360,2,68180,1,2,1:2:0:0:
409,0,68255,1,2,1:2:0:0:
454,20,68330,6,0,P|436:123|423:229,2,198.000006042481,6|8|2,3:2|0:0|3:2,0:0:0:0:
345,185,69080,1,2,3:2:0:0:
199,32,69230,2,0,P|148:52|99:64,1,99.0000030212403,10|0,0:2|0:0,0:0:0:0:
0,233,69530,6,0,P|92:234|149:318,1,198.000006042481,2|8,3:2|0:0,0:0:0:0:
41,335,69980,1,0,0:0:0:0:
193,164,70130,2,0,P|247:175|298:183,1,99.0000030212403,2|0,3:2|3:0,0:0:0:0:
361,317,70430,2,0,P|313:330|267:348,1,99.0000030212403,10|0,0:2|0:0,0:0:0:0:
415,151,70730,5,2,3:2:0:0:
242,264,70880,1,2,0:2:0:0:
361,317,71030,1,8,0:2:0:0:
290,182,71180,1,2,0:2:0:0:
106,286,71330,5,0,3:2:0:0:
180,364,71480,1,2,3:2:0:0:
145,200,71630,1,8,0:2:0:0:
0,270,71780,1,2,0:2:0:0:
275,379,71930,6,0,P|279:280|289:181,1,198.000006042481,2|10,3:2|2:2,2:0:0:0:
95,12,72380,1,0,1:2:0:0:
0,152,72530,2,0,P|47:164|96:184,1,99.0000030212403,2|0,3:2|3:0,0:0:0:0:
160,126,72830,1,10,0:2:0:0:
0,366,72980,5,2,1:2:0:0:
0,366,73055,1,2,1:2:0:0:
0,366,73130,2,0,B|100:362|60:276|160:267,1,198.000006042481,6|10,3:2|2:2,2:0:0:0:
343,104,73580,1,2,0:2:0:0:
421,231,73730,6,0,P|428:205|441:176,1,49.5000015106202,2|0,3:2|0:0,0:0:0:0:
420,166,73880,1,10,0:2:0:0:
512,265,74030,1,2,3:2:0:0:
317,315,74180,1,10,0:2:0:0:
302,319,74255,1,10,0:2:0:0:
288,324,74330,1,2,3:2:0:0:
177,202,75530,6,0,P|189:113|198:24,1,180,6|8,3:2|0:0,0:0:0:0:
399,68,75980,2,0,P|334:55|285:98,1,135,2|0,0:2|0:0,0:0:0:0:
289,113,76280,1,0,3:2:0:0:
360,226,76430,2,0,P|317:212|273:201,1,90,10|0,0:2|0:0,0:0:0:0:
169,379,76730,6,0,P|175:333|187:280,1,90,0|0,3:2|0:0,0:0:0:0:
0,168,77030,2,0,P|17:211|29:257,1,90,10|0,0:2|0:2,0:0:0:0:
229,111,77330,5,0,3:2:0:0:
119,211,77480,1,0,3:2:0:0:
246,221,77630,1,8,0:2:0:0:
109,97,77780,1,0,0:2:0:0:
410,26,77930,6,0,P|334:60|334:157,1,180,2|8,3:2|0:0,0:0:0:0:
410,234,78380,2,0,P|425:169|447:105,1,135,2|0,0:2|0:0,0:0:0:0:
397,243,78680,1,0,3:2:0:0:
317,333,78830,2,0,P|275:316|231:305,1,90,10|0,0:2|0:0,0:0:0:0:
129,103,79130,5,0,3:2:0:0:
234,196,79280,1,0,0:2:0:0:
86,263,79430,2,0,P|40:252|-13:236,1,90,10|0,0:2|0:2,0:0:0:0:
241,108,79730,5,0,3:2:0:0:
140,192,79880,1,0,3:2:0:0:
259,279,80030,2,0,P|304:268|358:252,1,90,8|8,0:0|0:3,0:0:0:0:
471,49,80330,5,2,3:2:0:0:
425,116,80480,1,0,0:0:0:0:
347,112,80630,1,10,0:2:0:0:
502,121,80780,5,0,0:2:0:0:
419,160,80930,1,2,3:2:0:0:
347,112,81080,1,2,3:2:0:0:
491,206,81230,5,8,0:2:0:0:
390,198,81380,1,0,0:2:0:0:
347,112,81530,1,2,3:2:0:0:
435,282,81680,5,0,0:2:0:0:
342,217,81830,1,8,0:0:0:0:
347,112,81980,1,2,0:2:0:0:
227,251,82130,6,0,P|176:259|133:270,1,90,0|0,3:2|3:0,0:0:0:0:
31,360,82430,2,0,P|44:300|52:223,1,135,10|0,0:2|0:0,0:0:0:0:
38,212,82730,5,2,3:2:0:0:
159,355,82880,1,10,0:2:0:0:
303,311,83030,1,0,3:0:0:0:
318,306,83180,1,2,3:2:0:0:
223,154,83330,5,10,0:2:0:0:
406,219,83480,1,0,3:0:0:0:
420,225,83630,1,2,3:2:0:0:
308,15,83780,6,0,B|322:68|322:68|306:113|306:113|325:190,1,180,10|2,0:2|3:2,0:0:0:0:
496,336,84230,2,0,L|405:311,1,90,14|2,0:2|1:2,0:0:0:0:
416,123,84530,5,2,3:2:0:0:
324,188,84680,1,10,0:2:0:0:
221,133,84830,1,2,3:2:0:0:
136,200,84980,5,10,0:2:0:0:
136,200,85055,1,10,0:2:0:0:
136,200,85130,1,6,3:2:0:0:
297,76,85280,1,2,0:2:0:0:
136,91,85430,1,10,0:2:0:0:
221,133,85580,1,2,0:2:0:0:
212,38,85730,1,2,3:2:0:0:
235,230,85880,1,2,3:2:0:0:
235,230,85955,1,2,3:2:0:0:
235,230,86030,1,10,0:2:0:0:
425,145,86180,5,0,0:0:0:0:
360,241,86330,2,0,P|351:196|338:153,1,90,2|0,3:2|0:0,0:0:0:0:
361,379,86630,5,8,0:0:0:0:
220,332,86780,2,0,P|263:319|307:310,1,90,2|0,0:2|3:0,0:0:0:0:
47,180,87080,5,2,3:2:0:0:
123,205,87230,1,10,0:2:0:0:
63,258,87380,1,2,0:2:0:0:
197,14,87530,5,2,3:2:0:0:
111,124,87680,1,2,0:2:0:0:
249,176,87830,1,10,0:2:0:0:
197,105,87980,1,2,0:2:0:0:
206,252,88130,1,2,3:2:0:0:
335,167,88280,1,2,3:2:0:0:
335,167,88355,1,2,3:2:0:0:
335,167,88430,1,10,0:2:0:0:
461,306,88580,5,0,0:0:0:0:
387,384,88730,2,0,P|382:338|371:289,1,90,2|0,3:2|0:0,0:0:0:0:
226,226,89030,1,8,0:0:0:0:
138,296,89180,2,0,B|239:291|206:369|297:362,1,180,2|2,0:2|3:2,0:0:0:0:
58,373,89630,2,0,P|48:328|44:284,1,90,10|8,3:2|0:2,0:0:0:0:
44,284,89855,1,8,0:2:0:0:
44,284,89930,5,2,3:2:0:0:
140,167,90080,1,0,0:2:0:0:
92,225,90230,1,10,0:2:0:0:
113,96,90380,5,0,0:2:0:0:
92,225,90530,1,2,3:2:0:0:
215,180,90680,1,2,3:2:0:0:
116,74,90830,5,8,0:2:0:0:
92,225,90980,1,0,0:2:0:0:
234,170,91130,1,2,3:2:0:0:
119,52,91280,5,0,3:2:0:0:
92,225,91430,1,8,0:2:0:0:
253,160,91580,1,2,0:2:0:0:
256,10,91730,5,0,3:2:0:0:
152,148,91880,1,8,1:2:0:0:
283,250,92030,5,8,0:3:0:0:
340,238,92130,5,4,0:3:0:0:
394,263,92230,5,4,0:3:0:0:
424,313,92330,5,4,3:2:0:0:
128,64,94730,5,0,3:2:0:0:
384,64,97130,5,0,1:2:0:0:
384,64,98930,5,0,1:0:0:0:
359,138,99080,1,0,3:0:0:0:
359,138,99380,5,0,3:0:0:0:
384,320,99530,1,2,3:2:0:0:
128,320,101930,5,0,3:2:0:0:
199,296,102380,1,2,1:2:0:0:
272,327,102830,1,2,1:2:0:0:
128,320,103130,5,0,3:2:0:0:
199,296,103280,1,0,3:2:0:0:
199,296,103355,1,0,3:2:0:0:
199,296,103430,1,2,1:2:0:0:
272,327,103580,1,0,1:0:0:0:
341,296,103730,5,0,3:2:0:0:
341,296,103880,1,0,3:0:0:0:
417,335,104030,2,0,P|419:285|415:235,1,101.250003862381,2|0,1:2|0:0,0:0:0:0:
415,235,104330,5,0,3:2:0:0:
140,103,104630,5,2,0:2:0:0:
215,90,104780,1,2,0:2:0:0:
229,167,104930,1,2,0:2:0:0:
152,179,105080,1,2,0:2:0:0:
63,255,105380,5,0,1:2:0:0:
261,322,105830,1,0,1:2:0:0:
172,373,106055,5,0,1:0:0:0:
172,373,106130,1,0,3:0:0:0:
160,286,106280,1,0,3:0:0:0:
149,203,106430,1,0,1:2:0:0:
57,58,106730,5,2,3:2:0:0:
126,101,106880,2,0,P|159:91|208:84,2,67.5000025749208,2|0|0,3:2|1:0|0:0,0:0:0:0:
241,0,107330,2,0,P|300:16|362:26,1,125.999996154785,2|0,0:2|0:0,0:0:0:0:
71,201,108230,5,2,3:2:0:0:
57,206,108305,1,2,1:2:0:0:
22,233,108530,6,0,P|83:219|167:206,1,125.999996154785,2|0,3:2|1:0,0:0:0:0:
276,358,109130,6,0,P|276:320|273:277,1,62.9999980773926,0|0,3:0|3:0,0:0:0:0:
245,221,109430,1,0,1:2:0:0:
363,180,109730,1,0,0:2:0:0:
245,221,110180,5,0,1:0:0:0:
363,180,110480,1,0,3:0:0:0:
363,180,110630,1,0,1:0:0:0:
216,106,110855,1,0,1:0:0:0:
216,106,110930,1,0,3:0:0:0:
134,89,111080,1,0,3:0:0:0:
284,10,111230,2,0,P|330:8|392:1,1,94.499997116089,0|0,1:2|0:0,0:0:0:0:
378,2,111530,5,2,3:2:0:0:
440,138,111680,1,10,0:2:0:0:
379,84,111830,1,2,3:2:0:0:
342,267,111980,5,2,3:2:0:0:
405,214,112130,1,10,0:3:0:0:
486,227,112280,1,0,3:2:0:0:
204,284,112430,5,2,3:2:0:0:
269,232,112580,1,10,0:2:0:0:
204,284,112730,1,2,3:2:0:0:
258,152,112880,1,2,3:2:0:0:
342,267,113030,2,0,P|340:306|342:338,1,72,10|0,0:2|0:0,0:0:0:0:
105,334,113330,6,0,P|106:298|105:262,1,72,2|8,3:2|0:0,0:0:0:0:
9,211,113630,1,0,3:0:0:0:
183,96,113780,1,8,0:0:0:0:
183,96,113855,1,8,0:0:0:0:
183,96,113930,5,6,3:2:0:0:
284,133,114080,1,2,0:2:0:0:
215,165,114230,1,10,0:2:0:0:
252,64,114380,1,2,0:2:0:0:
468,186,114680,5,0,0:0:0:0:
468,186,114830,1,10,0:2:0:0:
436,255,114980,1,2,0:2:0:0:
399,154,115130,1,2,3:2:0:0:
364,224,115280,2,0,P|362:261|362:301,1,72,2|8,3:2|0:2,0:0:0:0:
296,350,115580,1,0,0:0:0:0:
154,296,115730,2,0,P|155:260|152:224,1,72,2|0,0:2|0:0,0:0:0:0:
72,294,116030,2,0,P|68:258|70:223,1,72,8|0,0:0|0:0,0:0:0:0:
112,50,116330,5,2,3:2:0:0:
158,61,116480,1,2,3:2:0:0:
204,72,116630,1,10,0:2:0:0:
250,83,116780,1,2,0:2:0:0:
352,33,117080,5,0,0:0:0:0:
434,12,117230,1,10,0:2:0:0:
352,33,117380,1,2,0:2:0:0:
386,106,117530,1,2,3:2:0:0:
468,117,117680,1,2,3:2:0:0:
444,194,117830,1,8,0:0:0:0:
362,215,117980,1,0,0:0:0:0:
330,322,118130,2,0,P|295:318|240:321,1,72,2|0,0:2|3:0,0:0:0:0:
116,347,118430,5,8,0:2:0:0:
130,275,118580,1,0,0:2:0:0:
116,347,118730,5,2,3:2:0:0:
130,275,118880,1,2,3:2:0:0:
144,203,119030,1,10,0:2:0:0:
158,131,119180,1,2,0:2:0:0:
396,347,119480,5,0,0:0:0:0:
396,347,119630,1,10,0:2:0:0:
382,275,119780,1,2,0:2:0:0:
368,203,119930,1,2,3:2:0:0:
354,131,120080,2,0,P|357:95|356:49,1,72,2|8,3:2|0:0,0:0:0:0:
171,207,120380,1,0,0:0:0:0:
162,135,120530,2,0,P|159:82|162:20,1,108,2|0,0:2|0:0,0:0:0:0:
161,27,120830,2,0,P|194:24|241:26,1,72,10|0,0:2|0:0,0:0:0:0:
107,250,121130,5,2,3:2:0:0:
171,207,121280,2,0,P|208:204|251:206,1,72,10|0,0:2|3:0,0:0:0:0:
407,91,121580,5,2,3:2:0:0:
343,134,121730,2,0,P|306:137|263:135,1,72,10|0,0:2|3:0,0:0:0:0:
198,341,122030,5,2,3:2:0:0:
241,277,122180,2,0,P|244:240|242:197,1,72,10|0,0:2|3:0,0:0:0:0:
316,0,122480,5,2,3:2:0:0:
273,64,122630,2,0,P|270:101|272:144,1,72,10|0,0:2|0:0,0:0:0:0:
39,269,122930,5,2,3:2:0:0:
170,173,123080,1,10,0:2:0:0:
14,80,123230,1,2,3:2:0:0:
88,195,123380,1,2,3:2:0:0:
88,195,123455,1,10,0:2:0:0:
88,195,123530,5,6,3:2:0:0:
143,139,123680,1,2,0:2:0:0:
222,123,123830,1,10,0:2:0:0:
297,143,123980,1,2,0:2:0:0:
420,318,124280,5,0,3:2:0:0:
420,318,124430,1,10,0:2:0:0:
365,262,124580,1,2,0:2:0:0:
288,245,124730,1,2,3:2:0:0:
211,266,124880,2,0,P|176:264|128:267,2,72,2|8|0,0:2|0:2|0:0,0:0:0:0:
56,371,125330,2,0,P|59:302|56:232,1,108,2|0,0:2|0:0,0:0:0:0:
42,255,125630,2,0,P|41:219|43:181,1,72,8|0,0:2|0:0,0:0:0:0:
115,36,125930,5,2,3:2:0:0:
194,25,126080,1,2,3:2:0:0:
242,87,126230,1,10,0:2:0:0:
163,98,126380,1,2,0:2:0:0:
327,234,126680,5,0,0:2:0:0:
327,234,126755,1,0,0:2:0:0:
327,234,126830,1,10,0:2:0:0:
296,161,126980,1,2,0:2:0:0:
375,172,127130,1,2,3:2:0:0:
248,223,127280,1,2,3:2:0:0:
380,183,127430,1,8,0:2:0:0:
253,234,127580,1,0,0:2:0:0:
365,335,127730,5,2,1:2:0:0:
293,317,127880,1,0,3:0:0:0:
368,347,128030,1,10,0:2:0:0:
296,329,128180,1,2,1:2:0:0:
166,371,128330,6,2,P|168:296|165:203,2,161.999995056153,6|10|2,3:2|0:2|3:2,0:2:0:0:
44,236,129080,1,0,3:0:0:0:
153,78,129230,2,0,P|194:75|241:78,1,80.9999975280763,10|0,0:2|0:0,0:0:0:0:
402,13,129530,2,0,P|332:51|336:133,1,161.999995056153,2|8,3:2|0:2,0:0:0:0:
271,198,129980,1,0,0:0:0:0:
476,258,130130,5,2,3:2:0:0:
428,237,130230,5,0,3:0:0:0:
377,243,130330,5,8,0:2:0:0:
339,278,130430,5,8,0:3:0:0:
310,319,130530,5,4,0:3:0:0:
270,352,130630,5,4,0:3:0:0:
224,362,130730,5,4,3:2:0:0:
109,205,131855,5,0,1:0:0:0:
90,201,131930,1,0,3:0:0:0:
195,228,132080,1,2,1:2:0:0:
202,325,132230,1,10,0:2:0:0:
100,300,132380,1,2,1:2:0:0:
30,140,132530,5,10,0:2:0:0:
239,92,132680,1,10,0:2:0:0:
313,354,132830,5,10,3:2:0:0:
100,300,132980,1,10,3:2:0:0:
369,160,133130,6,0,P|289:183|240:302,2,215.999993408203,6|8|2,3:2|0:2|3:2,0:0:0:0:
509,94,133880,1,2,3:2:0:0:
321,3,134030,2,0,P|291:38|307:108,1,99.0000030212403,10|0,0:2|0:0,0:0:0:0:
490,261,134330,6,0,P|386:245|288:223,1,198.000006042481,2|8,3:2|0:0,0:0:0:0:
129,112,134780,1,0,0:0:0:0:
57,344,134930,5,2,3:2:0:0:
204,252,135080,1,0,3:2:0:0:
69,199,135230,1,8,0:2:0:0:
191,384,135380,1,0,0:2:0:0:
296,225,135530,6,0,P|330:163|401:160,1,148.50000453186,2|0,3:2|0:0,0:0:0:0:
356,282,135830,1,10,0:2:0:0:
437,85,135980,1,2,0:2:0:0:
194,45,136130,5,2,3:2:0:0:
401,160,136280,1,2,3:2:0:0:
132,204,136430,5,10,0:2:0:0:
351,89,136580,1,0,0:2:0:0:
97,10,136730,6,0,P|116:107|132:204,1,198.000006042481,2|10,3:2|0:2,0:0:0:0:
219,250,137180,1,0,0:2:0:0:
122,361,137330,2,0,P|169:347|230:338,1,99.0000030212403,2|0,3:2|3:0,0:0:0:0:
343,203,137630,2,0,P|304:169|246:182,1,99.0000030212403,10|0,0:2|0:0,0:0:0:0:
463,355,137930,6,0,P|441:248|425:143,1,198.000006042481,6|10,3:2|0:2,0:0:0:0:
291,26,138380,1,0,0:0:0:0:
229,204,138530,1,2,3:2:0:0:
315,128,138680,1,2,3:2:0:0:
144,31,138830,2,0,P|97:53|41:69,1,99.0000030212403,10|0,0:2|0:0,0:0:0:0:
1,249,139130,6,0,P|20:298|35:353,1,99.0000030212403,2|0,3:2|0:0,0:0:0:0:
229,204,139430,2,0,P|236:153|246:103,1,99.0000030212403,10|0,0:2|0:0,0:0:0:0:
401,350,139730,5,2,3:2:0:0:
222,245,139880,1,2,3:2:0:0:
421,147,140030,1,10,0:2:0:0:
344,249,140180,1,2,0:2:0:0:
213,18,140330,5,2,3:2:0:0:
87,127,140480,2,0,P|99:173|109:223,1,99.0000030212403,10|0,0:2|0:0,0:0:0:0:
228,298,140780,5,2,3:2:0:0:
18,242,140930,1,10,0:2:0:0:
177,102,141080,1,2,3:2:0:0:
66,43,141230,1,2,3:2:0:0:
319,150,141380,6,0,B|375:138|375:138|396:110|396:110|457:97,1,148.50000453186,10|0,0:2|0:0,0:0:0:0:
468,83,141680,1,0,3:2:0:0:
361,228,141830,5,10,0:2:0:0:
383,308,141980,1,2,1:2:0:0:
193,351,142130,5,2,3:2:0:0:
238,144,142280,1,2,1:2:0:0:
46,236,142430,5,10,0:2:0:0:
10,277,142505,1,2,1:2:0:0:
10,329,142580,1,2,1:2:0:0:
48,361,142655,1,2,1:2:0:0:
98,365,142730,6,0,P|118:264|147:169,2,198.000006042481,6|8|2,3:2|0:0|3:2,0:0:0:0:
31,104,143480,1,2,3:2:0:0:
226,248,143630,2,0,P|272:231|327:221,1,99.0000030212403,10|0,0:2|0:0,0:0:0:0:
470,11,143930,2,0,P|478:73|364:129,1,198.000006042481,2|8,3:2|0:0,0:0:0:0:
234,47,144380,1,0,0:0:0:0:
67,229,144530,5,2,3:2:0:0:
223,176,144680,1,0,3:0:0:0:
331,292,144830,1,10,0:2:0:0:
172,344,144980,1,0,0:0:0:0:
374,133,145130,6,0,P|449:142|481:204,1,148.50000453186,2|0,3:2|0:0,0:0:0:0:
415,306,145430,2,0,P|384:272|392:221,1,99.0000030212403,8|2,0:2|0:2,0:0:0:0:
503,121,145730,1,0,3:2:0:0:
504,282,145880,1,2,3:2:0:0:
303,240,146030,1,8,0:2:0:0:
481,202,146180,1,2,0:2:0:0:
335,380,146330,6,0,P|317:299|395:221,1,198.000006042481,2|10,3:2|2:2,2:0:0:0:
505,361,146780,2,0,P|455:349|401:341,1,99.0000030212403,0|2,0:2|3:2,0:0:0:0:
259,210,147080,1,0,3:0:0:0:
162,362,147230,2,0,P|170:314|173:260,1,99.0000030212403,10|2,0:2|1:2,0:0:0:0:
3,108,147530,6,0,B|113:93|79:186|178:172,1,198.000006042481,6|10,3:2|2:2,2:0:0:0:
49,261,147980,1,2,0:2:0:0:
192,84,148130,5,2,3:2:0:0:
299,217,148280,1,0,3:0:0:0:
173,264,148430,1,10,0:2:0:0:
339,85,148580,1,0,0:0:0:0:
423,272,148730,6,0,P|431:219|441:173,1,99.0000030212403,2|0,3:2|0:2,0:0:0:0:
213,340,149030,2,0,P|261:349|309:362,1,99.0000030212403,10|0,0:2|0:2,0:0:0:0:
155,103,149330,2,0,P|202:115|251:125,1,99.0000030212403,2|2,3:2|3:2,0:0:0:0:
11,333,149630,2,0,P|21:284|28:235,1,99.0000030212403,10|0,0:2|0:0,0:0:0:0:
106,198,149930,5,6,3:2:0:0:
226,262,150080,1,0,3:2:0:0:
226,262,150155,1,0,3:2:0:0:
226,262,150230,1,0,3:2:0:0:
373,161,150380,1,0,3:2:0:0:
439,287,150530,1,8,0:3:0:0:
271,143,150680,1,8,0:3:0:0:
470,112,150830,1,4,0:3:0:0:
322,241,150980,1,4,0:3:0:0:
341,25,151130,1,0,3:2:0:0:
473,271,152330,6,0,P|421:225|347:239,1,148.50000453186,6|0,3:2|0:0,0:0:0:0:
274,339,152630,2,0,P|266:290|256:241,1,99.0000030212403,10|0,0:2|0:0,0:0:0:0:
445,124,152930,1,2,3:2:0:0:
348,238,153080,1,2,3:2:0:0:
193,178,153230,2,0,P|201:129|211:80,1,99.0000030212403,10|0,0:2|0:0,0:0:0:0:
365,323,153530,6,0,P|412:320|442:282,1,99.0000030212403,2|0,3:2|0:0,0:0:0:0:
269,137,153830,2,0,P|221:140|193:179,1,99.0000030212403,10|0,0:2|0:2,0:0:0:0:
165,340,154130,5,2,3:2:0:0:
263,232,154280,1,0,3:0:0:0:
116,137,154430,2,0,B|65:131|65:131|22:156,1,99.0000030212403,10|0,0:2|0:0,0:0:0:0:
305,78,154730,6,0,P|331:12|450:14,1,198.000006042481,2|8,3:2|0:0,0:0:0:0:
305,78,155180,1,0,0:0:0:0:
184,22,155330,2,0,P|192:70|199:120,1,99.0000030212403,2|0,3:2|3:0,0:0:0:0:
369,227,155630,2,0,P|378:179|388:130,1,99.0000030212403,10|0,0:2|3:0,0:0:0:0:
123,288,155930,5,2,3:2:0:0:
182,239,156080,1,2,1:2:0:0:
253,267,156230,1,10,0:2:0:0:
192,315,156380,1,2,1:2:0:0:
39,248,156530,5,2,3:2:0:0:
210,198,156680,1,2,3:2:0:0:
305,333,156830,1,10,0:2:0:0:
107,375,156980,5,6,0:2:0:0:
107,375,157055,1,6,1:2:0:0:
107,375,157130,2,0,P|113:276|124:171,1,198.000006042481,6|10,3:2|0:2,0:0:0:0:
195,104,157580,1,0,0:2:0:0:
415,203,157730,5,2,3:2:0:0:
271,296,157880,1,0,3:2:0:0:
311,125,158030,2,0,B|354:105|354:105|404:116,1,99.0000030212403,10|0,0:2|0:0,0:0:0:0:
454,304,158330,6,0,P|408:288|352:277,1,99.0000030212403,2|0,3:2|0:0,0:0:0:0:
222,141,158630,2,0,P|178:163|132:180,1,99.0000030212403,10|0,0:2|0:0,0:0:0:0:
62,380,158930,5,2,3:2:0:0:
179,281,159080,1,2,3:2:0:0:
22,195,159230,2,0,P|36:145|73:116,1,99.0000030212403,10|0,0:2|0:0,0:0:0:0:
248,1,159530,5,2,3:2:0:0:
151,139,159680,1,2,3:2:0:0:
296,210,159830,1,10,0:2:0:0:
239,93,159980,5,2,1:2:0:0:
477,49,160130,5,2,3:2:0:0:
440,40,160205,1,8,0:3:0:0:
404,32,160280,1,4,0:3:0:0:
368,23,160355,1,0,3:0:0:0:
332,15,160430,1,10,0:2:0:0:
410,141,160580,6,0,P|416:222|427:299,1,148.50000453186,6|0,3:2|0:0,0:0:0:0:
461,313,160880,1,0,3:2:0:0:
302,113,161030,5,10,0:2:0:0:
176,138,161180,1,10,0:2:0:0:
110,313,161330,5,2,3:2:0:0:
319,366,161480,1,2,3:2:0:0:
512,214,161630,1,10,0:2:0:0:
457,201,161705,1,10,0:2:0:0:
410,216,161780,1,2,3:2:0:0:
382,257,161855,1,10,0:2:0:0:
376,308,161930,6,0,P|363:209|347:107,1,198.000006042481,6|10,3:2|0:2,0:0:0:0:
264,28,162380,1,0,0:0:0:0:
474,114,162530,2,0,P|484:161|450:204,1,99.0000030212403,2|0,3:2|0:0,0:0:0:0:
263,313,162830,2,0,P|298:280|352:288,1,99.0000030212403,10|0,2:2|0:0,0:0:0:0:
508,307,163130,6,0,B|404:289|465:213|354:195,1,198.000006042481,0|10,3:0|0:2,0:0:0:0:
285,121,163580,1,2,0:2:0:0:
139,326,163730,5,2,3:2:0:0:
264,223,163880,1,0,3:2:0:0:
141,192,164030,1,8,0:2:0:0:
269,348,164180,1,2,0:2:0:0:
360,239,164330,6,0,P|389:169|464:163,1,155.250002961159,2|0,3:2|0:0,0:0:0:0:
461,161,164630,2,0,P|410:145|353:124,1,94.499997116089,10|0,0:2|0:0,0:0:0:0:
250,15,164930,2,0,P|209:36|164:51,1,94.499997116089,2|0,3:2|3:0,0:0:0:0:
154,326,165230,2,0,P|139:281|117:239,1,94.499997116089,10|0,0:2|0:0,0:0:0:0:
26,114,165530,6,0,P|120:140|222:177,1,198.000006042481,0|10,3:0|0:2,0:0:0:0:
342,141,165980,1,0,0:2:0:0:
284,339,166130,1,2,3:2:0:0:
374,226,166280,1,2,3:2:0:0:
214,174,166430,2,0,B|163:168|163:168|120:193,1,99.0000030212403,10|0,0:2|0:0,0:0:0:0:
348,21,166730,6,0,P|432:63|438:158,1,198.000006042481,6|10,3:2|0:2,0:0:0:0:
473,245,167180,1,0,0:0:0:0:
353,116,167330,2,0,P|305:131|258:144,1,99.0000030212403,2|0,3:2|3:0,0:0:0:0:
117,293,167630,2,0,P|163:309|208:329,1,99.0000030212403,10|0,0:2|0:0,0:0:0:0:
371,199,167930,5,2,3:2:0:0:
212,344,168080,1,2,3:2:0:0:
334,384,168230,1,10,0:2:0:0:
247,222,168380,1,2,0:2:0:0:
95,371,168530,2,0,P|89:317|83:267,1,99.0000030212403,2|0,3:2|3:0,0:0:0:0:
164,149,168830,2,0,P|174:75|189:0,1,148.50000453186,10|0,0:2|0:2,0:0:0:0:
87,105,169130,5,2,3:2:0:0:
259,51,169280,1,10,0:2:0:0:
385,158,169430,1,0,3:0:0:0:
397,169,169580,1,2,3:2:0:0:
282,322,169730,5,10,0:2:0:0:
496,252,169880,1,0,3:0:0:0:
511,247,170030,1,2,3:2:0:0:
473,352,170180,6,0,P|402:293|307:234,1,198.000006042481,10|0,0:2|3:2,0:0:0:0:
227,131,170630,2,0,P|240:83|249:35,1,99.0000030212403,10|0,0:2|0:2,0:0:0:0:
0,250,170930,5,10,1:2:0:0:
46,217,171005,1,2,1:2:0:0:
102,221,171080,1,2,1:2:0:0:
145,259,171155,1,2,1:2:0:0:
171,305,171230,1,10,1:2:0:0:
211,343,171305,1,2,1:2:0:0:
259,354,171380,2,0,P|289:345|323:341,1,49.5000015106202,2|2,1:2|1:2,1:2:0:0:
362,173,171530,5,0,3:0:0:0:
226,47,173930,6,2,P|296:92|379:104,1,168.75,14|0,3:2|0:0,0:1:0:0:
138,293,174230,6,2,P|141:209|110:131,1,168.75,14|0,3:2|0:0,0:1:0:0:
399,233,174530,6,2,P|324:271|272:337,1,168.75,14|0,3:2|0:0,0:1:0:0:
226,47,174830,6,2,P|296:92|379:104,1,168.75,14|0,3:2|0:0,0:1:0:0:
471,280,175130,5,0,3:0:0:0:
313,184,175280,1,0,3:0:0:0:
268,180,175355,1,0,3:0:0:0:
228,198,175430,1,8,1:2:0:0:
205,237,175505,1,0,1:0:0:0:
184,277,175580,1,0,1:0:0:0:
148,300,175655,1,0,1:0:0:0:
103,305,175730,1,8,1:2:0:0:
61,288,175805,1,0,1:0:0:0:
36,251,175880,1,0,1:0:0:0:
36,207,175955,1,0,1:0:0:0:
66,173,176030,5,4,0:3:0:0:
136,162,176105,1,4,0:3:0:0:
196,200,176180,1,4,0:3:0:0:
230,263,176255,1,4,0:3:0:0:
304,278,176330,2,0,P|316:169|332:53,1,215.999993408203,6|10,3:2|0:2,0:0:0:0:
354,367,176780,1,2,0:2:0:0:
512,194,176930,5,2,3:2:0:0:
384,256,177080,1,0,3:2:0:0:
489,321,177230,1,10,0:2:0:0:
419,140,177380,1,0,0:2:0:0:
278,321,177530,6,0,P|223:330|173:345,1,99.0000030212403,2|0,3:2|0:0,0:0:0:0:
136,95,177830,2,0,P|88:76|36:50,1,99.0000030212403,10|0,0:2|0:0,0:0:0:0:
131,281,178130,5,2,3:2:0:0:
18,233,178280,1,2,3:2:0:0:
343,84,178430,5,10,0:2:0:0:
168,162,178580,1,2,0:2:0:0:
396,322,178730,5,6,3:2:0:0:
410,253,178880,1,0,3:2:0:0:
426,185,179030,1,0,3:2:0:0:
512,47,179180,5,10,0:2:0:0:
453,348,179330,1,0,3:0:0:0:
435,295,179405,1,8,3:0:0:0:
420,245,179480,1,4,0:3:0:0:
404,195,179555,1,0,3:0:0:0:
387,145,179630,1,10,0:2:0:0:
274,330,179780,2,0,B|177:311|177:311|95:371,1,198.000006042481,6|0,3:2|3:0,0:0:0:0:
321,76,180230,5,10,0:2:0:0:
177,111,180380,1,10,0:2:0:0:
122,250,180530,5,2,3:2:0:0:
347,293,180680,1,2,3:2:0:0:
460,44,180830,1,10,0:2:0:0:
410,44,180905,1,10,0:2:0:0:
367,67,180980,1,10,0:2:0:0:
341,108,181055,1,10,0:2:0:0:
336,157,181130,6,0,P|363:258|381:359,1,198.000006042481,6|8,3:2|0:2,0:0:0:0:
459,194,181580,1,0,0:0:0:0:
223,367,181730,5,2,3:2:0:0:
170,208,181880,1,2,3:2:0:0:
334,233,182030,1,10,0:2:0:0:
242,275,182180,1,0,0:2:0:0:
371,97,182330,5,2,3:2:0:0:
454,59,182480,2,0,P|498:84|505:138,1,99.0000030212403,2|0,3:2|0:2,0:0:0:0:
277,24,182780,2,0,P|187:34|149:127,1,198.000006042481,10|0,0:2|3:0,0:0:0:0:
223,274,183230,1,10,0:2:0:0:
292,103,183380,1,0,1:0:0:0:
54,188,183530,6,0,P|102:196|150:210,1,99.0000030212403,2|0,3:2|0:0,0:0:0:0:
313,247,183830,1,10,0:2:0:0:
185,354,183980,1,2,0:2:0:0:
260,173,184130,5,2,3:2:0:0:
325,373,184280,1,2,3:2:0:0:
407,182,184430,1,10,0:2:0:0:
477,384,184580,1,0,0:2:0:0:
222,267,184730,6,0,B|157:252|157:252|121:199|121:199|54:182,1,198.000006042481,2|10,3:2|0:2,0:0:0:0:
46,301,185180,1,0,0:0:0:0:
212,151,185330,2,0,P|215:101|187:55,1,99.0000030212403,2|0,3:2|3:0,0:0:0:0:
4,9,185630,2,0,P|0:57|24:100,1,99.0000030212403,10|0,0:2|0:0,0:0:0:0:
231,226,185930,5,6,3:2:0:0:
334,190,186080,1,0,3:0:0:0:
414,264,186230,1,10,0:2:0:0:
308,296,186380,1,0,1:2:0:0:
231,226,186530,5,2,3:2:0:0:
189,379,186680,1,2,3:2:0:0:
329,369,186830,1,10,0:2:0:0:
110,233,186980,1,0,1:2:0:0:
304,100,187130,6,0,P|321:52|336:-3,1,99.0000030212403,2|0,3:2|0:0,0:0:0:0:
34,76,187430,2,0,P|80:93|129:116,1,99.0000030212403,10|0,0:2|0:0,0:0:0:0:
448,228,187730,2,0,P|400:241|354:258,1,99.0000030212403,2|0,3:2|3:0,0:0:0:0:
207,363,188030,2,0,P|167:355|142:298,1,99.0000030212403,10|0,0:2|0:0,0:0:0:0:
41,161,188330,5,6,3:2:0:0:
74,140,188405,1,0,1:0:0:0:
113,134,188480,1,0,1:2:0:0:
154,144,188555,1,0,1:0:0:0:
188,166,188630,1,2,1:2:0:0:
210,201,188705,1,0,1:0:0:0:
208,243,188780,5,2,3:2:0:0:
221,268,188855,1,2,1:2:0:0:
250,288,188930,1,2,1:2:0:0:
283,295,189005,1,0,1:0:0:0:
316,287,189080,1,2,1:2:0:0:
342,268,189155,1,0,1:2:0:0:
358,224,189230,5,0,3:2:0:0:
349,190,189305,1,0,1:0:0:0:
342,158,189380,1,2,1:2:0:0:
333,124,189455,1,0,1:0:0:0:
326,92,189530,1,0,1:0:0:0:
318,59,189605,1,0,1:0:0:0:
277,31,189680,5,6,3:2:0:0:
274,48,189755,1,0,1:2:0:0:
271,66,189830,1,2,1:2:0:0:
269,85,189905,1,0,1:2:0:0:
266,104,189980,1,2,1:2:0:0:
264,123,190055,1,2,1:2:0:0:
262,142,190130,5,10,3:2:0:0:
209,132,190205,1,8,0:0:0:0:
158,150,190280,1,10,0:2:0:0:
124,191,190355,1,8,0:0:0:0:
119,244,190430,1,10,2:3:0:0:
151,308,190505,1,10,2:3:0:0:
218,336,190580,1,6,2:3:0:0:
288,317,190655,1,6,2:3:0:0:
334,258,190730,6,0,P|420:248|467:304,1,161.999995056153,6|0,3:2|0:2,0:2:0:0:
497,384,191030,1,8,0:2:0:0:
512,212,191180,1,0,1:2:0:0:
398,349,191330,1,6,3:2:0:0:
260,243,191480,1,2,3:2:0:0:
375,108,191630,1,8,0:2:0:0:
437,221,191780,5,0,0:2:0:0:
298,134,191930,2,0,P|245:124|189:104,1,107.999996704102,6|0,3:2|0:2,0:2:0:0:
186,251,192230,1,8,0:2:0:0:
158,37,192380,1,4,1:2:0:0:
0,127,192530,2,2,P|83:149|162:178,1,161.999995056153,2|0,3:2|0:2,0:2:0:0:
268,266,192830,1,8,0:2:0:0:
433,216,192980,1,2,1:2:0:0:
226,0,193130,5,6,3:2:0:0:
345,150,193280,1,0,1:2:0:0:
155,175,193430,1,10,0:2:0:0:
306,19,193580,1,4,0:2:0:0:
247,77,193730,5,2,3:2:0:0:
309,246,193880,1,0,3:2:0:0:
175,252,194030,1,10,0:2:0:0:
345,150,194180,1,0,1:2:0:0:
71,96,194330,6,0,P|77:200|75:313,1,215.999993408203,4|10,3:2|0:2,0:2:0:0:
375,324,194780,2,0,P|374:266|377:214,1,107.999996704102,4|2,0:2|0:2,0:2:0:0:
451,177,195080,1,0,3:0:0:0:
299,364,195230,1,10,0:1:0:0:
299,364,195530,6,0,P|292:260|281:145,1,215.999993408203,6|8,3:1|0:2,0:0:0:0:
175,295,195980,1,6,0:2:0:0:
26,204,196130,1,0,3:2:0:0:
111,48,196280,1,0,3:1:0:0:
205,195,196430,5,14,0:2:0:0:
393,124,196580,1,0,1:0:0:0:
139,138,196730,2,0,P|83:125|22:119,1,107.999996704102,6|0,3:1|0:0,0:0:0:0:
377,251,197030,2,0,P|435:241|492:224,1,107.999996704102,14|0,0:2|0:0,0:0:0:0:
198,326,197330,1,2,3:2:0:0:
198,326,197480,1,0,3:2:0:0:
101,384,197630,6,0,P|105:301|107:219,1,161.999995056153,14|0,0:2|0:0,0:0:0:0:
86,208,197930,2,0,P|86:174|88:149,1,53.9999983520508,2|0,3:1|0:0,0:0:0:0:
255,20,198080,2,0,P|253:78|249:136,1,107.999996704102,6|8,3:2|0:0,0:0:0:0:
448,171,198380,5,2,3:2:0:0:
448,171,198455,1,0,3:0:0:0:
448,171,198530,1,6,3:2:0:0:
249,215,198680,1,8,0:2:0:0:
338,28,198830,1,2,3:2:0:0:
443,256,198980,5,12,0:2:0:0:
326,147,199130,1,0,3:2:0:0:
451,47,199280,1,0,3:2:0:0:
346,291,199430,5,14,1:1:0:0:
336,219,199580,1,0,1:2:0:0:
326,147,199730,1,12,3:2:0:0:
271,13,199880,5,8,0:1:0:0:
261,64,199955,1,8,0:2:0:0:
251,118,200030,1,14,0:2:0:0:
241,171,200105,1,8,0:2:0:0:
231,224,200180,1,8,0:2:0:0:
222,277,200255,1,8,0:2:0:0:
188,313,200330,5,6,3:1:0:0:
188,313,200630,2,0,P|129:307|76:307,1,107.999996704102,8|0,0:2|0:0,0:0:0:0:
347,178,200930,5,6,3:2:0:0:
368,308,201080,1,0,3:0:0:0:
241,260,201230,1,10,0:2:0:0:
360,169,201380,1,0,1:2:0:0:
442,380,201530,2,0,P|448:324|447:270,1,107.999996704102,6|0,3:2|0:0,0:0:0:0:
271,77,201830,2,0,P|265:133|266:187,1,107.999996704102,8|4,0:0|0:2,0:0:0:0:
368,308,202130,5,2,3:2:0:0:
251,194,202280,1,0,3:1:0:0:
149,309,202430,1,8,0:1:0:0:
296,348,202580,1,2,1:2:0:0:
142,125,202730,5,6,3:2:0:0:
74,274,202880,1,0,3:0:0:0:
236,281,203030,1,10,0:2:0:0:
304,137,203180,1,4,1:2:0:0:
382,343,203330,5,2,3:2:0:0:
449,155,203480,1,0,3:2:0:0:
320,222,203630,5,14,0:2:0:0:
512,277,203780,1,0,1:2:0:0:
293,383,203930,6,0,P|288:273|277:165,1,215.999993408203,4|10,3:2|0:2,0:0:0:0:
144,101,204380,1,0,0:2:0:0:
193,166,204530,5,2,3:2:0:0:
338,115,204680,1,0,3:0:0:0:
434,216,204830,1,14,0:2:0:0:
242,321,204980,5,0,1:0:0:0:
242,321,205055,1,0,1:0:0:0:
242,321,205130,2,0,B|176:273|176:273|93:295,1,161.999995056153,6|0,3:1|0:0,0:0:0:0:
0,364,205430,2,0,L|21:258,1,107.999996704102,10|0,0:2|0:0,0:0:0:0:
159,124,205730,1,2,3:2:0:0:
341,181,205880,1,2,3:2:0:0:
169,266,206030,5,12,0:2:0:0:
252,30,206180,1,0,3:2:0:0:
336,326,206330,1,10,3:2:0:0:
440,18,207530,6,0,P|348:63|349:150,1,198.000006042481,6|8,3:2|0:0,0:0:0:0:
308,308,207980,2,0,P|290:221|216:214,1,148.50000453186,2|0,3:2|0:0,0:0:0:0:
223,213,208280,1,0,3:2:0:0:
161,378,208430,2,0,P|205:360|213:309,1,99.0000030212403,10|0,0:2|0:0,0:0:0:0:
103,162,208730,5,2,3:2:0:0:
0,238,208880,1,2,3:2:0:0:
61,96,209030,5,10,0:2:0:0:
232,12,209180,2,0,P|308:34|378:47,1,148.50000453186,2|0,1:2|0:0,0:0:0:0:
389,68,209480,1,0,3:0:0:0:
309,171,209630,2,0,P|250:180|209:193,1,99.0000030212403,10|0,0:2|1:0,0:0:0:0:
347,371,209930,6,0,P|374:292|479:287,1,198.000006042481,2|8,3:2|0:0,0:0:0:0:
265,328,210380,2,0,P|188:312|114:302,1,148.50000453186,2|0,3:2|0:0,0:0:0:0:
102,317,210680,1,0,3:2:0:0:
212,191,210830,2,0,P|257:193|287:235,1,99.0000030212403,10|0,0:2|0:0,0:0:0:0:
123,23,211130,5,2,3:2:0:0:
224,82,211280,1,0,3:2:0:0:
334,43,211430,1,8,0:0:0:0:
123,23,211580,5,2,0:2:0:0:
114,107,211730,1,2,3:2:0:0:
105,191,211880,1,2,3:2:0:0:
96,275,212030,1,10,0:2:0:0:
190,344,212180,5,2,3:2:0:0:
205,342,212255,1,2,3:2:0:0:
220,340,212330,1,6,3:2:0:0:
411,299,212480,1,0,0:0:0:0:
316,321,212630,1,10,0:2:0:0:
423,218,212780,5,0,0:2:0:0:
325,266,212930,1,2,3:2:0:0:
404,329,213080,1,2,3:2:0:0:
389,181,213230,5,8,0:2:0:0:
298,261,213380,1,0,0:2:0:0:
404,329,213530,1,2,3:2:0:0:
323,135,213680,5,0,0:2:0:0:
263,268,213830,1,8,0:0:0:0:
404,329,213980,1,2,0:2:0:0:
225,133,214130,5,0,3:2:0:0:
150,166,214280,1,2,0:2:0:0:
340,36,214430,2,0,B|392:48|392:48|417:81|417:81|479:97,1,148.50000453186,10|0,0:2|0:0,0:0:0:0:
512,164,214730,5,2,3:2:0:0:
342,250,214880,1,10,0:2:0:0:
229,97,215030,1,0,3:0:0:0:
219,84,215180,1,2,3:2:0:0:
80,288,215330,5,10,0:2:0:0:
257,206,215480,1,0,3:0:0:0:
271,199,215630,1,2,3:2:0:0:
400,355,215780,2,0,P|395:283|398:206,1,148.50000453186,12|0,0:1|0:0,0:0:0:0:
423,191,216080,2,0,P|424:161|423:130,1,49.5000015106202,2|0,3:2|0:0,0:0:0:0:
300,39,216230,1,14,0:2:0:0:
158,106,216380,1,2,0:2:0:0:
227,323,216530,5,4,3:2:0:0:
273,266,216680,1,2,1:2:0:0:
268,237,216755,1,2,1:2:0:0:
263,209,216830,1,12,1:2:0:0:
260,181,216905,1,2,1:2:0:0:
256,153,216980,1,10,0:2:0:0:
252,125,217055,1,10,0:2:0:0:
248,97,217130,5,6,3:2:0:0:
394,207,217280,1,2,0:2:0:0:
351,284,217430,1,10,0:2:0:0:
350,128,217580,5,2,0:2:0:0:
484,198,217730,1,2,3:2:0:0:
481,42,217880,1,2,3:2:0:0:
436,125,218030,1,10,0:2:0:0:
501,285,218180,5,2,0:2:0:0:
418,310,218330,1,2,3:2:0:0:
507,297,218480,1,0,3:0:0:0:
424,323,218630,1,10,0:2:0:0:
303,216,218780,2,0,B|238:207|238:207|193:156|193:156|123:145,1,198.000006042481,2|2,0:2|3:2,0:0:0:0:
361,98,219230,2,0,L|385:-10,1,99.0000030212403,10|0,0:2|1:0,0:0:0:0:
97,35,219530,5,2,3:2:0:0:
271,12,219680,1,2,0:2:0:0:
212,167,219830,1,10,0:2:0:0:
243,249,219980,5,2,0:2:0:0:
129,146,220130,1,2,3:2:0:0:
370,162,220280,1,2,3:2:0:0:
383,165,220355,1,2,3:2:0:0:
397,168,220430,1,10,0:2:0:0:
492,296,220580,5,2,1:2:0:0:
335,364,220730,2,0,P|339:309|346:260,2,99.0000030212403,2|0|10,3:2|0:0|0:2,0:0:0:0:
165,160,221180,2,0,B|57:160|101:249|-2:249,1,198.000006042481,2|2,0:2|3:2,0:0:0:0:
197,384,221630,1,10,3:2:0:0:
378,290,221780,5,2,1:2:0:0:
365,287,221855,1,2,1:2:0:0:
351,284,221930,1,2,3:2:0:0:
272,265,222080,1,0,0:0:0:0:
193,246,222230,1,10,0:2:0:0:
347,206,222380,5,0,0:2:0:0:
261,185,222530,1,2,3:2:0:0:
174,164,222680,1,2,3:2:0:0:
343,128,222830,5,8,0:2:0:0:
250,105,222980,1,0,0:2:0:0:
155,82,223130,1,2,3:2:0:0:
339,50,223280,5,0,3:2:0:0:
239,25,223430,1,8,0:0:0:0:
136,0,223580,1,2,1:2:0:0:
430,10,223730,5,10,0:3:0:0:
263,125,223880,1,10,0:3:0:0:
444,218,224030,1,6,0:3:0:0:
404,81,224180,1,6,0:3:0:0:
293,370,224330,6,0,P|284:312|315:254,1,116.999994644165,0|2,3:0|0:2,0:0:0:0:
445,187,225230,1,2,0:2:0:0:
366,97,225830,1,2,0:2:0:0:
406,20,226430,1,2,0:2:0:0:
