osu file format v14

[General]
AudioFilename: audio.mp3
AudioLeadIn: 0
PreviewTime: 987
Countdown: 0
SampleSet: Soft
StackLeniency: 0.7
Mode: 0
LetterboxInBreaks: 0
WidescreenStoryboard: 1

[Editor]
DistanceSpacing: 0.2
BeatDivisor: 3
GridSize: 8
TimelineZoom: 2.599999

[Metadata]
Title:Matasaburo
TitleUnicode:又三郎
Artist:Yorushika
ArtistUnicode:ヨルシカ
Creator:Akito
Version:FuJu's Tempest
Source:
Tags:matasaburou -akito tomadoi shiinoha kotone kowari some hero hero_ic fixxis black man gillstar fuju japanese rock pop n-buna suis ナブナ スイ jpop j-pop jrock j-rock
BeatmapID:3082200
BeatmapSetID:1497370

[Difficulty]
HPDrainRate:5.5
CircleSize:4.2
OverallDifficulty:8.5
ApproachRate:9.2
SliderMultiplier:1.6
SliderTickRate:1

[Events]
//Background and Video events
0,0,"rainy.jpg",0,0
//Break Periods
//Storyboard Layer 0 (Background)
//Storyboard Layer 1 (Fail)
//Storyboard Layer 2 (Pass)
//Storyboard Layer 3 (Foreground)
//Storyboard Layer 4 (Overlay)
//Storyboard Sound Samples

[TimingPoints]
-63,300,4,2,1,40,1,0
237,-1000,4,2,1,40,0,0
1137,-95.2380952380952,4,2,1,80,0,0
17937,-90.9090909090909,4,2,2,60,0,0
20337,-133.333333333333,4,2,2,40,0,0
20637,-133.333333333333,4,2,1,40,0,0
24237,-222.222222222222,4,2,1,40,0,0
25062,-133.333333333333,4,2,1,40,0,0
29937,-133.333333333333,4,2,2,40,0,0
30237,-133.333333333333,4,2,1,40,0,0
39537,-125,4,2,1,60,0,0
57837,-250,4,2,2,70,0,0
57874,-250,4,2,1,70,0,0
58737,-90.9090909090909,4,2,1,80,0,0
67737,-90.9090909090909,4,2,2,80,0,0
67887,-90.9090909090909,4,2,1,80,0,0
74337,-90.9090909090909,4,2,2,80,0,0
75537,-90.9090909090909,4,2,1,80,0,0
85137,-95.2380952380952,4,2,1,80,0,0
94737,-133.333333333333,4,2,1,40,0,0
109137,-133.333333333333,4,2,2,40,0,0
109287,-133.333333333333,4,2,1,40,0,0
111537,-105.263157894737,4,2,1,40,0,0
113037,-250,4,2,1,40,0,0
113337,-105.263157894737,4,2,1,40,0,0
113937,-117.64705882353,4,2,1,60,0,0
128637,-117.64705882353,4,2,1,70,0,0
130737,-117.64705882353,4,2,2,70,0,0
131637,-117.64705882353,4,2,1,70,0,0
133137,-90.9090909090909,4,2,1,80,0,0
151437,-333.333333333333,4,2,1,80,0,0
152337,-90.9090909090909,4,2,1,80,0,0
173937,-90.9090909090909,4,2,1,80,0,0
174837,-250,4,2,1,80,0,0
175287,-90.9090909090909,4,2,1,80,0,0
188337,-90.9090909090909,4,2,2,80,0,0
188412,-90.9090909090909,4,2,1,80,0,0
189687,-90.9090909090909,4,2,2,80,0,0
189762,-90.9090909090909,4,2,1,80,0,0
223737,-111.111111111111,4,2,1,80,0,0

[Colours]
Combo1 : 150,210,243
Combo2 : 136,173,236
Combo3 : 219,219,219
Combo4 : 211,146,211

[HitObjects]
298,28,237,6,0,L|291:61,1,32,2|2,0:3|0:3,0:0:0:0:
291,59,1137,2,0,P|252:75|211:85,1,83.9999974365235,6|0,3:1|0:0,0:0:0:0:
279,317,1437,2,0,P|317:300|358:290,1,83.9999974365235,2|0,1:1|0:0,0:0:0:0:
379,165,1737,1,0,3:0:0:0:
284,193,1887,1,0,3:0:0:0:
189,221,2037,1,2,1:0:0:0:
189,221,2187,1,0,0:0:0:0:
386,378,2337,6,0,P|452:333|439:255,1,167.999994873047,0|0,3:0|1:0,0:0:0:0:
284,193,2787,1,2,0:1:0:0:
511,182,2937,2,0,L|430:158,1,83.9999974365235,0|0,3:0|3:0,0:0:0:0:
165,301,3237,2,0,L|188:220,1,83.9999974365235,0|2,1:0|0:1,0:0:0:0:
230,0,3537,5,2,3:1:0:0:
329,43,3687,1,0,0:0:0:0:
286,148,3837,1,2,1:0:0:0:
286,148,3987,1,0,0:3:0:0:
245,324,4137,6,0,L|164:300,1,83.9999974365235,0|2,3:0|3:1,0:0:0:0:
386,378,4437,2,0,P|426:332|412:273,1,125.999996154785,0|0,1:0|0:0,0:0:0:0:
412,273,4737,2,0,P|395:191|385:108,1,167.999994873047,2|0,3:1|1:0,0:0:0:0:
184,16,5187,1,2,0:1:0:0:
106,106,5337,1,0,3:0:0:0:
196,184,5487,1,0,3:0:0:0:
271,94,5637,1,2,1:0:0:0:
166,279,5787,5,4,0:3:0:0:
166,279,5862,1,4,0:3:0:0:
166,279,5937,2,0,L|247:258,1,83.9999974365235,2|0,3:1|0:0,0:0:0:0:
271,343,6237,5,6,1:0:0:0:
365,371,6387,1,0,0:0:0:0:
428,94,6537,5,2,3:1:0:0:
269,144,6687,1,2,3:1:0:0:
406,274,6837,2,0,P|394:233|388:191,1,83.9999974365235,0|2,1:0|0:1,0:0:0:0:
145,155,7137,6,0,P|154:92|170:31,1,125.999996154785,2|0,3:1|0:0,0:0:0:0:
170,31,7437,1,2,1:1:0:0:
37,282,7587,2,0,P|25:241|19:199,1,83.9999974365235,2|0,0:1|3:0,0:0:0:0:
252,322,7887,1,0,3:0:0:0:
262,200,8037,2,0,B|202:208|208:246|146:245,1,125.999996154785,0|0,1:0|0:0,0:0:0:0:
147,245,8337,5,2,3:1:0:0:
98,185,8487,1,0,1:0:0:0:
144,122,8637,1,2,3:1:0:0:
334,0,8787,5,4,0:3:0:0:
383,60,8937,1,4,0:3:0:0:
337,123,9087,1,2,3:1:0:0:
179,7,9237,5,0,3:0:0:0:
431,157,9387,2,2,P|352:155|319:227,1,167.999994873047,8|0,0:3|3:0,0:1:0:0:
179,7,9837,2,0,L|196:89,1,83.9999974365235,6|0,1:1|0:0,0:0:0:0:
76,182,10137,1,2,3:1:0:0:
1,275,10287,1,8,0:1:0:0:
86,356,10437,1,0,3:0:0:0:
254,231,10587,5,8,0:1:0:0:
254,231,10662,1,8,0:1:0:0:
253,231,10737,2,0,P|213:243|176:262,1,83.9999974365235,6|0,3:1|0:0,0:0:0:0:
412,104,11037,2,0,P|374:84|334:72,1,83.9999974365235,6|0,1:1|0:0,0:0:0:0:
327,344,11337,1,0,3:1:0:0:
423,286,11487,1,0,3:0:0:0:
360,191,11637,1,0,1:0:0:0:
360,191,11787,1,0,0:0:0:0:
99,231,11937,6,0,P|139:243|176:262,1,83.9999974365235,0|2,3:0|0:1,0:0:0:0:
120,3,12237,2,0,P|89:31|53:54,1,83.9999974365235,0|2,1:0|0:1,0:0:0:0:
306,135,12537,1,0,3:0:0:0:
294,52,12687,1,0,3:0:0:0:
177,282,12837,2,0,P|214:262|254:250,1,83.9999974365235,2|0,1:1|1:0,1:0:0:0:
255,250,13062,5,0,3:0:0:0:
255,250,13137,2,0,L|283:334,1,83.9999974365235,0|0,3:1|0:0,0:0:0:0:
389,66,13437,2,0,P|351:85|311:97,1,83.9999974365235,2|0,1:1|0:0,0:0:0:0:
121,56,13737,1,0,3:0:0:0:
222,142,13887,1,0,3:1:0:0:
111,57,14037,1,0,1:0:0:0:
255,250,14187,1,0,3:0:0:0:
448,196,14337,6,0,P|408:208|371:228,1,83.9999974365235,0|2,3:0|0:1,0:0:0:0:
371,228,14562,1,8,0:1:0:0:
371,228,14637,2,0,P|330:215|293:196,1,83.9999974365235,0|2,1:0|0:1,0:0:0:0:
113,326,14937,1,0,3:0:0:0:
195,383,15087,1,0,3:0:0:0:
198,100,15237,1,0,1:0:0:0:
15,228,15387,1,4,0:3:0:0:
15,228,15462,1,8,0:3:0:0:
15,228,15537,2,0,P|52:208|92:196,1,83.9999974365235,4|0,0:3|0:0,0:0:0:0:
396,369,15837,5,6,1:1:0:0:
396,369,15987,1,0,0:0:0:0:
286,289,16137,1,0,3:0:0:0:
491,195,16287,1,2,3:1:0:0:
303,384,16437,1,0,1:0:0:0:
303,384,16512,1,8,0:1:0:0:
303,384,16587,1,8,0:1:0:0:
259,109,16737,5,2,3:1:0:0:
382,282,16887,1,0,3:0:0:0:
260,98,17037,1,0,1:0:0:0:
383,271,17187,1,2,0:1:0:0:
454,135,17337,1,0,3:0:0:0:
215,244,17487,1,0,1:0:0:0:
468,384,17637,1,0,3:0:0:0:
325,193,17787,5,8,0:1:0:0:
325,193,17862,1,8,0:1:0:0:
325,193,17937,1,6,3:0:0:0:
256,192,18012,12,0,20262,0:0:0:0:
256,192,20337,5,2,3:0:0:0:
147,246,20637,1,8,0:1:0:0:
248,182,20787,1,0,0:0:0:0:
346,38,21087,5,0,3:0:0:0:
240,172,21237,2,0,L|250:112,1,60.0000022888184,8|0,0:1|0:1,0:1:0:0:
360,211,21537,2,0,L|370:151,1,60.0000022888184,2|0,3:2|0:0,0:0:0:0:
117,202,21837,2,0,L|127:142,1,60.0000022888184,8|0,0:1|0:0,0:0:0:0:
175,337,22137,5,0,3:0:0:0:
245,319,22287,1,2,3:2:0:0:
315,301,22437,1,8,0:1:0:0:
315,301,22737,6,0,L|371:321,1,60.0000022888184,2|0,3:2|0:0,0:0:0:0:
229,35,23037,2,0,L|343:71,1,120.000004577637,8|0,0:1|3:0,0:0:0:0:
248,182,23487,1,0,3:0:0:0:
147,246,23637,1,8,0:1:0:0:
248,182,23787,1,0,3:0:0:0:
248,182,24087,1,0,3:0:0:0:
203,316,24237,2,0,L|150:326,1,53.9999983520508,8|0,0:1|0:0,0:0:0:0:
150,326,24537,1,0,3:0:0:0:
150,326,24687,1,0,3:0:0:0:
150,326,24837,1,8,0:1:0:0:
299,319,25062,5,2,0:0:0:0:
309,316,25137,2,0,L|397:334,1,90.0000034332277,0|0,3:0|0:0,0:0:0:0:
397,334,25437,1,8,0:1:0:0:
278,134,25587,2,0,L|336:122,1,60.0000022888184,0|0,0:0|3:3,0:0:0:0:
336,122,25887,1,2,3:2:0:0:
407,174,26037,1,8,0:1:0:0:
367,243,26187,1,0,0:0:0:0:
221,255,26337,6,0,L|162:243,1,60.0000022888184,2|0,3:2|0:0,0:0:0:0:
46,68,26637,1,8,0:1:0:0:
46,68,26937,2,0,L|104:56,1,60.0000022888184,0|0,3:0|3:0,0:0:0:0:
193,116,27237,2,0,L|204:174,1,60.0000022888184,8|0,0:1|0:0,0:0:0:0:
59,317,27537,2,0,P|60:257|85:203,1,120.000004577637,2|8,3:2|0:1,0:0:0:0:
346,0,28137,2,0,P|344:59|319:113,1,120.000004577637,2|8,3:2|0:1,0:0:0:0:
368,371,28737,5,2,3:2:0:0:
315,292,28887,1,0,3:3:0:0:
396,239,29037,2,0,L|462:259,1,60.0000022888184,8|0,0:1|0:0,0:0:0:0:
463,152,29337,2,0,L|405:134,1,60.0000022888184,0|0,3:0|3:0,0:0:0:0:
267,38,29637,2,0,L|209:55,1,60.0000022888184,8|2,0:1|0:3,0:0:0:0:
209,55,29862,5,2,0:3:0:0:
209,55,29937,2,0,L|93:20,1,120.000004577637,2|8,3:0|0:1,0:0:0:0:
230,205,30387,2,0,L|143:180,1,90.0000034332277
143,180,30687,1,0,3:0:0:0:
222,293,30837,2,0,B|278:303|274:255|332:258,1,120.000004577637,8|2,0:1|3:2,0:0:0:0:
421,328,31287,5,0,0:0:0:0:
421,328,31437,2,0,P|409:355|400:384,1,60.0000022888184,8|0,0:1|0:0,0:0:0:0:
400,176,31737,2,0,P|417:118|440:63,1,120.000004577637,0|8,3:0|0:1,0:0:0:0:
339,92,32187,1,0,0:0:0:0:
143,180,32337,6,0,P|200:197|255:220,1,120.000004577637,2|8,3:2|0:1,0:0:0:0:
128,67,32787,2,0,P|185:84|240:107,1,120.000004577637,0|0,0:0|3:0,0:0:0:0:
56,302,33237,2,0,P|16:260|30:204,1,120.000004577637,8|0,0:1|0:0,0:0:0:0:
224,347,33687,2,0,P|182:386|126:372,1,120.000004577637,0|8,3:0|0:1,0:0:0:0:
297,299,34137,2,0,P|327:306|355:317,1,60.0000022888184,2|0,3:2|3:0,0:0:0:0:
345,208,34437,2,0,P|374:214|402:225,1,60.0000022888184,8|0,0:1|0:0,0:0:0:0:
402,225,34662,5,2,0:3:0:0:
402,225,34737,1,2,3:2:0:0:
353,49,34887,1,0,0:0:0:0:
443,20,35037,1,8,0:1:0:0:
443,20,35187,2,0,P|428:78|403:132,1,120.000004577637,8|0,0:3|3:0,0:0:0:0:
325,122,35637,1,8,0:1:0:0:
161,303,35787,5,0,0:0:0:0:
161,303,35937,2,0,P|136:248|121:190,1,120.000004577637,2|8,3:2|0:1,0:0:0:0:
344,0,36387,1,0,0:0:0:0:
344,0,36537,2,0,P|329:58|304:112,1,120.000004577637,0|8,3:0|0:1,0:0:0:0:
225,103,36987,1,0,0:0:0:0:
181,288,37137,5,2,3:2:0:0:
61,314,37287,1,8,0:1:0:0:
0,216,37437,2,0,L|17:158,1,60.0000022888184,2|0,3:2|3:0,0:0:0:0:
61,314,37737,1,0,1:0:0:0:
125,204,37887,1,2,0:3:0:0:
125,204,37962,1,2,0:3:0:0:
125,204,38037,1,2,3:0:0:0:
80,111,38187,6,0,L|89:82,1,30.0000011444092,0|0,1:0|0:0,0:0:0:0:
282,19,38487,1,0,3:0:0:0:
282,19,38637,2,0,L|272:47,1,30.0000011444092,12|0,0:1|0:0,0:0:0:0:
3,160,38937,1,0,3:0:0:0:
3,160,39087,2,0,L|12:131,1,30.0000011444092,8|0,0:1|0:0,0:0:0:0:
121,190,39237,1,0,3:0:0:0:
271,233,39387,5,8,0:1:0:0:
271,233,39462,1,8,0:1:0:0:
271,233,39537,2,0,L|210:253,2,64,6|0|8,3:2|0:0|0:1,0:0:0:0:
350,258,39987,2,0,L|370:318,1,64,2|0,0:0|3:0,0:0:0:0:
426,140,40287,1,0,3:2:0:0:
426,140,40437,2,0,L|405:79,1,64,8|0,0:1|0:2,0:0:0:0:
351,0,40737,2,0,P|299:30|313:88,1,128,0|8,3:2|0:1,0:0:0:0:
195,284,41337,6,0,L|286:254,1,96,2|0,3:2|0:0,0:0:0:0:
286,254,41637,2,0,L|265:193,1,64,8|0,0:1|0:0,0:0:0:0:
74,181,41937,2,0,L|94:241,2,64,2|2|8,3:2|0:2|0:1,0:0:0:0:
106,79,42387,2,0,L|166:59,1,64,2|0,0:0|3:0,0:0:0:0:
262,0,42687,1,0,3:0:0:0:
262,0,42837,2,0,L|322:20,1,64,8|2,0:1|0:0,0:0:0:0:
406,122,43137,6,0,P|444:75|504:85,2,128,2|8|2,3:2|0:1|3:2,0:0:0:0:
481,172,43887,1,0,3:0:0:0:
310,101,44037,2,0,L|250:81,1,64,8|4,0:1|0:3,0:0:0:0:
216,160,44262,5,4,0:3:0:0:
225,156,44337,2,0,L|285:176,2,64,2|0|8,3:2|0:0|0:1,0:0:0:0:
132,195,44787,2,0,L|112:255,1,64,2|0,0:0|3:0,0:0:0:0:
151,359,45087,1,0,3:0:0:0:
252,321,45237,1,8,0:1:0:0:
252,321,45537,6,0,B|316:334|297:273|368:285,1,128,2|8,3:2|0:1,0:0:0:0:
225,156,46037,1,2,0:0:0:0:
225,156,46137,2,0,L|253:31,1,128,2|8,3:2|0:1,0:0:0:0:
330,17,46587,1,2,0:0:0:0:
153,107,46737,1,2,3:2:0:0:
222,240,46887,2,0,L|160:259,1,64,0|2,1:0|3:1,0:0:0:0:
301,172,47187,5,2,3:1:0:0:
139,384,47337,2,0,P|123:355|119:324,1,64,0|2,1:0|3:1,0:0:0:0:
311,180,47637,1,2,3:1:0:0:
41,308,47787,2,0,P|50:277|69:252,1,64,0|2,1:1|3:1,0:0:0:0:
312,194,48087,1,2,3:1:0:0:
400,276,48237,2,0,P|337:291|276:309,1,128,8|2,0:1|3:1,0:0:0:0:
368,384,48687,1,8,0:1:0:0:
368,384,48837,1,2,3:1:0:0:
312,194,48987,5,8,0:1:0:0:
312,194,49062,1,8,0:1:0:0:
312,194,49137,2,0,L|327:131,2,64,6|2|8,3:2|0:2|0:1,0:0:0:0:
233,161,49587,2,0,L|248:98,1,64,2|0,0:2|3:0,0:0:0:0:
324,33,49887,1,0,3:0:0:0:
157,113,50037,2,0,L|94:97,1,64,8|0,0:1|0:0,0:0:0:0:
0,251,50337,6,0,L|93:230,1,96,2|0,3:2|0:0,0:0:0:0:
93,230,50637,2,0,L|155:245,1,64,8|0,0:1|0:0,0:0:0:0:
207,346,50937,2,0,L|144:330,1,64,2|0,3:2|3:0,0:0:0:0:
184,162,51237,2,0,L|246:177,1,64,8|0,0:1|0:0,0:0:0:0:
348,89,51537,6,0,L|363:26,2,64,2|0|8,3:2|0:0|0:1,0:0:0:0:
268,98,51987,2,0,L|205:82,1,64,2|0,0:2|3:0,0:0:0:0:
383,228,52287,1,0,3:0:0:0:
383,228,52437,2,0,B|429:238|425:200|473:206,1,96,8|0,0:1|0:0,0:0:0:0:
473,206,52737,2,0,P|463:236|456:267,1,64,2|0,3:2|0:0,0:0:0:0:
304,374,53037,2,0,P|313:343|320:312,1,64,8|0,0:1|0:0,0:0:0:0:
512,323,53337,2,0,P|502:353|495:384,1,64,2|0,3:2|3:0,0:0:0:0:
410,352,53637,1,8,0:1:0:0:
298,235,53787,5,4,0:3:0:0:
298,235,53862,1,4,0:3:0:0:
298,235,53937,2,0,P|307:204|314:173,1,64,4|0,0:3|0:0,0:0:0:0:
83,252,54237,2,0,P|67:297|56:344,1,96,2|0,1:2|0:0,0:0:0:0:
185,251,54537,2,0,P|194:220|201:189,1,64,2|0,3:2|3:0,0:0:0:0:
122,77,54837,2,0,P|111:107|103:138,1,64,2|0,1:2|0:0,0:0:0:0:
314,173,55137,6,0,P|323:142|330:111,1,64,2|0,3:2|3:0,0:0:0:0:
244,25,55437,1,8,2:1:0:0:
366,263,55737,1,2,3:2:0:0:
465,217,55887,1,0,3:0:0:0:
372,254,56037,1,0,1:0:0:0:
471,208,56187,1,0,3:0:0:0:
257,384,56337,5,0,1:0:0:0:
224,195,57537,6,0,P|225:210|230:226,1,32,0|0,3:0|0:0,0:0:0:0:
257,383,57762,5,2,0:3:0:0:
257,383,57837,2,2,P|296:335|289:273,1,128,2|0,1:3|0:0,0:1:0:0:
132,71,58737,6,2,P|162:100|158:142,1,88.000002685547,6|0,3:1|0:0,0:1:0:0:
95,185,58962,1,2,0:3:0:0:
95,185,59037,2,0,L|116:270,1,88.000002685547,0|0,1:0|0:0,0:0:0:0:
401,187,59337,1,2,3:1:0:0:
359,92,59487,1,0,3:0:0:0:
260,111,59637,1,0,1:1:0:0:
377,283,59787,5,8,0:1:0:0:
377,283,59862,1,8,0:1:0:0:
377,283,59937,2,0,P|419:273|463:267,1,88.000002685547,2|0,3:1|0:0,0:0:0:0:
173,56,60237,2,0,P|166:99|157:142,1,88.000002685547,0|0,1:0|0:0,0:0:0:0:
287,367,60537,2,0,P|324:292|277:223,1,176.000005371094,2|0,3:1|1:1,0:0:0:0:
157,142,60987,1,0,0:0:0:0:
23,354,61137,6,0,B|90:364|72:304|140:309,1,132.00000402832,2|0,3:1|0:0,0:0:0:0:
140,309,61437,2,0,P|133:265|119:224,1,88.000002685547,2|0,1:1|0:0,0:0:0:0:
301,61,61737,2,0,P|307:104|321:146,1,88.000002685547,2|0,3:1|3:0,0:0:0:0:
403,248,61962,1,8,0:1:0:0:
403,248,62037,2,0,P|436:275|478:271,1,88.000002685547,2|0,1:1|0:0,0:0:0:0:
287,367,62337,6,0,P|232:301|148:307,1,176.000005371094,0|2,3:0|1:1,0:0:0:0:
237,168,62787,1,0,0:0:0:0:
90,82,62937,2,0,P|132:68|172:51,1,88.000002685547,2|0,3:1|3:0,0:0:0:0:
102,384,63237,2,0,P|69:354|34:327,1,88.000002685547,2|0,1:1|0:0,0:0:0:0:
22,201,63462,5,8,0:1:0:0:
22,201,63537,2,0,B|110:195|107:260|188:241,1,176.000005371094,6|2,3:1|1:1,0:0:0:0:
409,223,63987,1,0,0:0:0:0:
409,223,64137,1,2,3:1:0:0:
245,127,64287,1,0,3:0:0:0:
402,33,64437,2,0,P|388:74|378:117,1,88.000002685547,2|0,1:1|0:0,0:0:0:0:
266,384,64737,6,0,P|256:341|242:299,1,88.000002685547,2|0,3:1|0:0,0:0:0:0:
326,201,64962,1,8,0:1:0:0:
326,201,65037,2,0,P|335:243|349:285,1,88.000002685547,2|0,1:1|0:0,0:0:0:0:
147,352,65337,1,2,3:1:0:0:
123,267,65487,1,0,3:0:0:0:
296,122,65637,1,2,1:1:0:0:
296,122,65712,1,8,0:1:0:0:
296,122,65787,1,8,0:1:0:0:
115,93,65937,5,0,3:0:0:0:
326,201,66087,2,0,L|411:179,1,88.000002685547,4|0,1:2|3:0,0:0:0:0:
337,48,66387,1,0,3:0:0:0:
135,202,66537,2,0,L|49:180,1,88.000002685547,0|0,1:0|3:0,0:0:0:0:
326,201,66837,1,0,3:0:0:0:
263,384,66987,6,0,P|233:326|235:260,1,132.00000402832,4|0,1:0|0:0,0:0:0:0:
235,260,67287,2,0,L|291:276,1,44.0000013427735,0|0,3:0|0:0,0:0:0:0:
341,319,67437,2,2,L|426:297,1,88.000002685547,2|0,1:1|0:1,0:1:0:0:
166,150,67737,2,2,L|80:171,1,88.000002685547,2|8,3:3|0:1,0:1:0:0:
80,179,67962,1,8,0:1:0:0:
79,187,68037,2,2,L|134:171,1,44.0000013427735,2|0,3:1|0:0,2:1:0:0:
264,36,68187,5,8,2:1:0:0:
264,36,68262,1,8,0:1:0:0:
264,36,68337,2,2,P|333:82|316:163,1,176.000005371094,6|0,3:1|1:0,0:1:0:0:
146,357,68787,1,0,0:0:0:0:
146,357,68937,1,2,3:1:0:0:
262,254,69087,1,0,3:0:0:0:
433,331,69237,2,0,L|348:353,1,88.000002685547,0|0,1:0|0:0,0:0:0:0:
484,257,69462,5,8,0:1:0:0:
484,257,69537,2,0,L|442:85,1,176.000005371094,2|0,3:1|1:1,0:0:0:0:
295,61,69987,1,0,0:0:0:0:
231,142,70137,2,2,L|316:163,1,88.000002685547,0|0,3:1|0:0,0:1:0:0:
120,377,70437,1,0,1:0:0:0:
120,377,70737,6,2,B|114:312|161:324|151:251,1,132.00000402832,2|0,3:1|0:0,0:1:0:0:
151,252,71037,2,0,P|143:208|133:165,1,88.000002685547,2|0,1:1|0:0,0:0:0:0:
317,335,71337,2,0,L|402:356,1,88.000002685547,2|0,3:1|3:0,0:0:0:0:
393,116,71637,1,2,1:1:0:0:
325,194,71787,1,0,0:0:0:0:
471,298,71937,6,0,P|501:240|492:176,1,132.00000402832,0|0,3:0|0:0,0:0:0:0:
492,176,72237,2,0,L|406:197,1,88.000002685547,2|0,1:1|0:0,0:0:0:0:
258,70,72537,2,0,L|344:49,1,88.000002685547,2|0,3:1|3:0,0:0:0:0:
392,275,72837,1,2,1:1:0:0:
224,327,72987,5,4,0:3:0:0:
224,327,73062,1,4,0:3:0:0:
224,326,73137,2,2,P|240:263|251:198,1,132.00000402832,6|0,3:1|0:0,0:1:0:0:
251,196,73437,2,0,L|165:217,1,88.000002685547,6|0,1:1|0:0,0:0:0:0:
395,109,73737,1,2,3:1:0:0:
434,230,73887,1,0,1:0:0:0:
275,80,74037,1,2,3:1:0:0:
476,31,74187,5,8,0:1:0:0:
476,31,74262,1,8,0:1:0:0:
476,31,74337,1,2,3:0:0:0:
125,175,75537,5,6,3:1:0:0:
92,336,75687,2,0,P|72:298|69:255,1,88.000002685547,0|0,0:0|1:1,0:0:0:0:
125,52,75987,1,2,0:1:0:0:
225,160,76137,2,0,P|245:121|248:78,1,88.000002685547,0|0,3:0|3:0,0:0:0:0:
399,331,76437,2,0,P|396:243|359:164,1,176.000005371094,2|0,1:0|3:0,0:0:0:0:
193,355,76887,1,0,0:1:0:0:
177,251,77037,2,0,P|219:261|261:274,1,88.000002685547,2|0,1:0|0:1,0:0:0:0:
435,243,77337,5,0,3:0:0:0:
495,143,77487,1,0,3:0:0:0:
395,83,77637,1,0,1:0:0:0:
335,183,77787,1,0,0:1:0:0:
105,308,77937,5,2,3:1:0:0:
114,200,78087,2,0,P|73:216|30:224,1,88.000002685547,0|0,0:0|1:0,0:0:0:0:
333,278,78387,1,2,0:1:0:0:
277,378,78537,2,0,P|236:361|192:354,1,88.000002685547,0|0,3:0|3:1,0:0:0:0:
167,103,78837,2,0,P|243:133|240:215,1,176.000005371094,2|0,1:0|3:1,0:0:0:0:
29,224,79287,5,0,0:0:0:0:
2,91,79437,2,0,P|32:14|114:17,1,176.000005371094,2|0,1:0|3:0,0:0:0:0:
240,215,79887,1,0,3:0:0:0:
118,287,80037,1,2,1:0:0:0:
167,103,80187,5,4,0:3:0:0:
167,103,80262,1,4,0:3:0:0:
167,103,80337,2,0,B|253:84|250:162|332:134,1,176.000005371094,2|4,3:1|1:0,0:0:0:0:
456,6,80787,2,0,P|415:21|372:33,1,88.000002685547,2|0,0:1|3:1,0:0:0:0:
332,134,81087,1,0,3:1:0:0:
390,303,81237,2,0,P|438:262|426:200,1,132.00000402832,2|0,1:1|0:0,0:0:0:0:
426,200,81537,2,0,P|383:211|342:227,1,88.000002685547,2|0,3:1|0:0,0:0:0:0:
207,337,81837,2,0,P|166:321|123:309,1,88.000002685547,2|2,1:1|0:1,0:0:0:0:
0,252,82062,5,0,3:0:0:0:
0,252,82137,2,0,P|31:197|93:199,1,132.00000402832,2|0,3:1|0:0,0:0:0:0:
93,199,82437,2,0,B|156:208|144:152|214:160,1,132.00000402832,0|0,1:0|0:0,0:0:0:0:
213,160,82737,1,2,3:1:0:0:
139,80,82887,1,0,1:0:0:0:
217,0,83037,1,2,3:1:0:0:
348,254,83187,5,4,0:3:0:0:
162,343,83337,1,4,0:3:0:0:
355,244,83487,1,2,3:1:0:0:
213,160,83637,1,0,3:0:0:0:
310,355,83787,2,2,P|362:289|445:305,1,176.000005371094,8|0,0:3|3:0,0:1:0:0:
332,68,84237,6,0,P|319:110|308:152,1,88.000002685547,6|0,1:1|0:0,0:0:0:0:
91,349,84537,1,2,3:1:0:0:
250,245,84687,1,8,0:1:0:0:
91,158,84837,1,0,3:0:0:0:
140,252,84987,5,8,0:1:0:0:
140,252,85062,1,8,0:1:0:0:
140,252,85137,2,0,P|151:211|163:171,1,83.9999974365235,6|0,3:1|0:0,0:0:0:0:
377,190,85437,2,0,P|364:230|355:271,1,83.9999974365235,6|0,1:1|0:0,0:0:0:0:
279,78,85737,1,0,3:1:0:0:
358,0,85887,1,0,3:0:0:0:
457,44,86037,1,0,1:0:0:0:
457,44,86187,1,0,0:0:0:0:
436,292,86337,6,0,P|395:279|354:270,1,83.9999974365235,0|0,3:0|0:0,0:0:0:0:
89,331,86637,2,0,P|129:343|170:352,1,83.9999974365235,0|2,1:0|0:1,0:0:0:0:
164,98,86937,1,0,3:0:0:0:
91,198,87087,1,0,3:0:0:0:
189,260,87237,2,0,P|229:250|270:238,1,83.9999974365235,2|0,1:1|1:0,0:0:0:0:
339,150,87462,5,8,0:1:0:0:
339,150,87537,2,0,P|339:108|316:73,1,83.9999974365235,0|0,3:1|0:0,0:0:0:0:
467,286,87837,2,0,P|489:251|490:209,1,83.9999974365235,2|0,1:1|0:0,0:0:0:0:
168,363,88137,1,0,3:0:0:0:
250,341,88287,1,2,3:1:0:0:
332,319,88437,1,0,1:0:0:0:
332,319,88587,1,0,3:0:0:0:
115,124,88737,6,0,P|105:164|90:203,1,83.9999974365235,0|2,3:0|0:1,0:0:0:0:
238,0,89037,2,0,P|252:39|263:79,1,83.9999974365235,0|2,1:0|0:1,0:0:0:0:
97,299,89337,1,0,3:0:0:0:
18,145,89487,1,0,3:0:0:0:
288,248,89637,1,0,1:0:0:0:
168,363,89787,5,0,0:0:0:0:
168,363,89862,1,8,0:3:0:0:
168,363,89937,1,4,0:3:0:0:
249,175,90087,1,0,0:0:0:0:
49,378,90237,1,6,1:1:0:0:
268,318,90387,5,0,0:0:0:0:
90,203,90537,1,0,3:0:0:0:
280,313,90687,1,2,3:1:0:0:
428,152,90837,2,0,P|467:167|507:176,1,83.9999974365235,0|0,1:0|0:0,0:0:0:0:
354,257,91137,5,2,3:1:0:0:
218,108,91287,1,0,3:0:0:0:
366,0,91437,2,0,P|352:39|338:79,1,83.9999974365235,0|2,1:0|0:1,0:0:0:0:
174,282,91737,1,0,3:0:0:0:
57,189,91887,1,0,1:0:0:0:
184,8,92037,5,4,3:3:0:0:
189,17,92137,1,4,0:3:0:0:
195,26,92237,1,4,0:3:0:0:
199,36,92337,1,8,0:3:0:0:
256,192,92412,12,0,94662,0:0:0:0:
256,192,94737,5,4,3:2:0:0:
114,285,95037,1,0,0:0:0:0:
114,285,95187,2,0,L|174:275,1,60.0000022888184,2|0,0:0|0:0,0:0:0:0:
253,329,95487,1,0,0:0:0:0:
253,328,95637,2,0,P|241:355|235:384,1,60.0000022888184,2|0,0:0|0:0,0:0:0:0:
336,289,95937,1,0,0:0:0:0:
336,289,96087,2,0,P|329:259|318:232,1,60.0000022888184,2|0,0:0|0:0,0:0:0:0:
346,140,96387,1,0,0:0:0:0:
346,140,96537,2,0,P|399:158|407:215,1,120.000004577637,2|0,0:0|0:0,0:0:0:0:
256,284,96987,5,0,0:0:0:0:
256,284,97137,2,0,B|199:289|214:237|147:243,1,120.000004577637,2|0,0:0|0:0,0:0:0:0:
23,188,97587,2,0,P|79:168|138:154,1,120.000004577637,2|0,0:0|0:0,0:0:0:0:
0,89,98037,2,0,P|58:75|115:56,1,120.000004577637,2|0,0:0|0:0,0:0:0:0:
189,90,98487,2,0,P|218:96|247:104,1,60.0000022888184,2|0,0:0|0:0,0:0:0:0:
455,14,98937,2,0,P|425:7|396:0,1,60.0000022888184,2|0,0:0|3:3,0:0:0:0:
323,50,99237,1,0,0:0:0:0:
323,50,99387,1,0,3:0:0:0:
379,201,99537,6,0,P|405:147|412:87,1,120.000004577637,2|0,3:2|0:0,0:0:0:0:
512,329,99987,2,0,P|505:269|478:215,1,120.000004577637,2|0,0:0|0:0,0:0:0:0:
322,283,100437,2,0,L|264:301,1,60.0000022888184,2|0,0:0|0:0,0:0:0:0:
210,382,100737,2,0,L|94:350,1,120.000004577637
297,211,101187,1,0,0:0:0:0:
297,211,101337,2,0,L|239:229,1,60.0000022888184,2|0,0:0|0:0,0:0:0:0:
271,131,101637,2,0,L|213:149,1,60.0000022888184
126,143,101937,6,0,B|126:81|169:101|162:32,1,120.000004577637,2|0,0:0|0:0,0:0:0:0:
250,259,102387,1,2,0:0:0:0:
250,259,102537,2,0,B|256:190|213:210|213:148,1,120.000004577637,0|2,0:0|0:0,0:0:0:0:
443,282,103137,5,0,0:0:0:0:
378,337,103287,1,2,0:3:0:0:
378,337,103362,1,2,0:3:0:0:
378,337,103437,1,2,0:3:0:0:
454,374,103587,1,0,0:0:0:0:
378,337,103737,2,0,P|367:278|352:219,1,120.000004577637,0|2,0:0|0:3,0:0:0:0:
370,51,104187,5,0,0:0:0:0:
370,51,104262,1,0,0:0:0:0:
370,51,104337,2,0,P|364:107|310:123,1,120.000004577637,6|2,3:2|0:0,0:0:0:0:
250,259,104787,2,0,P|193:253|177:199,1,120.000004577637,2|2,0:0|0:0,0:0:0:0:
35,105,105387,5,0,0:0:0:0:
35,105,105537,2,0,P|63:97|93:94,1,60.0000022888184,0|2,0:0|0:0,0:0:0:0:
132,260,105987,1,0,0:0:0:0:
132,260,106062,1,0,0:0:0:0:
132,260,106137,1,0,0:0:0:0:
47,211,106287,1,0,0:0:0:0:
132,260,106437,1,2,0:0:0:0:
47,211,106587,1,0,0:0:0:0:
128,344,106737,6,0,P|156:333|185:326,1,60.0000022888184,2|0,3:2|3:0,0:0:0:0:
301,365,107037,1,0,0:0:0:0:
301,365,107187,1,2,0:0:0:0:
208,202,107337,2,0,P|232:253|289:257,1,120.000004577637,2|2,0:0|0:0,0:0:0:0:
452,71,108237,2,0,P|447:56|443:42,1,30.0000011444092,2|2,0:0|0:0,0:0:0:0:
358,24,108537,2,0,P|376:81|392:138,1,120.000004577637,2|0,0:0|0:0,0:0:0:0:
124,269,109137,5,2,3:0:0:0:
231,344,109287,1,0,3:0:0:0:
148,281,109437,1,0,0:0:0:0:
147,281,109587,2,0,P|90:300|35:325,1,120.000004577637,2|0,0:0|0:0,0:0:0:0:
293,193,110037,2,0,P|265:183|237:171,1,60.0000022888184,2|0,0:0|0:0,0:0:0:0:
0,235,110337,2,0,P|56:215|111:190,1,120.000004577637,2|0,0:0|0:0,0:0:0:0:
237,171,110787,1,2,0:0:0:0:
237,171,110862,1,0,0:0:0:0:
237,171,110937,2,0,P|291:195|348:216,1,120.000004577637,0|2,0:0|3:3,0:0:0:0:
348,216,111387,1,0,0:0:0:0:
442,82,111537,5,2,0:0:0:0:
328,130,111687,1,8,0:1:0:0:
411,309,111837,1,2,3:2:0:0:
496,246,111987,1,0,3:0:0:0:
251,274,112137,6,0,P|260:310|266:348,1,75.9999979705811,8|4,0:1|0:3,0:0:0:0:
132,238,112437,1,0,3:0:0:0:
132,238,112587,1,8,0:1:0:0:
138,74,112737,5,0,3:0:0:0:
58,160,112887,1,0,3:0:0:0:
146,79,113037,2,0,L|191:64,1,48,4|0,3:0|0:0,0:0:0:0:
191,64,113337,1,0,3:0:0:0:
350,21,113487,2,0,L|277:1,1,75.9999979705811,8|0,0:1|3:0,0:0:0:0:
210,175,113787,5,8,0:1:0:0:
210,175,113862,1,8,0:1:0:0:
210,175,113937,2,0,L|275:192,2,68.0000012969971,6|0|8,3:2|0:0|0:1,0:0:0:0:
132,238,114387,2,0,L|112:311,1,68.0000012969971,2|0,0:0|0:0,0:0:0:0:
210,175,114687,1,0,0:0:0:0:
21,286,114837,2,0,L|41:213,1,68.0000012969971,8|0,0:1|0:0,0:0:0:0:
131,156,115137,2,0,P|91:95|20:106,2,136.000002593994,2|8|2,3:2|0:1|0:0,0:0:0:0:
261,301,116037,2,0,P|316:286|372:278,1,102.000001945496,8|0,0:1|0:0,0:0:0:0:
360,279,116337,6,0,P|367:316|370:354,2,68.0000012969971,2|2|8,3:2|3:2|2:1,0:0:0:0:
425,211,116787,1,2,2:2:0:0:
287,36,117087,1,0,0:0:0:0:
287,36,117237,2,0,P|249:42|211:46,1,68.0000012969971,8|0,0:1|0:0,0:0:0:0:
369,115,117537,1,2,3:2:0:0:
369,115,117687,1,2,3:2:0:0:
269,219,117837,2,0,P|254:184|257:146,1,68.0000012969971,8|0,0:1|0:0,0:0:0:0:
424,210,118137,1,0,0:0:0:0:
424,210,118437,2,0,L|392:319,1,102.000001945496,8|0,0:1|0:0,0:0:0:0:
395,307,118737,6,0,L|466:336,2,68.0000012969971,2|2|8,3:2|0:2|0:1,0:0:0:0:
334,358,119187,1,2,0:0:0:0:
219,216,119487,1,0,0:0:0:0:
219,216,119637,2,0,L|234:282,1,68.0000012969971,8|0,0:1|0:0,0:0:0:0:
314,227,119937,1,2,3:2:0:0:
64,208,120087,2,0,P|99:153|164:157,1,136.000002593994,2|0,3:2|0:0,0:0:0:0:
319,58,120537,2,0,L|451:87,1,136.000002593994,2|8,0:0|0:1,0:0:0:0:
365,156,120987,1,0,0:0:0:0:
365,156,121137,2,0,P|355:188|351:222,1,68.0000012969971,0|0,3:0|1:0,0:0:0:0:
451,87,121437,5,2,3:1:0:0:
360,336,121587,2,0,P|328:322|296:313,1,68.0000012969971,2|0,3:1|1:1,0:0:0:0:
460,91,121887,1,2,3:1:0:0:
399,270,122037,2,0,P|376:244|350:222,1,68.0000012969971,2|0,3:1|1:0,0:0:0:0:
469,95,122337,1,2,3:1:0:0:
480,272,122487,2,0,P|470:239|456:208,1,68.0000012969971,2|0,3:1|1:0,0:0:0:0:
295,73,122787,1,2,3:1:0:0:
295,73,122862,1,0,3:0:0:0:
295,73,122937,1,2,3:1:0:0:
269,243,123087,2,0,P|243:181|234:114,1,136.000002593994,10|8,0:1|0:1,0:0:0:0:
233,113,123462,5,8,0:1:0:0:
233,113,123537,2,0,P|202:126|169:136,2,68.0000012969971,4|2|8,3:2|0:0|0:1,0:0:0:0:
114,207,123987,2,0,P|82:194|49:184,1,68.0000012969971,2|0,0:0|0:0,0:0:0:0:
166,295,124287,1,0,0:0:0:0:
166,295,124437,2,0,P|198:305|230:317,1,68.0000012969971,8|0,0:1|0:0,0:0:0:0:
148,190,124737,1,2,3:2:0:0:
261,103,124887,1,2,3:2:0:0:
359,192,125037,2,0,B|288:184|301:241|232:223,1,136.000002593994,8|2,0:1|0:0,0:0:0:0:
232,223,125637,1,8,0:1:0:0:
329,340,125787,5,0,0:0:0:0:
329,340,125862,1,0,0:0:0:0:
329,339,125937,2,0,P|342:307|346:274,2,68.0000012969971,2|2|8,3:2|3:2|0:1,0:0:0:0:
460,306,126387,2,0,P|446:337|442:370,1,68.0000012969971,2|0,0:2|0:0,0:0:0:0:
421,226,126687,1,0,0:0:0:0:
421,226,126762,1,0,0:0:0:0:
421,226,126837,1,8,0:1:0:0:
428,93,126987,5,0,0:0:0:0:
428,93,127137,2,0,P|386:143|321:137,1,136.000002593994,2|8,3:2|0:1,0:0:0:0:
335,14,127587,1,0,0:0:0:0:
187,40,127737,2,0,L|252:57,1,68.0000012969971,2|0,0:2|3:3,0:0:0:0:
173,230,128037,2,0,L|107:212,1,68.0000012969971,8|0,0:1|0:0,0:0:0:0:
107,212,128262,5,0,3:0:0:0:
107,212,128337,2,0,B|93:287|146:268|139:338,2,136.000002593994,6|2|2,3:2|1:2|3:2,0:0:0:0:
287,182,129087,1,0,3:0:0:0:
299,268,129237,2,0,L|233:285,1,68.0000012969971,8|0,0:1|0:0,0:0:0:0:
233,285,129462,1,0,3:0:0:0:
233,285,129537,1,2,3:2:0:0:
297,359,129687,1,0,3:0:0:0:
297,359,129837,2,0,L|362:341,1,68.0000012969971,8|0,0:1|0:0,0:0:0:0:
468,281,130137,1,4,3:2:0:0:
462,154,130337,5,8,0:1:0:0:
457,145,130437,1,8,0:3:0:0:
452,137,130537,1,4,0:3:0:0:
447,129,130637,1,4,0:3:0:0:
442,121,130737,1,2,0:3:0:0:
257,193,131787,5,0,0:0:0:0:
257,193,131862,1,0,0:0:0:0:
257,193,131937,1,2,3:2:0:0:
325,152,132087,1,2,0:0:0:0:
189,229,132237,1,2,1:2:0:0:
324,144,132387,1,2,0:0:0:0:
188,221,132537,5,0,1:2:0:0:
345,310,132687,1,0,1:2:0:0:
203,104,132837,1,0,1:2:0:0:
27,262,132987,1,0,1:2:0:0:
178,370,133137,6,2,P|220:358|263:351,1,88.000002685547,6|0,3:1|0:0,0:1:0:0:
345,310,133362,1,8,0:1:0:0:
345,310,133437,2,0,P|387:322|430:329,1,88.000002685547,0|0,1:0|0:0,0:0:0:0:
459,39,133737,1,2,3:1:0:0:
330,101,133887,1,0,3:0:0:0:
404,227,134037,1,0,1:1:0:0:
209,65,134187,5,8,0:1:0:0:
209,65,134262,1,8,0:1:0:0:
209,65,134337,2,0,P|165:71|123:84,1,88.000002685547,2|0,3:1|0:0,0:0:0:0:
26,302,134637,2,0,P|13:259|6:216,1,88.000002685547,0|0,1:0|0:0,0:0:0:0:
248,301,134937,2,0,B|200:320|168:287|187:263|147:229|97:244,1,176.000005371094,2|0,3:1|1:1,0:0:0:0:
123,83,135387,1,0,0:0:0:0:
297,74,135537,6,0,P|242:104|246:167,1,132.00000402832,2|0,3:1|0:0,0:0:0:0:
246,167,135837,2,0,P|286:153|331:146,1,88.000002685547,2|0,1:1|0:0,0:0:0:0:
431,364,136137,2,0,P|390:377|345:384,1,88.000002685547,2|0,3:1|3:0,0:0:0:0:
345,384,136362,1,8,0:1:0:0:
345,384,136437,1,2,1:1:0:0:
444,218,136587,1,2,0:0:0:0:
253,384,136737,6,0,B|251:316|295:339|290:261,1,132.00000402832,2|0,3:2|0:0,0:0:0:0:
290,261,137037,2,0,P|249:247|204:240,1,88.000002685547,2|0,1:1|0:0,0:0:0:0:
361,50,137337,1,2,3:1:0:0:
276,137,137487,1,0,3:0:0:0:
444,218,137637,2,0,P|457:177|464:132,1,88.000002685547,2|0,1:1|0:0,0:0:0:0:
464,132,137862,5,8,0:1:0:0:
464,132,137937,2,0,P|420:138|378:152,1,88.000002685547,6|0,3:1|0:0,0:0:0:0:
179,323,138237,2,2,P|116:323|85:268,1,132.00000402832,2|0,1:1|0:0,0:1:0:0:
85,268,138537,1,2,3:1:0:0:
272,383,138687,1,0,3:0:0:0:
254,205,138837,2,0,L|168:222,1,88.000002685547,2|0,1:1|0:0,0:0:0:0:
144,121,139062,5,8,0:1:0:0:
144,121,139137,2,0,L|230:104,1,88.000002685547,2|0,3:1|0:0,0:0:0:0:
425,58,139437,2,0,B|363:66|377:12|304:17,1,132.00000402832,2|0,1:1|0:0,0:0:0:0:
304,17,139737,1,2,3:1:0:0:
370,163,139887,1,0,3:0:0:0:
155,234,140037,1,2,1:1:0:0:
230,103,140187,1,0,0:0:0:0:
354,299,140337,5,0,3:0:0:0:
127,341,140487,2,0,P|86:323|44:311,1,88.000002685547,4|0,1:2|3:0,0:0:0:0:
254,205,140787,5,0,3:0:0:0:
340,384,140937,2,0,P|380:366|422:354,1,88.000002685547,0|0,1:0|3:0,0:0:0:0:
422,354,141162,1,0,3:1:0:0:
422,354,141237,2,0,P|412:334|404:313,1,44.0000013427735,0|0,3:0|0:0,0:0:0:0:
254,205,141387,2,0,P|266:140|298:82,1,132.00000402832,4|0,1:0|0:0,0:0:0:0:
297,82,141687,2,0,L|338:99,1,44.0000013427735,0|0,3:0|0:0,0:0:0:0:
131,254,141837,2,0,L|119:166,1,88.000002685547,2|0,1:1|0:1,0:0:0:0:
363,312,142137,2,0,L|293:365,1,88.000002685547,2|0,3:3|1:1,0:0:0:0:
284,362,142362,1,8,0:1:0:0:
275,358,142437,2,0,L|308:329,1,44.0000013427735,10|8,0:1|0:1,0:0:0:0:
490,163,142587,5,8,2:1:0:0:
490,163,142662,1,8,0:1:0:0:
490,163,142737,2,2,B|402:151|425:238|335:225,1,176.000005371094,6|0,3:1|1:0,0:1:0:0:
149,0,143187,1,0,0:0:0:0:
328,54,143337,1,2,3:1:0:0:
328,54,143487,1,0,3:0:0:0:
169,255,143637,2,0,L|144:170,1,88.000002685547,0|0,1:0|0:0,0:0:0:0:
177,68,143862,5,8,0:1:0:0:
185,75,143937,2,0,B|272:63|249:150|339:137,1,176.000005371094,2|0,3:1|1:1,0:0:0:0:
445,73,144387,1,0,0:0:0:0:
287,293,144537,2,0,P|327:276|370:267,1,88.000002685547,2|0,3:1|3:0,0:0:0:0:
498,351,144837,1,0,1:0:0:0:
498,351,145137,6,2,B|487:310|487:310|511:269|511:269|501:227,1,132.00000402832,2|0,3:1|0:0,0:1:0:0:
501,227,145437,2,0,P|460:210|417:201,1,88.000002685547,2|0,1:1|0:0,0:0:0:0:
222,359,145737,2,0,P|262:375|305:384,1,88.000002685547,2|0,3:1|3:0,0:0:0:0:
388,93,146037,1,2,1:1:0:0:
257,139,146187,1,0,0:0:0:0:
319,263,146337,1,0,3:0:0:0:
319,263,146637,6,0,P|346:230|342:187,1,88.000002685547,2|0,1:1|0:0,0:0:0:0:
135,219,146937,1,2,3:1:0:0:
222,359,147087,1,0,3:0:0:0:
129,226,147237,2,0,P|66:243|1:256,1,132.00000402832,2|0,1:1|0:3,0:0:0:0:
0,256,147537,6,2,P|12:213|19:170,1,88.000002685547,6|0,3:1|0:0,0:1:0:0:
267,0,147837,2,0,P|254:42|247:85,1,88.000002685547,6|0,1:1|0:0,0:0:0:0:
310,264,148137,1,2,3:1:0:0:
410,73,148287,1,0,3:0:0:0:
501,132,148437,2,0,B|445:133|447:183|380:176,1,132.00000402832,2|0,1:1|0:0,0:0:0:0:
380,176,148737,2,0,L|294:157,1,88.000002685547,2|0,3:1|0:0,0:0:0:0:
27,352,149037,2,0,L|112:333,1,88.000002685547,2|0,1:0|0:0,0:0:0:0:
322,252,149337,1,2,3:1:0:0:
163,157,149487,1,0,3:0:0:0:
251,381,149637,5,2,1:0:0:0:
251,381,149712,1,8,0:1:0:0:
251,381,149787,1,8,0:1:0:0:
251,381,149862,1,8,0:1:0:0:
251,381,149937,1,0,3:0:0:0:
322,252,150087,1,4,0:3:0:0:
316,235,150162,1,4,0:3:0:0:
310,218,150237,1,4,0:3:0:0:
234,32,150387,5,8,0:3:0:0:
162,81,150537,1,8,0:3:0:0:
201,159,150687,1,8,0:3:0:0:
322,252,150837,5,12,0:3:0:0:
413,211,150987,1,4,0:3:0:0:
322,252,151137,1,0,3:0:0:0:
322,252,151437,6,0,L|299:243,1,23.9999992675781,2|0,0:0|0:0,0:0:0:0:
200,158,151737,2,0,P|161:174|121:185,1,83.9999974365235,2|0,0:0|0:0,0:0:0:0:
121,185,152337,6,2,P|163:197|203:215,1,88.000002685547,6|0,3:1|0:0,0:1:0:0:
414,29,152637,2,0,P|401:71|383:111,1,88.000002685547,2|0,1:1|0:0,0:0:0:0:
73,108,152937,1,2,3:1:0:0:
127,11,153087,1,0,3:0:0:0:
234,47,153237,1,2,1:0:0:0:
193,384,153537,6,0,P|118:352|140:274,1,176.000005371094,2|2,3:1|1:1,0:0:0:0:
335,268,153987,1,8,0:1:0:0:
335,268,154062,1,8,0:1:0:0:
335,268,154137,2,0,L|249:290,1,88.000002685547,2|0,3:1|3:0,0:0:0:0:
121,185,154437,2,0,L|156:57,1,132.00000402832,2|0,1:1|0:0,0:0:0:0:
155,57,154737,6,2,L|240:79,1,88.000002685547,2|0,3:1|0:0,0:1:0:0:
35,101,155037,1,2,1:2:0:0:
249,290,155187,2,0,L|272:205,1,88.000002685547,0|2,0:0|3:2,0:0:0:0:
433,54,155487,1,0,3:0:0:0:
480,168,155637,1,2,1:2:0:0:
480,168,155937,6,2,B|428:174|402:140|412:126|387:89|329:99,1,176.000005371094,2|0,3:1|1:0,0:1:0:0:
185,181,156387,1,8,0:1:0:0:
185,181,156462,1,8,0:1:0:0:
185,181,156537,2,0,L|162:266,1,88.000002685547,2|0,3:1|3:0,0:0:0:0:
322,372,156837,2,0,L|364:360,1,44.0000013427735,0|0,1:0|0:0,0:0:0:0:
436,333,156987,5,0,3:0:0:0:
436,333,157062,1,0,3:0:0:0:
436,333,157137,2,2,B|373:340|381:292|313:295,1,132.00000402832,6|0,3:1|0:0,0:1:0:0:
313,294,157437,2,0,B|302:251|302:251|334:221,1,88.000002685547,2|0,1:1|0:0,0:0:0:0:
121,185,157737,1,2,3:1:0:0:
252,91,157887,1,0,3:0:0:0:
364,359,158037,1,2,1:1:0:0:
364,359,158337,6,0,L|278:337,1,88.000002685547,2|0,3:1|0:0,0:0:0:0:
35,206,158637,2,0,L|120:184,1,88.000002685547,2|0,1:1|0:0,0:0:0:0:
338,120,158937,1,2,3:1:0:0:
166,294,159087,1,0,3:0:0:0:
129,59,159237,1,2,1:1:0:0:
129,59,159537,5,6,3:2:0:0:
363,228,159687,1,0,3:2:0:0:
363,228,159837,2,0,L|378:186,1,44.0000013427735,0|0,1:2|0:0,0:0:0:0:
323,77,159987,2,0,L|338:118,1,44.0000013427735,2|0,3:2|0:0,0:0:0:0:
458,251,160137,1,8,0:3:0:0:
448,275,160212,1,4,0:3:0:0:
439,300,160287,1,4,0:3:0:0:
430,325,160362,1,0,3:0:0:0:
421,350,160437,2,0,L|382:328,1,44.0000013427735,0|0,1:0|0:0,0:0:0:0:
295,185,160587,6,0,B|204:175|213:243|128:223,1,176.000005371094,6|2,1:2|3:2,0:0:0:0:
441,266,161037,2,0,P|463:229|471:186,1,88.000002685547,2|0,1:1|0:0,0:0:0:0:
425,0,161337,1,4,3:2:0:0:
512,70,161487,1,8,0:1:0:0:
490,76,161562,1,8,0:1:0:0:
469,82,161637,1,8,1:1:0:0:
448,88,161712,1,8,0:1:0:0:
427,94,161787,1,8,0:1:0:0:
406,100,161862,1,8,0:1:0:0:
385,106,161937,6,0,B|322:114|337:63|262:69,1,132.00000402832,6|0,3:1|0:0,0:0:0:0:
262,69,162237,2,0,P|220:82|177:93,1,88.000002685547,2|0,1:1|0:0,0:0:0:0:
16,262,162537,1,2,3:1:0:0:
244,279,162687,1,0,3:0:0:0:
95,183,162837,2,2,P|108:224|119:267,1,88.000002685547,2|0,1:1|0:0,0:1:0:0:
203,370,163062,5,8,0:1:0:0:
195,365,163137,2,0,P|254:305|339:312,1,176.000005371094,0|2,3:0|1:1,0:0:0:0:
451,14,163737,1,2,3:1:0:0:
263,109,163887,1,0,3:0:0:0:
473,237,164037,1,0,1:0:0:0:
416,130,164187,5,8,0:1:0:0:
416,130,164262,1,8,0:1:0:0:
416,130,164337,2,2,L|332:156,1,88.000002685547,2|0,3:1|0:0,0:1:0:0:
119,267,164637,2,0,P|74:221|10:227,1,132.00000402832,2|0,1:1|0:0,0:0:0:0:
10,227,164937,1,2,3:1:0:0:
170,120,165087,1,0,3:0:0:0:
0,43,165237,1,2,1:1:0:0:
217,266,165387,5,8,0:1:0:0:
217,266,165462,1,8,0:1:0:0:
217,266,165537,2,0,L|301:243,1,88.000002685547,2|0,3:2|0:0,0:2:0:0:
460,360,165762,1,8,0:1:0:0:
460,360,165837,2,0,L|376:337,1,88.000002685547,2|0,1:0|0:0,0:0:0:0:
232,178,166137,5,2,3:1:0:0:
252,85,166287,1,0,3:0:0:0:
471,153,166437,2,0,L|387:176,1,88.000002685547,2|0,1:1|0:0,0:0:0:0:
301,243,166662,1,0,0:0:0:0:
301,243,166737,2,2,L|217:266,1,88.000002685547,6|0,3:1|0:0,0:1:0:0:
18,144,167037,1,2,1:1:0:0:
18,144,167337,5,2,3:1:0:0:
232,178,167487,1,0,3:0:0:0:
96,354,167637,2,0,B|94:282|140:310|130:230,1,132.00000402832,2|0,1:1|0:0,0:0:0:0:
130,231,167937,6,0,P|90:248|47:257,1,88.000002685547,2|0,3:1|0:0,0:0:0:0:
225,145,168237,2,0,P|215:102|198:62,1,88.000002685547,2|0,1:1|0:0,0:0:0:0:
321,365,168537,1,2,3:1:0:0:
508,264,168687,1,0,3:0:0:0:
347,160,168837,1,2,1:1:0:0:
347,160,169137,5,0,3:2:0:0:
428,248,169287,1,0,1:0:0:0:
408,42,169437,5,0,3:0:0:0:
444,155,169587,1,0,3:0:0:0:
222,220,169737,1,0,1:0:0:0:
186,107,169887,1,0,3:0:0:0:
347,160,170037,2,0,L|305:174,1,44.0000013427735,2|0,3:0|0:0,0:0:0:0:
215,316,170187,2,0,B|166:327|131:299|152:279|120:240|65:250,1,176.000005371094,2|2,1:2|3:2,0:0:0:0:
233,52,170637,5,6,1:2:0:0:
273,65,170712,1,8,0:1:0:0:
286,106,170787,1,8,0:1:0:0:
215,316,170937,1,8,0:1:0:0:
207,273,171012,1,8,0:1:0:0:
236,242,171087,1,8,0:1:0:0:
453,199,171237,1,8,0:1:0:0:
420,228,171312,1,8,0:1:0:0:
379,218,171387,1,8,0:1:0:0:
80,338,171537,6,0,L|37:349,1,44.0000013427735,0|0,1:0|0:0,0:0:0:0:
213,93,173937,5,2,0:3:0:0:
283,313,174237,1,2,0:3:0:0:
255,29,174537,1,2,0:3:0:0:
158,347,174837,2,0,L|218:367,1,64,2|0,0:3|3:0,0:0:0:0:
283,313,175287,5,8,0:1:0:0:
283,313,175362,1,8,0:1:0:0:
283,313,175437,2,0,L|324:298,1,44.0000013427735,10|0,0:1|0:1,0:0:0:0:
435,347,175587,1,8,0:1:0:0:
435,347,175662,1,8,0:1:0:0:
435,347,175737,2,0,L|393:332,1,44.0000013427735,10|0,3:1|0:1,0:0:0:0:
238,230,175887,1,8,0:1:0:0:
238,230,175962,1,8,0:1:0:0:
238,230,176037,2,0,L|279:215,1,44.0000013427735,2|0,3:1|0:0,0:0:0:0:
446,158,176187,5,8,0:1:0:0:
446,158,176262,1,8,0:1:0:0:
446,158,176337,2,0,L|361:133,1,88.000002685547,6|0,3:1|0:0,0:0:0:0:
169,191,176637,2,0,L|193:106,1,88.000002685547,6|0,1:1|0:0,0:0:0:0:
91,129,176937,1,2,3:1:0:0:
169,354,177087,1,0,3:0:0:0:
16,302,177237,2,0,L|101:278,1,88.000002685547,2|0,1:1|0:0,0:0:0:0:
169,190,177462,5,8,0:1:0:0:
169,190,177537,2,2,P|252:188|289:263,1,176.000005371094,2|2,3:1|1:1,0:1:0:0:
392,124,177987,1,0,0:0:0:0:
253,1,178137,2,0,P|266:43|273:86,1,88.000002685547,2|0,3:1|3:0,0:0:0:0:
375,338,178437,2,0,P|382:294|395:252,1,88.000002685547,2|0,1:1|0:0,0:0:0:0:
279,354,178662,5,8,0:1:0:0:
279,354,178737,2,0,B|184:330|196:407|111:381,1,176.000005371094,6|2,3:2|3:2,0:0:0:0:
72,214,179187,1,0,3:0:0:0:
1,257,179337,1,4,0:3:0:0:
1,257,179412,1,4,0:3:0:0:
1,257,179487,1,8,0:3:0:0:
130,82,179637,1,8,0:1:0:0:
263,263,179787,6,0,P|319:200|404:204,1,176.000005371094,6|2,3:2|3:2,0:0:0:0:
443,326,180237,2,2,P|404:304|362:292,1,88.000002685547,2|0,1:1|0:0,0:1:0:0:
482,133,180537,1,2,3:1:0:0:
392,86,180687,1,0,3:1:0:0:
392,86,180762,1,0,3:1:0:0:
392,86,180837,2,0,P|373:97|352:105,1,44.0000013427735,2|8,3:1|0:1,0:0:0:0:
267,186,180987,5,8,0:1:0:0:
267,186,181062,1,8,0:1:0:0:
267,186,181137,2,2,P|183:187|144:113,1,176.000005371094,6|0,3:1|1:0,0:1:0:0:
68,299,181587,1,0,0:0:0:0:
168,282,181737,2,0,P|153:323|139:365,1,88.000002685547,2|0,3:1|3:0,0:0:0:0:
354,161,182037,2,0,P|395:174|437:189,1,88.000002685547,0|0,1:1|0:0,0:0:0:0:
267,186,182337,6,2,B|240:134|274:99|284:113|321:83|293:25,1,176.000005371094,2|0,3:1|1:0,0:1:0:0:
139,365,182787,1,0,0:0:0:0:
74,284,182937,2,2,L|157:257,1,88.000002685547,2|0,3:1|3:0,0:1:0:0:
425,384,183237,2,0,L|341:357,1,88.000002685547,0|0,1:0|0:0,0:0:0:0:
226,93,183537,6,2,P|279:125|266:185,1,132.00000402832,2|0,3:1|0:0,0:1:0:0:
266,185,183837,2,2,L|182:158,1,88.000002685547,2|0,1:1|0:0,0:1:0:0:
68,217,184137,1,2,3:1:0:0:
0,311,184287,1,0,3:0:0:0:
86,384,184437,1,2,1:1:0:0:
284,278,184587,5,8,0:1:0:0:
284,278,184662,1,8,0:1:0:0:
284,278,184737,2,0,P|267:318|256:361,1,88.000002685547,2|0,3:2|0:0,0:0:0:0:
508,219,185037,2,2,P|467:202|424:191,1,88.000002685547,2|0,1:1|0:0,0:1:0:0:
169,106,185337,5,0,3:1:0:0:
278,200,185487,1,0,3:0:0:0:
211,18,185637,1,2,1:1:0:0:
298,101,185787,5,8,0:1:0:0:
298,101,185862,1,8,0:1:0:0:
298,101,185937,2,2,B|361:115|349:58|421:68,1,132.00000402832,6|0,3:1|0:0,0:1:0:0:
430,84,186237,2,0,P|439:40|453:0,1,88.000002685547,2|0,1:1|0:0,0:0:0:0:
280,268,186537,1,2,3:1:0:0:
176,222,186687,1,0,3:0:0:0:
72,176,186837,1,2,1:1:0:0:
65,188,187137,6,0,P|103:167|145:154,1,88.000002685547,2|0,3:1|0:0,0:0:0:0:
298,22,187437,2,0,P|336:42|378:55,1,88.000002685547,2|0,1:1|0:0,0:0:0:0:
280,300,187737,1,2,3:1:0:0:
176,222,187887,1,0,3:0:0:0:
251,123,188037,1,2,1:1:0:0:
251,123,188337,6,0,L|292:138,1,44.0000013427735,2|8,1:3|0:1,0:0:0:0:
47,192,188487,5,8,0:1:0:0:
47,192,188562,1,8,0:1:0:0:
47,192,188637,1,8,0:1:0:0:
47,192,188712,1,8,0:1:0:0:
47,192,188787,2,0,L|5:207,1,44.0000013427735,8|8,1:1|0:1,0:0:0:0:
176,222,188937,5,8,0:1:0:0:
176,222,189012,1,8,0:1:0:0:
176,222,189087,1,8,0:1:0:0:
176,222,189162,1,8,0:1:0:0:
176,222,189237,2,0,L|134:237,1,44.0000013427735,8|8,3:1|0:1,0:0:0:0:
320,78,189387,5,8,0:1:0:0:
320,78,189462,1,8,0:1:0:0:
320,78,189537,1,8,0:1:0:0:
320,78,189612,1,8,0:1:0:0:
320,78,189687,2,0,L|361:93,1,44.0000013427735,2|8,1:3|0:1,0:0:0:0:
152,142,189837,5,8,0:1:0:0:
152,142,189912,1,8,0:1:0:0:
152,142,189987,1,8,0:1:0:0:
152,142,190062,1,8,0:1:0:0:
152,142,190137,2,0,L|110:157,1,44.0000013427735,8|8,3:1|0:1,0:0:0:0:
167,246,190287,5,8,0:1:0:0:
167,246,190362,1,8,0:1:0:0:
167,246,190437,2,0,L|182:287,1,44.0000013427735,8|8,3:1|0:1,0:0:0:0:
169,384,190587,5,8,0:1:0:0:
169,384,190662,1,8,0:1:0:0:
169,384,190737,2,0,L|252:355,1,88.000002685547,6|0,3:1|0:0,0:1:0:0:
252,185,190962,1,8,0:1:0:0:
252,185,191037,2,0,L|280:268,1,88.000002685547,0|0,1:1|0:0,0:0:0:0:
0,59,191337,1,2,3:1:0:0:
212,77,191487,1,0,3:0:0:0:
57,265,191637,2,0,P|60:222|77:181,1,88.000002685547,0|0,1:0|0:0,0:0:0:0:
310,60,191937,6,2,B|369:53|404:81|385:105|417:129|465:117,1,176.000005371094,2|0,3:1|1:0,0:1:0:0:
225,157,192387,1,0,0:0:0:0:
346,331,192537,2,0,L|265:295,1,88.000002685547,2|0,3:1|3:0,0:0:0:0:
67,374,192837,1,0,1:0:0:0:
67,374,193137,6,2,P|92:313|94:248,1,132.00000402832,0|0,3:0|0:0,0:1:0:0:
94,248,193437,2,0,P|54:264|11:273,1,88.000002685547,2|0,1:1|0:0,0:0:0:0:
142,160,193737,1,2,3:1:0:0:
316,296,193887,1,0,3:0:0:0:
245,383,194037,2,0,P|219:322|217:257,1,132.00000402832,2|0,1:1|0:0,0:0:0:0:
217,257,194337,6,0,P|220:213|239:173,1,88.000002685547,2|0,3:2|0:0,0:0:0:0:
34,29,194637,2,0,P|52:68|56:112,1,88.000002685547,2|0,1:1|0:0,0:0:0:0:
104,314,194937,1,2,3:1:0:0:
238,173,195087,1,0,3:0:0:0:
11,273,195237,1,2,1:1:0:0:
11,273,195537,6,0,B|76:280|61:222|130:230,1,132.00000402832,2|0,3:1|0:0,0:0:0:0:
129,230,195837,2,0,P|119:273|105:314,1,88.000002685547,2|0,1:1|0:0,0:0:0:0:
275,178,196137,1,2,3:1:0:0:
161,65,196287,1,0,3:0:0:0:
286,168,196437,2,0,P|328:178|370:192,1,88.000002685547,2|0,1:1|0:0,0:0:0:0:
278,373,196737,6,2,P|232:332|253:273,1,132.00000402832,2|0,3:1|0:0,0:1:0:0:
253,273,197037,2,2,P|295:283|337:297,1,88.000002685547,2|0,1:1|0:0,0:1:0:0:
444,162,197337,1,2,3:1:0:0:
290,67,197487,1,0,3:0:0:0:
512,13,197637,2,0,P|470:23|428:37,1,88.000002685547,2|0,1:1|0:0,0:0:0:0:
286,172,197937,5,2,3:2:0:0:
190,15,198087,2,0,P|170:53|167:97,1,88.000002685547,0|0,0:0|1:1,0:0:0:0:
356,305,198387,1,2,3:2:0:0:
379,169,198537,2,0,B|317:186|317:186|294:235|294:235|238:250,1,176.000005371094,0|2,0:0|3:2,0:0:0:0:
59,82,198987,2,0,P|61:38|82:0,1,88.000002685547,2|2,1:2|0:2,0:0:0:0:
167,97,199287,1,2,3:2:0:0:
0,245,199437,6,0,P|39:225|82:218,1,88.000002685547,2|0,1:1|0:0,0:0:0:0:
115,304,199662,1,8,0:1:0:0:
115,304,199737,2,0,P|154:323|197:330,1,88.000002685547,10|8,3:1|0:1,0:0:0:0:
396,256,200037,1,10,0:1:0:0:
391,234,200112,1,8,3:1:0:0:
387,212,200187,1,8,0:1:0:0:
383,191,200262,1,8,0:1:0:0:
374,162,200337,6,2,B|394:104|394:104|391:101|391:101|413:35,1,132.00000402832,6|0,3:1|0:0,0:1:0:0:
412,38,200637,2,0,P|370:50|327:60,1,88.000002685547,2|0,1:1|0:0,0:0:0:0:
153,203,200937,1,2,3:1:0:0:
281,261,201087,1,0,3:0:0:0:
151,87,201237,2,0,P|108:99|65:108,1,88.000002685547,0|0,1:0|0:0,0:0:0:0:
26,238,201462,5,8,0:1:0:0:
26,238,201537,2,0,B|113:231|113:302|188:289,1,176.000005371094,2|0,3:1|1:0,0:0:0:0:
415,58,201987,1,0,0:0:0:0:
307,36,202137,2,0,P|292:77|282:120,1,88.000002685547,2|0,3:1|3:0,0:0:0:0:
446,230,202437,2,0,P|460:188|470:145,1,88.000002685547,2|0,1:1|0:0,0:0:0:0:
282,120,202737,6,2,P|198:128|170:207,2,176.000005371094,2|2|2,3:1|1:1|3:1,0:1:0:0:
181,316,203487,1,0,3:0:0:0:
353,257,203637,2,0,L|272:222,1,88.000002685547,2|0,1:1|0:0,0:0:0:0:
182,108,203862,5,8,0:1:0:0:
181,108,203937,2,0,P|99:141|14:164,1,176.000005371094,0|2,3:0|1:1,0:0:0:0:
72,60,204387,1,0,0:0:0:0:
289,114,204537,2,0,P|306:73|309:30,1,88.000002685547,2|0,3:1|3:0,0:0:0:0:
106,171,204837,2,0,P|88:211|85:254,1,88.000002685547,2|4,1:1|0:3,0:0:0:0:
134,321,205062,5,4,0:3:0:0:
134,321,205137,2,0,B|196:331|185:272|254:280,1,132.00000402832,2|0,3:1|0:0,0:0:0:0:
253,280,205437,2,0,P|295:294|335:312,1,88.000002685547,6|0,1:1|0:0,0:0:0:0:
402,79,205737,2,0,P|360:65|320:46,1,88.000002685547,2|0,3:1|3:0,0:0:0:0:
140,240,206037,5,2,1:1:0:0:
325,179,206187,1,0,0:0:0:0:
447,346,206337,2,0,L|405:360,1,44.0000013427735,4|0,3:2|0:0,0:0:0:0:
259,106,207537,5,6,3:1:0:0:
85,67,207687,2,0,L|170:44,1,88.000002685547,0|0,0:0|1:1,0:0:0:0:
174,257,207987,1,2,0:1:0:0:
338,162,208137,2,0,L|423:184,1,88.000002685547,0|0,3:0|3:0,0:0:0:0:
131,356,208437,2,0,P|136:271|66:224,1,176.000005371094,2|0,1:0|3:0,0:0:0:0:
185,95,208887,5,0,0:1:0:0:
325,241,209037,2,0,P|316:198|337:161,1,88.000002685547,2|0,1:0|0:1,0:0:0:0:
512,330,209337,1,0,3:0:0:0:
386,380,209487,1,0,3:0:0:0:
336,253,209637,1,0,1:0:0:0:
463,203,209787,1,0,0:1:0:0:
253,349,209937,5,2,3:1:0:0:
161,232,210087,2,0,L|244:260,1,88.000002685547,0|0,0:0|1:0,0:0:0:0:
158,118,210387,1,2,0:1:0:0:
2,333,210537,2,0,L|85:304,1,88.000002685547,0|0,3:0|3:1,0:0:0:0:
281,46,210837,2,0,P|198:44|158:118,1,176.000005371094,2|0,1:0|3:1,0:0:0:0:
444,120,211287,1,0,0:0:0:0:
400,12,211437,2,0,P|362:91|336:175,1,176.000005371094,2|0,1:0|3:0,0:0:0:0:
376,326,211887,2,0,L|461:306,1,88.000002685547,0|2,3:0|1:0,0:0:0:0:
241,195,212187,5,4,0:3:0:0:
241,195,212262,1,4,0:3:0:0:
241,195,212337,1,2,3:1:0:0:
151,357,212487,2,0,P|144:314|133:271,1,88.000002685547,0|4,0:0|1:0,0:0:0:0:
298,84,212787,1,2,0:1:0:0:
50,233,212937,2,0,P|61:191|68:148,1,88.000002685547,0|0,3:1|3:1,0:0:0:0:
410,146,213237,6,0,P|325:168|240:194,1,176.000005371094,2|2,1:1|3:1,0:0:0:0:
451,289,213687,1,0,0:0:0:0:
371,345,213837,2,0,P|353:305|356:261,1,88.000002685547,2|2,1:1|0:1,0:0:0:0:
198,184,214137,1,2,3:1:0:0:
389,46,214287,1,0,3:0:0:0:
316,137,214437,2,0,B|255:154|262:94|194:109,1,132.00000402832,0|0,1:0|0:0,0:0:0:0:
193,109,214737,5,2,3:1:0:0:
84,213,214887,1,0,1:0:0:0:
183,295,215037,2,0,L|269:276,1,88.000002685547,2|4,3:1|0:3,0:0:0:0:
506,282,215337,1,4,0:3:0:0:
329,377,215487,1,2,3:1:0:0:
357,194,215637,1,0,3:0:0:0:
465,382,215787,6,2,P|476:298|412:242,1,176.000005371094,8|0,0:3|3:0,0:1:0:0:
309,131,216237,2,0,P|277:159|280:202,1,88.000002685547,6|0,1:1|0:0,0:0:0:0:
445,107,216537,1,2,3:1:0:0:
292,30,216687,1,8,0:1:0:0:
292,30,216762,1,8,0:1:0:0:
292,30,216837,2,0,L|250:45,1,44.0000013427735,8|8,0:1|0:1,0:0:0:0:
156,149,216987,5,8,0:1:0:0:
156,149,217062,1,8,0:1:0:0:
155,149,217137,2,0,P|113:152|85:120,1,88.000002685547,2|0,3:1|0:0,0:0:0:0:
205,349,217437,2,0,P|215:306|232:265,1,88.000002685547,0|0,1:0|0:0,0:0:0:0:
380,322,217737,1,0,3:0:0:0:
326,92,217887,1,0,3:0:0:0:
453,84,218037,2,0,P|442:126|425:167,1,88.000002685547,0|0,1:1|0:0,0:0:0:0:
337,201,218262,5,8,0:1:0:0:
347,201,218337,2,0,P|301:129|216:123,1,176.000005371094,0|0,3:0|1:0,0:0:0:0:
49,297,218787,1,2,0:1:0:0:
160,223,218937,1,0,3:0:0:0:
15,134,219087,1,0,3:0:0:0:
154,337,219237,2,0,L|238:313,1,88.000002685547,2|0,1:1|1:0,0:0:0:0:
311,247,219462,5,8,0:1:0:0:
305,253,219537,2,0,P|332:285|375:287,1,88.000002685547,0|0,3:1|0:0,0:0:0:0:
512,100,219837,2,0,P|469:102|441:134,1,88.000002685547,2|0,1:1|0:0,0:0:0:0:
372,384,220137,1,0,3:0:0:0:
512,293,220287,1,2,3:1:0:0:
372,193,220437,1,0,1:0:0:0:
469,384,220587,1,0,3:0:0:0:
238,313,220737,6,0,B|190:303|190:303|160:230|160:230|113:214,1,176.000005371094,0|0,3:0|1:0,0:0:0:0:
41,303,221187,1,2,0:1:0:0:
165,76,221337,2,0,L|81:103,1,88.000002685547,0|0,3:0|3:0,0:0:0:0:
224,157,221637,1,0,1:0:0:0:
345,40,221787,5,8,0:3:0:0:
345,40,221862,1,8,0:3:0:0:
345,40,221937,1,4,0:3:0:0:
410,132,222087,1,0,0:0:0:0:
224,157,222237,1,6,1:1:0:0:
422,23,222387,5,0,0:0:0:0:
289,249,222537,1,0,3:0:0:0:
434,19,222687,1,2,3:1:0:0:
414,287,222837,5,0,1:0:0:0:
224,157,222987,1,8,0:1:0:0:
224,157,223062,1,8,0:1:0:0:
224,157,223137,1,2,3:1:0:0:
421,278,223287,1,0,3:0:0:0:
196,339,223437,2,0,P|177:299|183:256,1,88.000002685547,0|2,1:0|0:1,0:0:0:0:
100,71,223737,5,0,3:0:0:0:
27,128,223887,1,0,1:0:0:0:
74,205,224037,2,0,L|143:185,1,71.9999978027344,4|4,3:3|0:3,0:0:0:0:
257,291,224337,5,8,0:3:0:0:
257,291,224637,6,0,L|244:324,1,35.9999989013672,2|0,0:3|0:0,0:0:0:0:
342,246,225237,2,0,L|329:279,1,35.9999989013672,2|0,0:3|0:0,0:0:0:0:
427,201,225837,2,0,L|414:234,1,35.9999989013672,2|0,0:3|0:0,0:0:0:0:
512,156,226437,2,0,L|499:189,1,35.9999989013672,2|0,0:3|0:0,0:0:0:0:
