osu file format v14

[General]
AudioFilename: audio.ogg
AudioLeadIn: 0
PreviewTime: 50685
Countdown: 0
SampleSet: Normal
StackLeniency: 0.7
Mode: 1
LetterboxInBreaks: 0
WidescreenStoryboard: 1

[Editor]
Bookmarks: 6000,16106,21158,26211,36316,51474,61579,74211,86842,96948,112106,122211,160106,198316,208106
DistanceSpacing: 0.8
BeatDivisor: 4
GridSize: 32
TimelineZoom: 2.3

[Metadata]
Title:Makeinu ni Encore wa Iranai
TitleUnicode:負け犬にアンコールはいらない
Artist:Yorushika
ArtistUnicode:ヨルシカ
Creator:gaston_2199
Version:KyeX's Muzukashii
Source:
Tags:ナブナ n-buna スイ suis wolf track 02 a loser doesn't does not need an encore 焦茶 kogecha bard713 pop j-pop jpop rock jrock j-rock japanese female vocal Hivie KyeX
BeatmapID:3307958
BeatmapSetID:1571788

[Difficulty]
HPDrainRate:6
CircleSize:3
OverallDifficulty:5
ApproachRate:10
SliderMultiplier:1.4
SliderTickRate:1

[Events]
//Background and Video events
0,0,"BG.jpg",0,80
//Break Periods
2,135042,147024
//Storyboard Layer 0 (Background)
//Storyboard Layer 1 (Fail)
//Storyboard Layer 2 (Pass)
//Storyboard Layer 3 (Foreground)
//Storyboard Layer 4 (Overlay)
//Storyboard Sound Samples

[TimingPoints]
-315,315.789473684211,4,1,0,60,1,0
632,-125,4,1,0,60,0,0
6000,-100,4,1,0,80,0,0
16263,-111.111111111111,4,1,0,70,0,0
25734,-108.108108108108,4,1,0,70,0,0
25813,-106.666666666667,4,1,0,70,0,0
25892,-105.263157894737,4,1,0,70,0,0
26050,-102.564102564103,4,1,0,70,0,0
26208,-100,4,1,0,70,0,0
36474,-111.111111111111,4,1,0,70,0,0
45866,-109.586662035429,4,1,0,70,0,0
45945,-108.103477813946,4,1,0,70,0,0
46024,-106.659905341447,4,1,0,70,0,0
46103,-105.254378648874,4,1,0,70,0,0
46260,-102.568270481144,4,1,0,70,0,0
46418,-83.3333333333333,4,1,0,70,0,0
50211,-100,4,1,0,80,0,0
51474,-100,4,1,0,90,0,1
74211,-83.3333333333333,4,1,0,80,0,0
85579,-125,4,1,0,60,0,0
86842,-111.111111111111,4,1,0,80,0,0
96155,-109.090909090909,4,1,0,80,0,0
96313,-107.142857142857,4,1,0,80,0,0
96471,-105.263157894737,4,1,0,80,0,0
96550,-104.347826086957,4,1,0,80,0,0
96629,-103.448275862069,4,1,0,80,0,0
96787,-101.694915254237,4,1,0,80,0,0
96945,-100,4,1,0,80,0,0
106497,-98.7654320987654,4,1,0,80,0,0
106576,-97.5609756097561,4,1,0,80,0,0
106655,-96.3855421686747,4,1,0,80,0,0
106734,-95.2380952380952,4,1,0,80,0,0
106891,-93.036949801266,4,1,0,80,0,0
107050,-83.3333333333333,4,1,0,80,0,0
111000,-85.1063829787234,4,1,0,80,0,0
111079,-86.0215053763441,4,1,0,80,0,0
111158,-86.9565217391304,4,1,0,80,0,0
111316,-88.8888888888889,4,1,0,80,0,0
111474,-90.9090909090909,4,1,0,80,0,0
111632,-93.0232558139535,4,1,0,80,0,0
111790,-95.2380952380952,4,1,0,80,0,0
111948,-97.5609756097561,4,1,0,80,0,0
112105,-100,4,1,0,80,0,0
112106,-100,4,1,0,90,0,1
134842,-100,4,1,0,80,0,0
136106,-125,4,1,0,50,0,0
147474,-125,4,1,0,60,0,0
160106,-111.111111111111,4,1,0,70,0,0
180316,-125,4,1,0,70,0,0
189158,-111.111111111111,4,1,0,80,0,0
190421,-100,4,1,0,90,0,1
195474,-100,4,1,0,80,0,0
198316,-95.2380952380952,4,1,0,90,0,1
220737,-83.3333333333333,4,1,0,80,0,0
223263,-100,4,1,0,80,0,0

[HitObjects]
160,512,6000,5,4,0:0:0:0:
160,512,6474,1,8,0:0:0:0:
160,512,6790,1,0,0:0:0:0:
160,512,6948,1,8,0:0:0:0:
160,512,7106,1,8,0:0:0:0:
160,512,7263,1,0,0:0:0:0:
192,512,7342,1,0,0:0:0:0:
192,512,7421,1,0,0:0:0:0:
192,512,7579,1,8,0:0:0:0:
198,512,7737,1,0,0:0:0:0:
192,512,8053,1,0,0:0:0:0:
192,512,8211,1,8,0:0:0:0:
256,512,8290,1,8,0:0:0:0:
192,512,8369,1,8,0:0:0:0:
192,512,8527,1,0,0:0:0:0:
256,512,8685,1,8,0:0:0:0:
256,512,8842,1,8,0:0:0:0:
256,512,9000,1,0,0:0:0:0:
256,512,9316,1,0,0:0:0:0:
256,512,9474,1,8,0:0:0:0:
256,512,9632,1,8,0:0:0:0:
256,512,9790,1,0,0:0:0:0:
270,512,9869,1,0,0:0:0:0:
256,512,9948,1,0,0:0:0:0:
256,512,10106,1,8,0:0:0:0:
256,512,10263,1,0,0:0:0:0:
256,512,10579,1,0,0:0:0:0:
256,512,10737,1,8,0:0:0:0:
256,512,10895,1,8,0:0:0:0:
160,512,11053,1,4,0:0:0:0:
160,512,11527,1,8,0:0:0:0:
160,512,11842,1,0,0:0:0:0:
160,512,12000,1,8,0:0:0:0:
160,512,12158,1,8,0:0:0:0:
160,512,12316,1,0,0:0:0:0:
192,512,12395,1,0,0:0:0:0:
192,512,12474,1,0,0:0:0:0:
192,512,12632,1,8,0:0:0:0:
198,512,12790,1,0,0:0:0:0:
192,512,13106,1,0,0:0:0:0:
192,512,13263,1,8,0:0:0:0:
256,512,13342,1,8,0:0:0:0:
192,512,13421,1,8,0:0:0:0:
192,512,13579,1,0,0:0:0:0:
256,512,13737,1,8,0:0:0:0:
256,512,13895,1,8,0:0:0:0:
256,512,14053,1,0,0:0:0:0:
256,512,14369,1,0,0:0:0:0:
256,512,14527,1,8,0:0:0:0:
256,512,14842,1,0,0:0:0:0:
256,512,15158,1,12,0:0:0:0:
256,512,15474,1,12,0:0:0:0:
160,512,16106,1,4,0:0:0:0:
256,512,16421,1,8,0:0:0:0:
279,512,16737,1,0,0:0:0:0:
256,512,16895,1,0,0:0:0:0:
256,512,17053,1,8,0:0:0:0:
256,512,17211,1,0,0:0:0:0:
256,512,17369,1,8,0:0:0:0:
279,512,17685,1,8,0:0:0:0:
279,512,17842,1,0,0:0:0:0:
256,512,18000,1,8,0:0:0:0:
256,512,18316,1,8,0:0:0:0:
256,512,18474,1,8,0:0:0:0:
256,512,18632,1,0,0:0:0:0:
256,512,18948,1,8,0:0:0:0:
256,512,19263,1,0,0:0:0:0:
256,512,19421,1,0,0:0:0:0:
256,512,19579,1,8,0:0:0:0:
279,512,19737,1,0,0:0:0:0:
279,512,19895,1,8,0:0:0:0:
256,192,20211,1,0,0:0:0:0:
279,512,20527,1,8,0:0:0:0:
279,512,21158,1,4,0:0:0:0:
256,512,21474,1,8,0:0:0:0:
279,512,21790,1,0,0:0:0:0:
256,512,21948,1,0,0:0:0:0:
256,512,22106,1,8,0:0:0:0:
256,512,22263,1,0,0:0:0:0:
256,512,22421,1,8,0:0:0:0:
279,512,22737,1,8,0:0:0:0:
275,512,22895,1,0,0:0:0:0:
256,512,23053,1,8,0:0:0:0:
256,512,23369,1,8,0:0:0:0:
256,512,23527,1,8,0:0:0:0:
256,512,23685,1,0,0:0:0:0:
256,512,24000,1,8,0:0:0:0:
256,512,24316,1,0,0:0:0:0:
256,512,24632,1,8,0:0:0:0:
279,512,24790,1,4,0:0:0:0:
279,512,25106,1,0,0:0:0:0:
279,512,25263,1,8,0:0:0:0:
279,512,25579,1,0,0:0:0:0:
279,512,25737,1,0,0:0:0:0:
279,512,25895,1,8,0:0:0:0:
279,512,26053,1,8,0:0:0:0:
160,512,26211,1,4,0:0:0:0:
160,512,26685,1,8,0:0:0:0:
160,512,27000,1,0,0:0:0:0:
160,512,27158,1,8,0:0:0:0:
160,512,27316,1,8,0:0:0:0:
160,512,27474,1,0,0:0:0:0:
192,512,27553,1,0,0:0:0:0:
192,512,27632,1,0,0:0:0:0:
192,512,27790,1,8,0:0:0:0:
198,512,27948,1,0,0:0:0:0:
192,512,28263,1,0,0:0:0:0:
192,512,28421,1,8,0:0:0:0:
256,512,28500,1,8,0:0:0:0:
192,512,28579,1,8,0:0:0:0:
192,512,28737,1,0,0:0:0:0:
256,512,28895,1,8,0:0:0:0:
256,512,29053,1,8,0:0:0:0:
256,512,29211,1,0,0:0:0:0:
256,512,29527,1,0,0:0:0:0:
256,512,29685,1,8,0:0:0:0:
256,512,29842,1,8,0:0:0:0:
256,512,30000,1,0,0:0:0:0:
270,512,30079,1,0,0:0:0:0:
256,512,30158,1,0,0:0:0:0:
256,512,30316,1,8,0:0:0:0:
256,512,30474,1,0,0:0:0:0:
256,512,30790,1,0,0:0:0:0:
256,512,30948,1,8,0:0:0:0:
256,512,31106,1,8,0:0:0:0:
160,512,31263,1,4,0:0:0:0:
160,512,31737,1,8,0:0:0:0:
160,512,32053,1,0,0:0:0:0:
160,512,32211,1,8,0:0:0:0:
160,512,32369,1,8,0:0:0:0:
160,512,32527,1,0,0:0:0:0:
192,512,32606,1,0,0:0:0:0:
192,512,32685,1,0,0:0:0:0:
192,512,32842,1,8,0:0:0:0:
198,512,33000,1,0,0:0:0:0:
192,512,33316,1,0,0:0:0:0:
192,512,33474,1,8,0:0:0:0:
256,512,33553,1,8,0:0:0:0:
192,512,33632,1,8,0:0:0:0:
192,512,33790,1,0,0:0:0:0:
256,512,33948,1,8,0:0:0:0:
256,512,34106,1,8,0:0:0:0:
256,512,34263,1,0,0:0:0:0:
256,512,34579,1,0,0:0:0:0:
256,512,34737,1,8,0:0:0:0:
256,512,35053,1,0,0:0:0:0:
256,512,35369,1,12,0:0:0:0:
256,512,35685,1,12,0:0:0:0:
160,512,36316,1,4,0:0:0:0:
256,512,36632,1,8,0:0:0:0:
279,512,36948,1,0,0:0:0:0:
256,512,37106,1,0,0:0:0:0:
256,512,37263,1,8,0:0:0:0:
256,512,37421,1,0,0:0:0:0:
256,512,37579,1,8,0:0:0:0:
279,512,37895,1,8,0:0:0:0:
279,512,38053,1,8,0:0:0:0:
256,192,38132,1,8,0:0:0:0:
256,512,38211,1,8,0:0:0:0:
256,192,38369,1,0,0:0:0:0:
256,512,38527,1,8,0:0:0:0:
256,512,38685,1,8,0:0:0:0:
256,512,38842,1,0,0:0:0:0:
256,512,39158,1,8,0:0:0:0:
256,512,39474,1,0,0:0:0:0:
256,512,39790,1,8,0:0:0:0:
279,512,39948,1,0,0:0:0:0:
256,192,40263,1,0,0:0:0:0:
279,512,40421,1,8,0:0:0:0:
279,512,40579,1,0,0:0:0:0:
279,512,40658,1,0,0:0:0:0:
279,512,40737,1,0,0:0:0:0:
279,512,40895,1,0,0:0:0:0:
279,512,41053,1,8,0:0:0:0:
279,512,41369,1,4,0:0:0:0:
256,512,41685,1,8,0:0:0:0:
279,512,42000,1,0,0:0:0:0:
256,192,42158,1,0,0:0:0:0:
256,512,42316,1,8,0:0:0:0:
256,512,42474,1,0,0:0:0:0:
256,512,42632,1,8,0:0:0:0:
279,512,42948,1,8,0:0:0:0:
275,512,43106,1,0,0:0:0:0:
256,512,43263,1,8,0:0:0:0:
256,512,43579,1,8,0:0:0:0:
256,512,43737,1,8,0:0:0:0:
256,512,43816,1,8,0:0:0:0:
256,512,43895,1,8,0:0:0:0:
275,512,44053,1,0,0:0:0:0:
256,512,44211,1,8,0:0:0:0:
275,512,44369,1,0,0:0:0:0:
275,512,44527,1,8,0:0:0:0:
256,512,44842,1,8,0:0:0:0:
279,512,45000,1,4,0:0:0:0:
279,512,45474,1,8,0:0:0:0:
279,512,45790,1,0,0:0:0:0:
279,512,45948,1,8,0:0:0:0:
279,512,46027,1,8,0:0:0:0:
279,512,46106,1,8,0:0:0:0:
279,512,46263,1,8,0:0:0:0:
279,512,46421,1,4,0:0:0:0:
279,512,46737,1,4,0:0:0:0:
279,512,46895,1,4,0:0:0:0:
279,512,47211,1,4,0:0:0:0:
279,512,47369,1,4,0:0:0:0:
279,512,47527,1,4,0:0:0:0:
279,512,47842,1,12,0:0:0:0:
279,512,48000,1,12,0:0:0:0:
279,512,48316,1,12,0:0:0:0:
279,512,48632,1,12,0:0:0:0:
279,512,48948,1,4,0:0:0:0:
279,512,49263,1,4,0:0:0:0:
279,512,49579,1,4,0:0:0:0:
279,512,49737,1,4,0:0:0:0:
279,512,50053,1,4,0:0:0:0:
279,512,51474,1,12,0:0:0:0:
157,512,51790,1,8,0:0:0:0:
157,512,51948,1,0,0:0:0:0:
157,512,52106,1,8,0:0:0:0:
157,512,52421,1,8,0:0:0:0:
157,512,52579,1,8,0:0:0:0:
157,512,52658,1,8,0:0:0:0:
157,512,52737,1,8,0:0:0:0:
170,512,52895,1,0,0:0:0:0:
164,512,53053,1,8,0:0:0:0:
177,512,53211,1,0,0:0:0:0:
191,512,53527,1,0,0:0:0:0:
197,512,53685,1,8,0:0:0:0:
203,512,53842,1,8,0:0:0:0:
209,512,54000,1,0,0:0:0:0:
279,512,54158,1,8,0:0:0:0:
279,512,54632,1,8,0:0:0:0:
279,512,54790,1,0,0:0:0:0:
279,512,54948,1,8,0:0:0:0:
256,192,55027,1,8,0:0:0:0:
279,512,55106,1,8,0:0:0:0:
279,512,55263,1,0,0:0:0:0:
279,512,55421,1,8,0:0:0:0:
279,512,55579,1,8,0:0:0:0:
279,512,55895,1,0,0:0:0:0:
279,512,56053,1,8,0:0:0:0:
256,192,56132,1,8,0:0:0:0:
279,512,56211,1,8,0:0:0:0:
279,512,56369,1,8,0:0:0:0:
256,192,56527,1,4,0:0:0:0:
256,192,56685,1,8,0:0:0:0:
273,512,57000,1,0,0:0:0:0:
273,512,57158,1,8,0:0:0:0:
273,512,57316,1,8,0:0:0:0:
273,512,57474,1,0,0:0:0:0:
273,512,57632,1,8,0:0:0:0:
256,192,57790,1,0,0:0:0:0:
273,512,58421,1,8,0:0:0:0:
273,512,58579,1,0,0:0:0:0:
273,512,58737,1,8,0:0:0:0:
273,512,58895,1,8,0:0:0:0:
273,512,58974,1,8,0:0:0:0:
273,512,59053,1,8,0:0:0:0:
273,512,59211,1,0,0:0:0:0:
273,512,59369,1,8,0:0:0:0:
277,512,59527,1,0,0:0:0:0:
273,512,59685,1,8,0:0:0:0:
273,512,60000,1,8,0:0:0:0:
273,512,60158,1,0,0:0:0:0:
280,512,60316,1,12,0:0:0:0:
280,512,60632,1,12,0:0:0:0:
280,512,60948,1,8,0:0:0:0:
280,512,61106,1,0,0:0:0:0:
280,512,61185,1,0,0:0:0:0:
280,512,61263,1,0,0:0:0:0:
280,512,61421,1,0,0:0:0:0:
280,512,61579,1,12,0:0:0:0:
157,512,61895,1,8,0:0:0:0:
256,192,62053,1,0,0:0:0:0:
157,512,62211,1,8,0:0:0:0:
157,512,62527,1,8,0:0:0:0:
157,512,62685,1,8,0:0:0:0:
157,512,62763,1,8,0:0:0:0:
157,512,62842,1,8,0:0:0:0:
164,512,63000,1,0,0:0:0:0:
170,512,63158,1,8,0:0:0:0:
184,512,63316,1,8,0:0:0:0:
195,512,63632,1,8,0:0:0:0:
200,512,63790,1,8,0:0:0:0:
203,512,63948,1,0,0:0:0:0:
279,512,64106,1,8,0:0:0:0:
209,512,64263,1,0,0:0:0:0:
279,512,64737,1,8,0:0:0:0:
279,512,64895,1,0,0:0:0:0:
279,512,65053,1,8,0:0:0:0:
279,512,65132,1,8,0:0:0:0:
279,512,65211,1,8,0:0:0:0:
279,512,65369,1,0,0:0:0:0:
279,512,65527,1,0,0:0:0:0:
279,512,65685,1,8,0:0:0:0:
279,512,66000,1,0,0:0:0:0:
279,512,66316,1,8,0:0:0:0:
279,512,66474,1,8,0:0:0:0:
279,512,66632,1,4,0:0:0:0:
273,512,66790,1,8,0:0:0:0:
273,512,67106,1,8,0:0:0:0:
273,512,67579,1,8,0:0:0:0:
273,512,67737,1,8,0:0:0:0:
273,512,67895,1,0,0:0:0:0:
273,512,68211,1,0,0:0:0:0:
128,512,68527,1,8,0:0:0:0:
128,512,68685,1,0,0:0:0:0:
128,512,68842,1,8,0:0:0:0:
279,512,69158,1,0,0:0:0:0:
279,512,69474,1,8,0:0:0:0:
256,192,69632,1,8,0:0:0:0:
279,512,69790,1,0,0:0:0:0:
279,512,69948,1,0,0:0:0:0:
273,512,70106,1,8,0:0:0:0:
279,512,70421,1,0,0:0:0:0:
279,512,70579,1,8,0:0:0:0:
279,512,70737,1,8,0:0:0:0:
273,512,71053,1,0,0:0:0:0:
279,512,71211,1,8,0:0:0:0:
256,192,71290,1,8,0:0:0:0:
279,512,71369,1,8,0:0:0:0:
279,512,71527,1,8,0:0:0:0:
279,512,71685,1,4,0:0:0:0:
268,512,72000,1,8,0:0:0:0:
263,512,72158,1,0,0:0:0:0:
260,512,72316,1,8,0:0:0:0:
246,512,72790,1,8,0:0:0:0:
250,512,72948,1,0,0:0:0:0:
256,192,73027,1,0,0:0:0:0:
256,192,73106,1,0,0:0:0:0:
261,512,73263,1,8,0:0:0:0:
258,512,73421,1,0,0:0:0:0:
252,512,73579,1,8,0:0:0:0:
266,512,73895,1,8,0:0:0:0:
267,512,74053,1,8,0:0:0:0:
266,512,74211,1,4,0:0:0:0:
266,512,74527,1,4,0:0:0:0:
266,512,74685,1,4,0:0:0:0:
266,512,75000,1,4,0:0:0:0:
266,512,75158,1,4,0:0:0:0:
266,512,75316,1,4,0:0:0:0:
266,512,75632,1,4,0:0:0:0:
266,512,75790,1,4,0:0:0:0:
266,512,76106,1,4,0:0:0:0:
266,512,76421,1,4,0:0:0:0:
266,512,76737,1,4,0:0:0:0:
266,512,77053,1,4,0:0:0:0:
266,512,77211,1,4,0:0:0:0:
266,512,77527,1,4,0:0:0:0:
266,512,77685,1,4,0:0:0:0:
266,512,77842,1,4,0:0:0:0:
266,512,78158,1,4,0:0:0:0:
266,512,78316,1,4,0:0:0:0:
266,512,78632,1,4,0:0:0:0:
266,512,79263,1,12,0:0:0:0:
266,512,79579,1,12,0:0:0:0:
266,512,79737,1,12,0:0:0:0:
266,512,80053,1,12,0:0:0:0:
256,192,80211,1,12,0:0:0:0:
266,512,80369,1,12,0:0:0:0:
266,512,80685,1,12,0:0:0:0:
266,512,80842,1,12,0:0:0:0:
266,512,81158,1,12,0:0:0:0:
266,512,81474,1,12,0:0:0:0:
266,512,81790,1,4,0:0:0:0:
266,512,82263,1,12,0:0:0:0:
266,512,82737,1,4,0:0:0:0:
266,512,83211,1,12,0:0:0:0:
266,512,83685,1,4,0:0:0:0:
266,512,84000,1,0,0:0:0:0:
266,512,84158,1,0,0:0:0:0:
266,512,84316,1,12,0:0:0:0:
160,512,86842,1,4,0:0:0:0:
256,512,87158,1,8,0:0:0:0:
279,512,87474,1,0,0:0:0:0:
256,512,87632,1,0,0:0:0:0:
256,512,87790,1,8,0:0:0:0:
256,192,87948,1,8,0:0:0:0:
256,512,88106,1,0,0:0:0:0:
256,192,88185,1,0,0:0:0:0:
256,192,88263,1,0,0:0:0:0:
279,512,88421,1,8,0:0:0:0:
279,512,88579,1,0,0:0:0:0:
256,512,88737,1,8,0:0:0:0:
256,512,89053,1,8,0:0:0:0:
256,512,89211,1,8,0:0:0:0:
256,512,89369,1,0,0:0:0:0:
256,512,89685,1,8,0:0:0:0:
256,512,89842,1,0,0:0:0:0:
256,192,90000,1,8,0:0:0:0:
256,512,90316,1,8,0:0:0:0:
256,192,90474,1,0,0:0:0:0:
256,192,90790,1,0,0:0:0:0:
279,512,90948,1,8,0:0:0:0:
279,512,91106,1,0,0:0:0:0:
279,512,91263,1,8,0:0:0:0:
279,512,91895,1,4,0:0:0:0:
256,512,92211,1,8,0:0:0:0:
279,512,92527,1,8,0:0:0:0:
256,192,92685,1,0,0:0:0:0:
256,512,92842,1,8,0:0:0:0:
256,512,93000,1,8,0:0:0:0:
256,512,93158,1,0,0:0:0:0:
279,512,93474,1,8,0:0:0:0:
275,512,93632,1,0,0:0:0:0:
256,512,93790,1,8,0:0:0:0:
256,512,94106,1,8,0:0:0:0:
256,512,94263,1,8,0:0:0:0:
256,512,94342,1,8,0:0:0:0:
256,512,94421,1,8,0:0:0:0:
275,512,94579,1,0,0:0:0:0:
256,512,94737,1,8,0:0:0:0:
275,512,94895,1,0,0:0:0:0:
275,512,95053,1,8,0:0:0:0:
256,512,95369,1,8,0:0:0:0:
279,512,95527,1,0,0:0:0:0:
256,192,95685,1,8,0:0:0:0:
279,512,96000,1,8,0:0:0:0:
256,192,96474,1,8,0:0:0:0:
256,192,96553,1,8,0:0:0:0:
256,192,96632,1,8,0:0:0:0:
279,512,96790,1,8,0:0:0:0:
279,512,96948,1,4,0:0:0:0:
256,192,97263,1,8,0:0:0:0:
279,512,97579,1,0,0:0:0:0:
256,512,97737,1,0,0:0:0:0:
256,512,97895,1,8,0:0:0:0:
256,512,98053,1,0,0:0:0:0:
256,512,98211,1,8,0:0:0:0:
279,512,98527,1,8,0:0:0:0:
279,512,98685,1,8,0:0:0:0:
256,192,98763,1,8,0:0:0:0:
256,512,98842,1,8,0:0:0:0:
256,192,99000,1,0,0:0:0:0:
256,512,99158,1,8,0:0:0:0:
256,512,99474,1,0,0:0:0:0:
256,192,99632,1,0,0:0:0:0:
256,512,99790,1,8,0:0:0:0:
256,192,99948,1,8,0:0:0:0:
256,512,100106,1,0,0:0:0:0:
256,512,100421,1,8,0:0:0:0:
279,512,100579,1,0,0:0:0:0:
256,192,100895,1,0,0:0:0:0:
279,512,101053,1,8,0:0:0:0:
279,512,101211,1,0,0:0:0:0:
279,512,101290,1,0,0:0:0:0:
279,512,101369,1,0,0:0:0:0:
279,512,101527,1,0,0:0:0:0:
279,512,101685,1,8,0:0:0:0:
279,512,102000,1,0,0:0:0:0:
256,512,102316,1,8,0:0:0:0:
279,512,102632,1,0,0:0:0:0:
256,192,102790,1,0,0:0:0:0:
256,512,102948,1,8,0:0:0:0:
256,512,103263,1,8,0:0:0:0:
256,512,103421,1,0,0:0:0:0:
256,192,103500,1,0,0:0:0:0:
279,512,103579,1,0,0:0:0:0:
275,512,103737,1,0,0:0:0:0:
256,512,103895,1,8,0:0:0:0:
256,512,104211,1,8,0:0:0:0:
256,512,104369,1,8,0:0:0:0:
256,512,104448,1,8,0:0:0:0:
256,512,104527,1,8,0:0:0:0:
275,512,104685,1,0,0:0:0:0:
256,512,104842,1,8,0:0:0:0:
275,512,105000,1,0,0:0:0:0:
275,512,105158,1,8,0:0:0:0:
256,512,105474,1,8,0:0:0:0:
279,512,105632,1,4,0:0:0:0:
279,512,106106,1,8,0:0:0:0:
279,512,106421,1,0,0:0:0:0:
279,512,106579,1,8,0:0:0:0:
279,512,106658,1,8,0:0:0:0:
279,512,106737,1,8,0:0:0:0:
279,512,106895,1,8,0:0:0:0:
279,512,107053,1,4,0:0:0:0:
279,512,107369,1,4,0:0:0:0:
279,512,107527,1,4,0:0:0:0:
279,512,107842,1,4,0:0:0:0:
279,512,108000,1,4,0:0:0:0:
279,512,108158,1,4,0:0:0:0:
279,512,108474,1,12,0:0:0:0:
279,512,108632,1,12,0:0:0:0:
279,512,108948,1,12,0:0:0:0:
279,512,109263,1,12,0:0:0:0:
279,512,109579,1,4,0:0:0:0:
279,512,109895,1,4,0:0:0:0:
279,512,110211,1,4,0:0:0:0:
279,512,110369,1,4,0:0:0:0:
279,512,110685,1,4,0:0:0:0:
279,512,110842,1,12,0:0:0:0:
128,512,111474,1,8,0:0:0:0:
128,512,111632,1,8,0:0:0:0:
128,512,111790,1,0,0:0:0:0:
128,512,111948,1,0,0:0:0:0:
279,512,112106,1,12,0:0:0:0:
157,512,112421,1,8,0:0:0:0:
157,512,112579,1,0,0:0:0:0:
157,512,112737,1,8,0:0:0:0:
157,512,113053,1,8,0:0:0:0:
157,512,113211,1,8,0:0:0:0:
157,512,113290,1,8,0:0:0:0:
157,512,113369,1,8,0:0:0:0:
170,512,113527,1,0,0:0:0:0:
164,512,113685,1,8,0:0:0:0:
177,512,113842,1,0,0:0:0:0:
191,512,114158,1,0,0:0:0:0:
197,512,114316,1,8,0:0:0:0:
203,512,114474,1,8,0:0:0:0:
209,512,114632,1,0,0:0:0:0:
279,512,114790,1,8,0:0:0:0:
279,512,115263,1,8,0:0:0:0:
279,512,115421,1,0,0:0:0:0:
279,512,115579,1,8,0:0:0:0:
256,192,115658,1,8,0:0:0:0:
279,512,115737,1,8,0:0:0:0:
279,512,115895,1,0,0:0:0:0:
279,512,116053,1,8,0:0:0:0:
279,512,116211,1,8,0:0:0:0:
279,512,116527,1,8,0:0:0:0:
279,512,116685,1,0,0:0:0:0:
256,192,116763,1,0,0:0:0:0:
279,512,116842,1,0,0:0:0:0:
279,512,117000,1,8,0:0:0:0:
256,192,117158,1,4,0:0:0:0:
256,192,117316,1,8,0:0:0:0:
256,192,117474,1,8,0:0:0:0:
273,512,117632,1,8,0:0:0:0:
273,512,117790,1,0,0:0:0:0:
273,512,117948,1,8,0:0:0:0:
273,512,118263,1,8,0:0:0:0:
256,192,118421,1,0,0:0:0:0:
273,512,119053,1,8,0:0:0:0:
273,512,119211,1,0,0:0:0:0:
273,512,119369,1,8,0:0:0:0:
273,512,119527,1,8,0:0:0:0:
273,512,119606,1,8,0:0:0:0:
273,512,119685,1,8,0:0:0:0:
273,512,119842,1,0,0:0:0:0:
273,512,120000,1,8,0:0:0:0:
277,512,120158,1,0,0:0:0:0:
273,512,120316,1,8,0:0:0:0:
273,512,120632,1,8,0:0:0:0:
273,512,120790,1,0,0:0:0:0:
280,512,120948,1,12,0:0:0:0:
280,512,121263,1,12,0:0:0:0:
280,512,121579,1,8,0:0:0:0:
280,512,121737,1,0,0:0:0:0:
280,512,121816,1,0,0:0:0:0:
280,512,121895,1,0,0:0:0:0:
280,512,122053,1,0,0:0:0:0:
280,512,122211,1,12,0:0:0:0:
157,512,122527,1,8,0:0:0:0:
256,192,122685,1,0,0:0:0:0:
157,512,122842,1,8,0:0:0:0:
157,512,123158,1,8,0:0:0:0:
157,512,123316,1,8,0:0:0:0:
157,512,123395,1,8,0:0:0:0:
157,512,123474,1,8,0:0:0:0:
164,512,123632,1,0,0:0:0:0:
170,512,123790,1,8,0:0:0:0:
184,512,123948,1,8,0:0:0:0:
195,512,124263,1,8,0:0:0:0:
200,512,124421,1,8,0:0:0:0:
203,512,124579,1,0,0:0:0:0:
279,512,124737,1,8,0:0:0:0:
209,512,124895,1,0,0:0:0:0:
279,512,125369,1,8,0:0:0:0:
279,512,125527,1,0,0:0:0:0:
279,512,125685,1,8,0:0:0:0:
279,512,125763,1,8,0:0:0:0:
279,512,125842,1,8,0:0:0:0:
279,512,126000,1,0,0:0:0:0:
279,512,126158,1,0,0:0:0:0:
279,512,126316,1,8,0:0:0:0:
279,512,126632,1,0,0:0:0:0:
256,192,126790,1,8,0:0:0:0:
256,192,126869,1,8,0:0:0:0:
279,512,126948,1,8,0:0:0:0:
279,512,127106,1,8,0:0:0:0:
279,512,127263,1,4,0:0:0:0:
256,192,127421,1,8,0:0:0:0:
273,512,127579,1,8,0:0:0:0:
273,512,127737,1,0,0:0:0:0:
256,192,127895,1,8,0:0:0:0:
273,512,128053,1,0,0:0:0:0:
256,192,128369,1,8,0:0:0:0:
273,512,128842,1,8,0:0:0:0:
256,192,129000,1,0,0:0:0:0:
128,512,129158,1,8,0:0:0:0:
128,512,129316,1,0,0:0:0:0:
256,192,129395,1,0,0:0:0:0:
128,512,129474,1,0,0:0:0:0:
128,512,129632,1,0,0:0:0:0:
279,512,129790,1,8,0:0:0:0:
279,512,130106,1,8,0:0:0:0:
279,512,130263,1,8,0:0:0:0:
279,512,130421,1,0,0:0:0:0:
279,512,130579,1,0,0:0:0:0:
273,512,130737,1,8,0:0:0:0:
279,512,131053,1,0,0:0:0:0:
279,512,131211,1,8,0:0:0:0:
279,512,131369,1,8,0:0:0:0:
273,512,131685,1,0,0:0:0:0:
279,512,131842,1,8,0:0:0:0:
256,192,131921,1,8,0:0:0:0:
279,512,132000,1,8,0:0:0:0:
279,512,132158,1,8,0:0:0:0:
279,512,132316,1,4,0:0:0:0:
268,512,132632,1,8,0:0:0:0:
263,512,132790,1,0,0:0:0:0:
260,512,133106,1,0,0:0:0:0:
252,512,133263,1,8,0:0:0:0:
246,512,133421,1,8,0:0:0:0:
250,512,133579,1,0,0:0:0:0:
256,192,133658,1,0,0:0:0:0:
256,192,133737,1,0,0:0:0:0:
261,512,133895,1,8,0:0:0:0:
252,512,134211,1,8,0:0:0:0:
258,512,134369,1,0,0:0:0:0:
266,512,134527,1,8,0:0:0:0:
267,512,134685,1,8,0:0:0:0:
266,512,134842,1,4,0:0:0:0:
128,512,147474,5,8,0:0:0:0:
128,512,147948,1,0,0:0:0:0:
128,512,148421,1,8,0:0:0:0:
128,512,149053,1,0,0:0:0:0:
128,512,149369,1,8,0:0:0:0:
128,512,150000,1,0,0:0:0:0:
128,512,150474,1,8,0:0:0:0:
128,512,150948,1,0,0:0:0:0:
128,512,151579,1,8,0:0:0:0:
128,512,151895,1,0,0:0:0:0:
128,512,152527,1,8,0:0:0:0:
128,512,153000,1,0,0:0:0:0:
128,512,153474,1,8,0:0:0:0:
128,512,154106,1,0,0:0:0:0:
128,512,154421,1,8,0:0:0:0:
128,512,155053,1,0,0:0:0:0:
128,512,155527,1,8,0:0:0:0:
128,512,156000,1,0,0:0:0:0:
147,512,156474,1,8,0:0:0:0:
128,512,156948,1,0,0:0:0:0:
128,512,157579,1,8,0:0:0:0:
128,512,158842,1,0,0:0:0:0:
128,512,159158,1,0,0:0:0:0:
128,512,159316,1,0,0:0:0:0:
128,512,159474,1,8,0:0:0:0:
128,512,160106,1,4,0:0:0:0:
128,512,161211,1,0,0:0:0:0:
128,512,161685,1,8,0:0:0:0:
128,512,162316,1,0,0:0:0:0:
128,512,162632,1,0,0:0:0:0:
128,512,163737,1,0,0:0:0:0:
128,512,164211,1,0,0:0:0:0:
128,512,164527,1,8,0:0:0:0:
128,512,165158,1,8,0:0:0:0:
128,512,166263,1,8,0:0:0:0:
128,512,166737,1,8,0:0:0:0:
128,512,167369,1,0,0:0:0:0:
128,512,167685,1,8,0:0:0:0:
128,512,168790,1,8,0:0:0:0:
128,512,169263,1,0,0:0:0:0:
128,512,169421,1,0,0:0:0:0:
128,512,169579,1,8,0:0:0:0:
256,192,169737,1,0,0:0:0:0:
128,512,169895,1,0,0:0:0:0:
128,512,170211,1,4,0:0:0:0:
128,512,171316,1,0,0:0:0:0:
128,512,171790,1,8,0:0:0:0:
128,512,172421,1,0,0:0:0:0:
128,512,172737,1,0,0:0:0:0:
128,512,173842,1,0,0:0:0:0:
128,512,174316,1,0,0:0:0:0:
128,512,174632,1,8,0:0:0:0:
128,512,175263,1,8,0:0:0:0:
176,512,176369,1,0,0:0:0:0:
197,512,176842,1,0,0:0:0:0:
128,512,177474,1,0,0:0:0:0:
128,512,177790,1,12,0:0:0:0:
239,512,180316,1,4,0:0:0:0:
226,512,180632,1,8,0:0:0:0:
226,512,181263,1,8,0:0:0:0:
226,512,181579,1,0,0:0:0:0:
226,512,181737,1,0,0:0:0:0:
226,512,181895,1,8,0:0:0:0:
226,512,182527,1,8,0:0:0:0:
226,512,182842,1,0,0:0:0:0:
226,512,183158,1,8,0:0:0:0:
226,512,183316,1,8,0:0:0:0:
226,512,183474,1,0,0:0:0:0:
226,512,183632,1,0,0:0:0:0:
226,512,183948,1,8,0:0:0:0:
226,512,184263,1,0,0:0:0:0:
226,512,184421,1,8,0:0:0:0:
226,512,184737,1,0,0:0:0:0:
226,512,185053,1,8,0:0:0:0:
226,512,185369,1,0,0:0:0:0:
226,512,185685,1,8,0:0:0:0:
226,512,185842,1,8,0:0:0:0:
226,512,186000,1,0,0:0:0:0:
226,512,186316,1,8,0:0:0:0:
226,512,186632,1,0,0:0:0:0:
226,512,186790,1,0,0:0:0:0:
226,512,186948,1,8,0:0:0:0:
226,512,187263,1,0,0:0:0:0:
226,512,187579,1,8,0:0:0:0:
226,512,187737,1,4,0:0:0:0:
226,512,189158,1,0,0:0:0:0:
226,512,189316,1,8,0:0:0:0:
288,192,189395,1,8,0:0:0:0:
226,512,189474,1,8,0:0:0:0:
226,512,189632,1,8,0:0:0:0:
226,512,189790,1,0,0:0:0:0:
226,512,189948,1,0,0:0:0:0:
226,512,190106,1,8,0:0:0:0:
280,512,190421,1,12,0:0:0:0:
157,512,190737,1,8,0:0:0:0:
157,512,190895,1,0,0:0:0:0:
157,512,191053,1,8,0:0:0:0:
157,512,191369,1,8,0:0:0:0:
157,512,191527,1,8,0:0:0:0:
157,512,191606,1,8,0:0:0:0:
157,512,191685,1,8,0:0:0:0:
164,512,191842,1,0,0:0:0:0:
170,512,192000,1,8,0:0:0:0:
177,512,192158,1,0,0:0:0:0:
191,512,192474,1,8,0:0:0:0:
197,512,192632,1,8,0:0:0:0:
203,512,192790,1,0,0:0:0:0:
209,512,192948,1,8,0:0:0:0:
231,512,193106,1,8,0:0:0:0:
279,512,193579,1,8,0:0:0:0:
279,512,193737,1,0,0:0:0:0:
279,512,193895,1,8,0:0:0:0:
279,512,193974,1,8,0:0:0:0:
279,512,194053,1,8,0:0:0:0:
279,512,194211,1,0,0:0:0:0:
279,512,194369,1,8,0:0:0:0:
279,512,194527,1,8,0:0:0:0:
279,512,194842,1,0,0:0:0:0:
279,512,195158,1,8,0:0:0:0:
279,512,195316,1,0,0:0:0:0:
279,512,195474,1,8,0:0:0:0:
279,512,195632,1,8,0:0:0:0:
273,512,195948,1,8,0:0:0:0:
273,512,196106,1,8,0:0:0:0:
273,512,196421,1,8,0:0:0:0:
273,512,196579,1,4,0:0:0:0:
273,512,196895,1,0,0:0:0:0:
273,512,197053,1,8,0:0:0:0:
276,512,197211,1,0,0:0:0:0:
273,512,197369,1,0,0:0:0:0:
273,512,197448,1,0,0:0:0:0:
273,512,197527,1,0,0:0:0:0:
273,512,197685,1,8,0:0:0:0:
279,512,197842,1,8,0:0:0:0:
157,512,198316,1,12,0:0:0:0:
157,512,198632,1,0,0:0:0:0:
157,512,198948,1,8,0:0:0:0:
256,192,199106,1,8,0:0:0:0:
256,192,199185,1,8,0:0:0:0:
157,512,199263,1,8,0:0:0:0:
164,512,199421,1,0,0:0:0:0:
170,512,199579,1,8,0:0:0:0:
177,512,199737,1,8,0:0:0:0:
191,512,200053,1,8,0:0:0:0:
200,512,200211,1,8,0:0:0:0:
192,512,200369,1,0,0:0:0:0:
209,512,200527,1,0,0:0:0:0:
279,512,200685,1,8,0:0:0:0:
279,512,201158,1,8,0:0:0:0:
279,512,201316,1,0,0:0:0:0:
279,512,201474,1,8,0:0:0:0:
279,512,201553,1,8,0:0:0:0:
279,512,201632,1,8,0:0:0:0:
279,512,201790,1,0,0:0:0:0:
279,512,201948,1,8,0:0:0:0:
279,512,202106,1,8,0:0:0:0:
279,512,202421,1,0,0:0:0:0:
279,512,202579,1,8,0:0:0:0:
256,192,202658,1,8,0:0:0:0:
279,512,202737,1,8,0:0:0:0:
279,512,202895,1,0,0:0:0:0:
256,192,203053,1,12,0:0:0:0:
279,512,203211,1,0,0:0:0:0:
128,512,203369,1,8,0:0:0:0:
256,192,203527,1,8,0:0:0:0:
273,512,203685,1,0,0:0:0:0:
273,512,203842,1,8,0:0:0:0:
273,512,204158,1,8,0:0:0:0:
256,192,204316,1,0,0:0:0:0:
273,512,204948,1,8,0:0:0:0:
273,512,205106,1,0,0:0:0:0:
273,512,205263,1,8,0:0:0:0:
256,192,205421,1,0,0:0:0:0:
256,192,205500,1,0,0:0:0:0:
256,192,205579,1,0,0:0:0:0:
273,512,205737,1,8,0:0:0:0:
273,512,205895,1,0,0:0:0:0:
273,512,206211,1,12,0:0:0:0:
273,512,206448,1,12,0:0:0:0:
273,512,206685,1,12,0:0:0:0:
280,512,207000,1,8,0:0:0:0:
280,512,207158,1,0,0:0:0:0:
280,512,207316,1,8,0:0:0:0:
280,512,207395,1,8,0:0:0:0:
280,512,207474,1,8,0:0:0:0:
280,512,207632,1,8,0:0:0:0:
280,512,207790,1,0,0:0:0:0:
280,512,208106,1,12,0:0:0:0:
157,512,208421,1,8,0:0:0:0:
157,512,208579,1,0,0:0:0:0:
157,512,208737,1,8,0:0:0:0:
157,512,209053,1,8,0:0:0:0:
157,512,209211,1,8,0:0:0:0:
224,192,209290,1,8,0:0:0:0:
157,512,209369,1,8,0:0:0:0:
164,512,209527,1,0,0:0:0:0:
170,512,209685,1,8,0:0:0:0:
177,512,209842,1,8,0:0:0:0:
191,512,210158,1,0,0:0:0:0:
197,512,210316,1,8,0:0:0:0:
203,512,210474,1,0,0:0:0:0:
209,512,210632,1,8,0:0:0:0:
279,512,210790,1,8,0:0:0:0:
279,512,211263,1,8,0:0:0:0:
279,512,211421,1,0,0:0:0:0:
279,512,211579,1,8,0:0:0:0:
279,512,211658,1,8,0:0:0:0:
279,512,211737,1,8,0:0:0:0:
279,512,211895,1,0,0:0:0:0:
279,512,212053,1,8,0:0:0:0:
279,512,212211,1,8,0:0:0:0:
279,512,212527,1,8,0:0:0:0:
279,512,212685,1,0,0:0:0:0:
256,192,212763,1,0,0:0:0:0:
279,512,212842,1,0,0:0:0:0:
279,512,213000,1,8,0:0:0:0:
279,512,213158,1,4,0:0:0:0:
256,192,213316,1,8,0:0:0:0:
273,512,213474,1,8,0:0:0:0:
273,512,213632,1,0,0:0:0:0:
256,192,213790,1,8,0:0:0:0:
256,192,214106,1,8,0:0:0:0:
256,192,214263,1,0,0:0:0:0:
256,192,214421,1,8,0:0:0:0:
273,512,214737,1,8,0:0:0:0:
256,192,215053,1,0,0:0:0:0:
128,512,215369,1,8,0:0:0:0:
279,512,215685,1,8,0:0:0:0:
279,512,215842,1,0,0:0:0:0:
279,512,216000,1,8,0:0:0:0:
279,512,216158,1,8,0:0:0:0:
279,512,216316,1,0,0:0:0:0:
279,512,216395,1,0,0:0:0:0:
279,512,216474,1,0,0:0:0:0:
273,512,216632,1,8,0:0:0:0:
279,512,216790,1,8,0:0:0:0:
279,512,216948,1,0,0:0:0:0:
279,512,217263,1,8,0:0:0:0:
273,512,217579,1,0,0:0:0:0:
279,512,217737,1,8,0:0:0:0:
279,512,217816,1,8,0:0:0:0:
279,512,217895,1,8,0:0:0:0:
279,512,218053,1,8,0:0:0:0:
279,512,218211,1,4,0:0:0:0:
268,512,218527,1,8,0:0:0:0:
263,512,218685,1,8,0:0:0:0:
260,512,218842,1,0,0:0:0:0:
252,512,219158,1,8,0:0:0:0:
256,192,219316,1,0,0:0:0:0:
256,192,219395,1,0,0:0:0:0:
241,512,219474,1,0,0:0:0:0:
263,512,219632,1,0,0:0:0:0:
261,512,219790,1,8,0:0:0:0:
252,512,220106,1,8,0:0:0:0:
263,512,220263,1,0,0:0:0:0:
266,512,220421,1,8,0:0:0:0:
267,512,220579,1,8,0:0:0:0:
266,512,220737,1,4,0:0:0:0:
266,512,221053,1,4,0:0:0:0:
266,512,221211,1,4,0:0:0:0:
266,512,221527,1,4,0:0:0:0:
266,512,221685,1,4,0:0:0:0:
266,512,221842,1,4,0:0:0:0:
266,512,222158,1,4,0:0:0:0:
266,512,222316,1,4,0:0:0:0:
266,512,222632,1,4,0:0:0:0:
266,512,222948,1,4,0:0:0:0:
160,512,223263,1,12,0:0:0:0:
160,512,223737,1,8,0:0:0:0:
160,512,224053,1,0,0:0:0:0:
160,512,224211,1,8,0:0:0:0:
160,512,224369,1,8,0:0:0:0:
160,512,224527,1,0,0:0:0:0:
192,512,224606,1,0,0:0:0:0:
192,512,224685,1,0,0:0:0:0:
192,512,224842,1,8,0:0:0:0:
198,512,225000,1,0,0:0:0:0:
192,512,225316,1,0,0:0:0:0:
192,512,225474,1,8,0:0:0:0:
256,512,225553,1,8,0:0:0:0:
192,512,225632,1,8,0:0:0:0:
192,512,225790,1,0,0:0:0:0:
256,512,225948,1,8,0:0:0:0:
256,512,226106,1,8,0:0:0:0:
256,512,226263,1,0,0:0:0:0:
256,512,226579,1,0,0:0:0:0:
256,512,226737,1,8,0:0:0:0:
256,512,226895,1,8,0:0:0:0:
256,512,227053,1,0,0:0:0:0:
270,512,227132,1,0,0:0:0:0:
256,512,227211,1,0,0:0:0:0:
256,512,227369,1,8,0:0:0:0:
256,512,227527,1,0,0:0:0:0:
256,512,227842,1,0,0:0:0:0:
256,512,228000,1,8,0:0:0:0:
256,512,228158,1,8,0:0:0:0:
160,512,228316,1,4,0:0:0:0:
256,192,228632,1,0,0:0:0:0:
256,192,228790,1,8,0:0:0:0:
256,192,228869,1,8,0:0:0:0:
192,512,228948,1,8,0:0:0:0:
160,512,229106,1,0,0:0:0:0:
160,512,229263,1,8,0:0:0:0:
160,512,229421,1,8,0:0:0:0:
256,192,229579,1,0,0:0:0:0:
256,192,230053,1,8,0:0:0:0:
160,512,230211,1,8,0:0:0:0:
256,192,230369,1,0,0:0:0:0:
128,512,230527,1,8,0:0:0:0:
128,512,230685,1,8,0:0:0:0:
128,512,230763,1,8,0:0:0:0:
192,512,230842,1,8,0:0:0:0:
256,512,231158,1,12,0:0:0:0:
224,512,231474,1,0,0:0:0:0:
256,512,231790,1,12,0:0:0:0:
256,512,232106,1,8,0:0:0:0:
256,512,232263,1,0,0:0:0:0:
256,512,232421,1,8,0:0:0:0:
256,512,232500,1,8,0:0:0:0:
256,512,232579,1,8,0:0:0:0:
256,512,232737,1,0,0:0:0:0:
279,512,233053,1,12,0:0:0:0:
