osu file format v14

[General]
AudioFilename: audio.ogg
AudioLeadIn: 0
PreviewTime: 50685
Countdown: 0
SampleSet: Normal
StackLeniency: 0.7
Mode: 1
LetterboxInBreaks: 0
WidescreenStoryboard: 0

[Editor]
Bookmarks: 6000,16106,21158,26211,36316,51474,61579,74211,86842,96948,112106,122211,160106,198316,208106
DistanceSpacing: 0.2
BeatDivisor: 4
GridSize: 32
TimelineZoom: 2.1

[Metadata]
Title:Makeinu ni Encore wa Iranai
TitleUnicode:負け犬にアンコールはいらない
Artist:Yorushika
ArtistUnicode:ヨルシカ
Creator:gaston_2199
Version:Inner Oni
Source:
Tags:ナブナ n-buna スイ suis wolf track 02 a loser doesn't does not need an encore 焦茶 kogecha bard713 pop j-pop jpop rock jrock j-rock japanese female vocal Hivie KyeX
BeatmapID:3209415
BeatmapSetID:1571788

[Difficulty]
HPDrainRate:6
CircleSize:2
OverallDifficulty:6.5
ApproachRate:10
SliderMultiplier:1.4
SliderTickRate:1

[Events]
//Background and Video events
0,0,"BG.jpg",0,80
//Break Periods
2,135042,145761
//Storyboard Layer 0 (Background)
//Storyboard Layer 1 (Fail)
//Storyboard Layer 2 (Pass)
//Storyboard Layer 3 (Foreground)
//Storyboard Layer 4 (Overlay)
//Storyboard Sound Samples

[TimingPoints]
-315,315.789473684211,4,1,0,60,1,0
632,-125,4,1,0,60,0,0
6000,-100,4,1,0,80,0,0
16263,-117.647058823529,4,1,0,70,0,0
26211,-100,4,1,0,80,0,0
36474,-105.263157894737,4,1,0,70,0,0
46421,-83.3333333333333,4,1,0,80,0,0
51474,-100,4,1,0,90,0,1
74211,-83.3333333333333,4,1,0,80,0,0
85579,-125,4,1,0,60,0,0
86842,-111.111111111111,4,1,0,80,0,0
96948,-105.263157894737,4,1,0,80,0,0
107053,-83.3333333333333,4,1,0,80,0,0
111000,-85.1063829787234,4,1,0,80,0,0
111079,-86.0215053763441,4,1,0,80,0,0
111158,-86.9565217391304,4,1,0,80,0,0
111316,-88.8888888888889,4,1,0,80,0,0
111474,-90.9090909090909,4,1,0,80,0,0
111632,-93.0232558139535,4,1,0,80,0,0
111790,-95.2380952380952,4,1,0,80,0,0
111948,-97.5609756097561,4,1,0,80,0,0
112105,-100,4,1,0,80,0,0
112106,-100,4,1,0,90,0,1
134842,-100,4,1,0,80,0,0
136106,-125,4,1,0,50,0,0
147474,-125,4,1,0,60,0,0
160106,-111.111111111111,4,1,0,70,0,0
180316,-125,4,1,0,70,0,0
189158,-111.111111111111,4,1,0,80,0,0
190421,-100,4,1,0,90,0,1
195474,-100,4,1,0,80,0,0
198316,-90.9090909090909,4,1,0,90,0,1
220737,-76.9230769230769,4,1,0,80,0,0
223263,-100,4,1,0,80,0,0

[HitObjects]
256,192,790,5,0,0:0:0:0:
256,192,948,1,0,0:0:0:0:
256,160,1106,1,0,0:0:0:0:
256,192,1421,1,8,0:0:0:0:
256,192,1579,1,8,0:0:0:0:
256,160,1737,1,8,0:0:0:0:
256,192,2053,1,0,0:0:0:0:
256,160,2211,1,8,0:0:0:0:
256,192,2369,1,0,0:0:0:0:
256,192,2685,1,8,0:0:0:0:
256,192,3000,1,8,0:0:0:0:
256,192,3158,1,8,0:0:0:0:
256,128,3316,1,8,0:0:0:0:
256,128,3474,1,0,0:0:0:0:
287,184,3632,1,0,0:0:0:0:
256,128,3948,1,8,0:0:0:0:
256,128,4106,1,8,0:0:0:0:
256,128,4263,1,8,0:0:0:0:
256,128,4579,1,0,0:0:0:0:
256,128,4895,1,0,0:0:0:0:
256,160,5053,1,0,0:0:0:0:
256,160,5211,1,0,0:0:0:0:
256,160,5290,1,0,0:0:0:0:
256,160,5369,1,8,0:0:0:0:
256,160,5685,1,8,0:0:0:0:
256,160,6000,1,4,0:0:0:0:
252,153,6158,1,0,0:0:0:0:
242,68,6237,1,0,0:0:0:0:
256,160,6316,1,8,0:0:0:0:
256,160,6474,1,8,0:0:0:0:
256,160,6553,1,8,0:0:0:0:
256,128,6632,1,0,0:0:0:0:
256,96,6711,1,0,0:0:0:0:
256,160,6790,1,8,0:0:0:0:
256,160,6948,1,8,0:0:0:0:
256,160,7106,1,0,0:0:0:0:
255,157,7185,1,0,0:0:0:0:
256,160,7263,1,8,0:0:0:0:
256,128,7421,1,0,0:0:0:0:
256,128,7579,1,8,0:0:0:0:
256,128,7658,1,0,0:0:0:0:
254,122,7737,1,8,0:0:0:0:
256,128,7816,1,8,0:0:0:0:
256,128,7895,1,0,0:0:0:0:
256,128,8053,1,0,0:0:0:0:
256,128,8211,1,8,0:0:0:0:
256,64,8290,1,0,0:0:0:0:
256,128,8369,1,8,0:0:0:0:
256,128,8527,1,0,0:0:0:0:
224,64,8685,1,0,0:0:0:0:
224,64,8763,1,0,0:0:0:0:
224,64,8842,1,8,0:0:0:0:
224,64,9000,1,8,0:0:0:0:
256,96,9079,1,8,0:0:0:0:
256,96,9158,1,0,0:0:0:0:
224,64,9237,1,8,0:0:0:0:
224,64,9316,1,0,0:0:0:0:
256,128,9395,1,0,0:0:0:0:
224,64,9474,1,8,0:0:0:0:
256,64,9632,1,0,0:0:0:0:
256,64,9790,1,8,0:0:0:0:
284,50,9869,1,8,0:0:0:0:
256,64,9948,1,0,0:0:0:0:
256,64,10027,1,0,0:0:0:0:
256,64,10106,1,8,0:0:0:0:
256,64,10263,1,8,0:0:0:0:
256,64,10342,1,8,0:0:0:0:
256,64,10421,1,0,0:0:0:0:
256,64,10579,1,0,0:0:0:0:
256,64,10737,1,8,0:0:0:0:
230,41,10816,1,0,0:0:0:0:
256,64,10895,1,8,0:0:0:0:
256,160,11053,1,4,0:0:0:0:
252,153,11211,1,0,0:0:0:0:
242,68,11290,1,0,0:0:0:0:
230,41,11369,1,8,0:0:0:0:
256,160,11527,1,8,0:0:0:0:
256,160,11606,1,8,0:0:0:0:
256,128,11685,1,0,0:0:0:0:
256,96,11763,1,0,0:0:0:0:
256,160,11842,1,8,0:0:0:0:
256,160,12000,1,8,0:0:0:0:
256,160,12158,1,0,0:0:0:0:
255,157,12237,1,0,0:0:0:0:
256,160,12316,1,8,0:0:0:0:
256,128,12474,1,0,0:0:0:0:
256,128,12632,1,8,0:0:0:0:
256,128,12711,1,0,0:0:0:0:
254,122,12790,1,8,0:0:0:0:
256,128,12869,1,8,0:0:0:0:
256,128,12948,1,0,0:0:0:0:
256,128,13106,1,0,0:0:0:0:
256,128,13263,1,8,0:0:0:0:
256,64,13342,1,0,0:0:0:0:
256,128,13421,1,8,0:0:0:0:
256,128,13579,1,0,0:0:0:0:
224,64,13737,1,0,0:0:0:0:
224,64,13816,1,0,0:0:0:0:
224,64,13895,1,8,0:0:0:0:
224,64,14053,1,8,0:0:0:0:
256,96,14132,1,8,0:0:0:0:
256,96,14211,1,0,0:0:0:0:
224,64,14369,1,0,0:0:0:0:
224,64,14527,1,8,0:0:0:0:
256,64,14842,1,0,0:0:0:0:
256,64,15000,1,0,0:0:0:0:
256,64,15158,1,12,0:0:0:0:
256,64,15316,1,0,0:0:0:0:
256,64,15474,1,12,0:0:0:0:
230,41,15632,1,8,0:0:0:0:
230,41,15711,1,8,0:0:0:0:
230,41,15790,1,0,0:0:0:0:
256,64,15948,1,8,0:0:0:0:
256,160,16106,1,4,0:0:0:0:
256,64,16421,1,8,0:0:0:0:
256,64,16658,1,8,0:0:0:0:
230,41,16737,1,0,0:0:0:0:
256,64,16895,1,0,0:0:0:0:
256,64,17053,1,8,0:0:0:0:
256,64,17211,1,0,0:0:0:0:
255,66,17290,1,0,0:0:0:0:
256,64,17369,1,8,0:0:0:0:
230,41,17685,1,8,0:0:0:0:
230,41,17842,1,0,0:0:0:0:
231,42,17921,1,0,0:0:0:0:
256,64,18000,1,8,0:0:0:0:
256,64,18158,1,0,0:0:0:0:
256,64,18316,1,8,0:0:0:0:
256,64,18474,1,8,0:0:0:0:
256,64,18553,1,8,0:0:0:0:
256,64,18632,1,0,0:0:0:0:
256,64,18948,1,8,0:0:0:0:
256,64,19185,1,0,0:0:0:0:
256,64,19263,1,0,0:0:0:0:
256,64,19421,1,0,0:0:0:0:
256,64,19579,1,8,0:0:0:0:
230,41,19737,1,0,0:0:0:0:
230,41,19816,1,0,0:0:0:0:
230,41,19895,1,8,0:0:0:0:
230,41,20053,1,0,0:0:0:0:
230,41,20211,1,8,0:0:0:0:
230,41,20369,1,0,0:0:0:0:
230,41,20448,1,8,0:0:0:0:
230,41,20527,1,0,0:0:0:0:
230,41,20685,1,0,0:0:0:0:
230,41,20842,1,8,0:0:0:0:
230,41,21158,1,4,0:0:0:0:
256,64,21474,1,8,0:0:0:0:
256,64,21711,1,8,0:0:0:0:
230,41,21790,1,0,0:0:0:0:
256,64,21948,1,0,0:0:0:0:
256,64,22106,1,8,0:0:0:0:
256,64,22263,1,8,0:0:0:0:
256,64,22342,1,0,0:0:0:0:
256,64,22421,1,8,0:0:0:0:
230,41,22737,1,8,0:0:0:0:
235,45,22895,1,0,0:0:0:0:
236,46,22974,1,8,0:0:0:0:
256,64,23053,1,0,0:0:0:0:
256,64,23211,1,0,0:0:0:0:
256,64,23369,1,8,0:0:0:0:
256,64,23527,1,8,0:0:0:0:
256,64,23606,1,8,0:0:0:0:
256,64,23685,1,0,0:0:0:0:
256,64,24000,1,8,0:0:0:0:
256,64,24237,1,0,0:0:0:0:
256,64,24316,1,0,0:0:0:0:
256,64,24474,1,0,0:0:0:0:
256,64,24632,1,8,0:0:0:0:
230,41,24790,1,4,0:0:0:0:
230,41,25106,1,0,0:0:0:0:
230,41,25263,1,8,0:0:0:0:
230,41,25421,1,8,0:0:0:0:
230,41,25579,1,0,0:0:0:0:
230,41,25737,1,0,0:0:0:0:
230,41,25816,1,0,0:0:0:0:
230,41,25895,1,8,0:0:0:0:
230,41,26053,1,8,0:0:0:0:
256,160,26211,1,4,0:0:0:0:
252,153,26369,1,0,0:0:0:0:
242,68,26448,1,0,0:0:0:0:
256,160,26527,1,8,0:0:0:0:
256,160,26685,1,8,0:0:0:0:
256,160,26763,1,8,0:0:0:0:
256,128,26842,1,0,0:0:0:0:
256,96,26921,1,0,0:0:0:0:
256,160,27000,1,8,0:0:0:0:
256,160,27158,1,8,0:0:0:0:
256,160,27316,1,0,0:0:0:0:
255,157,27395,1,0,0:0:0:0:
256,160,27474,1,8,0:0:0:0:
256,128,27632,1,0,0:0:0:0:
256,128,27790,1,8,0:0:0:0:
256,128,27869,1,0,0:0:0:0:
254,122,27948,1,8,0:0:0:0:
256,128,28027,1,8,0:0:0:0:
256,128,28106,1,0,0:0:0:0:
256,128,28263,1,0,0:0:0:0:
256,128,28421,1,8,0:0:0:0:
256,64,28500,1,0,0:0:0:0:
256,128,28579,1,8,0:0:0:0:
256,128,28737,1,0,0:0:0:0:
224,64,28895,1,0,0:0:0:0:
224,64,28974,1,0,0:0:0:0:
224,64,29053,1,8,0:0:0:0:
224,64,29211,1,8,0:0:0:0:
256,96,29290,1,8,0:0:0:0:
256,96,29369,1,0,0:0:0:0:
224,64,29448,1,8,0:0:0:0:
224,64,29527,1,0,0:0:0:0:
224,64,29606,1,0,0:0:0:0:
224,64,29685,1,8,0:0:0:0:
256,64,29842,1,0,0:0:0:0:
256,64,30000,1,8,0:0:0:0:
284,50,30079,1,8,0:0:0:0:
256,64,30158,1,0,0:0:0:0:
256,64,30237,1,0,0:0:0:0:
256,64,30316,1,8,0:0:0:0:
256,64,30474,1,8,0:0:0:0:
256,64,30553,1,8,0:0:0:0:
256,64,30632,1,0,0:0:0:0:
256,64,30790,1,0,0:0:0:0:
256,64,30948,1,8,0:0:0:0:
230,41,31027,1,0,0:0:0:0:
256,64,31106,1,8,0:0:0:0:
256,160,31263,1,4,0:0:0:0:
252,153,31421,1,0,0:0:0:0:
242,68,31500,1,0,0:0:0:0:
256,160,31579,1,8,0:0:0:0:
256,160,31737,1,8,0:0:0:0:
256,160,31816,1,8,0:0:0:0:
256,128,31895,1,0,0:0:0:0:
256,96,31974,1,0,0:0:0:0:
256,160,32053,1,8,0:0:0:0:
256,160,32211,1,8,0:0:0:0:
256,160,32369,1,0,0:0:0:0:
255,157,32448,1,0,0:0:0:0:
256,160,32527,1,8,0:0:0:0:
256,128,32685,1,0,0:0:0:0:
256,128,32842,1,8,0:0:0:0:
256,128,32921,1,0,0:0:0:0:
254,122,33000,1,8,0:0:0:0:
256,128,33079,1,8,0:0:0:0:
256,128,33158,1,0,0:0:0:0:
256,128,33316,1,0,0:0:0:0:
256,128,33474,1,8,0:0:0:0:
256,64,33553,1,0,0:0:0:0:
256,128,33632,1,8,0:0:0:0:
256,128,33790,1,0,0:0:0:0:
224,64,33948,1,0,0:0:0:0:
224,64,34027,1,0,0:0:0:0:
224,64,34106,1,8,0:0:0:0:
224,64,34263,1,8,0:0:0:0:
256,96,34342,1,8,0:0:0:0:
256,96,34421,1,0,0:0:0:0:
224,64,34579,1,0,0:0:0:0:
224,64,34737,1,8,0:0:0:0:
256,64,35053,1,0,0:0:0:0:
256,64,35211,1,0,0:0:0:0:
256,64,35369,1,12,0:0:0:0:
256,64,35527,1,0,0:0:0:0:
256,64,35685,1,12,0:0:0:0:
230,41,35842,1,8,0:0:0:0:
230,41,35921,1,8,0:0:0:0:
230,41,36000,1,0,0:0:0:0:
256,64,36158,1,8,0:0:0:0:
256,160,36316,1,4,0:0:0:0:
256,64,36632,1,8,0:0:0:0:
230,41,36790,1,0,0:0:0:0:
256,64,36869,1,8,0:0:0:0:
230,41,36948,1,0,0:0:0:0:
256,64,37106,1,0,0:0:0:0:
256,64,37263,1,8,0:0:0:0:
256,64,37421,1,0,0:0:0:0:
255,66,37500,1,0,0:0:0:0:
256,64,37579,1,8,0:0:0:0:
230,41,37658,1,8,0:0:0:0:
230,41,37737,1,0,0:0:0:0:
230,41,37895,1,8,0:0:0:0:
230,41,38053,1,0,0:0:0:0:
231,42,38132,1,0,0:0:0:0:
256,64,38211,1,8,0:0:0:0:
256,64,38369,1,0,0:0:0:0:
256,64,38527,1,8,0:0:0:0:
256,64,38685,1,8,0:0:0:0:
256,64,38763,1,8,0:0:0:0:
256,64,38842,1,0,0:0:0:0:
230,41,39000,1,0,0:0:0:0:
256,64,39158,1,8,0:0:0:0:
256,64,39395,1,0,0:0:0:0:
256,64,39474,1,0,0:0:0:0:
256,64,39632,1,0,0:0:0:0:
256,64,39790,1,8,0:0:0:0:
230,41,39948,1,8,0:0:0:0:
230,41,40027,1,8,0:0:0:0:
230,41,40106,1,0,0:0:0:0:
230,41,40263,1,0,0:0:0:0:
230,41,40421,1,8,0:0:0:0:
230,41,40579,1,0,0:0:0:0:
230,41,40658,1,8,0:0:0:0:
230,41,40737,1,0,0:0:0:0:
256,64,40816,1,8,0:0:0:0:
230,41,40895,1,0,0:0:0:0:
230,41,41053,1,8,0:0:0:0:
230,41,41369,1,4,0:0:0:0:
256,64,41685,1,8,0:0:0:0:
230,41,41842,1,0,0:0:0:0:
256,64,41921,1,8,0:0:0:0:
230,41,42000,1,0,0:0:0:0:
256,64,42158,1,0,0:0:0:0:
256,64,42316,1,8,0:0:0:0:
256,64,42474,1,8,0:0:0:0:
256,64,42553,1,0,0:0:0:0:
256,64,42632,1,8,0:0:0:0:
230,41,42790,1,0,0:0:0:0:
230,41,42948,1,8,0:0:0:0:
235,45,43106,1,0,0:0:0:0:
236,46,43185,1,8,0:0:0:0:
256,64,43263,1,0,0:0:0:0:
256,64,43421,1,0,0:0:0:0:
256,64,43579,1,8,0:0:0:0:
256,64,43737,1,0,0:0:0:0:
256,64,43816,1,0,0:0:0:0:
256,64,43895,1,8,0:0:0:0:
235,45,44053,1,0,0:0:0:0:
256,64,44211,1,8,0:0:0:0:
235,45,44369,1,8,0:0:0:0:
235,45,44448,1,0,0:0:0:0:
235,45,44527,1,8,0:0:0:0:
238,46,44606,1,8,0:0:0:0:
256,64,44685,1,0,0:0:0:0:
256,64,44842,1,8,0:0:0:0:
230,41,45000,1,4,0:0:0:0:
230,41,45316,1,0,0:0:0:0:
230,41,45474,1,8,0:0:0:0:
230,41,45632,1,0,0:0:0:0:
230,41,45790,1,8,0:0:0:0:
230,41,45869,1,0,0:0:0:0:
230,41,45948,1,0,0:0:0:0:
230,41,46027,1,0,0:0:0:0:
230,41,46106,1,8,0:0:0:0:
230,41,46263,1,8,0:0:0:0:
230,41,46421,1,4,0:0:0:0:
233,41,46737,1,12,0:0:0:0:
233,41,46895,1,4,0:0:0:0:
233,41,47211,1,12,0:0:0:0:
233,41,47369,1,4,0:0:0:0:
233,41,47527,1,4,0:0:0:0:
233,41,47842,1,12,0:0:0:0:
233,41,48000,1,12,0:0:0:0:
233,41,48316,1,4,0:0:0:0:
233,41,48632,1,4,0:0:0:0:
233,41,48948,1,12,0:0:0:0:
233,41,49263,1,4,0:0:0:0:
233,41,49579,1,12,0:0:0:0:
233,41,49737,1,4,0:0:0:0:
233,41,50053,1,12,0:0:0:0:
233,41,51474,1,12,0:0:0:0:
233,41,51711,1,0,0:0:0:0:
268,163,51790,5,8,0:0:0:0:
268,163,51948,1,0,0:0:0:0:
268,163,52027,1,0,0:0:0:0:
268,163,52106,1,8,0:0:0:0:
268,163,52263,1,0,0:0:0:0:
268,163,52421,1,8,0:0:0:0:
268,163,52500,1,0,0:0:0:0:
268,163,52579,1,8,0:0:0:0:
268,163,52658,1,8,0:0:0:0:
268,163,52737,1,0,0:0:0:0:
267,156,52895,1,8,0:0:0:0:
265,150,53053,1,0,0:0:0:0:
264,147,53132,1,0,0:0:0:0:
263,143,53211,1,8,0:0:0:0:
261,136,53369,1,0,0:0:0:0:
260,129,53527,1,8,0:0:0:0:
258,125,53606,1,0,0:0:0:0:
259,123,53685,1,8,0:0:0:0:
259,120,53763,1,0,0:0:0:0:
254,116,53842,1,8,0:0:0:0:
252,116,53921,1,8,0:0:0:0:
256,111,54000,1,0,0:0:0:0:
233,41,54158,1,8,0:0:0:0:
256,97,54316,1,8,0:0:0:0:
256,93,54395,1,0,0:0:0:0:
256,89,54474,1,8,0:0:0:0:
233,41,54632,1,0,0:0:0:0:
233,41,54711,1,0,0:0:0:0:
233,41,54790,1,8,0:0:0:0:
233,41,54948,1,8,0:0:0:0:
233,41,55027,1,0,0:0:0:0:
233,41,55106,1,8,0:0:0:0:
233,41,55263,1,0,0:0:0:0:
233,41,55421,1,8,0:0:0:0:
233,41,55500,1,0,0:0:0:0:
233,41,55579,1,8,0:0:0:0:
233,41,55658,1,8,0:0:0:0:
233,41,55737,1,0,0:0:0:0:
233,41,55895,1,8,0:0:0:0:
233,41,56053,1,0,0:0:0:0:
233,41,56211,1,8,0:0:0:0:
233,41,56290,1,0,0:0:0:0:
233,41,56369,1,8,0:0:0:0:
233,41,56527,1,4,0:0:0:0:
233,41,56685,1,0,0:0:0:0:
236,47,56763,1,0,0:0:0:0:
236,47,56842,1,8,0:0:0:0:
236,47,57000,1,0,0:0:0:0:
236,47,57158,1,8,0:0:0:0:
233,41,57237,1,0,0:0:0:0:
236,47,57316,1,8,0:0:0:0:
236,47,57395,1,0,0:0:0:0:
236,47,57474,1,8,0:0:0:0:
236,47,57632,1,8,0:0:0:0:
232,45,57711,1,8,0:0:0:0:
236,47,57790,1,0,0:0:0:0:
236,47,57948,1,8,0:0:0:0:
236,47,58106,1,0,0:0:0:0:
236,47,58185,1,0,0:0:0:0:
236,47,58263,1,8,0:0:0:0:
236,47,58421,1,8,0:0:0:0:
232,43,58500,1,0,0:0:0:0:
236,47,58579,1,8,0:0:0:0:
236,47,58658,1,8,0:0:0:0:
236,47,58737,1,0,0:0:0:0:
237,48,58816,1,0,0:0:0:0:
236,47,58895,1,8,0:0:0:0:
236,47,59053,1,0,0:0:0:0:
236,47,59211,1,8,0:0:0:0:
236,47,59290,1,8,0:0:0:0:
236,47,59369,1,0,0:0:0:0:
232,43,59527,1,8,0:0:0:0:
236,47,59685,1,8,0:0:0:0:
236,47,59763,1,8,0:0:0:0:
236,47,59842,1,0,0:0:0:0:
236,47,59921,1,0,0:0:0:0:
236,47,60000,1,8,0:0:0:0:
236,47,60158,1,0,0:0:0:0:
236,40,60316,1,12,0:0:0:0:
239,45,60474,1,0,0:0:0:0:
236,40,60632,1,12,0:0:0:0:
236,40,60948,1,8,0:0:0:0:
236,40,61027,1,0,0:0:0:0:
236,40,61106,1,0,0:0:0:0:
236,40,61263,1,8,0:0:0:0:
236,40,61342,1,8,0:0:0:0:
236,40,61421,1,0,0:0:0:0:
236,40,61500,1,0,0:0:0:0:
236,40,61579,1,12,0:0:0:0:
236,40,61816,1,0,0:0:0:0:
236,40,61895,1,8,0:0:0:0:
236,40,62053,1,0,0:0:0:0:
236,40,62132,1,8,0:0:0:0:
236,40,62211,1,0,0:0:0:0:
236,40,62369,1,0,0:0:0:0:
236,40,62527,1,8,0:0:0:0:
236,40,62606,1,0,0:0:0:0:
236,40,62685,1,8,0:0:0:0:
236,40,62763,1,8,0:0:0:0:
236,40,62842,1,0,0:0:0:0:
267,156,63000,1,8,0:0:0:0:
265,150,63158,1,0,0:0:0:0:
264,147,63237,1,0,0:0:0:0:
263,143,63316,1,8,0:0:0:0:
261,136,63474,1,0,0:0:0:0:
260,129,63632,1,8,0:0:0:0:
258,125,63711,1,0,0:0:0:0:
259,123,63790,1,8,0:0:0:0:
259,120,63869,1,8,0:0:0:0:
254,116,63948,1,0,0:0:0:0:
252,116,64027,1,0,0:0:0:0:
256,111,64106,1,8,0:0:0:0:
233,41,64263,1,0,0:0:0:0:
256,97,64421,1,8,0:0:0:0:
256,93,64500,1,0,0:0:0:0:
256,89,64579,1,8,0:0:0:0:
233,41,64737,1,0,0:0:0:0:
233,41,64816,1,0,0:0:0:0:
233,41,64895,1,8,0:0:0:0:
233,41,65053,1,8,0:0:0:0:
233,41,65132,1,0,0:0:0:0:
233,41,65211,1,8,0:0:0:0:
233,41,65369,1,0,0:0:0:0:
233,41,65527,1,8,0:0:0:0:
233,41,65685,1,0,0:0:0:0:
233,41,65763,1,8,0:0:0:0:
233,41,65842,1,0,0:0:0:0:
233,41,65921,1,0,0:0:0:0:
233,41,66000,1,8,0:0:0:0:
233,41,66158,1,0,0:0:0:0:
233,41,66316,1,8,0:0:0:0:
233,41,66395,1,0,0:0:0:0:
233,41,66474,1,8,0:0:0:0:
233,41,66632,1,4,0:0:0:0:
233,41,66790,1,0,0:0:0:0:
236,47,66869,1,0,0:0:0:0:
236,47,66948,1,8,0:0:0:0:
236,47,67106,1,0,0:0:0:0:
236,44,67185,1,8,0:0:0:0:
236,47,67263,1,0,0:0:0:0:
236,47,67421,1,0,0:0:0:0:
236,47,67579,1,8,0:0:0:0:
236,47,67658,1,0,0:0:0:0:
236,47,67737,1,8,0:0:0:0:
233,41,67816,1,8,0:0:0:0:
236,47,67895,1,0,0:0:0:0:
236,47,68053,1,0,0:0:0:0:
236,47,68132,1,0,0:0:0:0:
236,47,68211,1,8,0:0:0:0:
234,44,68369,1,0,0:0:0:0:
236,47,68527,1,8,0:0:0:0:
233,41,68606,1,8,0:0:0:0:
236,47,68685,1,0,0:0:0:0:
236,47,68763,1,0,0:0:0:0:
236,47,68842,1,8,0:0:0:0:
236,47,68921,1,0,0:0:0:0:
233,41,69000,1,0,0:0:0:0:
233,41,69158,1,8,0:0:0:0:
233,41,69316,1,0,0:0:0:0:
233,41,69395,1,0,0:0:0:0:
233,41,69474,1,8,0:0:0:0:
233,41,69632,1,0,0:0:0:0:
233,41,69790,1,8,0:0:0:0:
233,41,69869,1,0,0:0:0:0:
233,41,69948,1,8,0:0:0:0:
236,47,70106,1,8,0:0:0:0:
233,41,70185,1,8,0:0:0:0:
233,41,70263,1,0,0:0:0:0:
233,41,70421,1,8,0:0:0:0:
233,41,70579,1,0,0:0:0:0:
233,41,70658,1,0,0:0:0:0:
233,41,70737,1,8,0:0:0:0:
233,41,70895,1,0,0:0:0:0:
236,47,71053,1,8,0:0:0:0:
236,47,71132,1,0,0:0:0:0:
233,41,71211,1,8,0:0:0:0:
233,41,71290,1,8,0:0:0:0:
233,41,71369,1,0,0:0:0:0:
233,41,71527,1,8,0:0:0:0:
233,41,71685,1,4,0:0:0:0:
234,46,71842,1,0,0:0:0:0:
235,50,71921,1,0,0:0:0:0:
235,52,72000,1,8,0:0:0:0:
236,57,72158,1,8,0:0:0:0:
236,59,72237,1,0,0:0:0:0:
236,60,72316,1,8,0:0:0:0:
236,64,72474,1,0,0:0:0:0:
236,68,72632,1,8,0:0:0:0:
237,74,72790,1,8,0:0:0:0:
236,70,72869,1,0,0:0:0:0:
238,79,72948,1,8,0:0:0:0:
235,52,73027,1,8,0:0:0:0:
236,57,73106,1,0,0:0:0:0:
236,57,73185,1,0,0:0:0:0:
236,59,73263,1,8,0:0:0:0:
236,62,73421,1,0,0:0:0:0:
236,68,73579,1,8,0:0:0:0:
236,68,73658,1,8,0:0:0:0:
236,57,73737,1,0,0:0:0:0:
241,53,73895,1,8,0:0:0:0:
247,53,74053,1,0,0:0:0:0:
241,53,74211,1,4,0:0:0:0:
241,53,74527,1,12,0:0:0:0:
241,53,74685,1,4,0:0:0:0:
241,53,75000,1,12,0:0:0:0:
241,53,75158,1,4,0:0:0:0:
241,53,75316,1,4,0:0:0:0:
241,53,75632,1,4,0:0:0:0:
241,53,75790,1,4,0:0:0:0:
241,53,76106,1,12,0:0:0:0:
241,53,76421,1,4,0:0:0:0:
241,53,76737,1,4,0:0:0:0:
241,53,77053,1,12,0:0:0:0:
241,53,77211,1,4,0:0:0:0:
241,53,77527,1,12,0:0:0:0:
241,53,77685,1,4,0:0:0:0:
241,53,77842,1,4,0:0:0:0:
241,53,78158,1,4,0:0:0:0:
241,53,78316,1,4,0:0:0:0:
241,53,78632,1,12,0:0:0:0:
241,53,78948,1,4,0:0:0:0:
241,53,79263,1,12,0:0:0:0:
241,53,79579,1,4,0:0:0:0:
241,53,79737,1,12,0:0:0:0:
241,53,80053,1,12,0:0:0:0:
241,53,80211,1,4,0:0:0:0:
241,53,80369,1,12,0:0:0:0:
241,53,80685,1,12,0:0:0:0:
241,53,80842,1,12,0:0:0:0:
241,53,81158,1,12,0:0:0:0:
241,53,81474,1,4,0:0:0:0:
241,53,81790,1,12,0:0:0:0:
241,53,82106,1,8,0:0:0:0:
241,53,82263,1,4,0:0:0:0:
241,53,82579,1,0,0:0:0:0:
241,53,82737,1,12,0:0:0:0:
241,53,83053,1,8,0:0:0:0:
241,53,83211,1,4,0:0:0:0:
241,53,83527,1,0,0:0:0:0:
241,53,83685,1,12,0:0:0:0:
241,53,84000,1,8,0:0:0:0:
241,53,84079,1,8,0:0:0:0:
241,53,84158,1,8,0:0:0:0:
241,53,84237,1,8,0:0:0:0:
241,53,84316,1,4,0:0:0:0:
279,91,85579,1,8,0:0:0:0:
283,95,85737,1,8,0:0:0:0:
168,95,86211,1,8,0:0:0:0:
293,105,86369,1,8,0:0:0:0:
256,160,86842,1,4,0:0:0:0:
256,64,87158,1,8,0:0:0:0:
293,105,87316,1,0,0:0:0:0:
256,64,87395,1,8,0:0:0:0:
230,41,87474,1,0,0:0:0:0:
256,64,87632,1,0,0:0:0:0:
256,64,87790,1,8,0:0:0:0:
256,64,87948,1,0,0:0:0:0:
255,66,88027,1,0,0:0:0:0:
256,64,88106,1,8,0:0:0:0:
293,105,88263,1,0,0:0:0:0:
230,41,88421,1,8,0:0:0:0:
230,41,88579,1,0,0:0:0:0:
231,42,88658,1,0,0:0:0:0:
256,64,88737,1,8,0:0:0:0:
293,105,88816,1,8,0:0:0:0:
256,64,88895,1,0,0:0:0:0:
256,64,89053,1,8,0:0:0:0:
256,64,89211,1,8,0:0:0:0:
256,64,89290,1,8,0:0:0:0:
256,64,89369,1,0,0:0:0:0:
256,64,89685,1,8,0:0:0:0:
293,105,89842,1,0,0:0:0:0:
256,64,89921,1,8,0:0:0:0:
256,64,90000,1,0,0:0:0:0:
256,64,90158,1,0,0:0:0:0:
256,64,90316,1,8,0:0:0:0:
230,41,90474,1,0,0:0:0:0:
230,41,90553,1,0,0:0:0:0:
230,41,90632,1,8,0:0:0:0:
230,41,90790,1,0,0:0:0:0:
230,41,90948,1,8,0:0:0:0:
230,41,91106,1,0,0:0:0:0:
230,41,91185,1,8,0:0:0:0:
230,41,91263,1,8,0:0:0:0:
230,41,91421,1,0,0:0:0:0:
230,41,91579,1,8,0:0:0:0:
230,41,91895,1,4,0:0:0:0:
256,64,92211,1,8,0:0:0:0:
257,69,92369,1,0,0:0:0:0:
256,64,92448,1,8,0:0:0:0:
230,41,92527,1,0,0:0:0:0:
256,64,92685,1,0,0:0:0:0:
256,64,92842,1,8,0:0:0:0:
256,64,93000,1,8,0:0:0:0:
256,64,93079,1,0,0:0:0:0:
256,64,93158,1,8,0:0:0:0:
259,69,93237,1,8,0:0:0:0:
257,70,93316,1,0,0:0:0:0:
230,41,93474,1,8,0:0:0:0:
235,45,93632,1,0,0:0:0:0:
236,46,93711,1,8,0:0:0:0:
256,64,93790,1,0,0:0:0:0:
256,64,93948,1,0,0:0:0:0:
256,64,94106,1,8,0:0:0:0:
256,64,94263,1,8,0:0:0:0:
256,64,94342,1,8,0:0:0:0:
256,64,94421,1,0,0:0:0:0:
257,70,94579,1,0,0:0:0:0:
256,64,94737,1,8,0:0:0:0:
257,68,94895,1,0,0:0:0:0:
256,64,94974,1,8,0:0:0:0:
256,64,95053,1,0,0:0:0:0:
253,67,95132,1,8,0:0:0:0:
256,64,95211,1,0,0:0:0:0:
256,64,95369,1,8,0:0:0:0:
230,41,95527,1,0,0:0:0:0:
230,41,95606,1,0,0:0:0:0:
256,64,95685,1,8,0:0:0:0:
230,41,95842,1,0,0:0:0:0:
230,41,96000,1,8,0:0:0:0:
230,41,96158,1,0,0:0:0:0:
230,41,96316,1,8,0:0:0:0:
230,41,96395,1,8,0:0:0:0:
230,41,96474,1,0,0:0:0:0:
230,41,96553,1,0,0:0:0:0:
230,41,96632,1,8,0:0:0:0:
230,41,96790,1,8,0:0:0:0:
256,160,96948,1,4,0:0:0:0:
256,64,97263,1,8,0:0:0:0:
230,41,97421,1,0,0:0:0:0:
256,64,97500,1,8,0:0:0:0:
230,41,97579,1,0,0:0:0:0:
256,64,97737,1,0,0:0:0:0:
256,64,97895,1,8,0:0:0:0:
256,64,98053,1,0,0:0:0:0:
255,66,98132,1,0,0:0:0:0:
256,64,98211,1,8,0:0:0:0:
230,41,98290,1,8,0:0:0:0:
230,41,98369,1,0,0:0:0:0:
230,41,98527,1,8,0:0:0:0:
230,41,98685,1,0,0:0:0:0:
231,42,98763,1,0,0:0:0:0:
256,64,98842,1,8,0:0:0:0:
256,64,99000,1,0,0:0:0:0:
256,64,99158,1,8,0:0:0:0:
256,64,99316,1,8,0:0:0:0:
256,64,99395,1,8,0:0:0:0:
256,64,99474,1,0,0:0:0:0:
230,41,99632,1,0,0:0:0:0:
256,64,99711,1,0,0:0:0:0:
256,64,99790,1,8,0:0:0:0:
256,64,99948,1,0,0:0:0:0:
256,64,100106,1,8,0:0:0:0:
256,64,100185,1,8,0:0:0:0:
256,64,100263,1,0,0:0:0:0:
230,41,100342,1,0,0:0:0:0:
256,64,100421,1,8,0:0:0:0:
230,41,100579,1,8,0:0:0:0:
230,41,100658,1,8,0:0:0:0:
230,41,100737,1,0,0:0:0:0:
230,41,100895,1,0,0:0:0:0:
230,41,101053,1,8,0:0:0:0:
230,41,101211,1,0,0:0:0:0:
230,41,101290,1,8,0:0:0:0:
230,41,101369,1,8,0:0:0:0:
256,64,101448,1,8,0:0:0:0:
230,41,101527,1,0,0:0:0:0:
230,41,101685,1,8,0:0:0:0:
230,41,102000,1,0,0:0:0:0:
230,41,102079,1,0,0:0:0:0:
230,41,102158,1,0,0:0:0:0:
256,64,102316,1,8,0:0:0:0:
230,41,102395,1,0,0:0:0:0:
230,41,102474,1,0,0:0:0:0:
230,41,102632,1,0,0:0:0:0:
230,41,102711,1,8,0:0:0:0:
256,64,102790,1,0,0:0:0:0:
256,64,102948,1,8,0:0:0:0:
256,64,103027,1,0,0:0:0:0:
256,64,103106,1,8,0:0:0:0:
256,64,103263,1,8,0:0:0:0:
230,41,103342,1,8,0:0:0:0:
230,41,103421,1,0,0:0:0:0:
230,41,103500,1,0,0:0:0:0:
230,41,103579,1,8,0:0:0:0:
230,41,103658,1,0,0:0:0:0:
235,45,103737,1,8,0:0:0:0:
236,46,103816,1,8,0:0:0:0:
256,64,103895,1,0,0:0:0:0:
230,41,103974,1,8,0:0:0:0:
256,64,104053,1,0,0:0:0:0:
230,41,104132,1,0,0:0:0:0:
256,64,104211,1,8,0:0:0:0:
230,41,104290,1,0,0:0:0:0:
256,64,104369,1,0,0:0:0:0:
255,65,104448,1,0,0:0:0:0:
256,64,104527,1,8,0:0:0:0:
235,45,104685,1,0,0:0:0:0:
235,45,104763,1,0,0:0:0:0:
256,64,104842,1,8,0:0:0:0:
256,64,104921,1,0,0:0:0:0:
235,45,105000,1,8,0:0:0:0:
235,45,105079,1,8,0:0:0:0:
235,45,105158,1,0,0:0:0:0:
235,46,105237,1,8,0:0:0:0:
256,64,105316,1,0,0:0:0:0:
235,45,105395,1,0,0:0:0:0:
256,64,105474,1,8,0:0:0:0:
230,41,105632,1,4,0:0:0:0:
230,41,105948,1,0,0:0:0:0:
230,41,106106,1,8,0:0:0:0:
230,41,106263,1,0,0:0:0:0:
230,41,106421,1,8,0:0:0:0:
230,41,106500,1,0,0:0:0:0:
230,41,106579,1,0,0:0:0:0:
230,41,106658,1,0,0:0:0:0:
230,41,106737,1,8,0:0:0:0:
230,41,106895,1,8,0:0:0:0:
230,41,107053,1,4,0:0:0:0:
233,41,107369,1,12,0:0:0:0:
233,41,107527,1,4,0:0:0:0:
233,41,107842,1,12,0:0:0:0:
233,41,108000,1,4,0:0:0:0:
233,41,108158,1,4,0:0:0:0:
233,41,108474,1,12,0:0:0:0:
233,41,108632,1,12,0:0:0:0:
233,41,108948,1,4,0:0:0:0:
233,41,109263,1,4,0:0:0:0:
233,41,109579,1,12,0:0:0:0:
233,41,109895,1,4,0:0:0:0:
233,41,110211,1,12,0:0:0:0:
233,41,110369,1,4,0:0:0:0:
233,41,110685,1,12,0:0:0:0:
233,41,110842,1,4,0:0:0:0:
233,41,111000,1,8,0:0:0:0:
233,41,111079,1,8,0:0:0:0:
233,41,111158,1,0,0:0:0:0:
233,41,111316,1,8,0:0:0:0:
233,41,111474,1,0,0:0:0:0:
233,41,111632,1,8,0:0:0:0:
233,41,111790,1,8,0:0:0:0:
233,41,111948,1,0,0:0:0:0:
233,41,112106,1,12,0:0:0:0:
233,41,112342,1,0,0:0:0:0:
268,163,112421,5,8,0:0:0:0:
268,163,112579,1,0,0:0:0:0:
268,163,112658,1,0,0:0:0:0:
268,163,112737,1,8,0:0:0:0:
268,163,112895,1,0,0:0:0:0:
268,163,113053,1,8,0:0:0:0:
268,163,113132,1,0,0:0:0:0:
268,163,113211,1,8,0:0:0:0:
268,163,113290,1,8,0:0:0:0:
268,163,113369,1,0,0:0:0:0:
267,156,113527,1,8,0:0:0:0:
265,150,113685,1,0,0:0:0:0:
264,147,113763,1,0,0:0:0:0:
263,143,113842,1,8,0:0:0:0:
261,136,114000,1,0,0:0:0:0:
260,129,114158,1,8,0:0:0:0:
258,125,114237,1,0,0:0:0:0:
259,123,114316,1,8,0:0:0:0:
259,120,114395,1,8,0:0:0:0:
254,116,114474,1,0,0:0:0:0:
252,116,114553,1,0,0:0:0:0:
256,111,114632,1,8,0:0:0:0:
233,41,114790,1,0,0:0:0:0:
256,97,114948,1,8,0:0:0:0:
256,93,115027,1,0,0:0:0:0:
256,89,115106,1,8,0:0:0:0:
233,41,115263,1,0,0:0:0:0:
233,41,115342,1,0,0:0:0:0:
233,41,115421,1,8,0:0:0:0:
233,41,115579,1,8,0:0:0:0:
233,41,115658,1,0,0:0:0:0:
233,41,115737,1,8,0:0:0:0:
233,41,115895,1,0,0:0:0:0:
233,41,116053,1,8,0:0:0:0:
233,41,116132,1,0,0:0:0:0:
233,41,116211,1,8,0:0:0:0:
233,41,116290,1,8,0:0:0:0:
233,41,116369,1,0,0:0:0:0:
233,41,116527,1,8,0:0:0:0:
233,41,116685,1,0,0:0:0:0:
233,41,116842,1,8,0:0:0:0:
233,41,116921,1,0,0:0:0:0:
233,41,117000,1,8,0:0:0:0:
233,41,117158,1,4,0:0:0:0:
233,41,117316,1,0,0:0:0:0:
236,47,117395,1,0,0:0:0:0:
236,47,117474,1,8,0:0:0:0:
236,47,117632,1,0,0:0:0:0:
236,47,117790,1,8,0:0:0:0:
233,41,117869,1,0,0:0:0:0:
236,47,117948,1,8,0:0:0:0:
236,47,118027,1,8,0:0:0:0:
236,47,118106,1,0,0:0:0:0:
236,47,118263,1,8,0:0:0:0:
238,47,118342,1,8,0:0:0:0:
236,47,118421,1,0,0:0:0:0:
236,47,118579,1,8,0:0:0:0:
236,47,118737,1,0,0:0:0:0:
236,47,118816,1,0,0:0:0:0:
236,47,118895,1,8,0:0:0:0:
236,47,119053,1,8,0:0:0:0:
232,43,119132,1,0,0:0:0:0:
236,47,119211,1,8,0:0:0:0:
236,47,119290,1,8,0:0:0:0:
236,47,119369,1,0,0:0:0:0:
236,48,119448,1,0,0:0:0:0:
236,47,119527,1,8,0:0:0:0:
236,47,119685,1,0,0:0:0:0:
236,47,119842,1,8,0:0:0:0:
236,47,119921,1,0,0:0:0:0:
236,47,120000,1,8,0:0:0:0:
232,43,120158,1,0,0:0:0:0:
236,47,120316,1,8,0:0:0:0:
236,47,120395,1,8,0:0:0:0:
236,47,120474,1,0,0:0:0:0:
236,47,120553,1,0,0:0:0:0:
236,47,120632,1,8,0:0:0:0:
236,47,120790,1,0,0:0:0:0:
236,40,120948,1,12,0:0:0:0:
242,40,121106,1,0,0:0:0:0:
236,40,121263,1,12,0:0:0:0:
236,40,121579,1,8,0:0:0:0:
236,40,121658,1,0,0:0:0:0:
236,40,121737,1,0,0:0:0:0:
236,40,121895,1,8,0:0:0:0:
236,40,121974,1,8,0:0:0:0:
236,40,122053,1,0,0:0:0:0:
236,40,122132,1,0,0:0:0:0:
236,40,122211,1,12,0:0:0:0:
236,40,122448,1,0,0:0:0:0:
236,40,122527,1,8,0:0:0:0:
236,40,122685,1,0,0:0:0:0:
236,40,122763,1,8,0:0:0:0:
236,40,122842,1,0,0:0:0:0:
236,40,123000,1,0,0:0:0:0:
236,40,123158,1,8,0:0:0:0:
236,40,123237,1,0,0:0:0:0:
236,40,123316,1,8,0:0:0:0:
236,40,123395,1,8,0:0:0:0:
236,40,123474,1,0,0:0:0:0:
267,156,123632,1,8,0:0:0:0:
265,150,123790,1,0,0:0:0:0:
264,147,123869,1,0,0:0:0:0:
263,143,123948,1,8,0:0:0:0:
261,136,124106,1,0,0:0:0:0:
260,129,124263,1,8,0:0:0:0:
258,125,124342,1,0,0:0:0:0:
259,123,124421,1,8,0:0:0:0:
259,120,124500,1,0,0:0:0:0:
254,116,124579,1,8,0:0:0:0:
252,116,124658,1,8,0:0:0:0:
256,111,124737,1,0,0:0:0:0:
233,41,124895,1,0,0:0:0:0:
256,97,125053,1,8,0:0:0:0:
256,93,125132,1,0,0:0:0:0:
256,89,125211,1,8,0:0:0:0:
233,41,125369,1,0,0:0:0:0:
233,41,125448,1,0,0:0:0:0:
233,41,125527,1,8,0:0:0:0:
233,41,125685,1,8,0:0:0:0:
233,41,125763,1,0,0:0:0:0:
233,41,125842,1,8,0:0:0:0:
233,41,126000,1,0,0:0:0:0:
233,41,126158,1,8,0:0:0:0:
233,41,126316,1,0,0:0:0:0:
233,41,126395,1,8,0:0:0:0:
233,41,126474,1,0,0:0:0:0:
233,41,126553,1,0,0:0:0:0:
233,41,126632,1,8,0:0:0:0:
233,41,126790,1,0,0:0:0:0:
233,41,126948,1,8,0:0:0:0:
233,41,127027,1,0,0:0:0:0:
233,41,127106,1,8,0:0:0:0:
233,41,127263,1,4,0:0:0:0:
233,41,127421,1,0,0:0:0:0:
236,47,127500,1,0,0:0:0:0:
236,47,127579,1,8,0:0:0:0:
236,47,127737,1,0,0:0:0:0:
233,41,127816,1,8,0:0:0:0:
236,47,127895,1,0,0:0:0:0:
236,47,128053,1,0,0:0:0:0:
236,47,128211,1,8,0:0:0:0:
237,49,128290,1,0,0:0:0:0:
236,47,128369,1,8,0:0:0:0:
233,41,128448,1,0,0:0:0:0:
236,47,128527,1,8,0:0:0:0:
236,47,128685,1,0,0:0:0:0:
238,47,128763,1,0,0:0:0:0:
236,47,128842,1,8,0:0:0:0:
234,44,129000,1,0,0:0:0:0:
236,47,129158,1,8,0:0:0:0:
233,41,129237,1,8,0:0:0:0:
236,47,129316,1,0,0:0:0:0:
236,47,129395,1,0,0:0:0:0:
236,47,129474,1,8,0:0:0:0:
236,47,129553,1,0,0:0:0:0:
233,41,129632,1,0,0:0:0:0:
233,41,129790,1,8,0:0:0:0:
233,41,129948,1,0,0:0:0:0:
233,41,130027,1,0,0:0:0:0:
233,41,130106,1,8,0:0:0:0:
233,41,130263,1,0,0:0:0:0:
233,41,130421,1,8,0:0:0:0:
233,41,130500,1,0,0:0:0:0:
233,41,130579,1,8,0:0:0:0:
236,47,130737,1,8,0:0:0:0:
233,41,130816,1,8,0:0:0:0:
233,41,130895,1,0,0:0:0:0:
233,41,131053,1,8,0:0:0:0:
233,41,131211,1,0,0:0:0:0:
233,41,131290,1,0,0:0:0:0:
233,41,131369,1,8,0:0:0:0:
233,41,131527,1,0,0:0:0:0:
236,47,131685,1,8,0:0:0:0:
236,47,131763,1,0,0:0:0:0:
233,41,131842,1,8,0:0:0:0:
233,41,131921,1,8,0:0:0:0:
233,41,132000,1,0,0:0:0:0:
233,41,132158,1,8,0:0:0:0:
233,41,132316,1,4,0:0:0:0:
234,46,132474,1,0,0:0:0:0:
235,50,132553,1,0,0:0:0:0:
235,52,132632,1,8,0:0:0:0:
236,57,132790,1,8,0:0:0:0:
236,59,132869,1,0,0:0:0:0:
236,60,132948,1,8,0:0:0:0:
236,64,133106,1,0,0:0:0:0:
236,68,133263,1,8,0:0:0:0:
237,74,133421,1,0,0:0:0:0:
236,70,133500,1,0,0:0:0:0:
238,79,133579,1,8,0:0:0:0:
235,52,133658,1,0,0:0:0:0:
236,57,133737,1,8,0:0:0:0:
236,57,133816,1,0,0:0:0:0:
236,59,133895,1,8,0:0:0:0:
236,62,134053,1,0,0:0:0:0:
236,68,134211,1,8,0:0:0:0:
236,68,134290,1,0,0:0:0:0:
236,57,134369,1,0,0:0:0:0:
241,53,134527,1,8,0:0:0:0:
244,55,134685,1,0,0:0:0:0:
240,59,134842,1,4,0:0:0:0:
253,192,146211,5,8,0:0:0:0:
253,192,146527,1,0,0:0:0:0:
253,192,146606,1,0,0:0:0:0:
253,192,146685,1,0,0:0:0:0:
253,192,146763,1,0,0:0:0:0:
253,192,146842,1,8,0:0:0:0:
253,192,147474,1,8,0:0:0:0:
253,192,147948,1,0,0:0:0:0:
253,192,148421,1,8,0:0:0:0:
253,192,149053,1,0,0:0:0:0:
253,192,149369,1,8,0:0:0:0:
253,192,150000,1,0,0:0:0:0:
253,192,150474,1,8,0:0:0:0:
253,192,150948,1,0,0:0:0:0:
253,192,151579,1,8,0:0:0:0:
253,192,151895,1,0,0:0:0:0:
253,192,152527,1,8,0:0:0:0:
253,192,153000,1,0,0:0:0:0:
253,192,153474,1,8,0:0:0:0:
253,192,154106,1,0,0:0:0:0:
253,192,154421,1,8,0:0:0:0:
253,192,155053,1,0,0:0:0:0:
253,192,155527,1,8,0:0:0:0:
253,192,156000,1,0,0:0:0:0:
258,173,156474,1,8,0:0:0:0:
253,192,156948,1,0,0:0:0:0:
253,192,157579,1,8,0:0:0:0:
253,192,158842,1,0,0:0:0:0:
253,192,159158,1,0,0:0:0:0:
253,192,159237,1,0,0:0:0:0:
253,192,159316,1,0,0:0:0:0:
253,192,159395,1,0,0:0:0:0:
253,192,159474,1,8,0:0:0:0:
253,192,160106,1,4,0:0:0:0:
253,192,161211,1,0,0:0:0:0:
253,192,161685,1,8,0:0:0:0:
253,192,162316,1,0,0:0:0:0:
253,192,162632,1,0,0:0:0:0:
253,192,163737,1,0,0:0:0:0:
253,192,164211,1,0,0:0:0:0:
253,192,164527,1,8,0:0:0:0:
253,192,164685,1,0,0:0:0:0:
253,192,165158,1,8,0:0:0:0:
253,192,166263,1,8,0:0:0:0:
253,192,166737,1,8,0:0:0:0:
253,192,167369,1,0,0:0:0:0:
253,192,167685,1,8,0:0:0:0:
253,192,168790,1,8,0:0:0:0:
253,192,169263,1,0,0:0:0:0:
253,192,169421,1,0,0:0:0:0:
253,192,169579,1,8,0:0:0:0:
253,192,169737,1,0,0:0:0:0:
253,192,169895,1,0,0:0:0:0:
253,192,170053,1,0,0:0:0:0:
253,192,170211,1,4,0:0:0:0:
253,192,171316,1,0,0:0:0:0:
253,192,171790,1,8,0:0:0:0:
253,192,172421,1,0,0:0:0:0:
253,192,172737,1,0,0:0:0:0:
253,192,173842,1,0,0:0:0:0:
253,192,174316,1,0,0:0:0:0:
253,192,174632,1,8,0:0:0:0:
253,192,174790,1,0,0:0:0:0:
253,192,175263,1,8,0:0:0:0:
242,144,176369,1,0,0:0:0:0:
246,123,176842,1,0,0:0:0:0:
253,192,177474,1,0,0:0:0:0:
253,192,177790,1,12,0:0:0:0:
245,81,180316,1,4,0:0:0:0:
246,94,180632,1,8,0:0:0:0:
246,94,181263,1,8,0:0:0:0:
246,94,181579,1,0,0:0:0:0:
246,94,181737,1,0,0:0:0:0:
246,94,181895,1,8,0:0:0:0:
246,94,182527,1,8,0:0:0:0:
246,94,182842,1,0,0:0:0:0:
246,94,183158,1,8,0:0:0:0:
246,94,183316,1,8,0:0:0:0:
246,94,183474,1,0,0:0:0:0:
246,94,183632,1,8,0:0:0:0:
246,94,183948,1,8,0:0:0:0:
246,94,184106,1,0,0:0:0:0:
246,94,184263,1,0,0:0:0:0:
246,94,184421,1,8,0:0:0:0:
245,88,184579,1,8,0:0:0:0:
246,94,184737,1,0,0:0:0:0:
246,94,185053,1,8,0:0:0:0:
246,94,185369,1,0,0:0:0:0:
246,94,185685,1,8,0:0:0:0:
246,94,185842,1,8,0:0:0:0:
246,94,186000,1,8,0:0:0:0:
244,88,186158,1,0,0:0:0:0:
246,94,186316,1,8,0:0:0:0:
246,94,186632,1,0,0:0:0:0:
246,94,186790,1,0,0:0:0:0:
246,94,186948,1,8,0:0:0:0:
246,94,187263,1,0,0:0:0:0:
246,94,187421,1,0,0:0:0:0:
246,94,187579,1,8,0:0:0:0:
246,94,187737,1,4,0:0:0:0:
246,94,189158,1,0,0:0:0:0:
246,94,189316,1,8,0:0:0:0:
246,94,189395,1,8,0:0:0:0:
246,94,189474,1,8,0:0:0:0:
246,94,189632,1,8,0:0:0:0:
246,94,189790,1,0,0:0:0:0:
246,94,189948,1,0,0:0:0:0:
246,94,190027,1,0,0:0:0:0:
246,94,190106,1,8,0:0:0:0:
246,94,190263,1,0,0:0:0:0:
236,40,190421,1,12,0:0:0:0:
236,40,190658,1,0,0:0:0:0:
236,40,190737,1,8,0:0:0:0:
236,40,190895,1,0,0:0:0:0:
236,40,190974,1,8,0:0:0:0:
236,40,191053,1,0,0:0:0:0:
236,40,191211,1,0,0:0:0:0:
236,40,191369,1,8,0:0:0:0:
236,40,191448,1,0,0:0:0:0:
236,40,191527,1,8,0:0:0:0:
236,40,191606,1,8,0:0:0:0:
236,40,191685,1,0,0:0:0:0:
267,156,191842,1,8,0:0:0:0:
265,150,192000,1,0,0:0:0:0:
264,147,192079,1,0,0:0:0:0:
263,143,192158,1,8,0:0:0:0:
261,136,192316,1,0,0:0:0:0:
260,129,192474,1,8,0:0:0:0:
258,125,192553,1,0,0:0:0:0:
259,123,192632,1,8,0:0:0:0:
259,120,192711,1,8,0:0:0:0:
254,116,192790,1,0,0:0:0:0:
252,116,192869,1,0,0:0:0:0:
256,111,192948,1,8,0:0:0:0:
233,41,193106,1,0,0:0:0:0:
256,97,193263,1,8,0:0:0:0:
256,93,193342,1,0,0:0:0:0:
256,89,193421,1,8,0:0:0:0:
233,41,193579,1,0,0:0:0:0:
233,41,193658,1,0,0:0:0:0:
233,41,193737,1,8,0:0:0:0:
233,41,193895,1,8,0:0:0:0:
233,41,193974,1,0,0:0:0:0:
233,41,194053,1,8,0:0:0:0:
233,41,194211,1,0,0:0:0:0:
233,41,194369,1,8,0:0:0:0:
230,38,194448,1,0,0:0:0:0:
233,41,194527,1,8,0:0:0:0:
233,41,194606,1,0,0:0:0:0:
233,41,194685,1,8,0:0:0:0:
233,41,194842,1,8,0:0:0:0:
235,41,194921,1,8,0:0:0:0:
233,41,195000,1,0,0:0:0:0:
233,41,195158,1,8,0:0:0:0:
233,41,195316,1,0,0:0:0:0:
233,41,195474,1,8,0:0:0:0:
233,41,195632,1,8,0:0:0:0:
231,34,195790,1,0,0:0:0:0:
236,47,195948,1,8,0:0:0:0:
236,47,196106,1,8,0:0:0:0:
234,41,196263,1,0,0:0:0:0:
236,47,196421,1,8,0:0:0:0:
236,47,196579,1,4,0:0:0:0:
236,47,196895,1,0,0:0:0:0:
236,47,197053,1,8,0:0:0:0:
236,47,197132,1,0,0:0:0:0:
234,44,197211,1,0,0:0:0:0:
236,47,197369,1,8,0:0:0:0:
233,41,197448,1,0,0:0:0:0:
236,47,197527,1,0,0:0:0:0:
236,47,197606,1,0,0:0:0:0:
236,47,197685,1,8,0:0:0:0:
236,47,197763,1,0,0:0:0:0:
233,41,197842,1,8,0:0:0:0:
233,41,197921,1,8,0:0:0:0:
268,163,198316,5,12,0:0:0:0:
268,163,198474,1,0,0:0:0:0:
268,163,198553,1,0,0:0:0:0:
268,163,198632,1,8,0:0:0:0:
268,163,198790,1,0,0:0:0:0:
266,166,198869,1,0,0:0:0:0:
268,163,198948,1,8,0:0:0:0:
268,163,199027,1,0,0:0:0:0:
268,163,199106,1,8,0:0:0:0:
268,163,199185,1,8,0:0:0:0:
268,163,199263,1,0,0:0:0:0:
267,156,199421,1,8,0:0:0:0:
266,153,199500,1,8,0:0:0:0:
265,150,199579,1,0,0:0:0:0:
264,147,199658,1,0,0:0:0:0:
263,143,199737,1,8,0:0:0:0:
261,136,199895,1,0,0:0:0:0:
260,129,200053,1,8,0:0:0:0:
258,125,200132,1,0,0:0:0:0:
259,123,200211,1,8,0:0:0:0:
259,120,200290,1,0,0:0:0:0:
254,116,200369,1,8,0:0:0:0:
252,116,200448,1,8,0:0:0:0:
256,111,200527,1,0,0:0:0:0:
233,41,200685,1,8,0:0:0:0:
256,97,200842,1,8,0:0:0:0:
256,93,200921,1,0,0:0:0:0:
256,89,201000,1,8,0:0:0:0:
233,41,201158,1,0,0:0:0:0:
233,41,201237,1,0,0:0:0:0:
233,41,201316,1,8,0:0:0:0:
233,41,201474,1,8,0:0:0:0:
233,41,201553,1,0,0:0:0:0:
233,41,201632,1,8,0:0:0:0:
233,41,201790,1,0,0:0:0:0:
233,41,201948,1,8,0:0:0:0:
233,41,202027,1,0,0:0:0:0:
233,41,202106,1,8,0:0:0:0:
233,41,202185,1,8,0:0:0:0:
233,41,202263,1,0,0:0:0:0:
233,41,202342,1,0,0:0:0:0:
233,41,202421,1,8,0:0:0:0:
233,41,202579,1,0,0:0:0:0:
233,41,202737,1,8,0:0:0:0:
233,41,202816,1,0,0:0:0:0:
233,41,202895,1,8,0:0:0:0:
233,41,203053,1,4,0:0:0:0:
233,41,203211,1,0,0:0:0:0:
236,47,203290,1,0,0:0:0:0:
236,47,203369,1,8,0:0:0:0:
236,47,203527,1,8,0:0:0:0:
237,45,203606,1,0,0:0:0:0:
236,47,203685,1,8,0:0:0:0:
236,47,203842,1,8,0:0:0:0:
236,47,203921,1,8,0:0:0:0:
236,47,204000,1,0,0:0:0:0:
236,47,204079,1,0,0:0:0:0:
236,47,204158,1,8,0:0:0:0:
233,41,204237,1,0,0:0:0:0:
236,47,204316,1,0,0:0:0:0:
236,47,204474,1,8,0:0:0:0:
236,47,204632,1,0,0:0:0:0:
236,47,204711,1,0,0:0:0:0:
236,47,204790,1,8,0:0:0:0:
236,47,204948,1,8,0:0:0:0:
232,43,205027,1,0,0:0:0:0:
236,47,205106,1,8,0:0:0:0:
236,47,205185,1,8,0:0:0:0:
236,47,205263,1,0,0:0:0:0:
240,45,205342,1,0,0:0:0:0:
236,47,205421,1,8,0:0:0:0:
236,47,205579,1,4,0:0:0:0:
236,47,205737,1,8,0:0:0:0:
236,47,205895,1,0,0:0:0:0:
236,47,205974,1,0,0:0:0:0:
232,43,206053,1,0,0:0:0:0:
236,47,206211,1,12,0:0:0:0:
236,47,206448,1,12,0:0:0:0:
236,47,206685,1,12,0:0:0:0:
236,40,206842,1,0,0:0:0:0:
236,40,206921,1,0,0:0:0:0:
236,40,207000,1,8,0:0:0:0:
236,40,207158,1,0,0:0:0:0:
236,40,207237,1,0,0:0:0:0:
236,40,207316,1,8,0:0:0:0:
236,40,207395,1,0,0:0:0:0:
236,40,207474,1,8,0:0:0:0:
236,40,207553,1,8,0:0:0:0:
236,40,207632,1,0,0:0:0:0:
236,40,207711,1,8,0:0:0:0:
236,40,207790,1,0,0:0:0:0:
236,40,207869,1,0,0:0:0:0:
236,40,207948,1,0,0:0:0:0:
236,40,208027,1,0,0:0:0:0:
236,40,208106,1,12,0:0:0:0:
236,40,208342,1,0,0:0:0:0:
236,40,208421,1,8,0:0:0:0:
236,40,208579,1,0,0:0:0:0:
236,40,208658,1,8,0:0:0:0:
236,40,208737,1,8,0:0:0:0:
236,40,208895,1,0,0:0:0:0:
237,41,208974,1,0,0:0:0:0:
236,40,209053,1,8,0:0:0:0:
236,40,209132,1,0,0:0:0:0:
236,40,209211,1,8,0:0:0:0:
236,40,209290,1,8,0:0:0:0:
236,40,209369,1,0,0:0:0:0:
267,156,209527,1,8,0:0:0:0:
266,153,209606,1,0,0:0:0:0:
265,150,209685,1,0,0:0:0:0:
264,147,209763,1,0,0:0:0:0:
263,143,209842,1,8,0:0:0:0:
261,136,210000,1,0,0:0:0:0:
260,129,210158,1,8,0:0:0:0:
258,125,210237,1,0,0:0:0:0:
259,123,210316,1,8,0:0:0:0:
259,120,210395,1,8,0:0:0:0:
254,116,210474,1,0,0:0:0:0:
252,116,210553,1,0,0:0:0:0:
256,111,210632,1,8,0:0:0:0:
233,41,210790,1,0,0:0:0:0:
256,97,210948,1,8,0:0:0:0:
256,93,211027,1,0,0:0:0:0:
256,89,211106,1,8,0:0:0:0:
233,41,211263,1,0,0:0:0:0:
233,41,211342,1,0,0:0:0:0:
233,41,211421,1,8,0:0:0:0:
233,41,211579,1,8,0:0:0:0:
233,41,211658,1,0,0:0:0:0:
233,41,211737,1,8,0:0:0:0:
233,41,211895,1,0,0:0:0:0:
233,41,212053,1,8,0:0:0:0:
233,41,212132,1,0,0:0:0:0:
233,41,212211,1,0,0:0:0:0:
233,41,212290,1,8,0:0:0:0:
233,41,212369,1,0,0:0:0:0:
233,41,212448,1,0,0:0:0:0:
233,41,212527,1,8,0:0:0:0:
233,41,212685,1,0,0:0:0:0:
233,41,212842,1,8,0:0:0:0:
233,41,212921,1,0,0:0:0:0:
233,41,213000,1,8,0:0:0:0:
233,41,213158,1,4,0:0:0:0:
233,41,213316,1,0,0:0:0:0:
236,47,213395,1,0,0:0:0:0:
236,47,213474,1,8,0:0:0:0:
236,47,213632,1,8,0:0:0:0:
233,41,213711,1,0,0:0:0:0:
236,47,213790,1,8,0:0:0:0:
236,47,213948,1,0,0:0:0:0:
236,47,214027,1,0,0:0:0:0:
236,47,214106,1,8,0:0:0:0:
236,47,214185,1,8,0:0:0:0:
236,47,214263,1,0,0:0:0:0:
233,41,214342,1,0,0:0:0:0:
236,47,214421,1,8,0:0:0:0:
236,47,214579,1,0,0:0:0:0:
236,47,214658,1,0,0:0:0:0:
236,47,214737,1,8,0:0:0:0:
234,44,214895,1,0,0:0:0:0:
236,47,215053,1,8,0:0:0:0:
236,47,215132,1,8,0:0:0:0:
236,47,215211,1,0,0:0:0:0:
239,49,215290,1,0,0:0:0:0:
236,47,215369,1,8,0:0:0:0:
233,41,215448,1,0,0:0:0:0:
233,41,215527,1,0,0:0:0:0:
233,41,215685,1,8,0:0:0:0:
233,41,215842,1,0,0:0:0:0:
233,41,215921,1,0,0:0:0:0:
233,41,216000,1,8,0:0:0:0:
233,41,216158,1,0,0:0:0:0:
233,41,216316,1,8,0:0:0:0:
233,41,216395,1,0,0:0:0:0:
233,41,216474,1,8,0:0:0:0:
236,47,216632,1,8,0:0:0:0:
233,41,216711,1,8,0:0:0:0:
233,41,216790,1,0,0:0:0:0:
233,41,216869,1,0,0:0:0:0:
233,41,216948,1,8,0:0:0:0:
233,41,217106,1,0,0:0:0:0:
233,41,217185,1,0,0:0:0:0:
233,41,217263,1,8,0:0:0:0:
233,41,217421,1,0,0:0:0:0:
236,47,217579,1,8,0:0:0:0:
236,47,217658,1,0,0:0:0:0:
233,41,217737,1,8,0:0:0:0:
233,41,217816,1,8,0:0:0:0:
233,41,217895,1,0,0:0:0:0:
233,41,217974,1,0,0:0:0:0:
233,41,218053,1,8,0:0:0:0:
233,41,218211,1,4,0:0:0:0:
234,46,218369,1,0,0:0:0:0:
235,50,218448,1,0,0:0:0:0:
235,52,218527,1,8,0:0:0:0:
236,57,218685,1,8,0:0:0:0:
236,59,218763,1,0,0:0:0:0:
236,60,218842,1,8,0:0:0:0:
236,64,219000,1,0,0:0:0:0:
233,41,219079,1,0,0:0:0:0:
236,68,219158,1,8,0:0:0:0:
237,74,219316,1,8,0:0:0:0:
236,70,219395,1,0,0:0:0:0:
238,79,219474,1,8,0:0:0:0:
235,52,219553,1,8,0:0:0:0:
236,57,219632,1,0,0:0:0:0:
236,57,219711,1,0,0:0:0:0:
236,59,219790,1,8,0:0:0:0:
236,62,219948,1,0,0:0:0:0:
236,68,220106,1,8,0:0:0:0:
236,68,220185,1,8,0:0:0:0:
236,57,220263,1,0,0:0:0:0:
241,53,220421,1,8,0:0:0:0:
235,52,220579,1,0,0:0:0:0:
241,53,220737,1,4,0:0:0:0:
241,53,221053,1,12,0:0:0:0:
241,53,221211,1,4,0:0:0:0:
241,53,221527,1,12,0:0:0:0:
241,53,221685,1,4,0:0:0:0:
241,53,221842,1,4,0:0:0:0:
241,53,222158,1,4,0:0:0:0:
241,53,222316,1,4,0:0:0:0:
241,53,222632,1,12,0:0:0:0:
241,53,222948,1,4,0:0:0:0:
256,160,223263,1,12,0:0:0:0:
252,153,223421,1,0,0:0:0:0:
242,68,223500,1,0,0:0:0:0:
256,160,223579,1,8,0:0:0:0:
256,160,223737,1,8,0:0:0:0:
256,160,223816,1,8,0:0:0:0:
256,128,223895,1,0,0:0:0:0:
256,96,223974,1,0,0:0:0:0:
256,160,224053,1,8,0:0:0:0:
256,128,224132,1,0,0:0:0:0:
256,160,224211,1,8,0:0:0:0:
256,160,224369,1,0,0:0:0:0:
255,157,224448,1,0,0:0:0:0:
256,160,224527,1,8,0:0:0:0:
256,160,224685,1,0,0:0:0:0:
256,160,224763,1,0,0:0:0:0:
256,128,224842,1,8,0:0:0:0:
256,128,224921,1,0,0:0:0:0:
254,122,225000,1,8,0:0:0:0:
256,128,225079,1,8,0:0:0:0:
256,128,225158,1,0,0:0:0:0:
256,128,225316,1,0,0:0:0:0:
256,128,225474,1,8,0:0:0:0:
256,64,225553,1,0,0:0:0:0:
256,128,225632,1,8,0:0:0:0:
256,128,225790,1,0,0:0:0:0:
224,64,225948,1,0,0:0:0:0:
224,64,226027,1,0,0:0:0:0:
224,64,226106,1,8,0:0:0:0:
224,64,226263,1,8,0:0:0:0:
256,96,226342,1,8,0:0:0:0:
256,96,226421,1,0,0:0:0:0:
224,64,226500,1,8,0:0:0:0:
224,64,226579,1,0,0:0:0:0:
256,128,226658,1,0,0:0:0:0:
224,64,226737,1,8,0:0:0:0:
256,64,226895,1,0,0:0:0:0:
256,64,227053,1,8,0:0:0:0:
284,50,227132,1,8,0:0:0:0:
256,64,227211,1,0,0:0:0:0:
256,64,227290,1,0,0:0:0:0:
256,64,227369,1,8,0:0:0:0:
256,64,227527,1,8,0:0:0:0:
256,64,227606,1,8,0:0:0:0:
256,64,227685,1,0,0:0:0:0:
256,64,227842,1,0,0:0:0:0:
256,64,228000,1,8,0:0:0:0:
230,41,228079,1,0,0:0:0:0:
256,64,228158,1,8,0:0:0:0:
256,160,228316,1,4,0:0:0:0:
252,153,228474,1,0,0:0:0:0:
242,68,228553,1,0,0:0:0:0:
230,41,228632,1,8,0:0:0:0:
256,160,228790,1,8,0:0:0:0:
256,160,228869,1,8,0:0:0:0:
256,128,228948,1,0,0:0:0:0:
256,96,229027,1,0,0:0:0:0:
256,160,229106,1,8,0:0:0:0:
256,128,229185,1,0,0:0:0:0:
256,160,229263,1,8,0:0:0:0:
256,160,229421,1,0,0:0:0:0:
255,157,229500,1,0,0:0:0:0:
256,160,229579,1,8,0:0:0:0:
256,128,229737,1,8,0:0:0:0:
256,96,229816,1,8,0:0:0:0:
256,128,229895,1,0,0:0:0:0:
254,122,230053,1,8,0:0:0:0:
256,128,230132,1,0,0:0:0:0:
256,128,230211,1,8,0:0:0:0:
256,64,230290,1,8,0:0:0:0:
256,128,230369,1,0,0:0:0:0:
256,64,230448,1,0,0:0:0:0:
256,128,230527,1,8,0:0:0:0:
256,128,230685,1,8,0:0:0:0:
255,125,230763,1,8,0:0:0:0:
256,128,230842,1,0,0:0:0:0:
224,64,231000,1,0,0:0:0:0:
224,64,231158,1,12,0:0:0:0:
224,64,231316,1,0,0:0:0:0:
224,64,231395,1,0,0:0:0:0:
256,96,231474,1,0,0:0:0:0:
224,64,231632,1,0,0:0:0:0:
224,64,231790,1,12,0:0:0:0:
228,56,231948,1,0,0:0:0:0:
229,54,232027,1,0,0:0:0:0:
256,64,232106,1,8,0:0:0:0:
256,64,232263,1,0,0:0:0:0:
256,64,232421,1,8,0:0:0:0:
224,64,232500,1,8,0:0:0:0:
256,64,232579,1,0,0:0:0:0:
230,41,232658,1,0,0:0:0:0:
256,64,232737,1,8,0:0:0:0:
253,61,232816,1,0,0:0:0:0:
230,41,232895,1,0,0:0:0:0:
230,41,233053,1,12,0:0:0:0:
