osu file format v14

[General]
AudioFilename: audio.mp3
AudioLeadIn: 0
PreviewTime: 179501
Countdown: 0
SampleSet: Soft
StackLeniency: 0.3
Mode: 0
LetterboxInBreaks: 0
WidescreenStoryboard: 1

[Editor]
Bookmarks: 5975,16080,26185,36290,46395,51448,74185,79237,84290,86816,96922,107027,112080,134816,146185,157553,160080,177764,180290,190395,220711
DistanceSpacing: 1.2
BeatDivisor: 4
GridSize: 8
TimelineZoom: 2.2

[Metadata]
Title:Makeinu ni Encore wa Iranai
TitleUnicode:負け犬にアンコールはいらない
Artist:Yorushika
ArtistUnicode:ヨルシカ
Creator:Faito
Version:Hard
Source:
Tags:j-pop suis n-buna ナブナ wolf japanese rock track 02 a loser doesn't need an encore kogecha 焦茶 bard713
BeatmapID:2486608
BeatmapSetID:1121135

[Difficulty]
HPDrainRate:4
CircleSize:3.5
OverallDifficulty:7
ApproachRate:8.5
SliderMultiplier:1.5
SliderTickRate:1

[Events]
//Background and Video events
0,0,"aaaddd.png",0,0
//Break Periods
2,135061,145554
//Storyboard Layer 0 (Background)
//Storyboard Layer 1 (Fail)
//Storyboard Layer 2 (Pass)
//Storyboard Layer 3 (Foreground)
//Storyboard Layer 4 (Overlay)
//Storyboard Sound Samples

[TimingPoints]
-295,315.789473684211,4,2,5,50,1,0
810,-133.333333333333,4,2,5,50,0,0
3214,315.789473684211,4,2,5,50,1,0
3214,-133.333333333333,4,2,5,50,0,0
5710,315.789473684211,4,2,5,50,1,0
6019,315.789473684211,4,2,5,60,1,0
6019,-100,4,2,5,60,0,0
16124,-117.647058823529,4,2,5,55,0,0
26229,-100,4,2,5,60,0,0
36323,-100,4,2,5,55,0,0
36334,-117.647058823529,4,2,5,55,0,0
50861,-117.647058823529,4,2,5,40,0,0
51492,-100,4,2,5,70,0,1
74229,-133.333333333333,4,2,5,50,0,0
79282,-133.333333333333,4,2,5,60,0,0
82282,-133.333333333333,4,2,5,50,0,0
82756,-133.333333333333,4,2,5,47,0,0
83230,-133.333333333333,4,2,5,44,0,0
84334,-200,4,2,5,41,0,0
86229,-200,4,2,5,50,0,0
86861,-117.647058823529,4,2,5,50,0,0
112124,-100,4,2,5,70,0,1
134861,-133.333333333333,4,2,5,50,0,0
177808,-181.818181818182,4,2,5,50,0,0
180334,-117.647058823529,4,2,5,60,0,0
189650,-117.647058823529,4,2,5,62,0,0
189808,-117.647058823529,4,2,5,64,0,0
189966,-117.647058823529,4,2,5,66,0,0
190124,-117.647058823529,4,2,5,68,0,0
190282,-117.647058823529,4,2,5,70,0,0
190440,-100,4,2,5,75,0,1
198019,-100,4,2,5,75,0,0
198334,-100,4,2,5,75,0,1
220755,-100,4,2,5,60,0,0

[Colours]
Combo1 : 106,106,255
Combo2 : 255,113,113
Combo3 : 170,170,0
Combo4 : 168,255,255

[HitObjects]
81,284,810,5,2,0:0:0:0:
81,284,968,2,0,P|113:318|184:339,1,112.500004291535,2|0,0:0|0:0,0:0:0:0:
250,319,1441,2,0,L|258:253,2,56.2500021457673,2|2|2,0:0|0:0|0:0,0:0:0:0:
395,285,2073,2,0,L|469:278,1,56.2500021457673,2|0,0:0|0:0,0:0:0:0:
451,200,2389,2,0,L|377:193,1,56.2500021457673,2|0,0:0|0:0,0:0:0:0:
315,191,2705,2,0,P|326:128|370:88,1,112.500004291535,2|2,0:0|0:0,0:0:0:0:
459,75,3214,1,2,0:0:0:0:
290,32,3529,6,0,P|229:31|165:43,1,112.500004291535,2|0,0:0|0:0,0:0:0:0:
101,59,4003,2,0,P|49:42|40:37,2,56.2500021457673,2|2|2,0:0|2:2|2:2,0:0:0:0:
29,197,4635,2,0,P|76:220|113:271,1,112.500004291535,2|2,0:0|0:0,0:0:0:0:
149,337,5108,2,0,P|207:348|223:358,1,56.2500021457673,2|0,0:0|0:0,0:0:0:0:
281,362,5424,1,2,0:0:0:0:
427,302,5710,1,2,0:0:0:0:
427,302,6019,6,0,P|492:345|507:347,2,75,6|2|10,1:2|0:0|0:0,0:0:0:0:
407,221,6492,2,0,L|411:131,1,75,2|0,0:2|3:2,0:0:0:0:
356,89,6808,1,2,3:2:0:0:
356,89,6966,1,10,0:0:0:0:
164,69,7282,6,0,P|106:62|71:76,1,75,6|0,1:2|0:0,0:0:0:0:
33,125,7597,1,10,0:0:0:0:
33,125,7755,2,0,L|39:229,1,75,2|0,0:2|3:2,0:0:0:0:
105,246,8071,1,2,3:2:0:0:
160,183,8229,2,0,P|194:170|229:182,1,75,10|2,0:0|1:2,0:0:0:0:
261,258,8545,6,0,P|242:324|243:340,2,75,6|2|10,1:2|0:0|0:0,0:0:0:0:
336,222,9019,2,0,L|429:229,1,75,2|2,0:0|3:2,0:0:0:0:
486,193,9334,1,2,3:2:0:0:
486,193,9492,1,10,0:0:0:0:
406,48,9808,6,0,B|349:55|349:55|331:65|331:65|263:75,1,112.5,2|0,1:2|0:0,0:0:0:0:
274,74,10124,1,10,0:0:0:0:
223,139,10282,2,0,P|188:125|150:125,1,75,2|2,0:0|3:2,0:0:0:0:
69,140,10597,1,2,1:2:0:0:
35,223,10755,1,10,0:0:0:0:
35,223,11071,6,0,L|24:297,2,75,6|2|10,1:2|0:0|0:0,0:0:0:0:
118,220,11545,2,0,P|155:219|191:252,1,75,2|0,0:2|3:2,0:0:0:0:
218,317,11861,1,2,3:2:0:0:
271,254,12019,2,0,P|300:232|337:232,1,75,10|0,0:0|0:0,0:0:0:0:
412,276,12334,6,0,B|412:194|461:222|460:139,1,150,6|10,1:2|0:0,0:0:0:0:
402,78,12808,2,0,P|367:63|330:62,1,75,2|2,0:2|3:2,0:0:0:0:
272,122,13124,2,0,P|283:181|281:206,2,75,2|10|2,3:2|0:0|1:2,0:0:0:0:
211,65,13597,5,6,1:2:0:0:
211,65,13755,1,2,0:0:0:0:
137,101,13913,2,0,P|131:137|119:175,1,75,10|2,0:0|0:0,0:0:0:0:
36,172,14229,2,0,P|42:208|54:246,1,75,2|0,3:2|3:2,0:0:0:0:
119,316,14545,2,0,P|143:262|208:251,1,112.5,10|2,0:0|0:0,0:0:0:0:
191,248,14861,6,0,L|273:257,1,75,2|2,1:2|1:2,0:0:0:0:
348,237,15176,1,10,0:0:0:0:
348,237,15334,1,2,1:2:0:0:
284,184,15492,2,0,L|292:109,1,75,2|0,1:2|1:0,0:0:0:0:
298,100,15729,1,0,1:0:0:0:
298,100,15808,1,8,1:2:0:0:
336,26,15966,1,8,0:0:0:0:
379,96,16124,6,0,L|465:100,1,63.7500012159348,0|0,3:2|0:0,0:0:0:0:
512,60,16440,1,0,1:2:0:0:
485,226,16755,1,2,3:2:0:0:
485,226,16913,1,2,3:2:0:0:
441,296,17071,2,0,L|350:305,1,63.7500012159348,2|0,1:2|0:0,0:0:0:0:
312,354,17387,2,0,P|253:313|187:335,1,127.50000243187,0|0,3:2|1:2,0:0:0:0:
142,382,17861,1,0,0:0:0:0:
71,338,18019,2,0,L|57:271,2,63.7500012159348,2|2|2,3:2|3:2|1:2,0:0:0:0:
147,206,18650,6,0,L|137:136,1,63.7500012159348,2|0,3:2|0:0,0:0:0:0:
214,136,18966,2,0,L|223:199,1,63.7500012159348,0|0,1:2|0:0,0:0:0:0:
299,192,19282,2,0,L|290:129,2,63.7500012159348,2|2|2,3:2|3:2|1:2,0:0:0:0:
414,290,19913,2,0,P|435:266|444:235,1,63.7500012159348,0|0,3:0|0:0,0:0:0:0:
480,160,20229,2,0,P|469:130|448:107,1,63.7500012159348,0|0,1:0|0:0,0:0:0:0:
369,56,20545,1,2,3:2:0:0:
369,56,20703,1,2,3:2:0:0:
267,58,20861,1,2,1:2:0:0:
267,58,21176,6,0,B|201:55|228:91|146:87,2,127.50000243187,6|0|2,3:2|1:2|3:2,0:0:0:0:
327,116,21966,1,2,3:2:0:0:
260,158,22124,2,0,P|255:206|267:240,1,63.7500012159348,2|0,1:2|0:0,0:0:0:0:
313,274,22440,1,0,3:2:0:0:
177,343,22755,2,0,L|85:332,1,63.7500012159348,0|0,1:2|0:0,0:0:0:0:
75,268,23071,2,0,L|86:176,1,63.7500012159348,2|2,3:2|3:2,0:0:0:0:
38,141,23387,1,2,1:2:0:0:
161,51,23703,6,0,L|244:46,1,63.7500012159348,2|0,3:2|0:0,0:0:0:0:
277,102,24019,2,0,L|360:97,1,63.7500012159348,0|0,1:2|0:0,0:0:0:0:
396,45,24334,1,2,3:2:0:0:
449,100,24492,2,0,L|454:183,1,63.7500012159348,2|2,3:2|1:2,0:0:0:0:
391,226,24808,6,0,B|383:288|414:290|403:358,1,127.50000243187,6|2,0:0|3:2,0:0:0:0:
310,348,25282,2,0,P|288:324|261:307,1,63.7500012159348,2|0,1:2|0:0,0:0:0:0:
234,222,25597,2,0,P|264:214|293:200,1,63.7500012159348,2|0,0:3|1:2,0:0:0:0:
308,196,25834,1,0,1:2:0:0:
308,196,25913,1,0,1:2:0:0:
304,106,26071,1,10,0:0:0:0:
243,50,26229,6,0,P|182:98|175:112,2,75,6|2|10,1:2|0:0|0:0,0:0:0:0:
322,26,26703,2,0,L|426:39,1,75,2|0,0:2|3:2,0:0:0:0:
447,107,27019,1,2,3:2:0:0:
447,107,27176,1,10,0:0:0:0:
493,263,27492,6,0,P|461:246|425:254,1,75,6|0,1:2|0:0,0:0:0:0:
352,287,27808,1,10,0:0:0:0:
352,287,27966,2,0,L|347:212,1,75,2|2,0:2|3:2,0:0:0:0:
302,142,28282,1,2,3:2:0:0:
255,209,28440,2,0,P|220:222|185:210,1,75,10|2,0:0|2:2,0:0:0:0:
109,243,28755,6,0,P|90:309|91:325,2,75,6|2|10,1:2|0:0|0:0,0:0:0:0:
114,160,29229,2,0,L|39:154,1,75,2|2,0:0|3:2,0:0:0:0:
12,81,29545,1,0,3:2:0:0:
12,81,29703,1,10,0:0:0:0:
171,37,30019,6,0,B|236:34|211:71|276:64,1,112.5,2|0,1:2|0:0,0:0:0:0:
299,62,30334,1,10,0:0:0:0:
381,63,30492,2,0,P|418:63|453:76,1,75,2|2,0:0|3:2,0:0:0:0:
506,139,30808,1,0,1:2:0:0:
452,202,30966,2,0,L|442:304,1,75,10|0,0:0|0:0,0:0:0:0:
438,372,31282,6,0,L|512:383,2,75,6|2|10,1:2|0:0|0:0,0:0:0:0:
371,315,31755,2,0,P|333:314|298:347,1,75,2|0,0:2|3:2,0:0:0:0:
233,379,32071,1,2,3:2:0:0:
218,296,32229,2,0,P|215:259|191:231,1,75,10|0,0:0|0:0,0:0:0:0:
229,157,32545,6,0,B|311:157|283:206|366:205,1,150,6|10,1:2|0:0,0:0:0:0:
446,182,33019,2,0,P|460:147|446:107,1,75,2|2,0:2|3:2,0:0:0:0:
437,35,33334,2,0,L|518:11,2,75,0|10|0,3:2|0:0|2:2,0:0:0:0:
370,81,33808,5,6,1:2:0:0:
370,81,33966,1,2,0:0:0:0:
293,49,34124,2,0,L|212:63,1,75,10|2,0:0|0:0,0:0:0:0:
196,142,34440,2,0,L|122:129,1,75,2|0,3:2|3:2,0:0:0:0:
70,64,34755,2,0,P|18:82|-1:132,1,112.5,10|2,0:0|0:0,0:0:0:0:
0,132,35071,6,0,L|5:213,1,75,2|2,1:2|1:2,0:0:0:0:
80,250,35387,1,10,0:0:0:0:
80,250,35545,1,0,0:0:0:0:
158,225,35703,2,0,L|166:299,1,75,2|0,1:2|3:0,0:0:0:0:
173,320,35940,1,0,3:0:0:0:
173,320,36019,1,0,3:0:0:0:
252,361,36176,1,8,0:0:0:0:
298,292,36334,6,0,L|378:279,1,63.7500012159348,0|0,3:2|0:0,0:0:0:0:
443,272,36650,2,0,L|432:209,1,63.7500012159348,0|0,1:2|0:0,0:0:0:0:
494,152,36966,1,2,3:2:0:0:
494,152,37124,1,2,3:2:0:0:
450,81,37282,1,2,1:2:0:0:
297,17,37597,6,0,P|221:35|192:86,1,127.50000243187,0|0,3:2|1:2,0:0:0:0:
223,151,38071,1,0,0:0:0:0:
158,202,38229,2,0,L|87:198,1,63.7500012159348,2|2,3:2|3:2,0:0:0:0:
24,244,38545,2,0,L|20:307,1,63.7500012159348,2|2,1:2|0:0,0:0:0:0:
87,356,38861,6,0,B|161:351|134:394|224:380,2,127.50000243187,2|0|2,3:2|1:2|3:2,0:0:0:0:
26,170,39808,1,2,1:2:0:0:
26,170,39966,2,0,L|35:97,1,63.7500012159348,0|0,0:0|3:0,0:0:0:0:
87,36,40282,1,2,0:1:0:0:
163,83,40440,1,2,1:1:0:0:
163,83,40597,1,2,0:1:0:0:
235,42,40755,2,0,P|277:39|306:37,2,63.7500012159348,2|2|2,3:1|3:2|1:2,0:0:0:0:
452,45,41387,6,0,P|434:68|416:102,1,63.7500012159348,6|0,3:2|0:0,0:0:0:0:
364,179,41703,2,0,P|349:150|329:125,1,63.7500012159348,0|0,1:2|0:0,0:0:0:0:
263,83,42019,1,2,3:2:0:0:
263,83,42176,1,2,3:2:0:0:
197,133,42334,2,0,P|177:158|162:186,1,63.7500012159348,2|0,1:2|0:0,0:0:0:0:
107,248,42650,6,0,P|62:224|41:220,2,63.7500012159348,0|0|0,3:2|0:0|1:2,0:0:0:0:
122,330,43124,1,0,0:0:0:0:
197,296,43282,2,0,P|266:284|289:289,1,63.7500012159348,2|2,3:2|3:2,0:0:0:0:
327,329,43597,1,2,1:2:0:0:
327,329,43755,1,2,0:0:0:0:
387,272,43913,6,0,P|447:287|470:287,2,63.7500012159348,2|0|0,3:2|0:0|1:2,0:0:0:0:
342,201,44387,1,0,0:0:0:0:
414,161,44545,2,0,P|408:94|352:65,1,127.50000243187,2|2,3:2|1:2,0:0:0:0:
285,103,45019,6,0,L|154:93,1,127.50000243187,6|2,0:0|3:2,0:0:0:0:
113,22,45492,1,2,1:2:0:0:
55,177,45808,1,2,0:3:0:0:
92,250,45966,2,0,L|82:305,2,31.8750006079674,0|0|0,1:2|1:2|1:2,0:0:0:0:
164,208,46282,1,10,0:0:0:0:
226,278,46440,5,8,0:0:0:0:
351,340,46755,1,8,0:0:0:0:
351,340,46913,1,8,0:0:0:0:
479,282,47229,1,8,0:0:0:0:
479,282,47387,1,8,0:0:0:0:
479,282,47545,1,8,0:0:0:0:
476,126,47861,1,8,0:0:0:0:
476,126,48019,1,8,0:0:0:0:
396,10,48334,5,8,0:0:0:0:
255,17,48650,1,8,0:0:0:0:
115,32,48966,1,8,0:0:0:0:
122,172,49282,1,8,0:0:0:0:
261,160,49597,1,8,0:0:0:0:
261,160,49755,1,8,0:0:0:0:
400,144,50071,1,8,0:0:0:0:
400,144,51492,6,0,P|384:200|436:264,1,112.5,6|0,1:2|0:0,0:0:0:0:
408,246,51808,2,0,P|357:254|317:273,1,75,10|0,1:2|0:0,0:0:0:0:
262,328,52124,2,0,P|254:276|235:236,1,75,2|0,1:2|0:0,0:0:0:0:
170,192,52440,1,10,2:2:0:0:
170,192,52597,6,0,L|65:186,1,75,6|0,0:2|1:2,0:0:0:0:
15,130,52913,1,2,0:2:0:0:
15,130,53071,1,8,0:2:0:0:
85,63,53229,2,0,L|187:68,1,75,6|0,0:0|0:0,0:0:0:0:
257,55,53545,2,0,P|254:126|266:151,2,75,2|10|2,0:0|1:2|0:0,0:0:0:0:
359,9,54019,1,2,1:2:0:0:
445,48,54176,6,0,B|432:132|493:116|469:214,1,150,6|0,0:0|1:0,0:0:0:0:
447,285,54650,2,0,P|491:321|529:331,2,75,2|2|10,1:2|1:2|0:2,0:0:0:0:
368,240,55124,2,0,L|279:256,1,75,2|6,1:2|1:2,0:0:0:0:
235,338,55440,1,2,1:1:0:0:
179,268,55597,1,2,1:1:0:0:
179,268,55755,1,2,1:1:0:0:
124,190,55913,2,0,P|43:177|31:179,2,75,2|2|10,1:1|0:0|1:2,0:0:0:0:
201,119,56387,6,0,P|211:57|224:23,1,75,2|6,0:0|0:0,0:0:0:0:
320,22,56703,1,2,0:0:0:0:
320,22,56861,2,0,P|325:64|337:105,1,75,8|0,0:2|0:0,0:0:0:0:
418,163,57176,2,0,P|430:121|435:79,2,75,0|2|10,1:2|0:0|1:2,0:0:0:0:
458,258,57650,2,0,B|366:250|414:317|299:300,1,150,2|0,0:0|0:0,0:0:0:0:
217,351,58124,1,8,1:2:0:0:
217,351,58440,6,0,P|158:364|119:380,2,75,2|2|10,1:2|0:0|0:2,0:0:0:0:
133,282,58913,2,0,P|144:222|154:190,1,75,2|0,0:0|1:0,0:0:0:0:
109,119,59229,2,0,P|67:107|24:100,2,75,2|10|2,0:0|1:2|0:0,0:0:0:0:
223,145,59703,2,0,P|264:156|307:163,1,75,0|0,1:2|0:0,0:0:0:0:
381,109,60019,1,10,1:2:0:0:
381,109,60176,1,2,0:0:0:0:
452,174,60334,6,0,P|440:215|433:258,1,75,12|2,0:2|0:0,0:0:0:0:
480,340,60650,2,0,P|401:366|387:381,1,75,8|0,0:2|3:2,0:0:0:0:
313,382,60966,1,0,1:2:0:0:
313,382,61045,1,0,1:2:0:0:
313,382,61124,1,0,1:2:0:0:
253,307,61282,2,0,L|261:257,3,37.5,2|0|0|0,1:2|1:2|1:2|1:2,0:0:0:0:
243,233,61597,6,0,P|190:220|101:236,1,112.5,6|0,1:2|0:0,0:0:0:0:
132,224,61913,2,0,P|150:161|150:138,1,75,10|0,1:2|0:0,0:0:0:0:
74,50,62229,2,0,P|137:67|160:67,1,75,2|0,1:2|0:0,0:0:0:0:
238,25,62545,1,10,1:2:0:0:
291,103,62703,6,0,P|286:177|292:205,1,75,6|0,0:2|1:2,0:0:0:0:
388,214,63019,2,0,P|391:171|384:128,1,75,2|8,0:2|0:2,0:0:0:0:
348,25,63334,2,0,P|398:15|451:34,1,75,6|0,0:0|1:2,0:0:0:0:
501,114,63650,1,2,0:0:0:0:
501,114,63808,2,0,P|506:188|500:216,1,75,10|2,1:2|0:0,0:0:0:0:
511,294,64124,1,2,1:2:0:0:
424,332,64282,6,0,B|358:323|358:323|326:336|326:336|255:329,1,150,6|0,0:0|1:0,0:0:0:0:
266,234,64755,2,0,L|281:147,1,75,2|2,1:2|1:2,0:0:0:0:
299,55,65071,1,10,0:2:0:0:
299,55,65229,1,2,1:2:0:0:
213,95,65387,2,0,P|169:77|124:103,1,75,6|2,1:2|1:1,0:0:0:0:
46,116,65703,1,2,1:1:0:0:
46,116,65861,1,2,1:1:0:0:
105,190,66019,2,0,L|82:277,1,75,2|0,1:1|0:0,0:0:0:0:
12,352,66334,1,10,1:2:0:0:
206,311,66650,5,4,1:2:0:0:
260,384,66808,2,0,P|314:367|360:370,1,75,0|8,0:0|0:2,0:0:0:0:
416,303,67124,2,0,L|426:206,1,75,2|0,0:0|1:2,0:0:0:0:
400,127,67440,2,0,L|485:135,2,75,2|10|2,0:0|1:2|0:0,0:0:0:0:
292,183,67913,6,0,B|283:143|283:143|300:101,1,75,0|0,1:2|0:0,0:0:0:0:
214,112,68229,2,0,B|198:151|198:151|207:194,1,75,10|0,1:2|0:0,0:0:0:0:
128,183,68545,2,0,B|119:140|119:140|135:101,1,75,2|0,1:2|0:0,0:0:0:0:
50,106,68861,2,0,B|35:146|35:146|44:189,1,75,10|0,0:2|0:0,0:0:0:0:
86,268,69176,5,2,1:2:0:0:
86,268,69492,2,0,P|149:278|179:294,1,75,10|2,1:2|0:1,0:0:0:0:
227,363,69808,2,0,P|267:313|296:295,1,75,0|2,1:2|0:1,0:0:0:0:
380,299,70124,2,0,P|357:239|356:205,1,75,10|2,1:2|0:1,0:0:0:0:
400,149,70440,6,0,P|414:89|509:43,2,150,2|8|0,1:2|0:0|1:0,0:0:0:0:
307,151,71229,1,8,0:0:0:0:
307,151,71308,1,8,0:0:0:0:
307,151,71387,2,0,P|292:85|276:51,1,75,8|8,0:0|0:0,0:0:0:0:
187,146,71703,5,6,1:2:0:0:
187,146,71861,2,0,P|172:186|165:229,2,75,0|8|2,0:0|0:0|0:0,0:0:0:0:
126,66,72334,2,0,P|36:84|11:150,1,150,0|8,1:2|0:0,0:0:0:0:
57,235,72808,1,0,0:0:0:0:
57,235,72966,6,0,P|70:279|72:333,1,75,0|0,1:2|0:0,0:0:0:0:
140,372,73282,2,0,P|184:359|238:357,1,75,8|0,0:0|0:0,0:0:0:0:
269,276,73597,2,0,P|256:231|254:178,1,75,0|0,1:0|0:0,0:0:0:0:
174,130,73913,2,0,P|129:143|76:145,1,75,8|0,0:0|0:0,0:0:0:0:
27,82,74229,5,14,0:0:0:0:
144,40,74545,1,8,0:0:0:0:
144,40,74703,1,8,0:0:0:0:
264,50,75019,1,8,0:0:0:0:
264,50,75176,1,8,0:0:0:0:
264,50,75334,1,8,0:0:0:0:
381,111,75650,1,8,0:0:0:0:
381,111,75808,1,8,0:0:0:0:
439,212,76124,2,0,L|431:291,1,56.2500021457673,8|0,0:0|0:0,0:0:0:0:
360,223,76440,2,0,L|354:278,1,56.2500021457673,8|0,0:0|0:0,0:0:0:0:
286,323,76755,5,8,0:0:0:0:
178,356,77071,1,8,0:0:0:0:
178,356,77229,1,8,0:0:0:0:
80,299,77545,1,8,0:0:0:0:
80,299,77703,1,8,0:0:0:0:
80,299,77861,1,8,0:0:0:0:
65,187,78176,5,8,0:0:0:0:
65,187,78334,1,8,0:0:0:0:
105,82,78650,2,0,L|95:22,1,56.2500021457673,8|0,0:0|0:0,0:0:0:0:
170,19,78966,2,0,L|179:74,1,56.2500021457673,8|0,0:0|0:0,0:0:0:0:
258,93,79282,5,12,0:0:0:0:
360,139,79597,1,12,0:0:0:0:
360,139,79755,1,8,0:0:0:0:
256,183,80071,1,12,0:0:0:0:
256,183,80229,1,8,0:0:0:0:
256,183,80387,1,12,0:0:0:0:
355,235,80703,5,8,0:0:0:0:
355,235,80861,1,12,0:0:0:0:
261,296,81176,2,0,L|196:304,1,56.2500021457673,10|0,0:0|0:0,0:0:0:0:
327,344,81492,2,0,L|392:352,1,56.2500021457673,12|0,0:0|0:0,0:0:0:0:
445,302,81808,6,0,P|441:222|460:170,1,112.500004291535,10|0,1:2|0:0,0:0:0:0:
361,210,82282,2,0,P|301:204|244:203,1,112.500004291535,14|0,1:2|0:0,0:0:0:0:
255,113,82755,2,0,P|315:119|372:120,1,112.500004291535,14|0,1:2|0:0,0:0:0:0:
455,140,83229,2,0,P|477:78|453:25,1,112.500004291535,14|0,1:2|0:0,0:0:0:0:
373,17,83703,2,0,L|302:25,1,56.2500021457673,14|0,1:2|0:0,0:0:0:0:
230,48,84019,2,0,L|204:65,3,28.1250010728836,0|0|0|0,1:2|1:2|1:2|1:2,0:0:0:0:
179,71,84334,6,0,B|146:74|117:92|117:92|121:129|105:163|105:163|130:178|127:225|127:225|84:260|117:320,1,300,6|0,0:0|0:0,0:0:0:0:
111,308,86229,2,0,L|161:313,1,37.5
148,311,86861,6,0,P|195:300|235:306,1,63.7500012159348,0|0,3:2|0:0,0:0:0:0:
292,305,87176,2,0,P|292:273|302:242,1,63.7500012159348,0|0,1:2|0:0,0:0:0:0:
370,195,87492,1,2,3:2:0:0:
370,195,87650,2,0,L|441:213,2,63.7500012159348,2|2|0,3:2|1:2|0:0,0:0:0:0:
294,158,88124,2,0,B|295:111|318:82,1,63.7500012159348,0|0,3:2|0:0,0:0:0:0:
225,85,88440,2,0,B|211:99|210:146,1,63.7500012159348,0|0,1:2|0:0,0:0:0:0:
162,213,88755,2,0,P|115:227|82:315,1,127.50000243187,2|2,3:2|1:2,0:0:0:0:
139,350,89229,1,2,0:0:0:0:
139,350,89387,6,0,L|229:361,1,63.7500012159348,2|0,3:2|0:0,0:0:0:0:
263,306,89703,1,0,1:2:0:0:
263,306,89861,1,0,0:0:0:0:
327,363,90019,2,0,P|423:352|432:312,1,127.50000243187,2|2,3:2|1:2,0:0:0:0:
377,273,90492,2,0,L|390:201,1,63.7500012159348,2|0,0:0|3:0,0:0:0:0:
467,184,90808,5,2,0:1:0:0:
410,130,90966,1,2,1:1:0:0:
410,130,91124,1,2,0:1:0:0:
435,50,91282,2,0,P|483:49|505:53,2,63.7500012159348,2|2|2,3:1|3:2|1:2,0:0:0:0:
238,83,91913,6,0,P|241:116|237:161,2,63.7500012159348,6|0|0,3:2|0:0|1:2,0:0:0:0:
174,28,92387,1,0,0:0:0:0:
117,88,92545,2,0,P|114:121|118:166,1,63.7500012159348,2|2,3:2|3:2,0:0:0:0:
181,202,92861,2,0,P|184:235|180:280,1,63.7500012159348,2|0,1:2|0:0,0:0:0:0:
119,319,93176,2,0,P|202:310|253:343,1,127.50000243187,0|0,3:2|1:2,0:0:0:0:
315,374,93650,1,0,0:0:0:0:
315,374,93808,2,0,L|333:292,1,63.7500012159348,2|2,3:2|3:2,0:0:0:0:
405,278,94124,1,2,1:2:0:0:
405,278,94282,1,2,0:0:0:0:
352,213,94440,6,0,P|281:192|269:193,2,63.7500012159348,2|0|0,3:2|0:0|1:2,0:0:0:0:
441,191,94913,1,0,0:0:0:0:
375,137,95071,2,0,P|346:122|315:116,1,63.7500012159348,2|2,3:2|3:2,0:0:0:0:
262,51,95387,2,0,P|235:68|214:92,1,63.7500012159348,2|0,1:2|0:0,0:0:0:0:
202,173,95703,6,0,P|165:221|200:251,1,95.6250018239022,2|0,3:1|0:0,0:0:0:0:
199,262,96019,2,0,P|212:305|175:331,1,95.6250018239022,2|0,1:2|0:0,0:0:0:0:
160,334,96334,1,2,3:1:0:0:
70,300,96492,2,0,L|31:292,2,31.8750006079674,8|8|8,0:0|0:0|0:0,0:0:0:0:
105,222,96808,1,8,0:0:0:0:
48,161,96966,6,0,L|34:34,2,127.50000243187,6|2|0,3:2|1:1|3:0,0:0:0:0:
105,222,97755,1,0,3:0:0:0:
147,150,97913,2,0,P|208:128|219:130,1,63.7500012159348,2|0,1:1|0:0,0:0:0:0:
283,100,98229,2,0,P|302:75|331:61,2,63.7500012159348,0|0|2,3:0|0:0|1:1,0:0:0:0:
282,183,98703,1,0,0:0:0:0:
359,212,98861,2,0,P|389:204|414:184,1,63.7500012159348,0|0,3:0|0:0,0:0:0:0:
406,94,99176,1,2,1:1:0:0:
206,44,99492,6,0,L|138:47,2,63.7500012159348,2|0|0,3:1|0:0|1:0,0:0:0:0:
263,104,99966,1,0,0:0:0:0:
197,155,100124,2,0,L|132:150,1,63.7500012159348,0|0,3:0|3:0,0:0:0:0:
67,201,100440,1,2,1:1:0:0:
133,251,100597,2,0,L|197:247,1,63.7500012159348,0|0,0:0|3:0,0:0:0:0:
267,291,100913,5,2,0:1:0:0:
342,253,101071,1,2,1:1:0:0:
342,253,101229,1,2,0:1:0:0:
404,307,101387,2,0,P|468:318|485:324,2,63.7500012159348,2|0|0,3:1|3:0|1:0,0:0:0:0:
324,160,102019,6,0,B|321:126|321:126|331:87,1,63.7500012159348,0|0,3:0|0:0,0:0:0:0:
245,95,102334,2,0,B|237:123|237:123|240:157,1,63.7500012159348,0|0,1:0|0:0,0:0:0:0:
202,233,102650,1,0,3:0:0:0:
202,233,102808,1,0,3:0:0:0:
156,154,102966,2,0,B|153:120|153:120|161:92,1,63.7500012159348,0|0,1:0|0:0,0:0:0:0:
218,31,103282,6,0,L|302:23,1,63.7500012159348,2|2,3:2|0:2,0:0:0:0:
346,76,103597,2,0,L|354:160,1,63.7500012159348,2|2,1:2|0:2,0:0:0:0:
435,147,103913,2,0,L|427:63,2,63.7500012159348,2|2|2,3:2|3:2|1:2,0:0:0:0:
506,190,104387,1,2,0:2:0:0:
442,243,104545,6,0,B|381:254|416:304|322:312,1,127.50000243187,2|0,3:2|1:0,0:0:0:0:
273,361,105019,1,0,0:0:0:0:
250,283,105176,2,0,P|205:251|174:249,1,63.7500012159348,0|0,3:0|0:0,0:0:0:0:
182,172,105492,1,0,1:0:0:0:
277,178,105650,6,0,B|296:105|249:124|270:39,1,127.50000243187,6|0,1:2|0:0,0:0:0:0:
176,87,106124,2,0,L|101:95,1,63.7500012159348,0|0,1:2|0:0,0:0:0:0:
74,16,106440,1,0,1:0:0:0:
25,96,106597,1,0,1:0:0:0:
25,96,106676,1,0,1:0:0:0:
25,96,106755,2,0,P|-2:178|-2:181,1,63.7500012159348,0|0,1:0|1:0,0:0:0:0:
62,207,107071,5,8,0:0:0:0:
166,280,107387,1,8,0:0:0:0:
166,280,107545,1,8,0:0:0:0:
293,276,107861,1,8,0:0:0:0:
293,276,108019,1,8,0:0:0:0:
293,276,108176,1,8,0:0:0:0:
407,219,108492,1,8,0:0:0:0:
407,219,108650,1,8,0:0:0:0:
426,92,108966,5,8,0:0:0:0:
302,122,109282,1,8,0:0:0:0:
178,151,109597,1,8,0:0:0:0:
203,275,109913,1,8,0:0:0:0:
79,300,110229,1,8,0:0:0:0:
79,300,110387,1,8,0:0:0:0:
54,176,110703,1,8,0:0:0:0:
54,176,110861,6,0,P|83:128|94:122,1,63.7500012159348,12|0,0:0|1:0,0:0:0:0:
112,112,111097,1,0,1:0:0:0:
112,112,111176,2,0,L|189:121,1,63.7500012159348,0|2,1:0|1:3,0:0:0:0:
262,109,111492,2,0,P|267:77|256:48,1,63.7500012159348,2|2,1:3|1:3,0:0:0:0:
169,59,111808,2,0,P|163:90|175:120,1,63.7500012159348,2|2,1:3|1:3,0:0:0:0:
255,196,112124,6,0,B|213:201|213:201|200:199|200:199|114:212,1,112.5,6|0,1:2|0:0,0:0:0:0:
143,208,112440,2,0,P|128:261|141:297,1,75,10|0,1:2|0:0,0:0:0:0:
188,349,112755,2,0,L|293:354,1,75,2|0,1:2|0:0,0:0:0:0:
358,308,113071,1,10,1:2:0:0:
358,308,113229,6,0,L|362:215,1,75,6|0,0:2|1:2,0:0:0:0:
458,201,113545,1,2,0:2:0:0:
458,201,113703,1,10,0:2:0:0:
392,132,113861,2,0,L|305:127,1,75,6|0,0:0|1:2,0:0:0:0:
223,92,114176,2,0,P|213:50|220:8,2,75,2|10|2,0:0|1:2|0:0,0:0:0:0:
247,182,114650,1,2,1:2:0:0:
156,153,114808,6,0,P|97:141|58:239,1,150,6|0,0:0|1:0,0:0:0:0:
60,305,115282,2,0,P|16:341|-22:351,2,75,2|2|10,1:2|1:2|0:2,0:0:0:0:
149,257,115755,2,0,L|238:273,1,75,2|6,1:2|1:2,0:0:0:0:
309,213,116071,1,2,1:1:0:0:
337,308,116229,1,2,1:1:0:0:
337,308,116387,1,2,1:1:0:0:
415,254,116545,2,0,P|496:267|508:265,2,75,2|2|10,1:1|0:0|1:2,0:0:0:0:
392,161,117019,6,0,P|402:99|415:65,1,75,2|4,0:0|0:0,0:0:0:0:
327,41,117334,1,2,0:0:0:0:
327,41,117492,2,0,P|299:71|242:79,1,75,10|2,0:2|0:0,0:0:0:0:
178,35,117808,1,2,1:2:0:0:
178,35,117966,2,0,L|160:119,1,75,2|8,0:0|1:2,0:0:0:0:
229,185,118282,2,0,B|293:186|293:186|323:205|323:205|399:206,1,150,6|0,0:0|0:0,0:0:0:0:
421,291,118755,1,8,1:2:0:0:
421,291,119071,6,0,P|480:304|519:320,2,75,2|2|10,1:2|0:0|0:2,0:0:0:0:
349,369,119545,2,0,P|312:327|271:314,1,75,2|0,0:0|1:2,0:0:0:0:
239,231,119861,2,0,P|260:178|288:161,2,75,2|10|2,0:0|1:2|0:0,0:0:0:0:
160,283,120334,2,0,P|119:295|88:325,1,75,2|0,1:2|0:0,0:0:0:0:
12,381,120650,1,10,1:2:0:0:
12,381,120808,1,2,0:0:0:0:
6,283,120966,6,0,P|12:240|24:199,1,75,12|2,0:2|0:0,0:0:0:0:
73,135,121282,2,0,P|152:161|166:176,1,75,12|0,0:2|3:2,0:0:0:0:
226,104,121597,1,0,1:0:0:0:
226,104,121676,1,0,1:0:0:0:
226,104,121755,1,0,1:0:0:0:
327,125,121913,2,0,L|320:167,3,37.5,2|0|0|0,1:2|1:2|1:2|1:2,0:0:0:0:
315,177,122229,6,0,P|368:164|457:180,1,112.5,6|0,1:2|0:0,0:0:0:0:
425,168,122545,2,0,P|421:210|406:251,1,75,10|0,1:2|0:0,0:0:0:0:
424,347,122861,2,0,P|361:330|338:330,1,75,2|0,1:2|0:0,0:0:0:0:
287,264,123176,1,10,0:2:0:0:
194,284,123334,6,0,P|189:358|195:386,1,75,6|0,0:2|1:2,0:0:0:0:
77,373,123650,2,0,P|80:330|73:287,1,75,2|8,0:2|0:2,0:0:0:0:
68,201,123966,2,0,L|176:199,1,75,6|0,0:0|1:2,0:0:0:0:
224,151,124282,1,2,0:0:0:0:
224,151,124440,2,0,P|227:108|220:65,1,75,10|2,1:2|0:0,0:0:0:0:
307,28,124755,1,2,1:2:0:0:
398,53,124913,6,0,P|393:177|403:229,1,150,6|0,0:0|1:0,0:0:0:0:
410,319,125387,2,0,L|324:304,1,75,2|2,1:2|1:2,0:0:0:0:
250,261,125703,1,10,0:2:0:0:
250,261,125861,1,2,1:2:0:0:
184,322,126019,6,0,P|142:331|104:312,1,75,6|2,1:2|1:1,0:0:0:0:
62,246,126334,1,2,1:1:0:0:
62,246,126492,1,2,1:1:0:0:
122,181,126650,2,0,P|163:171|201:190,1,75,2|0,1:1|0:0,0:0:0:0:
250,261,126966,1,10,1:2:0:0:
499,276,127282,5,4,1:2:0:0:
454,348,127440,2,0,P|400:331|354:334,1,75,2|10,0:0|0:2,0:0:0:0:
404,242,127755,2,0,L|414:145,1,75,2|2,0:0|1:2,0:0:0:0:
424,80,128071,2,0,L|509:88,2,75,2|8|2,0:0|1:2|0:0,0:0:0:0:
314,42,128545,6,0,B|299:82|299:82|308:125,1,75,2|0,1:2|0:0,0:0:0:0:
225,117,128861,2,0,B|234:160|234:160|218:199,1,75,10|0,1:2|0:0,0:0:0:0:
300,207,129176,2,0,B|284:246|284:246|293:289,1,75,2|0,1:2|0:0,0:0:0:0:
208,277,129492,2,0,B|219:318|219:318|206:360,1,75,10|0,0:2|0:0,0:0:0:0:
101,365,129808,5,2,1:2:0:0:
101,365,130124,2,0,P|109:322|105:280,1,75,10|2,1:2|0:1,0:0:0:0:
44,206,130440,2,0,L|128:191,1,75,0|2,1:2|0:1,0:0:0:0:
163,102,130755,2,0,L|247:117,1,75,10|2,1:2|0:1,0:0:0:0:
247,218,131071,6,0,P|261:158|356:112,2,150,2|8|0,1:2|0:0|1:0,0:0:0:0:
296,299,131861,1,8,0:0:0:0:
296,299,131940,1,8,0:0:0:0:
296,299,132019,2,0,P|349:279|390:295,1,75,8|8,0:0|0:0,0:0:0:0:
468,257,132334,6,0,L|479:168,1,75,6|0,1:2|0:0,0:0:0:0:
396,73,132650,1,8,0:0:0:0:
396,73,132808,2,0,L|385:162,1,75,2|0,0:0|1:2,0:0:0:0:
306,188,133124,2,0,B|217:161|244:226|139:196,1,150,2|0,0:0|0:0,0:0:0:0:
75,133,133597,6,0,P|69:80|101:55,1,75,4|2,1:2|0:3,0:0:0:0:
172,31,133913,1,8,0:0:0:0:
172,31,134071,1,2,0:3:0:0:
235,89,134229,2,0,P|245:129|220:162,1,75,0|8,1:0|3:0,0:0:0:0:
140,197,134545,2,0,L|127:297,1,75,8|4,0:0|0:3,0:0:0:0:
120,364,134861,1,14,0:0:0:0:
117,311,146229,5,0,0:0:0:0:
228,324,146545,1,2,0:0:0:0:
339,339,146861,2,0,P|384:307|316:233,1,168.750006437302,2|0,0:0|0:0,0:0:0:0:
262,193,147492,1,6,3:2:0:0:
142,218,147966,1,2,3:2:0:0:
117,98,148440,2,0,B|170:100|170:100|186:111|186:111|241:114,1,112.500004291535,2|0,3:2|0:0,0:0:0:0:
225,113,149071,5,2,3:2:0:0:
336,54,149387,2,0,L|350:170,1,112.500004291535,2|0,3:2|0:0,0:0:0:0:
446,260,150019,1,2,3:2:0:0:
333,327,150492,1,2,3:2:0:0:
229,250,150966,2,0,P|199:246|124:288,1,112.500004291535,2|0,3:2|0:0,0:0:0:0:
30,199,151597,2,0,L|53:81,1,112.500004291535,2|0,3:2|3:3,0:0:0:0:
381,23,152545,6,0,P|340:52|374:110,1,112.500004291535,2|2,3:2|0:0,0:0:0:0:
425,144,153019,2,0,P|443:193|401:224,1,112.500004291535,2|0,3:2|0:0,0:0:0:0:
321,256,153492,1,2,3:2:0:0:
321,256,154124,1,2,3:2:0:0:
227,353,154440,1,2,3:2:0:0:
111,284,154755,1,2,0:0:0:0:
206,189,155071,6,0,B|297:216|276:149|368:164,1,168.750006437302,2|2,3:2|3:2,0:0:0:0:
509,95,156019,6,0,B|418:121|439:54|347:69,1,168.750006437302,2|2,3:2|3:2,0:0:0:0:
224,8,156966,1,2,3:2:0:0:
48,80,157597,6,0,B|64:112|72:160|72:160|32:184|16:224|16:224|82:256|56:304|176:304|144:256|224:264,1,393.750015020371,6|0,0:0|0:0,0:0:0:0:
264,200,158861,1,2,0:0:0:0:
352,304,159176,1,2,0:0:0:0:
464,224,159492,2,0,B|464:184|456:160|456:160|480:128|480:128|472:96|472:64,1,168.750006437302,2|0,3:2|0:0,0:0:0:0:
408,16,160124,5,8,1:2:0:0:
408,16,161229,1,2,1:2:0:0:
404,15,161703,2,0,B|280:8|336:88|192:64,1,225.000008583069,2|0,1:2|3:0,0:0:0:0:
48,32,162650,1,6,1:2:0:0:
48,32,163755,6,0,L|64:104,1,56.2500021457673,2|0,1:2|0:0,0:0:0:0:
120,208,164229,2,0,P|152:200|184:200,1,56.2500021457673,2|0,1:2|0:0,0:0:0:0:
248,160,164545,1,8,1:3:0:0:
248,160,164703,2,0,P|280:168|312:168,1,56.2500021457673,8|2,1:3|1:2,0:0:0:0:
445,119,165176,5,2,1:2:0:0:
445,119,166282,2,0,L|435:197,1,56.2500021457673,2|0,1:2|0:0,0:0:0:0:
475,271,166755,2,0,P|397:256|340:325,1,168.750006437302,2|0,1:2|0:0,0:0:0:0:
268,353,167387,2,0,L|208:340,1,56.2500021457673,2|0,1:2|0:0,0:0:0:0:
139,381,167703,5,0,1:2:0:0:
139,381,168808,1,2,1:2:0:0:
79,259,169124,5,2,0:2:0:0:
79,259,169282,2,0,L|14:246,1,56.2500021457673,2|8,1:3|3:3,0:0:0:0:
41,171,169597,2,0,L|96:182,1,56.2500021457673,10|8,1:3|3:3,0:0:0:0:
114,106,169913,2,0,L|58:94,1,56.2500021457673,10|8,1:3|3:3,0:0:0:0:
0,40,170229,1,4,1:2:0:0:
0,40,171334,6,0,P|52:39|72:46,1,56.2500021457673,2|0,1:2|0:0,0:0:0:0:
194,25,171808,2,0,B|180:103|180:103|196:147|196:147|172:251,1,225.000008583069,2|0,1:2|1:2,0:0:0:0:
88,332,172755,5,2,1:2:0:0:
88,332,173861,2,0,P|141:324|148:325,1,56.2500021457673,2|0,1:2|0:0,0:0:0:0:
287,351,174334,2,0,P|286:309|278:287,1,56.2500021457673,2|0,1:2|0:0,0:0:0:0:
366,264,174650,1,2,1:2:0:0:
366,264,174808,2,0,P|367:222|375:200,1,56.2500021457673,0|2,3:0|0:0,0:0:0:0:
455,126,175282,5,4,0:0:0:0:
455,126,176387,5,2,3:2:0:0:
286,54,176861,1,0,3:0:0:0:
50,149,177492,2,0,P|98:172|104:177,1,56.2500021457673,0|0,1:2|0:0,0:0:0:0:
192,144,177808,6,0,B|224:116|215:34|215:34|295:113|261:217|228:321|116:337|116:337|172:276|160:229,1,618.75002360344,4|0,0:0|0:0,0:0:0:0:
116,170,180334,6,0,P|69:167|41:181,1,63.7500012159348,6|0,0:0|0:0,0:0:0:0:
16,247,180650,1,8,0:0:0:0:
16,247,181282,1,8,0:0:0:0:
192,348,181597,1,2,1:2:0:0:
192,348,181755,1,2,1:2:0:0:
248,286,181913,2,0,L|323:298,1,63.7500012159348,8|0,0:0|0:0,0:0:0:0:
310,296,182545,1,8,0:0:0:0:
433,249,182861,6,0,L|439:185,1,63.7500012159348,6|0,1:2|0:0,0:0:0:0:
366,134,183176,2,0,L|360:198,2,63.7500012159348,8|2|2,0:0|0:1|0:1,0:0:0:0:
288,82,183650,2,0,L|281:145,1,63.7500012159348,2|8,0:1|0:0,0:0:0:0:
224,213,183966,2,0,P|164:194|148:196,1,63.7500012159348,2|0,0:1|0:0,0:0:0:0:
101,142,184282,1,2,1:1:0:0:
101,142,184440,1,8,0:0:0:0:
101,142,184597,2,0,B|157:55|157:55|254:68,1,191.250003647804,2|8,0:1|0:0,0:0:0:0:
403,36,185387,6,0,P|392:66|390:98,1,63.7500012159348,4|0,0:0|0:0,0:0:0:0:
446,162,185703,2,0,P|477:163|507:174,2,63.7500012159348,0|0|2,1:0|0:0|0:0,0:0:0:0:
323,223,186334,1,8,0:0:0:0:
456,352,186650,1,2,1:2:0:0:
456,352,186808,1,2,1:2:0:0:
456,352,186966,1,8,0:0:0:0:
305,316,187282,5,2,1:2:0:0:
305,316,187440,1,2,1:2:0:0:
224,348,187597,1,8,0:0:0:0:
145,323,187755,1,6,0:0:0:0:
145,323,189176,5,4,3:2:0:0:
80,264,189334,1,8,0:0:0:0:
80,264,189413,1,8,0:0:0:0:
80,264,189492,2,0,P|83:195|89:182,1,63.7500012159348,14|10,1:2|0:3,0:0:0:0:
155,169,189808,2,0,L|237:178,1,63.7500012159348,8|2,0:0|1:2,0:0:0:0:
77,118,190124,2,0,L|13:111,1,63.7500012159348,0|8,1:2|0:0,0:0:0:0:
158,69,190440,6,0,P|223:34|282:62,1,112.5,6|0,1:2|0:0,0:0:0:0:
258,43,190755,2,0,P|277:139|277:148,1,75,10|0,1:2|0:0,0:0:0:0:
371,171,191071,2,0,P|377:128|390:87,1,75,6|0,1:2|0:0,0:0:0:0:
484,122,191387,1,10,1:2:0:0:
455,212,191545,6,0,P|401:226|371:265,1,75,6|0,0:2|1:2,0:0:0:0:
346,342,191861,2,0,P|306:302|258:295,1,75,2|10,0:2|0:2,0:0:0:0:
176,310,192176,2,0,P|190:256|172:210,1,75,6|0,0:0|1:2,0:0:0:0:
100,169,192492,1,2,0:0:0:0:
195,124,192650,1,10,1:2:0:0:
195,124,192808,1,6,0:0:0:0:
295,110,192966,1,6,1:2:0:0:
295,110,193124,6,0,P|352:116|380:226,1,150,6|0,0:0|1:0,0:0:0:0:
466,278,193597,2,0,P|412:295|373:316,1,75,2|2,1:2|1:2,0:0:0:0:
322,379,193913,1,10,0:2:0:0:
322,379,194071,1,2,1:2:0:0:
240,319,194229,6,0,L|255:212,1,75,6|2,1:2|1:1,0:0:0:0:
166,180,194545,1,2,1:1:0:0:
109,253,194703,1,2,1:1:0:0:
46,184,194861,2,0,P|55:137|88:101,1,75,2|2,1:1|0:0,0:0:0:0:
180,87,195176,2,0,L|264:103,1,75,0|0,1:0|0:0,0:0:0:0:
312,10,195492,5,12,0:0:0:0:
391,109,195650,1,12,0:0:0:0:
391,109,195966,1,10,0:0:0:0:
286,177,196124,1,10,0:0:0:0:
286,177,196440,1,8,0:0:0:0:
389,245,196597,6,0,B|302:237|338:303|224:288,1,150,6|0,0:0|0:0,0:0:0:0:
140,342,197071,2,0,P|151:300|145:258,1,75,0|0,1:0|1:0,0:0:0:0:
60,214,197387,2,0,L|71:173,3,37.5,2|2|2|2,1:2|1:2|1:2|1:2,0:0:0:0:
46,154,197703,2,0,L|35:113,3,37.5,10|10|10|10,2:2|2:2|2:2|2:2,0:0:0:0:
55,81,198019,1,6,0:0:0:0:
55,81,198334,6,0,L|160:87,1,75,10|0,1:2|0:0,0:0:0:0:
234,39,198650,2,0,L|227:148,1,75,6|0,1:2|0:0,0:0:0:0:
155,199,198966,1,10,1:2:0:0:
243,253,199124,2,0,P|273:218|326:220,1,75,6|0,0:2|1:2,0:0:0:0:
363,119,199440,5,2,0:2:0:0:
363,119,199597,1,10,0:2:0:0:
435,192,199755,2,0,L|425:286,1,75,6|0,0:0|1:2,0:0:0:0:
396,377,200071,1,2,0:0:0:0:
323,310,200229,1,10,1:2:0:0:
323,310,200387,1,6,0:0:0:0:
228,345,200545,1,6,1:2:0:0:
228,345,200703,6,0,B|153:326|153:326|131:303|131:303|65:286,1,150,6|0,0:0|1:0,0:0:0:0:
79,191,201176,2,0,B|94:150|94:150|79:104,1,75,2|2,1:2|1:2,0:0:0:0:
175,119,201492,2,0,B|188:159|188:159|173:200,1,75,10|2,0:2|1:2,0:0:0:0:
270,195,201808,2,0,B|285:154|285:154|272:114,1,75,6|2,1:2|1:1,0:0:0:0:
344,68,202124,1,2,1:1:0:0:
344,68,202282,1,2,1:1:0:0:
396,144,202440,2,0,L|498:150,2,75,2|2|0,1:1|0:0|1:0,0:0:0:0:
310,185,202913,6,0,P|269:243|276:269,1,75,2|6,0:0|1:2,0:0:0:0:
314,335,203229,1,2,0:0:0:0:
314,335,203387,1,10,0:0:0:0:
222,349,203545,2,0,L|119:339,1,75,2|2,0:0|1:2,0:0:0:0:
69,260,203861,2,0,L|172:250,1,75,2|8,0:0|0:0,0:0:0:0:
210,171,204176,1,2,0:0:0:0:
210,171,204334,6,0,B|109:148|160:106|54:80,2,150,4|8|2,0:0|0:0|1:2,0:0:0:0:
277,91,205124,1,2,0:0:0:0:
344,174,205282,2,0,P|346:240|336:270,1,75,10|2,0:0|0:0,0:0:0:0:
271,314,205597,5,4,0:0:0:0:
271,314,205755,1,0,0:0:0:0:
172,282,205913,2,0,L|80:263,1,75,10|10,0:0|0:0,0:0:0:0:
34,175,206229,2,0,P|41:113|73:86,1,75,12|0,0:0|0:0,0:0:0:0:
56,67,206466,2,0,P|113:42|152:56,1,75,12|0,0:0|0:0,0:0:0:0:
153,53,206703,2,0,L|249:73,1,75,14|0,0:0|0:0,0:0:0:0:
333,29,207019,5,0,1:0:0:0:
410,86,207176,2,0,L|424:137,3,37.5,0|0|0|0,3:2|3:2|3:2|3:2,0:0:0:0:
389,149,207492,2,0,L|375:200,3,37.5,2|2|2|2,1:2|1:2|1:2|1:2,0:0:0:0:
396,208,207808,1,8,1:2:0:0:
400,219,207887,1,8,1:2:0:0:
405,230,207966,1,8,1:2:0:0:
409,241,208045,1,8,1:2:0:0:
415,251,208124,6,0,P|346:274|333:328,1,112.5,6|0,1:2|0:0,0:0:0:0:
332,306,208440,2,0,P|260:295|223:294,1,75,10|0,0:0|0:0,0:0:0:0:
151,352,208755,2,0,P|158:309|163:266,1,75,2|0,1:2|0:0,0:0:0:0:
246,204,209071,1,8,0:0:0:0:
159,165,209229,2,0,P|110:172|78:196,1,75,2|0,0:0|1:0,0:0:0:0:
18,120,209545,2,0,P|25:77|13:37,1,75,2|8,0:2|0:2,0:0:0:0:
130,56,209861,6,0,B|203:59|203:59|225:73|225:73|312:78,1,150,6|2,0:0|0:0,0:0:0:0:
378,25,210334,1,10,1:2:0:0:
378,25,210492,1,6,0:0:0:0:
433,108,210650,1,6,1:2:0:0:
433,108,210808,6,0,L|437:284,1,150,6|0,0:0|1:0,0:0:0:0:
360,337,211282,2,0,P|273:345|256:355,1,75,2|2,1:2|1:2,0:0:0:0:
192,384,211597,1,10,0:2:0:0:
192,384,211755,1,2,1:2:0:0:
142,303,211913,6,0,L|157:205,1,75,6|2,1:2|1:1,0:0:0:0:
231,162,212229,1,2,1:1:0:0:
317,155,212387,1,2,1:1:0:0:
402,144,212545,2,0,P|395:91|376:50,2,75,2|2|0,1:1|0:0|1:0,0:0:0:0:
486,207,213019,1,0,3:0:0:0:
486,207,213097,1,0,3:0:0:0:
486,207,213176,6,0,P|456:281|455:298,1,75,6|2,1:2|0:0,0:0:0:0:
432,381,213492,1,10,0:0:0:0:
432,381,213650,1,2,0:0:0:0:
368,310,213808,2,0,L|264:293,1,75,4|0,1:2|0:0,0:0:0:0:
207,355,214124,1,10,0:0:0:0:
72,228,214440,6,0,L|88:127,1,75,4|0,1:2|0:0,0:0:0:0:
170,129,214755,2,0,B|75:116|129:74|4:55,2,150,10|2|10,0:0|1:2|0:0,0:0:0:0:
170,129,215703,6,0,P|222:111|262:112,1,75,2|0,1:2|0:0,0:0:0:0:
320,65,216019,2,0,P|364:90|412:87,1,75,8|2,0:0|0:1,0:0:0:0:
445,170,216334,2,0,P|420:214|423:262,1,75,6|2,1:2|0:1,0:0:0:0:
330,275,216650,2,0,P|286:250|238:253,1,75,8|2,0:0|0:1,0:0:0:0:
160,296,216966,2,0,L|152:192,1,75,6|0,1:2|0:1,0:0:0:0:
57,184,217282,2,0,L|64:77,1,75,8|2,0:0|0:0,0:0:0:0:
156,43,217597,5,0,1:0:0:0:
237,104,217755,1,0,1:0:0:0:
237,104,217834,1,0,1:0:0:0:
237,104,217913,2,0,L|292:113,3,37.5,0|0|0|0,1:0|1:0|1:0|1:0,0:0:0:0:
304,113,218229,6,0,P|343:75|392:80,1,75,6|2,1:2|0:0,0:0:0:0:
467,49,218545,1,10,0:0:0:0:
467,49,218703,1,2,0:0:0:0:
442,140,218861,2,0,B|445:205|445:205|457:227|457:227|455:321,1,150,0|8,1:2|1:2,0:0:0:0:
388,377,219334,1,2,0:0:0:0:
321,309,219492,6,0,P|238:266|231:268,1,75,2|0,1:2|0:0,0:0:0:0:
168,217,219808,2,0,P|251:174|258:176,1,75,0|0,1:0|0:0,0:0:0:0:
313,132,220124,2,0,P|230:89|223:91,1,75,10|0,0:0|0:0,0:0:0:0:
168,47,220440,2,0,P|251:4|258:6,1,75,2|0,1:2|0:0,0:0:0:0:
320,19,220755,5,8,0:0:0:0:
401,106,221071,1,8,0:0:0:0:
401,106,221229,1,8,0:0:0:0:
413,225,221545,1,8,0:0:0:0:
413,225,221703,1,8,0:0:0:0:
413,225,221861,1,8,0:0:0:0:
334,315,222176,5,8,0:0:0:0:
334,315,222334,1,8,0:0:0:0:
213,314,222650,1,8,0:0:0:0:
144,215,222966,1,8,0:0:0:0:
189,103,223282,6,0,P|178:52|155:11,2,75,6|2|10,1:2|2:0|0:0,0:0:0:0:
228,175,223755,2,0,L|329:179,1,75,2|0,0:2|3:2,0:0:0:0:
364,121,224071,1,2,3:2:0:0:
364,121,224229,1,10,0:0:0:0:
471,246,224545,6,0,P|476:282|468:319,1,75,6|0,1:2|0:0,0:0:0:0:
400,365,224861,1,10,0:0:0:0:
400,365,225019,2,0,L|296:371,1,75,2|2,0:2|3:2,0:0:0:0:
250,333,225334,1,0,3:2:0:0:
314,281,225492,2,0,P|326:246|313:211,1,75,10|0,0:0|1:2,0:0:0:0:
287,132,225808,6,0,L|369:129,2,75,6|2|10,1:2|0:0|0:0,0:0:0:0:
225,187,226282,2,0,L|150:181,1,75,2|2,0:0|3:2,0:0:0:0:
91,131,226597,1,0,3:2:0:0:
91,131,226755,1,10,0:0:0:0:
47,290,227071,6,0,B|104:297|104:297|122:307|122:307|190:317,1,112.5,2|0,1:2|0:0,0:0:0:0:
182,317,227387,1,10,0:0:0:0:
237,378,227545,2,0,P|272:364|310:364,1,75,2|0,0:0|3:2,0:0:0:0:
388,340,227861,1,2,1:2:0:0:
361,267,228019,1,10,0:0:0:0:
361,267,228176,1,2,0:0:0:0:
419,208,228334,6,0,L|433:120,1,75,4|2,0:0|1:2,0:0:0:0:
390,61,228650,1,10,2:2:0:0:
331,119,228808,2,0,B|241:130|276:89|184:102,1,150,2|0,0:0|0:0,0:0:0:0:
114,58,229282,1,8,0:0:0:0:
114,58,229440,1,2,1:2:0:0:
114,140,229597,6,0,P|122:216|125:274,2,112.5,4|2|2,0:0|1:0|1:0,0:0:0:0:
41,98,230229,2,0,P|12:139|21:183,1,75,14|0,1:2|0:0,0:0:0:0:
40,240,230545,1,8,0:0:0:0:
199,281,230861,6,0,P|205:220|216:204,1,75,2|0,1:2|1:0,0:0:0:0:
300,209,231176,2,0,P|315:243|313:281,1,75,8|0,1:2|1:2,0:0:0:0:
369,341,231492,1,2,1:2:0:0:
427,282,231650,2,0,L|431:183,1,75,8|14,0:0|1:2,0:0:0:0:
418,124,231966,6,0,P|379:75|286:98,1,150,0|10,1:2|1:3,0:0:0:0:
244,147,232440,1,2,1:1:0:0:
244,147,232597,1,2,1:1:0:0:
184,89,232755,2,0,L|89:83,1,75,2|2,1:1|1:1,0:0:0:0:
57,18,233071,1,14,0:0:0:0:
