osu file format v14

[General]
AudioFilename: audio.mp3
AudioLeadIn: 0
PreviewTime: 52858
Countdown: 0
SampleSet: Soft
StackLeniency: 0.4
Mode: 0
LetterboxInBreaks: 0
WidescreenStoryboard: 0

[Editor]
Bookmarks: 29692,40858,54192,78192,107525,142192,152858,174192,183525,186192,198192,240858,256858,270192
DistanceSpacing: 1
BeatDivisor: 8
GridSize: 16
TimelineZoom: 2.1

[Metadata]
Title:Kaze o Hamu
TitleUnicode:風を食む
Artist:Yorushika
ArtistUnicode:ヨルシカ
Creator:Remapper
Version:Insane
Source:
Tags:n-buna suis japanese rock
BeatmapID:2726464
BeatmapSetID:1315686

[Difficulty]
HPDrainRate:6
CircleSize:4
OverallDifficulty:8
ApproachRate:8.5
SliderMultiplier:2.8
SliderTickRate:0.5

[Events]
//Background and Video events
0,0,"bg.jpg",0,0
//Break Periods
//Storyboard Layer 0 (Background)
//Storyboard Layer 1 (Fail)
//Storyboard Layer 2 (Pass)
//Storyboard Layer 3 (Foreground)
//Storyboard Layer 4 (Overlay)
//Storyboard Sound Samples

[TimingPoints]
8859,666.666666666667,4,2,0,35,1,0
19525,-100,4,2,0,50,0,0
40858,-133.333333333333,4,2,0,40,0,0
51525,-200,4,2,0,50,0,0
54192,-80,4,2,0,80,0,0
64358,-133.333333333333,4,2,0,50,0,0
64858,-80,4,2,0,80,0,0
75525,-100,4,2,0,50,0,0
83442,-100,4,2,0,5,0,0
83525,-66.6666666666667,4,2,0,50,0,0
83692,-66.6666666666667,4,2,0,5,0,0
83775,-80,4,2,0,50,0,0
83942,-80,4,2,0,15,0,0
84025,-80,4,2,0,50,0,0
85192,-100,4,2,0,50,0,0
90858,-66.6666666666667,4,2,0,65,0,0
91025,-66.6666666666667,4,2,0,5,0,0
91108,-80,4,2,0,40,0,0
91275,-80,4,2,0,15,0,0
91358,-80,4,2,0,30,0,0
91525,-100,4,2,0,50,0,0
96247,-100,4,2,0,5,0,0
96358,-100,4,2,0,50,0,0
96414,-100,4,2,0,5,0,0
96581,-100,4,2,0,50,0,0
96636,-100,4,2,0,5,0,0
96858,-100,4,2,0,50,0,0
96914,-100,4,2,0,5,0,0
97025,-100,4,2,0,50,0,0
101747,-100,4,2,0,5,0,0
102025,-100,4,2,0,50,0,0
102081,-100,4,2,0,5,0,0
102192,-100,4,2,0,50,0,0
107525,-133.333333333333,4,2,0,40,0,0
118192,-80,4,2,0,50,0,0
118858,-100,4,2,0,50,0,0
120858,-80,4,2,0,80,0,0
131025,-133.333333333333,4,2,0,50,0,0
131525,-80,4,2,0,80,0,0
142192,-100,4,2,0,50,0,0
143608,-100,4,2,0,5,0,0
143692,-100,4,2,0,50,0,0
146275,-100,4,2,0,5,0,0
146358,-100,4,2,0,50,0,0
174192,-133.333333333333,4,2,0,50,0,0
175608,-133.333333333333,4,2,0,5,0,0
175692,-133.333333333333,4,2,0,50,0,0
178275,-133.333333333333,4,2,0,5,0,0
178358,-133.333333333333,4,2,0,50,0,0
180942,-133.333333333333,4,2,0,5,0,0
181025,-133.333333333333,4,2,0,50,0,0
188525,-200,4,2,0,50,0,0
190192,-133.333333333333,4,2,0,50,0,0
191192,-200,4,2,0,50,0,0
192525,-100,4,2,0,50,0,0
192692,-100,4,2,0,5,0,0
192859,-133.333333333333,4,2,0,50,0,0
193859,-200,4,2,0,50,0,0
195359,-133.333333333333,4,2,0,50,0,0
197025,-133.333333333333,4,2,0,55,0,0
197192,-133.333333333333,4,2,0,60,0,0
197358,-133.333333333333,4,2,0,65,0,0
197525,-133.333333333333,4,2,0,70,0,0
198192,-80,4,2,0,80,0,0
208358,-133.333333333333,4,2,0,50,0,0
208692,-133.333333333333,4,2,0,5,0,0
208858,-80,4,2,0,80,0,0
219025,-133.333333333333,4,2,0,50,0,0
219525,-80,4,2,0,80,0,0
245692,-133.333333333333,4,2,0,50,0,0
246192,-80,4,2,0,80,0,0
251025,-133.333333333333,4,2,0,50,0,0
251525,-80,4,2,0,70,0,0
256358,-133.333333333333,4,2,0,50,0,0
256858,-100,4,2,0,60,0,0
261692,-133.333333333333,4,2,0,50,0,0
262192,-133.333333333333,4,2,0,35,0,0
263525,-133.333333333333,4,2,0,30,0,0
264858,-133.333333333333,4,2,0,25,0,0
266192,-133.333333333333,4,2,0,20,0,0
267525,-133.333333333333,4,2,0,15,0,0
268858,-133.333333333333,4,2,0,10,0,0
270192,-133.333333333333,4,2,0,5,0,0

[Colours]
Combo1 : 98,215,176
Combo2 : 220,183,152
Combo3 : 70,153,255
Combo4 : 199,227,237

[HitObjects]
48,104,8859,5,2,0:0:0:0:
111,147,9026,1,2,0:0:0:0:
182,120,9192,1,2,0:0:0:0:
190,43,9359,1,2,0:0:0:0:
420,45,9859,1,2,0:0:0:0:
420,45,10525,6,0,L|467:51,2,35,2|2|2,0:0|0:0|0:0,0:0:0:0:
359,92,10858,2,0,L|367:172,1,70,2|2,0:0|0:0,0:0:0:0:
464,280,11525,5,2,0:0:0:0:
401,237,11692,1,2,0:0:0:0:
330,264,11858,1,2,0:0:0:0:
322,341,12025,1,2,0:0:0:0:
92,339,12525,1,2,0:0:0:0:
92,339,13192,6,0,L|45:333,2,35,2|2|2,0:0|0:0|0:0,0:0:0:0:
153,292,13525,2,0,L|145:212,1,70,2|2,0:0|0:0,0:0:0:0:
322,341,14191,5,2,0:0:0:0:
385,384,14358,1,2,0:0:0:0:
456,357,14524,1,2,0:0:0:0:
464,280,14691,1,2,0:0:0:0:
256,192,15193,1,2,0:0:0:0:
256,192,15858,6,0,L|256:144,2,35,2|2|2,0:0|0:0|0:0,0:0:0:0:
310,246,16192,2,0,L|388:243,1,70,2|2,0:0|0:0,0:0:0:0:
190,43,16858,5,2,0:0:0:0:
127,0,17025,1,2,0:0:0:0:
56,27,17191,1,2,0:0:0:0:
48,104,17358,1,2,0:0:0:0:
256,192,17858,1,2,0:0:0:0:
256,192,18525,6,0,L|256:227,2,35,2|2|2,0:0|0:0|0:0,0:0:0:0:
202,138,18858,1,2,0:0:0:0:
181,138,19024,1,2,0:0:0:0:
160,139,19191,1,2,0:0:0:0:
139,140,19358,1,2,0:0:0:0:
36,276,19525,6,0,P|101:292|116:309,1,70,0|0,3:0|0:0,0:0:0:0:
208,384,19859,2,0,P|224:319|241:304,1,70
292,281,20192,1,8,0:0:0:0:
101,292,20525,5,0,3:0:0:0:
208,384,20692,2,0,P|223:353|224:318,1,70
173,260,21025,1,0,0:0:0:0:
224,318,21192,2,0,P|267:316|363:335,1,140,2|10,0:0|0:0,0:0:0:0:
423,381,21692,1,2,0:3:0:0:
508,252,22025,1,0,0:0:0:0:
454,196,22192,6,0,P|443:146|442:116,1,70,0|0,3:0|0:0,0:0:0:0:
380,31,22525,2,0,P|376:65|367:99,1,70
304,152,22858,2,0,L|458:124,1,140,8|0,0:0|3:0,0:0:0:0:
293,72,23358,2,0,L|224:59,1,70
78,109,23858,6,0,L|69:68,2,35,2|2|2,0:0|0:0|0:0,0:0:0:0:
100,183,24192,1,8,0:0:0:0:
100,183,24358,1,2,0:3:0:0:
269,340,24858,6,0,L|426:357,1,140,0|0,3:0|0:0,0:0:0:0:
464,301,25358,2,0,P|458:262|465:151,1,140
416,223,25858,2,0,L|276:207,1,140,0|0,3:0|0:0,0:0:0:0:
236,272,26358,5,0,0:0:0:0:
276,207,26525,2,0,B|281:144|281:144|289:135|289:135|296:49,1,140,2|10,0:0|0:0,0:0:0:0:
327,0,27025,1,2,0:3:0:0:
452,89,27358,1,0,0:0:0:0:
390,136,27525,6,0,P|381:179|378:214,1,70,0|0,3:0|0:0,0:0:0:0:
399,279,27858,1,0,0:0:0:0:
462,322,28025,1,0,0:0:0:0:
323,262,28192,2,0,P|292:262|249:269,1,70,8|0,0:0|0:0,0:0:0:0:
186,307,28525,1,0,3:0:0:0:
78,374,28692,6,0,P|37:363|31:266,1,140
81,228,29192,2,0,L|127:214,2,35,2|2|2,0:0|0:0|0:0,0:0:0:0:
12,203,29525,1,8,0:0:0:0:
12,203,29692,1,2,0:3:0:0:
241,198,30192,6,0,P|275:207|309:217,1,70,0|0,3:0|0:0,0:0:0:0:
353,281,30525,2,0,P|386:271|420:261,1,70
458,130,30858,2,0,P|415:116|390:195,1,140,8|0,0:0|3:0,0:0:0:0:
420,261,31358,1,0,0:0:0:0:
266,271,31692,5,0,0:0:0:0:
193,296,31858,2,0,P|153:312|123:328,1,70,2|2,0:0|0:0,0:0:0:0:
52,333,32192,1,10,0:0:0:0:
81,262,32358,1,2,0:3:0:0:
52,51,32692,1,0,0:0:0:0:
81,122,32858,6,0,P|119:116|169:125,1,70,0|0,3:0|0:0,0:0:0:0:
225,102,33192,2,0,L|234:21,1,70
309,41,33525,2,0,L|301:110,1,70,8|0,0:0|0:0,0:0:0:0:
295,187,33858,1,0,3:0:0:0:
379,229,34025,6,0,P|336:218|314:297,1,140
385,310,34525,2,0,L|471:324,1,70,2|2,0:0|0:0,0:0:0:0:
332,365,34858,1,10,0:0:0:0:
310,292,35025,1,2,0:3:0:0:
180,365,35358,1,0,0:0:0:0:
202,292,35525,6,0,P|209:225|207:178,1,105,0|0,3:0|0:0,0:0:0:0:
192,152,35858,2,0,L|117:156,1,70
63,207,36192,1,8,0:0:0:0:
0,162,36358,1,0,0:0:0:0:
0,162,36525,1,0,3:0:0:0:
122,155,36692,6,0,P|140:107|147:18,1,140
54,68,37192,2,0,P|102:86|191:93,1,140,2|10,0:0|0:0,0:0:0:0:
262,67,37692,1,2,0:3:0:0:
489,24,38192,6,0,P|475:75|470:103,1,70,0|0,3:0|0:0,0:0:0:0:
417,191,38525,2,0,P|409:156|399:123,1,70
496,203,38858,2,0,P|471:293|462:343,1,140,8|0,0:0|3:0,0:0:0:0:
386,325,39358,1,0,0:0:0:0:
320,366,39525,6,0,B|242:337|274:396|182:368,1,140,0|2,0:0|0:0,0:0:0:0:
101,253,40192,1,10,0:0:0:0:
88,327,40358,1,2,0:3:0:0:
88,327,40858,6,0,P|58:320|7:378,1,105.000004005432,2|0,3:2|0:0,0:0:0:0:
101,253,41359,2,0,P|85:226|8:231,1,105.000004005432
163,208,41859,2,0,P|171:178|113:127,1,105.000004005432,2|0,3:2|0:0,0:0:0:0:
238,220,42358,2,0,P|265:204|260:127,1,105.000004005432
196,332,42858,5,0,3:0:0:0:
196,332,43025,1,2,3:0:0:0:
196,332,43192,2,0,L|190:402,1,52.5000020027161,2|2,0:0|0:0,0:0:0:0:
247,271,43525,6,0,P|240:221|277:187,1,105.000004005432,2|0,3:2|0:0,0:0:0:0:
389,281,44025,2,0,P|349:250|351:200,1,105.000004005432
498,187,44525,2,0,P|448:194|414:156,1,105.000004005432,2|0,3:2|0:0,0:0:0:0:
509,43,45025,2,0,P|478:83|428:80,1,105.000004005432
314,78,45525,5,0,3:0:0:0:
314,78,45692,1,2,3:0:0:0:
314,78,45858,2,0,L|258:69,1,52.5000020027161,2|2,0:0|0:0,0:0:0:0:
84,65,46192,6,0,B|49:95|49:95|49:102|49:102|6:138,1,105.000004005432,2|0,3:2|0:0,0:0:0:0:
175,50,46692,2,0,B|218:65|218:65|224:61|224:61|277:81,1,105.000004005432
143,230,47192,2,0,B|145:276|145:276|150:280|150:280|152:336,1,105.000004005432,2|0,3:2|0:0,0:0:0:0:
139,126,47692,2,0,L|143:230,1,105.000004005432
152,332,48192,2,0,L|155:406,1,52.5000020027161,2|2,3:2|3:0,0:0:0:0:
143,230,48525,1,2,3:2:0:0:
152,332,48858,6,0,L|280:332,1,105.000004005432,4|2,3:2|0:0,0:0:0:0:
332,309,49358,1,0,3:0:0:0:
346,231,49525,2,0,L|241:231,1,105.000004005432,2|2,3:0|3:2,0:0:0:0:
472,231,50525,1,2,3:2:0:0:
241,231,50858,5,2,3:0:0:0:
346,231,51025,1,0,3:0:0:0:
131,44,51525,6,0,L|123:82,1,35,2|0,0:0|0:0,0:0:0:0:
123,78,51858,2,0,L|115:116,1,35,2|0,0:0|0:0,0:0:0:0:
115,112,52192,2,0,L|107:150,2,35,2|2|2,0:0|0:0|0:3,0:0:0:0:
309,62,54192,6,0,P|383:57|409:87,1,87.5,4|0,3:1|0:0,0:0:0:0:
476,18,54525,2,0,L|468:120,1,87.5,2|10,0:0|0:0,0:0:0:0:
361,258,54858,1,0,1:0:0:0:
304,179,55025,1,0,0:0:0:0:
512,188,55192,1,2,0:0:0:0:
455,267,55359,1,0,3:0:0:0:
413,180,55525,5,0,0:0:0:0:
398,345,55692,1,2,0:0:0:0:
242,289,55858,2,0,B|196:291|196:291|191:296|191:296|155:296,1,87.5,2|8,3:2|0:0,0:0:0:0:
201,212,56192,1,0,1:0:0:0:
301,345,56358,2,0,P|320:306|314:257,2,87.5,2|8|4,0:3|3:0|3:0,0:0:0:0:
242,289,56775,1,2,0:0:0:0:
242,289,56858,6,0,L|228:117,1,131.25,0|0,3:0|0:0,0:0:0:0:
186,98,57192,2,0,P|150:89|95:106,1,87.5,2|8,0:0|0:0,0:0:0:0:
231,158,57525,2,0,P|267:167|322:150,1,87.5,0|0,1:0|0:0,0:0:0:0:
412,66,57858,1,2,0:3:0:0:
412,66,58025,6,0,L|426:241,1,175,0|2,3:0|0:0,0:0:0:0:
446,325,58525,2,0,P|489:304|510:267,1,87.5,2|8,3:2|0:0,0:0:0:0:
320,243,58858,1,0,1:0:0:0:
285,323,59025,2,0,L|188:339,1,87.5,0|2,3:0|0:3,0:0:0:0:
17,279,59358,1,0,0:0:0:0:
95,384,59525,6,0,P|99:280|101:260,1,87.5,0|0,3:0|0:0,0:0:0:0:
153,229,59858,1,2,0:0:0:0:
46,143,60025,1,8,0:0:0:0:
160,65,60192,2,0,P|210:40|255:24,1,87.5,0|0,1:0|0:0,0:0:0:0:
101,0,60525,1,2,0:0:0:0:
101,0,60692,6,0,P|118:50|133:192,1,175,0|0,3:0|0:0,0:0:0:0:
0,126,61192,2,0,P|40:109|79:89,1,87.5,2|10,3:2|0:0,0:0:0:0:
133,170,61525,1,0,1:0:0:0:
101,0,61692,1,2,3:0:0:0:
249,121,61858,1,8,3:0:0:0:
79,89,62025,1,4,3:0:0:0:
249,121,62192,6,0,P|268:231|270:257,1,131.25,0|0,3:0|0:0,0:0:0:0:
269,294,62525,1,2,0:0:0:0:
172,227,62692,1,8,0:0:0:0:
172,227,62858,2,0,P|150:307|143:325,1,87.5,0|0,1:0|0:0,0:0:0:0:
269,294,63192,1,2,0:0:0:0:
442,205,63358,2,0,P|400:191|357:181,1,87.5,0|0,3:0|0:0,0:0:0:0:
363,367,63692,1,0,0:0:0:0:
363,367,63859,2,0,P|405:357|447:343,1,87.5,2|8,0:0|0:0,0:0:0:0:
501,274,64192,1,0,1:0:0:0:
309,245,64359,6,0,P|306:271|310:296,1,52.5000020027161,0|2,3:0|0:3,0:0:0:0:
90,142,64858,6,0,P|133:120|178:115,1,87.5,4|0,3:1|0:0,0:0:0:0:
238,171,65192,2,0,P|216:105|277:77,1,131.25,2|0,0:0|0:0,0:0:0:0:
303,76,65525,1,0,1:0:0:0:
351,148,65692,1,0,0:0:0:0:
242,193,65858,2,0,P|232:244|227:298,1,87.5,2|0,0:0|3:0,0:0:0:0:
288,355,66192,6,0,P|305:329|286:352,1,87.5
199,363,66525,2,0,B|82:354|157:315|27:312,1,175,2|0,3:2|1:0,0:0:0:0:
101,384,67025,1,2,3:0:0:0:
0,231,67192,1,8,3:0:0:0:
35,312,67358,6,0,B|152:303|77:264|207:261,1,175,4|0,3:0|0:0,0:0:0:0:
283,279,67858,1,2,0:0:0:0:
256,191,68025,1,8,0:0:0:0:
139,150,68192,2,0,P|120:203|115:252,1,87.5,0|0,1:0|0:0,0:0:0:0:
259,362,68525,1,2,0:0:0:0:
259,362,68692,6,0,B|278:309|282:276|282:276|311:321|373:331|414:281,1,218.75,0|0,3:0|0:0,0:0:0:0:
394,299,69192,2,0,B|422:268|409:234|369:217|369:217|336:253,1,131.25,2|0,3:2|0:0,0:0:0:0:
350,236,69525,2,0,L|446:252,1,87.5,0|0,1:0|3:0,0:0:0:0:
485,323,69858,1,2,0:3:0:0:
436,251,70025,6,0,B|460:132|397:204|438:72,1,175
494,16,70525,1,2,0:0:0:0:
435,81,70692,1,8,0:0:0:0:
494,16,70858,1,0,1:0:0:0:
237,73,71192,1,2,0:0:0:0:
258,201,71358,6,0,B|166:120|197:211|103:109,1,175
83,37,71858,1,2,0:0:0:0:
110,116,72025,1,8,0:0:0:0:
83,37,72191,1,0,1:0:0:0:
13,205,72358,5,2,3:0:0:0:
91,207,72525,1,8,3:0:0:0:
91,285,72692,1,4,3:0:0:0:
0,301,72858,6,0,B|54:273|54:273|110:318|74:374,1,175,0|2,3:0|0:0,0:0:0:0:
74,372,73358,1,8,0:0:0:0:
178,345,73525,1,0,1:0:0:0:
270,274,73858,5,2,0:0:0:0:
179,254,74025,2,0,L|370:242,1,175,0|0,3:0|0:0,0:0:0:0:
441,236,74525,1,2,0:0:0:0:
375,107,74692,1,8,0:0:0:0:
245,136,74858,1,0,1:0:0:0:
201,60,75025,1,0,3:0:0:0:
160,225,75192,1,0,0:0:0:0:
116,301,75358,1,0,0:0:0:0:
305,344,75525,5,2,3:2:0:0:
381,356,75692,1,2,0:0:0:0:
392,280,75858,1,2,0:0:0:0:
316,268,76025,1,2,0:0:0:0:
466,92,76525,1,2,3:2:0:0:
466,92,77192,6,0,L|475:51,2,35,2|2|2,0:0|0:0|0:0,0:0:0:0:
442,165,77525,2,0,L|373:163,1,70,2|10,0:0|0:0,0:0:0:0:
294,161,77858,1,2,0:3:0:0:
219,26,78191,5,2,3:2:0:0:
143,14,78358,1,2,0:0:0:0:
107,81,78524,1,2,0:0:0:0:
183,93,78691,1,2,0:0:0:0:
80,300,79192,1,2,3:2:0:0:
80,300,79858,6,0,L|74:256,2,35,2|2|2,0:0|0:0|0:0,0:0:0:0:
157,303,80192,2,0,L|144:234,1,70,2|8,0:0|0:0,0:0:0:0:
131,158,80525,1,2,0:3:0:0:
276,207,80858,5,2,3:2:0:0:
352,219,81025,1,2,0:0:0:0:
276,207,81192,1,2,0:0:0:0:
352,219,81359,1,2,0:0:0:0:
493,36,81858,1,2,3:2:0:0:
493,36,82525,6,0,P|495:73|490:81,2,35,2|2|2,0:0|0:0|0:0,0:0:0:0:
416,27,82858,2,0,P|409:61|420:94,1,70,2|8,0:0|0:0,0:0:0:0:
491,287,83275,6,0,L|400:272,1,70,2|0,0:0|0:0,0:0:0:0:
340,250,83525,6,0,B|306:284|328:319|328:319|345:294|353:288,1,105.000004005432,2|0,3:2|0:0,0:0:0:0:
489,208,83775,6,0,L|398:193,1,87.5,2|0,0:0|0:0,0:0:0:0:
402,193,84025,1,2,0:0:0:0:
40,96,84525,1,2,3:2:0:0:
40,96,85192,6,0,B|22:98|22:98|7:90,2,35,2|2|2,0:0|0:0|0:0,0:0:0:0:
12,11,85525,2,0,B|48:7|48:7|78:29,1,70,2|8,3:2|0:0,0:0:0:0:
117,91,85858,1,2,0:3:0:0:
263,43,86192,6,0,P|277:88|276:118,1,70,0|0,3:0|0:0,0:0:0:0:
342,203,86525,2,0,P|343:168|355:135,2,70,0|0|8,0:0|0:0|0:0,0:0:0:0:
390,263,87025,1,0,0:0:0:0:
258,271,87192,1,0,3:0:0:0:
186,299,87358,6,0,L|328:314,1,140
252,348,87858,2,0,L|157:357,1,70,2|2,0:0|0:0,0:0:0:0:
105,365,88192,1,10,0:0:0:0:
252,348,88358,1,2,0:3:0:0:
0,251,88692,1,0,0:0:0:0:
107,287,88858,6,0,P|114:246|109:216,1,70,0|0,3:0|0:0,0:0:0:0:
0,117,89192,2,0,P|32:142|60:153,1,70
208,105,89525,2,0,P|169:120|146:139,1,70,8|0,0:0|0:0,0:0:0:0:
86,42,89858,1,0,3:0:0:0:
148,137,90025,6,0,B|235:113|196:168|283:141,1,140
353,108,90525,2,0,L|357:60,2,35,2|2|2,0:0|0:0|0:0,0:0:0:0:
452,278,90858,6,0,P|486:258|448:269,1,105.000004005432,10|2,0:0|0:3,0:0:0:0:
389,326,91108,6,0,P|368:279|377:229,1,87.5,2|0,0:0|0:0,0:0:0:0:
370,244,91358,1,2,0:0:0:0:
278,360,91525,6,0,L|197:365,1,70,0|0,3:0|0:0,0:0:0:0:
151,271,91858,1,0,0:0:0:0:
0,263,92025,2,0,L|81:268,1,70,0|8,0:0|0:0,0:0:0:0:
151,271,92358,2,0,P|146:236|128:207,1,70,0|0,0:0|3:0,0:0:0:0:
106,362,92692,2,0,B|167:358|167:358|185:366|185:366|250:361,1,140
318,342,93192,6,0,L|328:378,2,35,2|2|2,0:0|0:0|0:0,0:0:0:0:
282,273,93525,1,10,0:0:0:0:
314,202,93692,1,2,0:3:0:0:
442,254,94025,1,0,0:0:0:0:
396,190,94192,5,0,3:0:0:0:
458,145,94358,2,0,P|408:158|338:101,1,140
424,8,94858,2,0,P|423:42|415:76,1,70,8|0,0:0|0:0,0:0:0:0:
415,76,95192,1,0,3:0:0:0:
280,26,95358,6,0,L|130:34,1,140
72,70,95858,2,0,P|84:119|82:193,1,105,2|0,0:0|0:0,0:0:0:0:
23,213,96192,6,0,L|0:209,1,23.3333333333333,10|0,0:0|0:0,0:0:0:0:
88,246,96358,6,0,L|119:251,1,23.3333333333333,2|0,0:3|0:0,0:0:0:0:
167,328,96581,6,0,P|167:315|164:304,1,23.3333333333333,2|0,0:0|0:0,0:0:0:0:
301,340,96858,6,0,L|303:363,1,23.3333333333333,2|0,3:2|0:0,0:0:0:0:
318,345,97025,1,0,0:0:0:0:
349,274,97192,1,0,0:0:0:0:
425,275,97358,1,0,0:0:0:0:
349,274,97525,2,0,P|339:224|339:183,1,70,8|0,0:0|0:0,0:0:0:0:
376,138,97858,1,0,3:0:0:0:
338,205,98025,6,0,L|256:197,1,70
387,120,98358,1,0,0:0:0:0:
434,59,98525,2,0,L|458:24,2,35,2|2|2,0:0|0:0|0:0,0:0:0:0:
397,138,98858,1,10,0:0:0:0:
433,206,99025,1,2,0:3:0:0:
390,384,99358,1,0,0:0:0:0:
339,325,99525,6,0,P|282:314|259:317,1,70,0|0,3:0|0:0,0:0:0:0:
390,384,99858,2,0,B|431:389|431:389|458:365,1,70
330,255,100192,2,0,L|340:335,1,70,8|0,0:0|0:0,0:0:0:0:
380,193,100525,1,0,3:0:0:0:
338,324,100692,6,0,L|184:303,1,140
129,337,101192,2,0,L|138:380,2,35,2|2|2,0:0|0:0|0:0,0:0:0:0:
136,260,101525,1,10,0:0:0:0:
129,337,101692,6,0,L|104:337,1,23.3333333333333,2|0,0:3|0:0,0:0:0:0:
0,200,102025,6,0,L|23:200,1,23.3333333333333,2|0,0:0|0:0,0:0:0:0:
93,237,102192,5,0,3:0:0:0:
150,186,102358,1,0,0:0:0:0:
121,114,102525,1,0,0:0:0:0:
44,124,102692,1,0,0:0:0:0:
23,200,102858,2,0,P|25:239|16:286,1,70,8|0,0:0|0:0,0:0:0:0:
99,383,103192,2,0,P|94:348|96:313,1,70,0|0,3:0|0:0,0:0:0:0:
14,352,103525,6,0,P|49:310|117:332,1,105
112,319,103858,2,0,P|143:335|149:335,2,35,2|2|2,0:0|0:0|0:0,0:0:0:0:
221,342,104192,1,10,0:0:0:0:
290,309,104358,1,2,0:3:0:0:
437,343,104692,1,0,0:0:0:0:
368,310,104858,6,0,P|361:258|363:232,1,70,0|0,3:0|0:0,0:0:0:0:
289,213,105192,2,0,P|320:171|340:154,1,70
301,88,105525,2,0,P|369:75|439:76,1,140,8|0,0:0|3:0,0:0:0:0:
262,21,106025,6,0,P|193:33|123:32,1,140
48,11,106525,2,0,L|12:3,2,35,2|2|2,0:0|0:0|0:0,0:0:0:0:
67,85,106858,1,10,0:0:0:0:
123,32,107025,1,2,0:3:0:0:
123,250,107525,6,0,B|80:316|128:287|86:362,1,105.000004005432,2|0,3:2|0:0,0:0:0:0:
209,217,108025,2,0,B|287:221|238:194|308:193,1,105.000004005432
137,159,108525,2,0,B|101:88|102:144|66:84,1,105.000004005432,2|0,3:2|0:0,0:0:0:0:
123,250,109025,2,0,P|81:270|20:237,1,105.000004005432
209,217,109525,5,0,3:0:0:0:
209,217,109692,1,2,3:0:0:0:
209,217,109858,2,0,P|248:200|264:201,1,52.5000020027161,2|2,0:0|0:0,0:0:0:0:
418,193,110192,6,0,B|432:150|385:142|385:142|396:161|394:175,1,105.000004005432,2|0,3:2|0:0,0:0:0:0:
459,315,110692,2,0,B|489:348|519:311|519:311|497:311|487:303,1,105.000004005432
332,290,111192,2,0,B|287:299|304:344|304:344|315:325|325:320,1,105.000004005432,2|0,3:2|0:0,0:0:0:0:
402,265,111692,5,0,0:0:0:0:
333,216,111858,2,0,P|289:201|277:199,1,52.5000020027161
445,177,112192,5,0,3:0:0:0:
459,170,112358,1,2,3:0:0:0:
474,165,112525,1,2,0:0:0:0:
489,161,112692,1,2,0:0:0:0:
408,28,112858,6,0,P|368:44|307:83,1,105.000004005432,2|0,3:2|0:0,0:0:0:0:
343,155,113358,2,0,P|299:152|228:162,1,105.000004005432
230,242,113858,2,0,P|192:221|122:199,1,105.000004005432,2|0,3:2|0:0,0:0:0:0:
90,273,114358,2,0,P|64:238|10:189,1,105.000004005432
133,202,114858,2,0,P|151:164|159:155,1,52.5000020027161,2|2,3:2|3:0,0:0:0:0:
90,273,115192,1,2,3:2:0:0:
90,273,115525,6,0,B|85:328|85:328|144:362,1,105.000004005432,4|2,3:2|0:0,0:0:0:0:
160,238,116025,1,0,3:0:0:0:
198,317,116192,2,0,B|203:262|203:262|144:228,1,105.000004005432,2|2,3:0|3:2,0:0:0:0:
452,354,117192,1,2,3:2:0:0:
444,196,117525,1,2,0:3:0:0:
413,268,117692,1,0,3:0:0:0:
453,31,118192,6,0,B|464:27|480:30|480:30|417:-17|339:6|410:87|266:43,1,262.5,0|0,3:0|3:0,0:0:0:0:
334,208,118858,6,0,B|383:226|383:226|421:127,1,140,8|0,0:0|0:0,0:0:0:0:
414,144,119358,1,0,3:0:0:0:
300,285,119525,6,0,P|266:282|232:289,1,70,0|2,0:0|0:0,0:0:0:0:
166,333,119858,1,2,3:2:0:0:
63,215,120025,1,2,0:0:0:0:
66,293,120192,1,10,0:0:0:0:
231,173,120358,1,2,0:3:0:0:
162,137,120525,1,2,0:0:0:0:
9,19,120858,6,0,P|64:14|85:35,1,87.5,4|0,3:1|0:0,0:0:0:0:
138,230,121192,2,0,P|83:235|62:214,1,87.5,2|8,0:0|0:0,0:0:0:0:
23,121,121525,1,0,1:0:0:0:
109,136,121692,1,0,0:0:0:0:
251,238,121858,1,2,0:0:0:0:
337,223,122025,1,0,3:0:0:0:
444,93,122192,5,0,0:0:0:0:
303,140,122358,1,2,0:0:0:0:
419,263,122525,2,0,P|429:217|414:173,1,87.5,2|8,3:2|0:0,0:0:0:0:
337,223,122858,1,0,1:0:0:0:
417,350,123025,2,0,B|463:331|463:331|503:337,2,87.5,2|8|4,3:0|3:0|3:0,0:0:0:0:
347,384,123442,1,2,0:0:0:0:
347,384,123525,6,0,P|292:358|242:349,1,87.5,2|0,3:2|0:0,0:0:0:0:
86,248,123858,2,0,P|156:281|220:292,1,131.25,2|0,0:0|0:0,0:0:0:0:
275,258,124192,2,0,L|292:169,1,87.5,0|0,1:0|0:0,0:0:0:0:
447,28,124525,1,2,0:0:0:0:
508,90,124692,6,0,P|464:61|348:87,1,175,0|0,3:0|0:0,0:0:0:0:
434,169,125192,2,0,P|418:143|431:170,1,87.5,2|8,3:2|0:0,0:0:0:0:
428,155,125525,1,0,1:0:0:0:
469,298,125692,1,0,3:0:0:0:
338,228,125858,2,0,P|279:239|241:252,1,87.5,2|0,0:3|0:0,0:0:0:0:
123,338,126192,6,0,L|135:180,1,131.25,0|0,3:0|0:0,0:0:0:0:
140,133,126525,1,2,0:0:0:0:
0,186,126692,1,8,0:0:0:0:
140,133,126858,2,0,P|194:132|226:143,1,87.5,0|0,1:0|0:0,0:0:0:0:
83,0,127192,1,2,0:0:0:0:
0,41,127358,2,0,P|128:43|204:17,1,175,0|0,3:0|0:0,0:0:0:0:
140,133,127858,5,2,3:2:0:0:
273,67,128025,1,8,0:0:0:0:
385,164,128192,2,0,P|403:229|409:259,1,87.5,0|2,1:0|3:0,0:0:0:0:
463,123,128525,1,8,3:0:0:0:
485,38,128692,1,4,3:0:0:0:
385,164,128858,6,0,P|394:206|407:248,1,87.5,0|0,3:0|0:0,0:0:0:0:
260,363,129192,2,0,P|222:339|184:318,1,87.5,2|8,0:0|0:0,0:0:0:0:
303,189,129525,2,0,P|304:266|230:251,1,175,0|2,1:0|0:0,0:0:0:0:
329,304,130025,6,0,P|390:314|505:338,1,175,0|0,3:0|0:0,0:0:0:0:
389,172,130525,2,0,P|333:183|278:193,1,87.5,2|8,3:2|0:0,0:0:0:0:
250,259,130858,1,0,1:0:0:0:
359,101,131025,6,0,P|333:106|307:111,1,52.5000020027161,0|2,3:0|0:3,0:0:0:0:
65,107,131525,6,0,P|75:60|164:82,1,131.25,4|0,3:1|0:0,0:0:0:0:
147,54,131858,2,0,P|162:102|138:137,1,87.5,2|8,0:0|0:0,0:0:0:0:
61,239,132192,1,0,1:0:0:0:
57,221,132358,1,0,0:0:0:0:
194,298,132525,1,2,0:0:0:0:
129,357,132692,2,0,P|76:361|38:370,1,87.5,0|0,3:0|0:0,0:0:0:0:
206,280,133025,5,2,0:0:0:0:
279,327,133192,2,0,P|332:323|370:314,1,87.5,2|8,3:2|0:0,0:0:0:0:
476,116,133525,1,0,1:0:0:0:
315,52,133692,1,2,3:0:0:0:
461,30,133858,1,8,3:0:0:0:
405,168,134025,1,4,3:0:0:0:
237,163,134192,6,0,P|278:148|321:140,1,87.5,0|0,3:0|0:0,0:0:0:0:
157,102,134525,2,0,P|116:117|73:125,1,87.5,2|8,0:0|0:0,0:0:0:0:
157,188,134858,1,0,1:0:0:0:
229,57,135025,1,0,0:0:0:0:
85,39,135192,1,2,0:0:0:0:
237,163,135358,6,0,P|246:233|256:349,1,175,0|0,3:0|0:0,0:0:0:0:
429,168,135858,2,0,B|375:171|345:124|345:124|343:147|328:164,1,131.25,2|0,3:2|0:0,0:0:0:0:
335,153,136192,1,0,1:0:0:0:
437,45,136358,1,0,3:0:0:0:
455,192,136525,2,0,L|460:317,1,87.5
462,354,136775,1,2,0:0:0:0:
462,354,136859,6,0,P|409:345|322:356,1,131.25,2|0,3:2|0:0,0:0:0:0:
257,366,137192,2,0,P|208:345|169:351,1,87.5,2|8,0:0|0:0,0:0:0:0:
92,378,137525,1,0,1:0:0:0:
175,348,137692,1,0,0:0:0:0:
68,298,137858,1,2,0:0:0:0:
38,215,138025,6,0,L|26:25,1,175,0|0,3:0|0:0,0:0:0:0:
109,10,138525,2,0,P|132:71|215:56,1,131.25,2|0,3:2|0:0,0:0:0:0:
228,52,138858,1,0,1:0:0:0:
79,138,139025,1,2,3:0:0:0:
161,166,139192,1,8,3:0:0:0:
119,245,139358,1,4,3:0:0:0:
27,271,139525,6,0,P|85:272|131:340,1,131.25,0|0,3:0|0:0,0:0:0:0:
142,367,139858,2,0,L|256:360,1,87.5,2|8,0:0|0:0,0:0:0:0:
316,349,140192,1,0,1:0:0:0:
380,262,140525,5,2,0:0:0:0:
408,179,140692,2,0,L|417:353,1,175,0|2,3:0|0:0,0:0:0:0:
490,194,141192,2,0,P|511:150|495:111,1,87.5,2|8,3:2|0:0,0:0:0:0:
355,21,141525,1,0,1:0:0:0:
428,68,141692,1,0,3:0:0:0:
355,21,141858,2,0,B|305:2|321:39|270:21,1,87.5,2|0,0:3|0:0,0:0:0:0:
93,118,142192,5,0,3:0:0:0:
80,116,142359,1,2,0:0:0:0:
85,104,142525,1,2,0:0:0:0:
98,106,142692,1,2,0:0:0:0:
110,202,142858,1,8,0:0:0:0:
314,257,143358,6,0,L|419:266,1,105,2|0,0:0|0:0,0:0:0:0:
432,268,143692,1,2,0:0:0:0:
427,280,143858,1,2,0:0:0:0:
414,278,144025,1,2,0:0:0:0:
402,182,144191,1,8,0:0:0:0:
168,344,144858,5,2,3:2:0:0:
158,383,145025,1,2,0:0:0:0:
120,366,145191,1,2,0:0:0:0:
127,325,145358,1,2,0:0:0:0:
270,342,145525,1,8,0:0:0:0:
321,134,146024,6,0,L|330:29,1,105,2|0,0:0|0:0,0:0:0:0:
333,12,146358,1,2,0:0:0:0:
380,72,146525,1,2,3:2:0:0:
420,0,146692,1,2,0:0:0:0:
460,64,146858,1,8,0:0:0:0:
380,72,147025,1,2,3:0:0:0:
329,297,147525,6,0,L|476:315,1,140,2|2,3:2|0:0,0:0:0:0:
464,236,148025,1,2,0:0:0:0:
329,297,148192,1,8,0:0:0:0:
329,297,148692,6,0,B|269:302|269:302|253:314|253:314|193:317,1,140,2|2,0:0|0:0,0:0:0:0:
125,281,149192,1,2,0:0:0:0:
8,335,149358,1,2,0:0:0:0:
48,269,149525,1,8,0:0:0:0:
48,269,150192,5,2,3:2:0:0:
92,189,150358,1,2,0:0:0:0:
31,120,150525,1,2,0:0:0:0:
75,40,150691,1,2,0:0:0:0:
31,120,150858,1,8,0:0:0:0:
31,120,151358,6,0,L|186:130,1,140,2|2,0:0|0:0,0:0:0:0:
261,134,151858,1,2,3:2:0:0:
323,15,152025,1,2,0:0:0:0:
413,21,152192,1,8,0:0:0:0:
360,94,152358,1,2,3:0:0:0:
386,323,152858,6,0,L|464:333,1,70,2|2,3:2|0:0,0:0:0:0:
329,258,153192,2,0,L|251:268,1,70,2|2,0:0|0:0,0:0:0:0:
206,323,153525,1,8,0:0:0:0:
206,323,153692,2,0,L|136:314,1,70
259,266,154025,6,0,L|274:119,1,140,2|2,0:0|0:0,0:0:0:0:
350,126,154525,2,0,P|380:194|437:181,1,140,2|8,0:0|0:0,0:0:0:0:
433,184,155358,1,0,0:0:0:0:
423,260,155525,6,0,L|414:340,1,70,2|2,3:2|0:0,0:0:0:0:
433,184,155858,2,0,L|440:114,1,70,2|2,0:0|0:0,0:0:0:0:
449,37,156192,1,8,0:0:0:0:
439,114,156358,1,0,0:0:0:0:
423,260,156525,1,0,0:0:0:0:
406,335,156692,6,0,P|344:328|251:322,1,140,2|2,0:0|0:0,0:0:0:0:
198,359,157192,2,0,L|186:260,1,70,2|2,3:2|0:0,0:0:0:0:
179,212,157525,1,8,0:0:0:0:
179,212,157692,1,2,0:3:0:0:
0,362,158025,1,0,0:0:0:0:
34,292,158192,6,0,P|41:246|42:216,1,70,2|2,3:2|0:0,0:0:0:0:
90,162,158525,2,0,P|83:116|82:86,1,70,2|2,0:0|0:0,0:0:0:0:
41,222,158858,1,8,0:0:0:0:
90,162,159025,2,0,L|175:160,1,70
4,100,159359,6,0,P|-5:36|55:17,1,140,2|2,0:0|0:0,0:0:0:0:
120,59,159858,2,0,P|164:64|198:47,1,70,2|2,0:0|0:0,0:0:0:0:
249,9,160192,1,8,0:0:0:0:
419,164,160692,1,0,0:0:0:0:
494,176,160858,6,0,L|483:265,2,70,2|2|2,3:2|0:0|0:0,0:0:0:0:
466,104,161358,1,2,0:0:0:0:
419,164,161525,2,0,P|403:199|298:207,1,140,8|0,0:0|0:0,0:0:0:0:
239,245,162025,6,0,L|249:406,1,140,2|2,0:0|0:0,0:0:0:0:
206,319,162525,1,2,3:2:0:0:
139,280,162692,1,2,0:0:0:0:
74,322,162858,1,8,0:0:0:0:
138,364,163025,1,2,0:3:0:0:
4,175,163525,6,0,B|-1:139|-1:139|11:107,1,70,2|2,3:2|0:0,0:0:0:0:
80,186,163859,2,0,B|93:155|93:155|88:119,1,70,2|2,0:0|0:0,0:0:0:0:
60,46,164192,2,0,B|93:12|93:12|121:57|189:37,1,140,8|0,0:0|0:0,0:0:0:0:
243,8,164692,6,0,P|217:72|215:141,1,140,2|2,0:0|0:0,0:0:0:0:
288,165,165192,2,0,P|315:100|317:31,1,140,2|8,0:0|0:0,0:0:0:0:
277,260,166025,1,0,0:0:0:0:
267,336,166192,6,0,L|346:350,1,70,2|2,3:2|0:0,0:0:0:0:
354,221,166525,2,0,L|381:296,1,70,2|2,0:0|0:0,0:0:0:0:
497,238,166858,2,0,L|445:299,1,70,8|0,0:0|0:0,0:0:0:0:
478,364,167192,1,0,0:0:0:0:
451,291,167358,6,0,B|418:191|471:251|441:149,1,140,2|2,0:0|0:0,0:0:0:0:
473,84,167859,2,0,P|425:127|350:82,1,140,2|8,3:2|0:0,3:0:0:0:
323,35,168358,1,2,0:3:0:0:
196,123,168692,1,0,0:0:0:0:
188,199,168859,6,0,L|175:301,1,70,2|2,3:2|0:0,0:0:0:0:
83,343,169192,2,0,L|-19:330,1,70,2|2,0:0|0:0,0:0:0:0:
182,351,169525,2,0,B|184:365|196:383|196:383|181:370|166:368,1,70,8|0,0:0|0:0,0:0:0:0:
264,330,169858,1,0,0:0:0:0:
264,330,170025,6,0,L|419:338,1,140,2|2,0:0|0:0,0:0:0:0:
372,251,170525,2,0,L|527:259,1,140,2|8,0:0|0:0,0:0:0:0:
412,50,171525,6,0,P|376:55|346:87,1,70,2|2,3:2|0:0,0:0:0:0:
266,92,171859,2,0,P|260:58|274:27,1,70,2|2,0:0|0:0,0:0:0:0:
323,161,172192,2,0,P|284:124|200:117,1,140,8|0,0:0|0:0,0:0:0:0:
124,177,172692,1,2,0:0:0:0:
199,123,172858,6,0,P|267:124|321:168,1,140,0|2,0:0|3:2,0:0:0:0:
328,244,173358,1,2,0:0:0:0:
328,244,173525,1,8,0:0:0:0:
318,320,173692,1,2,0:3:0:0:
146,296,174192,6,0,L|82:290,1,52.5000020027161,2|2,3:2|0:0,0:0:0:0:
115,217,174525,2,0,L|51:211,1,52.5000020027161,2|2,0:0|0:0,0:0:0:0:
16,281,174858,1,8,0:0:0:0:
146,296,175359,6,0,P|200:324|229:311,1,78.7500030040742,2|0,0:0|0:0,0:0:0:0:
224,313,175692,1,2,0:0:0:0:
281,259,175859,2,0,L|344:262,1,52.5000020027161,2|2,0:0|0:0,0:0:0:0:
412,262,176192,1,8,0:0:0:0:
491,44,176858,6,0,P|487:70|484:97,1,52.5000020027161,2|2,3:2|0:0,0:0:0:0:
410,126,177192,2,0,P|413:151|416:178,1,52.5000020027161,2|2,0:0|0:0,0:0:0:0:
470,235,177525,1,8,0:0:0:0:
491,44,178025,6,0,P|460:28|399:35,1,78.7500030040742,2|0,0:0|0:0,0:0:0:0:
408,38,178358,1,2,0:0:0:0:
342,82,178525,2,0,L|291:90,1,52.5000020027161,2|2,3:2|0:0,0:0:0:0:
222,45,178858,1,8,0:0:0:0:
222,45,179025,1,2,0:3:0:0:
351,182,179525,6,0,L|415:188,1,52.5000020027161,2|2,3:2|0:0,0:0:0:0:
382,261,179858,2,0,L|446:267,1,52.5000020027161,2|2,0:0|0:0,0:0:0:0:
481,197,180191,1,8,0:0:0:0:
351,182,180692,6,0,P|297:154|268:167,1,78.7500030040742,2|0,0:0|0:0,0:0:0:0:
273,165,181025,1,2,0:0:0:0:
216,219,181192,2,0,L|153:216,1,52.5000020027161,2|2,0:0|0:0,0:0:0:0:
85,216,181525,1,8,0:0:0:0:
253,312,182192,6,0,L|194:317,1,52.5000020027161,10|2,0:0|0:0,0:0:0:0:
296,247,182525,1,2,0:0:0:0:
196,326,182692,6,0,L|137:331,1,52.5000020027161,8|10,3:0|0:0,0:0:0:0:
296,247,183025,1,2,0:0:0:0:
139,340,183192,6,0,L|80:345,1,52.5000020027161,4|2,3:0|0:0,0:0:0:0:
0,296,187525,6,0,B|117:321|68:229|218:266,1,210.000008010865,2|0,0:0|0:0,0:0:0:0:
257,331,188525,1,0,0:0:0:0:
242,341,188692,2,0,P|222:313|354:260,1,245,2|0,0:0|0:0,0:0:0:0:
382,381,190192,6,0,L|397:162,1,210.000008010865,2|0,0:0|0:0,0:0:0:0:
487,172,191192,1,0,0:0:0:0:
484,189,191359,2,0,P|432:254|348:249,1,175,2|0,0:0|0:0,0:0:0:0:
230,99,192525,6,0,B|274:89|259:117|309:106,1,70,2|0,0:3|0:0,0:0:0:0:
315,113,192859,6,0,P|284:89|169:188,1,210.000008010865,2|0,0:0|0:0,0:0:0:0:
114,243,193859,1,0,0:0:0:0:
123,257,194025,2,0,B|221:293|203:220|292:252,1,175,2|0,0:0|0:0,0:0:0:0:
414,45,195192,1,0,0:0:0:0:
414,45,195359,6,0,P|455:61|469:127,1,105.000004005432,2|2,3:2|0:0,0:0:0:0:
427,186,195858,2,0,P|421:224|425:294,1,105.000004005432,2|0,0:0|0:0,0:0:0:0:
357,329,196358,1,2,0:0:0:0:
357,329,196525,2,0,P|325:307|259:281,1,105.000004005432,2|2,0:0|0:0,0:0:0:0:
185,295,197025,5,2,3:2:0:0:
151,195,197192,1,2,3:2:0:0:
105,370,197358,1,2,3:2:0:0:
0,258,197525,5,2,3:2:0:0:
228,172,197692,1,2,0:3:0:0:
228,172,198192,6,0,P|278:207|325:179,1,87.5,4|0,3:1|0:0,0:0:0:0:
355,72,198525,2,0,P|376:108|363:149,1,87.5,2|8,0:0|0:0,0:0:0:0:
492,0,198858,2,0,P|480:61|470:175,1,175,0|2,1:0|0:0,0:0:0:0:
493,257,199358,1,0,3:0:0:0:
350,319,199525,6,0,P|339:295|352:319,1,87.5
418,378,199858,2,0,B|304:377|371:336|250:340,1,175,2|0,3:2|1:0,0:0:0:0:
136,236,200358,1,2,3:0:0:0:
50,217,200525,1,8,3:0:0:0:
0,289,200692,1,4,3:0:0:0:
171,316,200858,6,0,P|169:258|186:138,1,175,0|2,3:0|0:0,0:0:0:0:
240,74,201359,1,8,0:0:0:0:
98,130,201525,2,0,L|203:144,1,87.5,0|0,1:0|0:0,0:0:0:0:
76,126,201859,1,0,0:0:0:0:
240,74,202025,6,0,L|446:101,1,175,2|2,3:2|0:0,0:0:0:0:
347,39,202525,2,0,P|329:125|335:137,1,87.5,2|8,3:2|0:0,0:0:0:0:
386,184,202858,1,0,1:0:0:0:
477,318,203025,1,0,3:0:0:0:
408,373,203192,1,2,0:3:0:0:
477,318,203358,1,0,0:0:0:0:
378,260,203525,6,0,L|285:267,1,87.5,0|0,3:0|0:0,0:0:0:0:
460,242,203858,2,0,B|489:278|489:278|477:317,1,87.5,2|8,0:0|0:0,0:0:0:0:
378,260,204192,2,0,P|363:188|356:84,1,175,0|2,1:0|0:0,0:0:0:0:
281,192,204692,2,0,P|211:168|117:123,1,175,0|0,3:0|0:0,0:0:0:0:
173,242,205192,2,0,P|140:270|89:305,1,87.5,2|8,3:2|0:0,0:0:0:0:
281,192,205525,1,0,1:0:0:0:
254,275,205692,1,2,3:0:0:0:
334,308,205858,1,8,3:0:0:0:
411,266,206025,1,4,3:0:0:0:
505,384,206192,6,0,P|500:340|495:297,1,87.5,0|0,3:0|0:0,0:0:0:0:
415,141,206692,1,8,0:0:0:0:
330,162,206858,2,0,P|334:118|339:75,1,87.5,0|0,1:0|0:0,0:0:0:0:
326,186,207192,1,2,0:0:0:0:
314,272,207358,6,0,B|300:380|300:380|206:351,1,175,0|0,3:0|0:0,0:0:0:0:
154,329,207858,1,2,3:2:0:0:
131,244,208025,1,8,0:0:0:0:
135,331,208192,1,0,1:0:0:0:
50,354,208358,6,0,P|0:317|13:265,1,105.000004005432,0|0,3:0|0:0,0:0:0:0:
50,204,208858,6,0,P|53:137|53:108,1,87.5,4|0,0:1|0:0,0:0:0:0:
119,247,209192,2,0,B|162:267|162:267|209:240,1,87.5,2|8,0:0|0:0,0:0:0:0:
267,194,209525,1,0,1:0:0:0:
275,178,209692,1,0,0:0:0:0:
366,250,209858,1,2,0:0:0:0:
451,269,210025,6,0,L|270:277,1,175,0|0,3:0|0:0,0:0:0:0:
474,270,210525,2,0,L|479:175,1,87.5,2|8,3:2|0:0,0:0:0:0:
391,46,210858,1,0,1:0:0:0:
331,109,211025,1,2,3:0:0:0:
248,80,211192,1,8,3:0:0:0:
67,108,211358,1,4,3:0:0:0:
107,1,211525,6,0,P|97:43|89:86,1,87.5,0|0,3:0|0:0,0:0:0:0:
183,204,211858,2,0,P|175:160|165:118,1,87.5,2|8,0:0|0:0,0:0:0:0:
103,239,212192,2,0,P|93:281|85:324,1,87.5,0|0,1:0|0:0,0:0:0:0:
155,377,212525,1,2,0:0:0:0:
3,304,212692,6,0,L|181:299,1,175,0|2,3:0|0:0,0:0:0:0:
293,238,213192,2,0,B|327:223|314:188|314:188|306:207|286:216,1,87.5,2|8,3:2|0:0,0:0:0:0:
298,208,213525,1,0,1:0:0:0:
349,296,213692,1,0,3:0:0:0:
433,274,213858,1,2,0:3:0:0:
328,301,214025,5,0,0:0:0:0:
241,317,214192,2,0,L|138:335,1,87.5,0|0,3:0|0:0,0:0:0:0:
312,384,214525,2,0,L|398:368,1,87.5,2|8,0:0|0:0,0:0:0:0:
443,187,214858,2,0,P|434:245|433:284,1,87.5,0|0,1:0|0:0,0:0:0:0:
300,154,215192,1,2,0:0:0:0:
331,72,215358,6,0,P|348:186|350:263,1,175,0|0,3:0|0:0,0:0:0:0:
428,28,215858,2,0,P|419:86|418:125,1,87.5,2|8,3:2|0:0,0:0:0:0:
443,187,216192,1,0,1:0:0:0:
290,151,216358,1,2,3:0:0:0:
187,294,216525,1,8,3:0:0:0:
125,356,216692,1,4,3:0:0:0:
197,313,216858,6,0,P|243:321|298:333,1,87.5,0|0,3:0|0:0,0:0:0:0:
365,360,217192,1,2,0:0:0:0:
365,360,217358,1,8,0:0:0:0:
268,244,217525,2,0,P|222:236|167:224,1,87.5,0|0,1:0|0:0,0:0:0:0:
81,178,217858,1,2,0:0:0:0:
182,227,218025,6,0,P|197:155|202:15,1,175,0|0,3:0|0:0,0:0:0:0:
81,178,218525,2,0,P|115:166|177:133,1,87.5,2|8,3:2|0:0,0:0:0:0:
203,53,218858,1,0,1:0:0:0:
289,144,219025,6,0,P|271:149|240:166,1,52.5000020027161,0|2,3:0|0:3,0:0:0:0:
447,277,219525,6,0,P|437:324|348:302,1,131.25,4|0,3:1|0:0,0:0:0:0:
365,330,219858,2,0,P|350:282|374:247,1,87.5,2|8,0:0|0:0,0:0:0:0:
451,145,220192,1,0,1:0:0:0:
455,163,220358,1,0,0:0:0:0:
318,86,220525,1,2,0:0:0:0:
383,27,220692,2,0,P|436:23|474:14,1,87.5,0|0,3:0|0:0,0:0:0:0:
306,104,221025,5,0,0:0:0:0:
233,57,221192,2,0,P|180:61|142:70,1,87.5,2|8,3:2|0:0,0:0:0:0:
36,268,221525,1,0,1:0:0:0:
197,332,221692,1,2,3:0:0:0:
51,354,221858,1,8,3:0:0:0:
107,216,222025,1,4,3:0:0:0:
275,221,222192,6,0,P|234:236|191:244,1,87.5,0|0,3:0|0:0,0:0:0:0:
355,282,222525,2,0,P|396:267|439:259,1,87.5,2|8,0:0|0:0,0:0:0:0:
355,196,222858,1,0,1:0:0:0:
283,327,223025,1,0,0:0:0:0:
427,345,223192,1,2,0:0:0:0:
275,221,223358,6,0,P|266:151|256:35,1,175,0|0,3:0|0:0,0:0:0:0:
83,216,223858,2,0,B|137:213|167:260|167:260|169:237|184:220,1,131.25,2|0,3:2|0:0,0:0:0:0:
177,231,224192,1,0,1:0:0:0:
75,339,224358,1,2,0:3:0:0:
57,192,224525,2,0,L|52:67,1,87.5
50,30,224775,1,2,0:0:0:0:
50,30,224858,6,0,P|103:39|190:28,1,131.25,2|0,3:2|0:0,0:0:0:0:
255,18,225192,2,0,P|304:39|343:33,1,87.5,2|8,0:0|0:0,0:0:0:0:
420,6,225525,1,0,1:0:0:0:
337,36,225692,1,0,0:0:0:0:
444,86,225858,1,2,0:0:0:0:
474,169,226025,6,0,L|486:359,1,175,0|0,3:0|0:0,0:0:0:0:
403,374,226525,2,0,P|380:313|297:328,1,131.25,2|0,3:2|0:0,0:0:0:0:
284,332,226858,1,0,1:0:0:0:
433,246,227025,1,2,3:0:0:0:
351,218,227192,1,8,3:0:0:0:
393,139,227358,1,4,3:0:0:0:
485,113,227525,6,0,P|427:112|381:44,1,131.25,0|0,3:0|0:0,0:0:0:0:
370,17,227858,2,0,L|256:24,1,87.5,2|8,0:0|0:0,0:0:0:0:
196,35,228192,1,0,1:0:0:0:
132,122,228525,5,2,0:0:0:0:
104,205,228692,2,0,L|95:31,1,175,0|0,3:0|0:0,0:0:0:0:
22,190,229192,2,0,P|1:234|17:273,1,87.5,2|8,3:2|0:0,0:0:0:0:
24,355,229525,1,0,1:0:0:0:
89,287,229692,1,0,3:0:0:0:
24,355,229858,2,0,B|74:341|53:371|109:355,1,87.5,2|0,0:3|0:0,0:0:0:0:
312,255,230192,6,0,B|315:229|299:216|299:216|347:236|337:330|337:330|361:277|407:287,1,262.5,4|8,0:1|0:0,0:0:0:0:
491,324,230858,1,0,1:0:0:0:
491,324,231025,1,0,0:0:0:0:
505,240,231192,1,2,0:0:0:0:
469,160,231358,6,0,P|443:125|302:131,1,175,0|0,3:0|0:0,0:0:0:0:
401,83,231858,2,0,P|412:41|398:0,1,87.5,2|8,3:2|0:0,0:0:0:0:
310,4,232192,1,0,1:0:0:0:
261,186,232358,1,2,3:0:0:0:
304,261,232525,1,8,3:0:0:0:
388,236,232692,1,4,3:0:0:0:
365,322,232858,6,0,L|167:272,1,175,0|2,3:0|0:0,0:0:0:0:
56,360,233358,1,8,0:0:0:0:
56,360,233525,2,0,L|155:335,1,87.5,0|0,1:0|0:0,0:0:0:0:
0,302,233858,1,2,0:0:0:0:
140,321,234025,6,0,B|205:302|205:302|235:270|226:223|191:213,1,175,0|0,3:0|0:0,0:0:0:0:
108,234,234525,2,0,L|193:213,1,87.5,2|8,3:2|0:0,0:0:0:0:
193,213,234858,1,0,1:0:0:0:
44,137,235025,2,0,B|32:74|32:74|43:46,2,87.5,0|2|0,3:0|0:3|0:0,0:0:0:0:
131,146,235525,6,0,P|166:109|159:63,1,87.5,0|0,3:0|0:0,0:0:0:0:
228,14,235858,2,0,P|242:62|285:79,1,87.5,2|8,0:0|0:0,0:0:0:0:
293,164,236192,2,0,P|243:152|207:181,1,87.5,0|0,1:0|0:0,0:0:0:0:
372,144,236525,1,2,0:0:0:0:
293,164,236692,6,0,L|304:342,1,175,0|0,3:0|0:0,0:0:0:0:
380,296,237192,1,2,3:2:0:0:
306,249,237358,1,8,0:0:0:0:
498,283,237525,1,0,1:0:0:0:
434,222,237692,2,0,B|443:166|443:166|430:136,2,87.5,2|8|4,3:0|3:0|3:0,0:0:0:0:
341,119,238192,6,0,P|316:79|325:31,1,87.5,0|0,3:0|0:0,0:0:0:0:
487,70,238525,1,2,0:0:0:0:
430,137,238692,1,8,0:0:0:0:
340,118,238858,2,0,B|233:77|287:154|174:124,1,175,0|2,1:0|0:0,0:0:0:0:
296,194,239358,6,0,P|288:259|276:370,1,175,0|0,3:0|0:0,0:0:0:0:
198,328,239858,2,0,P|192:279|186:230,1,87.5,2|8,3:2|0:0,0:0:0:0:
164,156,240192,1,0,1:0:0:0:
164,156,240358,1,0,3:0:0:0:
145,70,240525,1,2,0:3:0:0:
26,220,240858,6,0,P|10:262|-1:304,1,87.5,4|0,3:1|0:0,0:0:0:0:
121,384,241192,2,0,P|105:342|93:300,1,87.5,2|8,0:0|0:0,0:0:0:0:
0,304,241525,1,0,1:0:0:0:
93,300,241692,1,0,0:0:0:0:
205,360,241858,1,2,0:0:0:0:
267,320,242025,6,0,L|93:300,1,175,0|0,3:0|0:0,0:0:0:0:
268,233,242525,2,0,L|355:223,1,87.5,2|8,3:2|0:0,0:0:0:0:
272,146,242858,1,0,1:0:0:0:
267,320,243025,1,2,3:0:0:0:
442,210,243192,1,8,3:0:0:0:
413,292,243358,1,4,3:0:0:0:
455,195,243525,6,0,P|460:133|464:67,1,87.5,0|0,3:0|0:0,0:0:0:0:
373,0,243858,2,0,P|378:62|382:128,1,87.5,2|8,0:0|0:0,0:0:0:0:
461,24,244192,1,0,1:0:0:0:
309,152,244358,5,2,0:0:0:0:
291,154,244525,1,2,0:0:0:0:
298,137,244692,6,0,P|301:180|193:239,1,175,2|0,3:2|0:0,0:0:0:0:
48,287,245192,2,0,B|32:262|57:242|57:242|55:267|67:286,1,87.5,2|8,3:2|0:0,0:0:0:0:
61,276,245525,1,0,1:0:0:0:
195,252,245692,6,0,L|122:249,1,52.5000020027161,0|2,3:0|0:3,0:0:0:0:
0,88,246192,6,0,B|36:68|36:68|106:84,1,87.5,0|0,3:0|0:0,0:0:0:0:
92,174,246525,2,0,B|56:194|56:194|-14:178,1,87.5,2|8,0:0|0:0,0:0:0:0:
169,66,246858,1,0,1:0:0:0:
179,161,247025,1,0,0:0:0:0:
224,267,247192,1,2,0:0:0:0:
188,336,247358,6,0,L|179:158,1,175,0|0,3:0|0:0,0:0:0:0:
224,267,247858,2,0,P|270:280|318:272,1,87.5,2|8,3:2|0:0,0:0:0:0:
148,237,248192,1,0,1:0:0:0:
75,344,248358,1,2,3:0:0:0:
1,315,248525,1,8,3:0:0:0:
24,239,248692,1,4,3:0:0:0:
175,335,248858,6,0,L|76:323,1,87.5,0|0,3:0|0:0,0:0:0:0:
224,267,249192,1,2,0:0:0:0:
175,335,249358,1,8,0:0:0:0:
271,197,249525,2,0,L|370:185,1,87.5,0|0,1:0|0:0,0:0:0:0:
207,90,249858,1,2,0:0:0:0:
161,14,250025,6,0,P|119:91|158:163,1,175,0|0,3:0|0:0,0:0:0:0:
293,79,250525,2,0,L|206:89,1,87.5,2|8,3:2|0:0,0:0:0:0:
120,98,250858,1,0,1:0:0:0:
160,14,251025,6,0,L|108:21,1,52.5000020027161,0|2,3:0|0:3,0:0:0:0:
305,91,251525,6,0,P|339:144|426:88,1,175,4|2,3:1|0:0,0:0:0:0:
466,36,252025,1,8,0:0:0:0:
424,103,252192,2,0,L|417:219,1,87.5,0|0,1:0|0:0,0:0:0:0:
446,318,252525,1,2,0:0:0:0:
501,373,252692,6,0,B|418:365|418:365|406:351|406:351|321:339,1,175,0|0,3:0|0:0,0:0:0:0:
445,318,253192,2,0,P|465:277|460:233,1,87.5,2|8,3:2|0:0,0:0:0:0:
383,264,253525,1,0,1:0:0:0:
511,162,253692,1,2,3:0:0:0:
383,264,253858,2,0,L|268:252,1,87.5,8|4,3:0|3:0,0:0:0:0:
86,202,254192,6,0,P|80:144|178:142,1,175,0|2,3:0|0:0,0:0:0:0:
186,213,254692,1,8,0:0:0:0:
57,311,254858,2,0,B|20:305|26:259|26:259|36:270|50:278,1,87.5,0|0,1:0|0:0,0:0:0:0:
86,202,255192,1,2,0:0:0:0:
66,326,255358,6,0,B|181:356|181:356|214:294,1,175,0|0,3:0|0:0,0:0:0:0:
298,282,255858,2,0,B|302:281|316:285|316:285|298:243|263:256,1,87.5,0|8,3:2|0:0,0:0:0:0:
263,256,256192,1,0,1:0:0:0:
125,269,256358,6,0,L|189:285,1,52.5000020027161,0|2,3:0|0:3,0:0:0:0:
441,235,256858,6,0,P|457:277|445:319,1,70,0|0,3:0|0:0,0:0:0:0:
378,319,257192,2,0,P|361:276|374:235,1,70,2|8,0:0|0:0,0:0:0:0:
442,148,257525,1,0,1:0:0:0:
464,74,257692,1,0,0:0:0:0:
442,148,257858,1,2,0:0:0:0:
339,84,258025,6,0,B|297:56|297:56|212:129,1,140,0|0,3:0|0:0,0:0:0:0:
155,86,258525,2,0,L|215:121,1,70,2|8,3:2|0:0,0:0:0:0:
300,155,258858,1,0,1:0:0:0:
142,245,259025,1,2,3:0:0:0:
90,302,259192,1,8,3:0:0:0:
18,273,259358,1,4,3:0:0:0:
35,372,259525,6,0,P|98:342|167:346,1,140,0|2,3:0|0:0,0:0:0:0:
237,380,260025,1,8,0:0:0:0:
355,297,260192,2,0,P|315:315|272:312,1,70,0|0,1:0|0:0,0:0:0:0:
421,344,260525,1,2,0:0:0:0:
355,297,260692,6,0,P|344:244|382:156,1,140,0|0,3:0|0:0,0:0:0:0:
300,71,261192,2,0,P|305:97|286:141,1,70,2|8,3:2|0:0,0:0:0:0:
373,165,261525,1,0,1:0:0:0:
281,148,261692,6,0,L|218:152,1,52.5000020027161,0|2,3:0|0:3,0:0:0:0:
159,255,262192,5,4,0:1:0:0:
256,192,262275,12,0,270192,0:0:0:0:
