osu file format v14

[General]
AudioFilename: audio.mp3
AudioLeadIn: 0
PreviewTime: 53590
Countdown: 0
SampleSet: Soft
StackLeniency: 0.3
Mode: 0
LetterboxInBreaks: 0
EpilepsyWarning: 1
WidescreenStoryboard: 1

[Editor]
Bookmarks: 21320,41752,55049,83590,93968,104347,114725,127698,156238,165320,177806,210725,221103
DistanceSpacing: 1.3
BeatDivisor: 6
GridSize: 32
TimelineZoom: 2.999999

[Metadata]
Title:Kamisama no Dance
TitleUnicode:神様のダンス
Artist:Yorushika
ArtistUnicode:ヨルシカ
Creator:alevi
Version:newton's Hard
Source:
Tags:newton- StargazorXz dora- doraemonelf jiysea 神様のダンス dansu japanese rock jrock j-rock jpop j-pop pop Elma エルマ suis スイ n-buna nabuna ナブナ
BeatmapID:3797365
BeatmapSetID:1814677

[Difficulty]
HPDrainRate:4
CircleSize:4
OverallDifficulty:7
ApproachRate:8
SliderMultiplier:1.45
SliderTickRate:1

[Events]
//Background and Video events
0,0,"wallpapertip_wallpaper-nature-flowers-hd_886976.jpg",0,0
//Break Periods
2,94223,103219
2,156493,164516
//Storyboard Layer 0 (Background)
Sprite,Background,Centre,"sb\s\pixel.png",179,174 R,0,106348,,3.211406 C,0,106348,,100,100,100 P,0,106348,,A V,0,106348,107848,1494,2,1494,0 F,1,106348,108064,0.6,0
Sprite,Background,Centre,"sb\s\pixel.png",0,0 S,0,106348,,3 C,0,106348,,100,100,100 P,0,106348,,A M,22,106348,107848,179,174,206.0939,113.8176 F,1,106348,108064,0.6,0
Sprite,Background,Centre,"sb\s\pixel.png",0,0 S,0,106348,,4 C,0,106348,,100,100,100 P,0,106348,,A M,22,106348,107848,179,174,193.4558,224.9905 F,1,106348,108064,0.6,0
Sprite,Background,Centre,"sb\s\pixel.png",0,0 S,0,106348,,2 C,0,106348,,100,100,100 P,0,106348,,A M,22,106348,107848,179,174,106.0913,201.7187 F,1,106348,108064,0.6,0
Sprite,Background,Centre,"sb\s\pixel.png",0,0 S,0,106348,,3 C,0,106348,,100,100,100 P,0,106348,,A M,22,106348,107848,179,174,166.5069,220.3457 F,1,106348,108064,0.6,0
Sprite,Background,Centre,"sb\s\pixel.png",0,0 S,0,106348,,2 C,0,106348,,100,100,100 P,0,106348,,A M,22,106348,107848,179,174,102.4268,188.8507 F,1,106348,108064,0.6,0
Sprite,Background,Centre,"sb\s\pixel.png",0,0 S,0,106348,,4 C,0,106348,,100,100,100 P,0,106348,,A M,22,106348,107848,179,174,230.2574,113.8861 F,1,106348,108064,0.6,0
Sprite,Background,Centre,"sb\s\pixel.png",0,0 S,0,106348,,4 C,0,106348,,100,100,100 P,0,106348,,A M,22,106348,107848,179,174,151.7593,237.3951 F,1,106348,108064,0.6,0
Sprite,Background,Centre,"sb\s\pixel.png",0,0 S,0,106348,,4 C,0,106348,,100,100,100 P,0,106348,,A M,22,106348,107848,179,174,199.9728,172.932 F,1,106348,108064,0.6,0
Sprite,Background,Centre,"sb\s\pixel.png",0,0 S,0,106348,,4 C,0,106348,,100,100,100 P,0,106348,,A M,22,106348,107848,179,174,104.0341,161.5057 F,1,106348,108064,0.6,0
Sprite,Background,Centre,"sb\s\pixel.png",0,0 S,0,106348,,2 C,0,106348,,100,100,100 P,0,106348,,A M,22,106348,107848,179,174,156.0308,167.0418 F,1,106348,108064,0.6,0
Sprite,Background,Centre,"sb\s\pixel.png",221,188 R,0,106672,,3.124139 C,0,106672,,100,100,100 P,0,106672,,A F,1,106672,108172,0.6,0 V,0,106672,108172,1494,2,1494,0
Sprite,Background,Centre,"sb\s\pixel.png",0,0 S,0,106672,,3 C,0,106672,,100,100,100 P,0,106672,,A M,22,106672,108172,221,188,197.9265,263.5554 F,1,106672,108172,0.6,0
Sprite,Background,Centre,"sb\s\pixel.png",0,0 S,0,106672,,3 C,0,106672,,100,100,100 P,0,106672,,A M,22,106672,108172,221,188,222.7086,167.0696 F,1,106672,108172,0.6,0
Sprite,Background,Centre,"sb\s\pixel.png",0,0 S,0,106672,,3 C,0,106672,,100,100,100 P,0,106672,,A M,22,106672,108172,221,188,178.466,252.1861 F,1,106672,108172,0.6,0
Sprite,Background,Centre,"sb\s\pixel.png",0,0 S,0,106672,,2 C,0,106672,,100,100,100 P,0,106672,,A M,22,106672,108172,221,188,215.2713,161.6147 F,1,106672,108172,0.6,0
Sprite,Background,Centre,"sb\s\pixel.png",0,0 S,0,106672,,3 C,0,106672,,100,100,100 P,0,106672,,A M,22,106672,108172,221,188,276.906,151.0741 F,1,106672,108172,0.6,0
Sprite,Background,Centre,"sb\s\pixel.png",0,0 S,0,106672,,2 C,0,106672,,100,100,100 P,0,106672,,A M,22,106672,108172,221,188,194.006,195.4379 F,1,106672,108172,0.6,0
Sprite,Background,Centre,"sb\s\pixel.png",0,0 S,0,106672,,3 C,0,106672,,100,100,100 P,0,106672,,A M,22,106672,108172,221,188,167.7918,221.7326 F,1,106672,108172,0.6,0
Sprite,Background,Centre,"sb\s\pixel.png",0,0 S,0,106672,,4 C,0,106672,,100,100,100 P,0,106672,,A M,22,106672,108172,221,188,190.0885,190.3413 F,1,106672,108172,0.6,0
Sprite,Background,Centre,"sb\s\pixel.png",0,0 S,0,106672,,4 C,0,106672,,100,100,100 P,0,106672,,A M,22,106672,108172,221,188,250.2069,131.053 F,1,106672,108172,0.6,0
Sprite,Background,Centre,"sb\s\pixel.png",0,0 S,0,106672,,2 C,0,106672,,100,100,100 P,0,106672,,A M,22,106672,108172,221,188,196.6493,136.4632 F,1,106672,108172,0.6,0
Sprite,Background,Centre,"sb\s\pixel.png",324,353 R,0,108942,,3.263766 C,0,108942,,100,100,100 P,0,108942,,A V,0,108942,110442,1494,2,1494,0 F,1,108942,110658,0.6,0
Sprite,Background,Centre,"sb\s\pixel.png",0,0 S,0,108942,,4 C,0,108942,,100,100,100 P,0,108942,,A M,22,108942,110442,324,353,343.8917,337.8567 F,1,108942,110658,0.6,0
Sprite,Background,Centre,"sb\s\pixel.png",0,0 S,0,108942,,4 C,0,108942,,100,100,100 P,0,108942,,A M,22,108942,110442,324,353,351.8961,403.8508 F,1,108942,110658,0.6,0
Sprite,Background,Centre,"sb\s\pixel.png",0,0 S,0,108942,,3 C,0,108942,,100,100,100 P,0,108942,,A M,22,108942,110442,324,353,339.199,430.5241 F,1,108942,110658,0.6,0
Sprite,Background,Centre,"sb\s\pixel.png",0,0 S,0,108942,,4 C,0,108942,,100,100,100 P,0,108942,,A M,22,108942,110442,324,353,287.6793,301.5237 F,1,108942,110658,0.6,0
Sprite,Background,Centre,"sb\s\pixel.png",0,0 S,0,108942,,4 C,0,108942,,100,100,100 P,0,108942,,A M,22,108942,110442,324,353,374.7495,390.3294 F,1,108942,110658,0.6,0
Sprite,Background,Centre,"sb\s\pixel.png",0,0 S,0,108942,,2 C,0,108942,,100,100,100 P,0,108942,,A M,22,108942,110442,324,353,376.1523,405.499 F,1,108942,110658,0.6,0
Sprite,Background,Centre,"sb\s\pixel.png",0,0 S,0,108942,,2 C,0,108942,,100,100,100 P,0,108942,,A M,22,108942,110442,324,353,272.551,360.55 F,1,108942,110658,0.6,0
Sprite,Background,Centre,"sb\s\pixel.png",0,0 S,0,108942,,4 C,0,108942,,100,100,100 P,0,108942,,A M,22,108942,110442,324,353,301.1503,310.7875 F,1,108942,110658,0.6,0
Sprite,Background,Centre,"sb\s\pixel.png",0,0 S,0,108942,,4 C,0,108942,,100,100,100 P,0,108942,,A M,22,108942,110442,324,353,348.3524,290.5824 F,1,108942,110658,0.6,0
Sprite,Background,Centre,"sb\s\pixel.png",0,0 S,0,108942,,3 C,0,108942,,100,100,100 P,0,108942,,A M,22,108942,110442,324,353,358.1871,338.8494 F,1,108942,110658,0.6,0
Sprite,Background,Centre,"sb\s\pixel.png",286,333 R,0,109266,,3.193953 C,0,109266,,100,100,100 P,0,109266,,A F,1,109266,110766,0.6,0 V,0,109266,110766,1494,2,1494,0
Sprite,Background,Centre,"sb\s\pixel.png",0,0 S,0,109266,,4 C,0,109266,,100,100,100 P,0,109266,,A M,22,109266,110766,286,333,267.6501,365.1291 F,1,109266,110766,0.6,0
Sprite,Background,Centre,"sb\s\pixel.png",0,0 S,0,109266,,2 C,0,109266,,100,100,100 P,0,109266,,A M,22,109266,110766,286,333,291.3264,363.539 F,1,109266,110766,0.6,0
Sprite,Background,Centre,"sb\s\pixel.png",0,0 S,0,109266,,3 C,0,109266,,100,100,100 P,0,109266,,A M,22,109266,110766,286,333,242.7644,289.9688 F,1,109266,110766,0.6,0
Sprite,Background,Centre,"sb\s\pixel.png",0,0 S,0,109266,,4 C,0,109266,,100,100,100 P,0,109266,,A M,22,109266,110766,286,333,315.6474,318.5076 F,1,109266,110766,0.6,0
Sprite,Background,Centre,"sb\s\pixel.png",0,0 S,0,109266,,4 C,0,109266,,100,100,100 P,0,109266,,A M,22,109266,110766,286,333,353.6298,363.0369 F,1,109266,110766,0.6,0
Sprite,Background,Centre,"sb\s\pixel.png",0,0 S,0,109266,,2 C,0,109266,,100,100,100 P,0,109266,,A M,22,109266,110766,286,333,309.2589,348.5893 F,1,109266,110766,0.6,0
Sprite,Background,Centre,"sb\s\pixel.png",0,0 S,0,109266,,3 C,0,109266,,100,100,100 P,0,109266,,A M,22,109266,110766,286,333,226.6305,283.9667 F,1,109266,110766,0.6,0
Sprite,Background,Centre,"sb\s\pixel.png",0,0 S,0,109266,,3 C,0,109266,,100,100,100 P,0,109266,,A M,22,109266,110766,286,333,321.8573,381.1067 F,1,109266,110766,0.6,0
Sprite,Background,Centre,"sb\s\pixel.png",0,0 S,0,109266,,2 C,0,109266,,100,100,100 P,0,109266,,A M,22,109266,110766,286,333,294.7741,389.3206 F,1,109266,110766,0.6,0
Sprite,Background,Centre,"sb\s\pixel.png",0,0 S,0,109266,,2 C,0,109266,,100,100,100 P,0,109266,,A M,22,109266,110766,286,333,240.4209,387.4385 F,1,109266,110766,0.6,0
Sprite,Background,Centre,"sb\s\pixel.png",483,103 R,0,111537,,3.054326 C,0,111537,,100,100,100 P,0,111537,,A V,0,111537,113037,1494,2,1494,0 F,1,111537,113253,0.6,0
Sprite,Background,Centre,"sb\s\pixel.png",0,0 S,0,111537,,4 C,0,111537,,100,100,100 P,0,111537,,A M,22,111537,113037,483,103,461.5065,29.06064 F,1,111537,113253,0.6,0
Sprite,Background,Centre,"sb\s\pixel.png",0,0 S,0,111537,,2 C,0,111537,,100,100,100 P,0,111537,,A M,22,111537,113037,483,103,444.295,136.2102 F,1,111537,113253,0.6,0
Sprite,Background,Centre,"sb\s\pixel.png",0,0 S,0,111537,,2 C,0,111537,,100,100,100 P,0,111537,,A M,22,111537,113037,483,103,432.0435,100.8933 F,1,111537,113253,0.6,0
Sprite,Background,Centre,"sb\s\pixel.png",0,0 S,0,111537,,4 C,0,111537,,100,100,100 P,0,111537,,A M,22,111537,113037,483,103,473.6509,151.0998 F,1,111537,113253,0.6,0
Sprite,Background,Centre,"sb\s\pixel.png",0,0 S,0,111537,,4 C,0,111537,,100,100,100 P,0,111537,,A M,22,111537,113037,483,103,463.2994,86.03278 F,1,111537,113253,0.6,0
Sprite,Background,Centre,"sb\s\pixel.png",0,0 S,0,111537,,2 C,0,111537,,100,100,100 P,0,111537,,A M,22,111537,113037,483,103,420.9924,146.9438 F,1,111537,113253,0.6,0
Sprite,Background,Centre,"sb\s\pixel.png",0,0 S,0,111537,,4 C,0,111537,,100,100,100 P,0,111537,,A M,22,111537,113037,483,103,465.5787,49.77877 F,1,111537,113253,0.6,0
Sprite,Background,Centre,"sb\s\pixel.png",0,0 S,0,111537,,2 C,0,111537,,100,100,100 P,0,111537,,A M,22,111537,113037,483,103,461.5934,53.42421 F,1,111537,113253,0.6,0
Sprite,Background,Centre,"sb\s\pixel.png",0,0 S,0,111537,,2 C,0,111537,,100,100,100 P,0,111537,,A M,22,111537,113037,483,103,505.3911,154.3288 F,1,111537,113253,0.6,0
Sprite,Background,Centre,"sb\s\pixel.png",0,0 S,0,111537,,2 C,0,111537,,100,100,100 P,0,111537,,A M,22,111537,113037,483,103,536.9911,102.0211 F,1,111537,113253,0.6,0
Sprite,Background,Centre,"sb\s\pixel.png",505,124 R,0,111861,,3.054326 C,0,111861,,100,100,100 P,0,111861,,A V,0,111861,113361,1494,2,1494,0 F,1,111861,113577,0.6,0
Sprite,Background,Centre,"sb\s\pixel.png",0,0 S,0,111861,,3 C,0,111861,,100,100,100 P,0,111861,,A M,22,111861,113361,505,124,534.6643,78.87761 F,1,111861,113577,0.6,0
Sprite,Background,Centre,"sb\s\pixel.png",0,0 S,0,111861,,2 C,0,111861,,100,100,100 P,0,111861,,A M,22,111861,113361,505,124,427.412,115.9933 F,1,111861,113577,0.6,0
Sprite,Background,Centre,"sb\s\pixel.png",0,0 S,0,111861,,4 C,0,111861,,100,100,100 P,0,111861,,A M,22,111861,113361,505,124,476.0962,121.6398 F,1,111861,113577,0.6,0
Sprite,Background,Centre,"sb\s\pixel.png",0,0 S,0,111861,,3 C,0,111861,,100,100,100 P,0,111861,,A M,22,111861,113361,505,124,471.2426,81.85223 F,1,111861,113577,0.6,0
Sprite,Background,Centre,"sb\s\pixel.png",0,0 S,0,111861,,2 C,0,111861,,100,100,100 P,0,111861,,A M,22,111861,113361,505,124,468.0288,54.18502 F,1,111861,113577,0.6,0
Sprite,Background,Centre,"sb\s\pixel.png",0,0 S,0,111861,,3 C,0,111861,,100,100,100 P,0,111861,,A M,22,111861,113361,505,124,548.1983,142.5178 F,1,111861,113577,0.6,0
Sprite,Background,Centre,"sb\s\pixel.png",0,0 S,0,111861,,2 C,0,111861,,100,100,100 P,0,111861,,A M,22,111861,113361,505,124,510.0431,147.4642 F,1,111861,113577,0.6,0
Sprite,Background,Centre,"sb\s\pixel.png",0,0 S,0,111861,,3 C,0,111861,,100,100,100 P,0,111861,,A M,22,111861,113361,505,124,531.8431,161.3557 F,1,111861,113577,0.6,0
Sprite,Background,Centre,"sb\s\pixel.png",0,0 S,0,111861,,4 C,0,111861,,100,100,100 P,0,111861,,A M,22,111861,113361,505,124,547.666,129.3489 F,1,111861,113577,0.6,0
Sprite,Background,Centre,"sb\s\pixel.png",0,0 S,0,111861,,2 C,0,111861,,100,100,100 P,0,111861,,A M,22,111861,113361,505,124,526.7127,194.7429 F,1,111861,113577,0.6,0
Sprite,Background,Centre,"sb\s\pixel.png",115,182 R,0,166672,,-0.122173 C,0,166672,,100,100,100 P,0,166672,,A V,0,166672,167172,5,960,0,960 F,1,166672,167388,0.6,0
Sprite,Background,Centre,"sb\s\circle.png",0,0 S,0,166672,,0.008380325 C,0,166672,,100,100,100 P,0,166672,,A M,22,166672,167172,115,182,109.6928,226.6859 F,1,166672,167172,0.6,0
Sprite,Background,Centre,"sb\s\circle.png",0,0 S,0,166672,,0.006637175 C,0,166672,,100,100,100 P,0,166672,,A M,22,166672,167172,115,182,177.174,147.7159 F,1,166672,167172,0.6,0
Sprite,Background,Centre,"sb\s\circle.png",0,0 S,0,166672,,0.007385927 C,0,166672,,100,100,100 P,0,166672,,A M,22,166672,167172,115,182,107.663,243.5643 F,1,166672,167172,0.6,0
Sprite,Background,Centre,"sb\s\circle.png",0,0 S,0,166672,,0.005754292 C,0,166672,,100,100,100 P,0,166672,,A M,22,166672,167172,115,182,153.967,128.7311 F,1,166672,167172,0.6,0
Sprite,Background,Centre,"sb\s\circle.png",0,0 S,0,166672,,0.006266338 C,0,166672,,100,100,100 P,0,166672,,A M,22,166672,167172,115,182,77.00198,181.6119 F,1,166672,167172,0.6,0
Sprite,Background,Centre,"sb\s\circle.png",0,0 S,0,166672,,0.006460614 C,0,166672,,100,100,100 P,0,166672,,A M,22,166672,167172,115,182,50.82902,192.3482 F,1,166672,167172,0.6,0
Sprite,Background,Centre,"sb\s\circle.png",0,0 S,0,166672,,0.007612561 C,0,166672,,100,100,100 P,0,166672,,A M,22,166672,167172,115,182,184.6025,214.9316 F,1,166672,167172,0.6,0
Sprite,Background,Centre,"sb\s\circle.png",0,0 S,0,166672,,0.007699628 C,0,166672,,100,100,100 P,0,166672,,A M,22,166672,167172,115,182,152.5423,198.4797 F,1,166672,167172,0.6,0
Sprite,Background,Centre,"sb\s\circle.png",0,0 S,0,166672,,0.007600543 C,0,166672,,100,100,100 P,0,166672,,A M,22,166672,167172,115,182,132.1939,161.1825 F,1,166672,167172,0.6,0
Sprite,Background,Centre,"sb\s\circle.png",0,0 S,0,166672,,0.009228587 C,0,166672,,100,100,100 P,0,166672,,A M,22,166672,167172,115,182,66.60635,210.179 F,1,166672,167172,0.6,0
Sprite,Background,Centre,"sb\s\r.png",115,182 C,0,166672,,100,100,100 P,0,166672,,A F,1,166672,167172,1,0 S,22,166672,167172,0.2,0.35
Sprite,Background,Centre,"sb\s\pixel.png",135,294 R,0,166996,,-0.03490658 C,0,166996,,100,100,100 P,0,166996,,A V,0,166996,167496,5,960,0,960 F,1,166996,167712,0.6,0
Sprite,Background,Centre,"sb\s\circle.png",0,0 S,0,166996,,0.008382909 C,0,166996,,100,100,100 P,0,166996,,A M,22,166996,167496,135,294,153.712,256.3987 F,1,166996,167496,0.6,0
Sprite,Background,Centre,"sb\s\circle.png",0,0 S,0,166996,,0.008897102 C,0,166996,,100,100,100 P,0,166996,,A M,22,166996,167496,135,294,105.8463,326.9554 F,1,166996,167496,0.6,0
Sprite,Background,Centre,"sb\s\circle.png",0,0 S,0,166996,,0.007200912 C,0,166996,,100,100,100 P,0,166996,,A M,22,166996,167496,135,294,147.9695,266.9484 F,1,166996,167496,0.6,0
Sprite,Background,Centre,"sb\s\circle.png",0,0 S,0,166996,,0.008188003 C,0,166996,,100,100,100 P,0,166996,,A M,22,166996,167496,135,294,61.60408,264.7761 F,1,166996,167496,0.6,0
Sprite,Background,Centre,"sb\s\circle.png",0,0 S,0,166996,,0.005355851 C,0,166996,,100,100,100 P,0,166996,,A M,22,166996,167496,135,294,169.0983,318.5215 F,1,166996,167496,0.6,0
Sprite,Background,Centre,"sb\s\circle.png",0,0 S,0,166996,,0.005471374 C,0,166996,,100,100,100 P,0,166996,,A M,22,166996,167496,135,294,119.1211,240.2984 F,1,166996,167496,0.6,0
Sprite,Background,Centre,"sb\s\circle.png",0,0 S,0,166996,,0.009791342 C,0,166996,,100,100,100 P,0,166996,,A M,22,166996,167496,135,294,146.8112,329.0642 F,1,166996,167496,0.6,0
Sprite,Background,Centre,"sb\s\circle.png",0,0 S,0,166996,,0.008266548 C,0,166996,,100,100,100 P,0,166996,,A M,22,166996,167496,135,294,89.34018,233.2449 F,1,166996,167496,0.6,0
Sprite,Background,Centre,"sb\s\circle.png",0,0 S,0,166996,,0.005680697 C,0,166996,,100,100,100 P,0,166996,,A M,22,166996,167496,135,294,141.6964,316.0036 F,1,166996,167496,0.6,0
Sprite,Background,Centre,"sb\s\circle.png",0,0 S,0,166996,,0.009036631 C,0,166996,,100,100,100 P,0,166996,,A M,22,166996,167496,135,294,194.5171,317.5311 F,1,166996,167496,0.6,0
Sprite,Background,Centre,"sb\s\r.png",135,294 C,0,166996,,100,100,100 P,0,166996,,A F,1,166996,167496,1,0 S,22,166996,167496,0.2,0.35
Sprite,Background,Centre,"sb\s\pixel.png",234,350 R,0,167320,,0.122173 C,0,167320,,100,100,100 P,0,167320,,A V,0,167320,167820,5,960,0,960 F,1,167320,168036,0.6,0
Sprite,Background,Centre,"sb\s\circle.png",0,0 S,0,167320,,0.007145864 C,0,167320,,100,100,100 P,0,167320,,A M,22,167320,167820,234,350,279.5632,384.2491 F,1,167320,167820,0.6,0
Sprite,Background,Centre,"sb\s\circle.png",0,0 S,0,167320,,0.009125219 C,0,167320,,100,100,100 P,0,167320,,A M,22,167320,167820,234,350,297.588,332.3206 F,1,167320,167820,0.6,0
Sprite,Background,Centre,"sb\s\circle.png",0,0 S,0,167320,,0.008475665 C,0,167320,,100,100,100 P,0,167320,,A M,22,167320,167820,234,350,298.3324,322.4077 F,1,167320,167820,0.6,0
Sprite,Background,Centre,"sb\s\circle.png",0,0 S,0,167320,,0.008150763 C,0,167320,,100,100,100 P,0,167320,,A M,22,167320,167820,234,350,257.9572,339.8978 F,1,167320,167820,0.6,0
Sprite,Background,Centre,"sb\s\circle.png",0,0 S,0,167320,,0.00714116 C,0,167320,,100,100,100 P,0,167320,,A M,22,167320,167820,234,350,192.6012,379.7848 F,1,167320,167820,0.6,0
Sprite,Background,Centre,"sb\s\circle.png",0,0 S,0,167320,,0.008943517 C,0,167320,,100,100,100 P,0,167320,,A M,22,167320,167820,234,350,231.3514,379.8828 F,1,167320,167820,0.6,0
Sprite,Background,Centre,"sb\s\circle.png",0,0 S,0,167320,,0.006609018 C,0,167320,,100,100,100 P,0,167320,,A M,22,167320,167820,234,350,169.3819,388.0723 F,1,167320,167820,0.6,0
Sprite,Background,Centre,"sb\s\circle.png",0,0 S,0,167320,,0.007315378 C,0,167320,,100,100,100 P,0,167320,,A M,22,167320,167820,234,350,190.7357,380.6137 F,1,167320,167820,0.6,0
Sprite,Background,Centre,"sb\s\circle.png",0,0 S,0,167320,,0.005116361 C,0,167320,,100,100,100 P,0,167320,,A M,22,167320,167820,234,350,254.1609,390.231 F,1,167320,167820,0.6,0
Sprite,Background,Centre,"sb\s\circle.png",0,0 S,0,167320,,0.008216406 C,0,167320,,100,100,100 P,0,167320,,A M,22,167320,167820,234,350,255.4689,384.9297 F,1,167320,167820,0.6,0
Sprite,Background,Centre,"sb\s\r.png",234,350 C,0,167320,,100,100,100 P,0,167320,,A F,1,167320,167820,1,0 S,22,167320,167820,0.2,0.35
Sprite,Background,Centre,"sb\s\pixel.png",331,321 R,0,167645,,0.08726646 C,0,167645,,100,100,100 P,0,167645,,A F,1,167645,168145,0.6,0 V,0,167645,168145,5,960,0,960
Sprite,Background,Centre,"sb\s\circle.png",0,0 S,0,167645,,0.008537542 C,0,167645,,100,100,100 P,0,167645,,A M,22,167645,168145,331,321,278.6772,343.6125 F,1,167645,168145,0.6,0
Sprite,Background,Centre,"sb\s\circle.png",0,0 S,0,167645,,0.008350267 C,0,167645,,100,100,100 P,0,167645,,A M,22,167645,168145,331,321,346.7128,308.6263 F,1,167645,168145,0.6,0
Sprite,Background,Centre,"sb\s\circle.png",0,0 S,0,167645,,0.009396 C,0,167645,,100,100,100 P,0,167645,,A M,22,167645,168145,331,321,299.6432,340.6406 F,1,167645,168145,0.6,0
Sprite,Background,Centre,"sb\s\circle.png",0,0 S,0,167645,,0.007515782 C,0,167645,,100,100,100 P,0,167645,,A M,22,167645,168145,331,321,313.7835,291.6812 F,1,167645,168145,0.6,0
Sprite,Background,Centre,"sb\s\circle.png",0,0 S,0,167645,,0.005086371 C,0,167645,,100,100,100 P,0,167645,,A M,22,167645,168145,331,321,289.9814,377.7228 F,1,167645,168145,0.6,0
Sprite,Background,Centre,"sb\s\circle.png",0,0 S,0,167645,,0.008873749 C,0,167645,,100,100,100 P,0,167645,,A M,22,167645,168145,331,321,305.0394,313.5807 F,1,167645,168145,0.6,0
Sprite,Background,Centre,"sb\s\circle.png",0,0 S,0,167645,,0.006356097 C,0,167645,,100,100,100 P,0,167645,,A M,22,167645,168145,331,321,350.5826,246.5317 F,1,167645,168145,0.6,0
Sprite,Background,Centre,"sb\s\circle.png",0,0 S,0,167645,,0.00765498 C,0,167645,,100,100,100 P,0,167645,,A M,22,167645,168145,331,321,296.6468,385.4116 F,1,167645,168145,0.6,0
Sprite,Background,Centre,"sb\s\circle.png",0,0 S,0,167645,,0.009830487 C,0,167645,,100,100,100 P,0,167645,,A M,22,167645,168145,331,321,323.6692,298.147 F,1,167645,168145,0.6,0
Sprite,Background,Centre,"sb\s\circle.png",0,0 S,0,167645,,0.009008857 C,0,167645,,100,100,100 P,0,167645,,A M,22,167645,168145,331,321,338.8788,280.7641 F,1,167645,168145,0.6,0
Sprite,Background,Centre,"sb\s\r.png",331,321 C,0,167645,,100,100,100 P,0,167645,,A F,1,167645,168145,1,0 S,22,167645,168145,0.2,0.35
Sprite,Background,Centre,"sb\s\pixel.png",410,370 R,0,167861,,0.08726646 C,0,167861,,100,100,100 P,0,167861,,A V,0,167861,168361,5,960,0,960 F,1,167861,168685,0.6,0
Sprite,Background,Centre,"sb\s\circle.png",0,0 S,0,167861,,0.005876297 C,0,167861,,100,100,100 P,0,167861,,A M,22,167861,168361,410,370,387.0139,370.7986 F,1,167861,168361,0.6,0
Sprite,Background,Centre,"sb\s\circle.png",0,0 S,0,167861,,0.008466159 C,0,167861,,100,100,100 P,0,167861,,A M,22,167861,168361,410,370,375.7944,298.7892 F,1,167861,168361,0.6,0
Sprite,Background,Centre,"sb\s\circle.png",0,0 S,0,167861,,0.007970082 C,0,167861,,100,100,100 P,0,167861,,A M,22,167861,168361,410,370,379.664,336.7625 F,1,167861,168361,0.6,0
Sprite,Background,Centre,"sb\s\circle.png",0,0 S,0,167861,,0.007680303 C,0,167861,,100,100,100 P,0,167861,,A M,22,167861,168361,410,370,413.4468,321.1214 F,1,167861,168361,0.6,0
Sprite,Background,Centre,"sb\s\circle.png",0,0 S,0,167861,,0.009494174 C,0,167861,,100,100,100 P,0,167861,,A M,22,167861,168361,410,370,409.4563,393.9938 F,1,167861,168361,0.6,0
Sprite,Background,Centre,"sb\s\circle.png",0,0 S,0,167861,,0.005793951 C,0,167861,,100,100,100 P,0,167861,,A M,22,167861,168361,410,370,424.1965,425.2038 F,1,167861,168361,0.6,0
Sprite,Background,Centre,"sb\s\circle.png",0,0 S,0,167861,,0.006937693 C,0,167861,,100,100,100 P,0,167861,,A M,22,167861,168361,410,370,463.2787,320.0963 F,1,167861,168361,0.6,0
Sprite,Background,Centre,"sb\s\circle.png",0,0 S,0,167861,,0.007450049 C,0,167861,,100,100,100 P,0,167861,,A M,22,167861,168361,410,370,354.3496,347.5715 F,1,167861,168361,0.6,0
Sprite,Background,Centre,"sb\s\circle.png",0,0 S,0,167861,,0.005882562 C,0,167861,,100,100,100 P,0,167861,,A M,22,167861,168361,410,370,460.049,409.8886 F,1,167861,168361,0.6,0
Sprite,Background,Centre,"sb\s\circle.png",0,0 S,0,167861,,0.008519781 C,0,167861,,100,100,100 P,0,167861,,A M,22,167861,168361,410,370,436.5348,441.2173 F,1,167861,168361,0.6,0
Sprite,Background,Centre,"sb\s\r.png",410,370 C,0,167861,,100,100,100 P,0,167861,,A F,1,167861,168361,1,0 S,22,167861,168361,0.2,0.35
Sprite,Background,Centre,"sb\s\pixel.png",429,216 R,0,168293,,0.03490658 C,0,168293,,100,100,100 P,0,168293,,A F,1,168293,168793,0.6,0 V,0,168293,168793,5,960,0,960
Sprite,Background,Centre,"sb\s\circle.png",0,0 S,0,168293,,0.009461338 C,0,168293,,100,100,100 P,0,168293,,A M,22,168293,168793,429,216,450.9086,206.2014 F,1,168293,168793,0.6,0
Sprite,Background,Centre,"sb\s\circle.png",0,0 S,0,168293,,0.005871928 C,0,168293,,100,100,100 P,0,168293,,A M,22,168293,168793,429,216,430.0129,169.0109 F,1,168293,168793,0.6,0
Sprite,Background,Centre,"sb\s\circle.png",0,0 S,0,168293,,0.00925536 C,0,168293,,100,100,100 P,0,168293,,A M,22,168293,168793,429,216,439.6067,234.1245 F,1,168293,168793,0.6,0
Sprite,Background,Centre,"sb\s\circle.png",0,0 S,0,168293,,0.005984547 C,0,168293,,100,100,100 P,0,168293,,A M,22,168293,168793,429,216,388.0206,217.2984 F,1,168293,168793,0.6,0
Sprite,Background,Centre,"sb\s\circle.png",0,0 S,0,168293,,0.008959595 C,0,168293,,100,100,100 P,0,168293,,A M,22,168293,168793,429,216,448.2918,279.1176 F,1,168293,168793,0.6,0
Sprite,Background,Centre,"sb\s\circle.png",0,0 S,0,168293,,0.009008807 C,0,168293,,100,100,100 P,0,168293,,A M,22,168293,168793,429,216,397.8344,180.819 F,1,168293,168793,0.6,0
Sprite,Background,Centre,"sb\s\circle.png",0,0 S,0,168293,,0.008109927 C,0,168293,,100,100,100 P,0,168293,,A M,22,168293,168793,429,216,454.8717,185.4934 F,1,168293,168793,0.6,0
Sprite,Background,Centre,"sb\s\circle.png",0,0 S,0,168293,,0.006928438 C,0,168293,,100,100,100 P,0,168293,,A M,22,168293,168793,429,216,355.7988,226.8433 F,1,168293,168793,0.6,0
Sprite,Background,Centre,"sb\s\circle.png",0,0 S,0,168293,,0.008426248 C,0,168293,,100,100,100 P,0,168293,,A M,22,168293,168793,429,216,467.3866,198.9568 F,1,168293,168793,0.6,0
Sprite,Background,Centre,"sb\s\circle.png",0,0 S,0,168293,,0.007583597 C,0,168293,,100,100,100 P,0,168293,,A M,22,168293,168793,429,216,397.4858,200.7733 F,1,168293,168793,0.6,0
Sprite,Background,Centre,"sb\s\r.png",429,216 C,0,168293,,100,100,100 P,0,168293,,A F,1,168293,168793,1,0 S,22,168293,168793,0.2,0.35
Sprite,Background,Centre,"sb\s\pixel.png",380,144 R,0,168510,,-0.03490658 C,0,168510,,100,100,100 P,0,168510,,A F,1,168510,169010,0.6,0 V,0,168510,169010,5,960,0,960
Sprite,Background,Centre,"sb\s\circle.png",0,0 S,0,168510,,0.005655198 C,0,168510,,100,100,100 P,0,168510,,A M,22,168510,169010,380,144,307.2126,149.567 F,1,168510,169010,0.6,0
Sprite,Background,Centre,"sb\s\circle.png",0,0 S,0,168510,,0.006806692 C,0,168510,,100,100,100 P,0,168510,,A M,22,168510,169010,380,144,336.9568,125.1244 F,1,168510,169010,0.6,0
Sprite,Background,Centre,"sb\s\circle.png",0,0 S,0,168510,,0.005177767 C,0,168510,,100,100,100 P,0,168510,,A M,22,168510,169010,380,144,360.2912,185.5639 F,1,168510,169010,0.6,0
Sprite,Background,Centre,"sb\s\circle.png",0,0 S,0,168510,,0.005145659 C,0,168510,,100,100,100 P,0,168510,,A M,22,168510,169010,380,144,353.2181,152.1688 F,1,168510,169010,0.6,0
Sprite,Background,Centre,"sb\s\circle.png",0,0 S,0,168510,,0.006820323 C,0,168510,,100,100,100 P,0,168510,,A M,22,168510,169010,380,144,362.1131,156.8085 F,1,168510,169010,0.6,0
Sprite,Background,Centre,"sb\s\circle.png",0,0 S,0,168510,,0.006575885 C,0,168510,,100,100,100 P,0,168510,,A M,22,168510,169010,380,144,317.6857,153.2695 F,1,168510,169010,0.6,0
Sprite,Background,Centre,"sb\s\circle.png",0,0 S,0,168510,,0.006957376 C,0,168510,,100,100,100 P,0,168510,,A M,22,168510,169010,380,144,428.5401,184.1604 F,1,168510,169010,0.6,0
Sprite,Background,Centre,"sb\s\circle.png",0,0 S,0,168510,,0.005040897 C,0,168510,,100,100,100 P,0,168510,,A M,22,168510,169010,380,144,416.8414,161.992 F,1,168510,169010,0.6,0
Sprite,Background,Centre,"sb\s\circle.png",0,0 S,0,168510,,0.007532899 C,0,168510,,100,100,100 P,0,168510,,A M,22,168510,169010,380,144,351.1151,152.1031 F,1,168510,169010,0.6,0
Sprite,Background,Centre,"sb\s\circle.png",0,0 S,0,168510,,0.00744568 C,0,168510,,100,100,100 P,0,168510,,A M,22,168510,169010,380,144,390.2094,122.2798 F,1,168510,169010,0.6,0
Sprite,Background,Centre,"sb\s\r.png",380,144 C,0,168510,,100,100,100 P,0,168510,,A F,1,168510,169010,1,0 S,22,168510,169010,0.2,0.35
Sprite,Background,Centre,"sb\s\pixel.png",380,144 R,0,168618,,0.01745329 C,0,168618,,100,100,100 P,0,168618,,A V,0,168618,169118,5,960,0,960 F,1,168618,169334,0.6,0
Sprite,Background,Centre,"sb\s\circle.png",0,0 S,0,168618,,0.005279684 C,0,168618,,100,100,100 P,0,168618,,A M,22,168618,169118,380,144,384.3421,104.2364 F,1,168618,169118,0.6,0
Sprite,Background,Centre,"sb\s\circle.png",0,0 S,0,168618,,0.00535875 C,0,168618,,100,100,100 P,0,168618,,A M,22,168618,169118,380,144,405.0939,115.4641 F,1,168618,169118,0.6,0
Sprite,Background,Centre,"sb\s\circle.png",0,0 S,0,168618,,0.006366411 C,0,168618,,100,100,100 P,0,168618,,A M,22,168618,169118,380,144,390.5023,181.5593 F,1,168618,169118,0.6,0
Sprite,Background,Centre,"sb\s\circle.png",0,0 S,0,168618,,0.00913196 C,0,168618,,100,100,100 P,0,168618,,A M,22,168618,169118,380,144,406.7985,175.0297 F,1,168618,169118,0.6,0
Sprite,Background,Centre,"sb\s\circle.png",0,0 S,0,168618,,0.007237313 C,0,168618,,100,100,100 P,0,168618,,A M,22,168618,169118,380,144,417.8535,114.4855 F,1,168618,169118,0.6,0
Sprite,Background,Centre,"sb\s\circle.png",0,0 S,0,168618,,0.007847168 C,0,168618,,100,100,100 P,0,168618,,A M,22,168618,169118,380,144,339.0173,142.8095 F,1,168618,169118,0.6,0
Sprite,Background,Centre,"sb\s\circle.png",0,0 S,0,168618,,0.006282288 C,0,168618,,100,100,100 P,0,168618,,A M,22,168618,169118,380,144,441.9513,96.60764 F,1,168618,169118,0.6,0
Sprite,Background,Centre,"sb\s\circle.png",0,0 S,0,168618,,0.005237736 C,0,168618,,100,100,100 P,0,168618,,A M,22,168618,169118,380,144,421.8393,196.3304 F,1,168618,169118,0.6,0
Sprite,Background,Centre,"sb\s\circle.png",0,0 S,0,168618,,0.005614301 C,0,168618,,100,100,100 P,0,168618,,A M,22,168618,169118,380,144,335.1506,170.3159 F,1,168618,169118,0.6,0
Sprite,Background,Centre,"sb\s\circle.png",0,0 S,0,168618,,0.009273793 C,0,168618,,100,100,100 P,0,168618,,A M,22,168618,169118,380,144,408.6119,167.4597 F,1,168618,169118,0.6,0
Sprite,Background,Centre,"sb\s\r.png",380,144 C,0,168618,,100,100,100 P,0,168618,,A F,1,168618,169118,1,0 S,22,168618,169118,0.2,0.35
Sprite,Background,Centre,"sb\s\pixel.png",268,146 R,0,168942,,0 C,0,168942,,100,100,100 P,0,168942,,A V,0,168942,169442,5,960,0,960 F,1,168942,169658,0.6,0
Sprite,Background,Centre,"sb\s\circle.png",0,0 S,0,168942,,0.009293931 C,0,168942,,100,100,100 P,0,168942,,A M,22,168942,169442,268,146,232.6927,184.1758 F,1,168942,169442,0.6,0
Sprite,Background,Centre,"sb\s\circle.png",0,0 S,0,168942,,0.006725792 C,0,168942,,100,100,100 P,0,168942,,A M,22,168942,169442,268,146,225.8249,190.0711 F,1,168942,169442,0.6,0
Sprite,Background,Centre,"sb\s\circle.png",0,0 S,0,168942,,0.007023737 C,0,168942,,100,100,100 P,0,168942,,A M,22,168942,169442,268,146,279.069,166.1613 F,1,168942,169442,0.6,0
Sprite,Background,Centre,"sb\s\circle.png",0,0 S,0,168942,,0.009183634 C,0,168942,,100,100,100 P,0,168942,,A M,22,168942,169442,268,146,190.1871,140.6013 F,1,168942,169442,0.6,0
Sprite,Background,Centre,"sb\s\circle.png",0,0 S,0,168942,,0.006229557 C,0,168942,,100,100,100 P,0,168942,,A M,22,168942,169442,268,146,248.9102,135.0647 F,1,168942,169442,0.6,0
Sprite,Background,Centre,"sb\s\circle.png",0,0 S,0,168942,,0.005045041 C,0,168942,,100,100,100 P,0,168942,,A M,22,168942,169442,268,146,218.4565,158.1014 F,1,168942,169442,0.6,0
Sprite,Background,Centre,"sb\s\circle.png",0,0 S,0,168942,,0.006252492 C,0,168942,,100,100,100 P,0,168942,,A M,22,168942,169442,268,146,253.5668,120.8468 F,1,168942,169442,0.6,0
Sprite,Background,Centre,"sb\s\circle.png",0,0 S,0,168942,,0.006688195 C,0,168942,,100,100,100 P,0,168942,,A M,22,168942,169442,268,146,288.9368,192.5043 F,1,168942,169442,0.6,0
Sprite,Background,Centre,"sb\s\circle.png",0,0 S,0,168942,,0.005041948 C,0,168942,,100,100,100 P,0,168942,,A M,22,168942,169442,268,146,231.1503,109.3107 F,1,168942,169442,0.6,0
Sprite,Background,Centre,"sb\s\circle.png",0,0 S,0,168942,,0.009744449 C,0,168942,,100,100,100 P,0,168942,,A M,22,168942,169442,268,146,205.3269,166.6902 F,1,168942,169442,0.6,0
Sprite,Background,Centre,"sb\s\r.png",268,146 C,0,168942,,100,100,100 P,0,168942,,A F,1,168942,169442,1,0 S,22,168942,169442,0.2,0.35
Sprite,Background,Centre,"sb\s\pixel.png",156,138 R,0,169266,,-0.1570796 C,0,169266,,100,100,100 P,0,169266,,A V,0,169266,169766,5,960,0,960 F,1,169266,170090,0.6,0
Sprite,Background,Centre,"sb\s\circle.png",0,0 S,0,169266,,0.008180429 C,0,169266,,100,100,100 P,0,169266,,A M,22,169266,169766,156,138,199.1039,150.925 F,1,169266,169766,0.6,0
Sprite,Background,Centre,"sb\s\circle.png",0,0 S,0,169266,,0.005179074 C,0,169266,,100,100,100 P,0,169266,,A M,22,169266,169766,156,138,191.8495,134.7114 F,1,169266,169766,0.6,0
Sprite,Background,Centre,"sb\s\circle.png",0,0 S,0,169266,,0.005797317 C,0,169266,,100,100,100 P,0,169266,,A M,22,169266,169766,156,138,205.6455,179.9562 F,1,169266,169766,0.6,0
Sprite,Background,Centre,"sb\s\circle.png",0,0 S,0,169266,,0.007456599 C,0,169266,,100,100,100 P,0,169266,,A M,22,169266,169766,156,138,177.087,183.3359 F,1,169266,169766,0.6,0
Sprite,Background,Centre,"sb\s\circle.png",0,0 S,0,169266,,0.006529656 C,0,169266,,100,100,100 P,0,169266,,A M,22,169266,169766,156,138,121.3305,147.6967 F,1,169266,169766,0.6,0
Sprite,Background,Centre,"sb\s\circle.png",0,0 S,0,169266,,0.005848183 C,0,169266,,100,100,100 P,0,169266,,A M,22,169266,169766,156,138,160.423,157.5048 F,1,169266,169766,0.6,0
Sprite,Background,Centre,"sb\s\circle.png",0,0 S,0,169266,,0.005501476 C,0,169266,,100,100,100 P,0,169266,,A M,22,169266,169766,156,138,205.5101,161.9531 F,1,169266,169766,0.6,0
Sprite,Background,Centre,"sb\s\circle.png",0,0 S,0,169266,,0.0062502 C,0,169266,,100,100,100 P,0,169266,,A M,22,169266,169766,156,138,111.4888,96.28967 F,1,169266,169766,0.6,0
Sprite,Background,Centre,"sb\s\circle.png",0,0 S,0,169266,,0.007605735 C,0,169266,,100,100,100 P,0,169266,,A M,22,169266,169766,156,138,164.2046,157.3309 F,1,169266,169766,0.6,0
Sprite,Background,Centre,"sb\s\circle.png",0,0 S,0,169266,,0.006683844 C,0,169266,,100,100,100 P,0,169266,,A M,22,169266,169766,156,138,155.4259,109.0057 F,1,169266,169766,0.6,0
Sprite,Background,Centre,"sb\s\r.png",156,138 C,0,169266,,100,100,100 P,0,169266,,A F,1,169266,169766,1,0 S,22,169266,169766,0.2,0.35
Sprite,Background,Centre,"sb\s\pixel.png",188,299 R,0,169807,,0.06981317 C,0,169807,,100,100,100 P,0,169807,,A F,1,169807,170307,0.6,0 V,0,169807,170307,5,960,0,960
Sprite,Background,Centre,"sb\s\circle.png",0,0 S,0,169807,,0.007068612 C,0,169807,,100,100,100 P,0,169807,,A M,22,169807,170307,188,299,178.049,344.9345 F,1,169807,170307,0.6,0
Sprite,Background,Centre,"sb\s\circle.png",0,0 S,0,169807,,0.009733535 C,0,169807,,100,100,100 P,0,169807,,A M,22,169807,170307,188,299,229.3576,281.2646 F,1,169807,170307,0.6,0
Sprite,Background,Centre,"sb\s\circle.png",0,0 S,0,169807,,0.007130283 C,0,169807,,100,100,100 P,0,169807,,A M,22,169807,170307,188,299,260.9571,323.6224 F,1,169807,170307,0.6,0
Sprite,Background,Centre,"sb\s\circle.png",0,0 S,0,169807,,0.007538129 C,0,169807,,100,100,100 P,0,169807,,A M,22,169807,170307,188,299,158.062,317.1306 F,1,169807,170307,0.6,0
Sprite,Background,Centre,"sb\s\circle.png",0,0 S,0,169807,,0.008456764 C,0,169807,,100,100,100 P,0,169807,,A M,22,169807,170307,188,299,251.2165,289.0163 F,1,169807,170307,0.6,0
Sprite,Background,Centre,"sb\s\circle.png",0,0 S,0,169807,,0.006593608 C,0,169807,,100,100,100 P,0,169807,,A M,22,169807,170307,188,299,209.1129,308.124 F,1,169807,170307,0.6,0
Sprite,Background,Centre,"sb\s\circle.png",0,0 S,0,169807,,0.006398073 C,0,169807,,100,100,100 P,0,169807,,A M,22,169807,170307,188,299,153.2263,369.9351 F,1,169807,170307,0.6,0
Sprite,Background,Centre,"sb\s\circle.png",0,0 S,0,169807,,0.009985034 C,0,169807,,100,100,100 P,0,169807,,A M,22,169807,170307,188,299,175.7095,259.8855 F,1,169807,170307,0.6,0
Sprite,Background,Centre,"sb\s\circle.png",0,0 S,0,169807,,0.006930229 C,0,169807,,100,100,100 P,0,169807,,A M,22,169807,170307,188,299,131.5935,327.059 F,1,169807,170307,0.6,0
Sprite,Background,Centre,"sb\s\circle.png",0,0 S,0,169807,,0.007573339 C,0,169807,,100,100,100 P,0,169807,,A M,22,169807,170307,188,299,198.6739,265.6673 F,1,169807,170307,0.6,0
Sprite,Background,Centre,"sb\s\r.png",188,299 C,0,169807,,100,100,100 P,0,169807,,A F,1,169807,170307,1,0 S,22,169807,170307,0.2,0.35
Sprite,Background,Centre,"sb\s\pixel.png",188,299 R,0,169915,,-0.05235988 C,0,169915,,100,100,100 P,0,169915,,A V,0,169915,170415,5,960,0,960 F,1,169915,170631,0.6,0
Sprite,Background,Centre,"sb\s\circle.png",0,0 S,0,169915,,0.007299359 C,0,169915,,100,100,100 P,0,169915,,A M,22,169915,170415,188,299,130.9204,260.2325 F,1,169915,170415,0.6,0
Sprite,Background,Centre,"sb\s\circle.png",0,0 S,0,169915,,0.005214363 C,0,169915,,100,100,100 P,0,169915,,A M,22,169915,170415,188,299,190.9952,320.7952 F,1,169915,170415,0.6,0
Sprite,Background,Centre,"sb\s\circle.png",0,0 S,0,169915,,0.00633901 C,0,169915,,100,100,100 P,0,169915,,A M,22,169915,170415,188,299,149.2561,360.8701 F,1,169915,170415,0.6,0
Sprite,Background,Centre,"sb\s\circle.png",0,0 S,0,169915,,0.008228296 C,0,169915,,100,100,100 P,0,169915,,A M,22,169915,170415,188,299,218.9183,290.7502 F,1,169915,170415,0.6,0
Sprite,Background,Centre,"sb\s\circle.png",0,0 S,0,169915,,0.005561029 C,0,169915,,100,100,100 P,0,169915,,A M,22,169915,170415,188,299,215.9946,363.1584 F,1,169915,170415,0.6,0
Sprite,Background,Centre,"sb\s\circle.png",0,0 S,0,169915,,0.007473825 C,0,169915,,100,100,100 P,0,169915,,A M,22,169915,170415,188,299,179.8394,249.6704 F,1,169915,170415,0.6,0
Sprite,Background,Centre,"sb\s\circle.png",0,0 S,0,169915,,0.007140636 C,0,169915,,100,100,100 P,0,169915,,A M,22,169915,170415,188,299,233.5219,287.3057 F,1,169915,170415,0.6,0
Sprite,Background,Centre,"sb\s\circle.png",0,0 S,0,169915,,0.007206116 C,0,169915,,100,100,100 P,0,169915,,A M,22,169915,170415,188,299,208.4022,264.5943 F,1,169915,170415,0.6,0
Sprite,Background,Centre,"sb\s\circle.png",0,0 S,0,169915,,0.007083578 C,0,169915,,100,100,100 P,0,169915,,A M,22,169915,170415,188,299,165.4082,286.1311 F,1,169915,170415,0.6,0
Sprite,Background,Centre,"sb\s\circle.png",0,0 S,0,169915,,0.007803307 C,0,169915,,100,100,100 P,0,169915,,A M,22,169915,170415,188,299,127.0973,295.556 F,1,169915,170415,0.6,0
Sprite,Background,Centre,"sb\s\r.png",188,299 C,0,169915,,100,100,100 P,0,169915,,A F,1,169915,170415,1,0 S,22,169915,170415,0.2,0.35
Sprite,Background,Centre,"sb\s\pixel.png",203,408 R,0,170239,,-0.08726646 C,0,170239,,100,100,100 P,0,170239,,A F,1,170239,170739,0.6,0 V,0,170239,170739,5,960,0,960
Sprite,Background,Centre,"sb\s\circle.png",0,0 S,0,170239,,0.005242565 C,0,170239,,100,100,100 P,0,170239,,A M,22,170239,170739,203,408,184.9858,336.2261 F,1,170239,170739,0.6,0
Sprite,Background,Centre,"sb\s\circle.png",0,0 S,0,170239,,0.007575994 C,0,170239,,100,100,100 P,0,170239,,A M,22,170239,170739,203,408,170.7591,356.2166 F,1,170239,170739,0.6,0
Sprite,Background,Centre,"sb\s\circle.png",0,0 S,0,170239,,0.005110243 C,0,170239,,100,100,100 P,0,170239,,A M,22,170239,170739,203,408,144.1168,404.2896 F,1,170239,170739,0.6,0
Sprite,Background,Centre,"sb\s\circle.png",0,0 S,0,170239,,0.005273697 C,0,170239,,100,100,100 P,0,170239,,A M,22,170239,170739,203,408,195.6894,363.5978 F,1,170239,170739,0.6,0
Sprite,Background,Centre,"sb\s\circle.png",0,0 S,0,170239,,0.005279431 C,0,170239,,100,100,100 P,0,170239,,A M,22,170239,170739,203,408,226.2614,413.9081 F,1,170239,170739,0.6,0
Sprite,Background,Centre,"sb\s\circle.png",0,0 S,0,170239,,0.006571641 C,0,170239,,100,100,100 P,0,170239,,A M,22,170239,170739,203,408,217.5235,433.1011 F,1,170239,170739,0.6,0
Sprite,Background,Centre,"sb\s\circle.png",0,0 S,0,170239,,0.006522791 C,0,170239,,100,100,100 P,0,170239,,A M,22,170239,170739,203,408,274.973,406.027 F,1,170239,170739,0.6,0
Sprite,Background,Centre,"sb\s\circle.png",0,0 S,0,170239,,0.009683475 C,0,170239,,100,100,100 P,0,170239,,A M,22,170239,170739,203,408,196.5701,430.0829 F,1,170239,170739,0.6,0
Sprite,Background,Centre,"sb\s\circle.png",0,0 S,0,170239,,0.005093243 C,0,170239,,100,100,100 P,0,170239,,A M,22,170239,170739,203,408,206.0053,359.0923 F,1,170239,170739,0.6,0
Sprite,Background,Centre,"sb\s\circle.png",0,0 S,0,170239,,0.008130785 C,0,170239,,100,100,100 P,0,170239,,A M,22,170239,170739,203,408,157.3514,348.492 F,1,170239,170739,0.6,0
Sprite,Background,Centre,"sb\s\r.png",203,408 C,0,170239,,100,100,100 P,0,170239,,A F,1,170239,170739,1,0 S,22,170239,170739,0.2,0.35
Sprite,Background,Centre,"sb\s\pixel.png",284,379 R,0,170456,,0.1047198 C,0,170456,,100,100,100 P,0,170456,,A V,0,170456,170956,5,960,0,960 F,1,170456,171280,0.6,0
Sprite,Background,Centre,"sb\s\circle.png",0,0 S,0,170456,,0.0085301 C,0,170456,,100,100,100 P,0,170456,,A M,22,170456,170956,284,379,307.1601,436.5118 F,1,170456,170956,0.6,0
Sprite,Background,Centre,"sb\s\circle.png",0,0 S,0,170456,,0.005680027 C,0,170456,,100,100,100 P,0,170456,,A M,22,170456,170956,284,379,220.0648,381.8794 F,1,170456,170956,0.6,0
Sprite,Background,Centre,"sb\s\circle.png",0,0 S,0,170456,,0.006043542 C,0,170456,,100,100,100 P,0,170456,,A M,22,170456,170956,284,379,302.4922,420.0248 F,1,170456,170956,0.6,0
Sprite,Background,Centre,"sb\s\circle.png",0,0 S,0,170456,,0.009689654 C,0,170456,,100,100,100 P,0,170456,,A M,22,170456,170956,284,379,353.9958,379.7672 F,1,170456,170956,0.6,0
Sprite,Background,Centre,"sb\s\circle.png",0,0 S,0,170456,,0.008902239 C,0,170456,,100,100,100 P,0,170456,,A M,22,170456,170956,284,379,276.0943,300.3966 F,1,170456,170956,0.6,0
Sprite,Background,Centre,"sb\s\circle.png",0,0 S,0,170456,,0.007632611 C,0,170456,,100,100,100 P,0,170456,,A M,22,170456,170956,284,379,271.552,418.0647 F,1,170456,170956,0.6,0
Sprite,Background,Centre,"sb\s\circle.png",0,0 S,0,170456,,0.005973311 C,0,170456,,100,100,100 P,0,170456,,A M,22,170456,170956,284,379,316.4031,365.7697 F,1,170456,170956,0.6,0
Sprite,Background,Centre,"sb\s\circle.png",0,0 S,0,170456,,0.009739609 C,0,170456,,100,100,100 P,0,170456,,A M,22,170456,170956,284,379,266.2539,320.6384 F,1,170456,170956,0.6,0
Sprite,Background,Centre,"sb\s\circle.png",0,0 S,0,170456,,0.00555909 C,0,170456,,100,100,100 P,0,170456,,A M,22,170456,170956,284,379,222.7135,414.8464 F,1,170456,170956,0.6,0
Sprite,Background,Centre,"sb\s\circle.png",0,0 S,0,170456,,0.007482751 C,0,170456,,100,100,100 P,0,170456,,A M,22,170456,170956,284,379,310.0766,360.4525 F,1,170456,170956,0.6,0
Sprite,Background,Centre,"sb\s\r.png",284,379 C,0,170456,,100,100,100 P,0,170456,,A F,1,170456,170956,1,0 S,22,170456,170956,0.2,0.35
Sprite,Background,Centre,"sb\s\pixel.png",439,398 R,0,170888,,0.122173 C,0,170888,,100,100,100 P,0,170888,,A V,0,170888,171388,5,960,0,960 F,1,170888,171604,0.6,0
Sprite,Background,Centre,"sb\s\circle.png",0,0 S,0,170888,,0.009469884 C,0,170888,,100,100,100 P,0,170888,,A M,22,170888,171388,439,398,432.3401,355.5189 F,1,170888,171388,0.6,0
Sprite,Background,Centre,"sb\s\circle.png",0,0 S,0,170888,,0.006667832 C,0,170888,,100,100,100 P,0,170888,,A M,22,170888,171388,439,398,441.0289,437.9485 F,1,170888,171388,0.6,0
Sprite,Background,Centre,"sb\s\circle.png",0,0 S,0,170888,,0.005152559 C,0,170888,,100,100,100 P,0,170888,,A M,22,170888,171388,439,398,405.1938,378.5542 F,1,170888,171388,0.6,0
Sprite,Background,Centre,"sb\s\circle.png",0,0 S,0,170888,,0.008934649 C,0,170888,,100,100,100 P,0,170888,,A M,22,170888,171388,439,398,510.7442,384.5176 F,1,170888,171388,0.6,0
Sprite,Background,Centre,"sb\s\circle.png",0,0 S,0,170888,,0.006785817 C,0,170888,,100,100,100 P,0,170888,,A M,22,170888,171388,439,398,471.7167,364.2566 F,1,170888,171388,0.6,0
Sprite,Background,Centre,"sb\s\circle.png",0,0 S,0,170888,,0.009896598 C,0,170888,,100,100,100 P,0,170888,,A M,22,170888,171388,439,398,405.5448,466.2404 F,1,170888,171388,0.6,0
Sprite,Background,Centre,"sb\s\circle.png",0,0 S,0,170888,,0.005596669 C,0,170888,,100,100,100 P,0,170888,,A M,22,170888,171388,439,398,462.4601,452.1352 F,1,170888,171388,0.6,0
Sprite,Background,Centre,"sb\s\circle.png",0,0 S,0,170888,,0.008176951 C,0,170888,,100,100,100 P,0,170888,,A M,22,170888,171388,439,398,479.9525,396.0264 F,1,170888,171388,0.6,0
Sprite,Background,Centre,"sb\s\circle.png",0,0 S,0,170888,,0.008790491 C,0,170888,,100,100,100 P,0,170888,,A M,22,170888,171388,439,398,418.0806,399.8382 F,1,170888,171388,0.6,0
Sprite,Background,Centre,"sb\s\circle.png",0,0 S,0,170888,,0.005120938 C,0,170888,,100,100,100 P,0,170888,,A M,22,170888,171388,439,398,502.7223,431.5182 F,1,170888,171388,0.6,0
Sprite,Background,Centre,"sb\s\r.png",439,398 C,0,170888,,100,100,100 P,0,170888,,A F,1,170888,171388,1,0 S,22,170888,171388,0.2,0.35
Sprite,Background,Centre,"sb\s\pixel.png",424,290 R,0,171212,,-0.08726646 C,0,171212,,100,100,100 P,0,171212,,A F,1,171212,171712,0.6,0 V,0,171212,171712,5,960,0,960
Sprite,Background,Centre,"sb\s\circle.png",0,0 S,0,171212,,0.005687924 C,0,171212,,100,100,100 P,0,171212,,A M,22,171212,171712,424,290,433.1769,351.3171 F,1,171212,171712,0.6,0
Sprite,Background,Centre,"sb\s\circle.png",0,0 S,0,171212,,0.009200348 C,0,171212,,100,100,100 P,0,171212,,A M,22,171212,171712,424,290,463.3016,324.0497 F,1,171212,171712,0.6,0
Sprite,Background,Centre,"sb\s\circle.png",0,0 S,0,171212,,0.009827646 C,0,171212,,100,100,100 P,0,171212,,A M,22,171212,171712,424,290,425.4728,245.0241 F,1,171212,171712,0.6,0
Sprite,Background,Centre,"sb\s\circle.png",0,0 S,0,171212,,0.009538962 C,0,171212,,100,100,100 P,0,171212,,A M,22,171212,171712,424,290,430.4362,258.6539 F,1,171212,171712,0.6,0
Sprite,Background,Centre,"sb\s\circle.png",0,0 S,0,171212,,0.009580447 C,0,171212,,100,100,100 P,0,171212,,A M,22,171212,171712,424,290,413.8018,326.606 F,1,171212,171712,0.6,0
Sprite,Background,Centre,"sb\s\circle.png",0,0 S,0,171212,,0.005293026 C,0,171212,,100,100,100 P,0,171212,,A M,22,171212,171712,424,290,442.7399,245.8093 F,1,171212,171712,0.6,0
Sprite,Background,Centre,"sb\s\circle.png",0,0 S,0,171212,,0.009611415 C,0,171212,,100,100,100 P,0,171212,,A M,22,171212,171712,424,290,394.6138,283.9625 F,1,171212,171712,0.6,0
Sprite,Background,Centre,"sb\s\circle.png",0,0 S,0,171212,,0.008724129 C,0,171212,,100,100,100 P,0,171212,,A M,22,171212,171712,424,290,493.6465,297.0264 F,1,171212,171712,0.6,0
Sprite,Background,Centre,"sb\s\circle.png",0,0 S,0,171212,,0.006292933 C,0,171212,,100,100,100 P,0,171212,,A M,22,171212,171712,424,290,421.6428,268.1266 F,1,171212,171712,0.6,0
Sprite,Background,Centre,"sb\s\circle.png",0,0 S,0,171212,,0.007877341 C,0,171212,,100,100,100 P,0,171212,,A M,22,171212,171712,424,290,425.4388,251.0266 F,1,171212,171712,0.6,0
Sprite,Background,Centre,"sb\s\r.png",424,290 C,0,171212,,100,100,100 P,0,171212,,A F,1,171212,171712,1,0 S,22,171212,171712,0.2,0.35
Sprite,Background,Centre,"sb\s\pixel.png",501,247 R,0,171429,,0 C,0,171429,,100,100,100 P,0,171429,,A F,1,171429,171929,0.6,0 V,0,171429,171929,5,960,0,960
Sprite,Background,Centre,"sb\s\circle.png",0,0 S,0,171429,,0.008447191 C,0,171429,,100,100,100 P,0,171429,,A M,22,171429,171929,501,247,482.3071,254.1116 F,1,171429,171929,0.6,0
Sprite,Background,Centre,"sb\s\circle.png",0,0 S,0,171429,,0.008674784 C,0,171429,,100,100,100 P,0,171429,,A M,22,171429,171929,501,247,488.2291,226.6799 F,1,171429,171929,0.6,0
Sprite,Background,Centre,"sb\s\circle.png",0,0 S,0,171429,,0.007412383 C,0,171429,,100,100,100 P,0,171429,,A M,22,171429,171929,501,247,460.3221,301.4913 F,1,171429,171929,0.6,0
Sprite,Background,Centre,"sb\s\circle.png",0,0 S,0,171429,,0.006096935 C,0,171429,,100,100,100 P,0,171429,,A M,22,171429,171929,501,247,521.8459,294.6387 F,1,171429,171929,0.6,0
Sprite,Background,Centre,"sb\s\circle.png",0,0 S,0,171429,,0.005422717 C,0,171429,,100,100,100 P,0,171429,,A M,22,171429,171929,501,247,552.0313,193.4107 F,1,171429,171929,0.6,0
Sprite,Background,Centre,"sb\s\circle.png",0,0 S,0,171429,,0.007849805 C,0,171429,,100,100,100 P,0,171429,,A M,22,171429,171929,501,247,536.3677,263.4355 F,1,171429,171929,0.6,0
Sprite,Background,Centre,"sb\s\circle.png",0,0 S,0,171429,,0.005092316 C,0,171429,,100,100,100 P,0,171429,,A M,22,171429,171929,501,247,510.6236,281.6899 F,1,171429,171929,0.6,0
Sprite,Background,Centre,"sb\s\circle.png",0,0 S,0,171429,,0.006793573 C,0,171429,,100,100,100 P,0,171429,,A M,22,171429,171929,501,247,460.2755,305.1594 F,1,171429,171929,0.6,0
Sprite,Background,Centre,"sb\s\circle.png",0,0 S,0,171429,,0.006963795 C,0,171429,,100,100,100 P,0,171429,,A M,22,171429,171929,501,247,518.7508,316.7776 F,1,171429,171929,0.6,0
Sprite,Background,Centre,"sb\s\circle.png",0,0 S,0,171429,,0.007907415 C,0,171429,,100,100,100 P,0,171429,,A M,22,171429,171929,501,247,464.3993,281.0645 F,1,171429,171929,0.6,0
Sprite,Background,Centre,"sb\s\r.png",501,247 C,0,171429,,100,100,100 P,0,171429,,A F,1,171429,171929,1,0 S,22,171429,171929,0.2,0.35
Sprite,Background,Centre,"sb\s\pixel.png",501,247 R,0,171537,,0.1570796 C,0,171537,,100,100,100 P,0,171537,,A V,0,171537,172037,5,960,0,960 F,1,171537,172253,0.6,0
Sprite,Background,Centre,"sb\s\circle.png",0,0 S,0,171537,,0.006381105 C,0,171537,,100,100,100 P,0,171537,,A M,22,171537,172037,501,247,534.8079,273.5712 F,1,171537,172037,0.6,0
Sprite,Background,Centre,"sb\s\circle.png",0,0 S,0,171537,,0.008019025 C,0,171537,,100,100,100 P,0,171537,,A M,22,171537,172037,501,247,506.9287,173.2379 F,1,171537,172037,0.6,0
Sprite,Background,Centre,"sb\s\circle.png",0,0 S,0,171537,,0.005394387 C,0,171537,,100,100,100 P,0,171537,,A M,22,171537,172037,501,247,458.7637,191.178 F,1,171537,172037,0.6,0
Sprite,Background,Centre,"sb\s\circle.png",0,0 S,0,171537,,0.005248867 C,0,171537,,100,100,100 P,0,171537,,A M,22,171537,172037,501,247,524.2468,271.811 F,1,171537,172037,0.6,0
Sprite,Background,Centre,"sb\s\circle.png",0,0 S,0,171537,,0.008983077 C,0,171537,,100,100,100 P,0,171537,,A M,22,171537,172037,501,247,542.8788,243.8112 F,1,171537,172037,0.6,0
Sprite,Background,Centre,"sb\s\circle.png",0,0 S,0,171537,,0.008241855 C,0,171537,,100,100,100 P,0,171537,,A M,22,171537,172037,501,247,568.9426,234.9664 F,1,171537,172037,0.6,0
Sprite,Background,Centre,"sb\s\circle.png",0,0 S,0,171537,,0.00592956 C,0,171537,,100,100,100 P,0,171537,,A M,22,171537,172037,501,247,574.1084,230.2619 F,1,171537,172037,0.6,0
Sprite,Background,Centre,"sb\s\circle.png",0,0 S,0,171537,,0.007437731 C,0,171537,,100,100,100 P,0,171537,,A M,22,171537,172037,501,247,527.9872,272.3118 F,1,171537,172037,0.6,0
Sprite,Background,Centre,"sb\s\circle.png",0,0 S,0,171537,,0.006653617 C,0,171537,,100,100,100 P,0,171537,,A M,22,171537,172037,501,247,524.9937,263.2881 F,1,171537,172037,0.6,0
Sprite,Background,Centre,"sb\s\circle.png",0,0 S,0,171537,,0.006710989 C,0,171537,,100,100,100 P,0,171537,,A M,22,171537,172037,501,247,470.5449,256.8227 F,1,171537,172037,0.6,0
Sprite,Background,Centre,"sb\s\r.png",501,247 C,0,171537,,100,100,100 P,0,171537,,A F,1,171537,172037,1,0 S,22,171537,172037,0.2,0.35
Sprite,Background,Centre,"sb\s\pixel.png",503,139 R,0,171861,,0.1570796 C,0,171861,,100,100,100 P,0,171861,,A V,0,171861,172361,5,960,0,960 F,1,171861,172685,0.6,0
Sprite,Background,Centre,"sb\s\circle.png",0,0 S,0,171861,,0.005925073 C,0,171861,,100,100,100 P,0,171861,,A M,22,171861,172361,503,139,477.279,208.3861 F,1,171861,172361,0.6,0
Sprite,Background,Centre,"sb\s\circle.png",0,0 S,0,171861,,0.007974441 C,0,171861,,100,100,100 P,0,171861,,A M,22,171861,172361,503,139,438.773,164.2169 F,1,171861,172361,0.6,0
Sprite,Background,Centre,"sb\s\circle.png",0,0 S,0,171861,,0.007327148 C,0,171861,,100,100,100 P,0,171861,,A M,22,171861,172361,503,139,520.3791,163.4534 F,1,171861,172361,0.6,0
Sprite,Background,Centre,"sb\s\circle.png",0,0 S,0,171861,,0.005640266 C,0,171861,,100,100,100 P,0,171861,,A M,22,171861,172361,503,139,476.4881,81.85003 F,1,171861,172361,0.6,0
Sprite,Background,Centre,"sb\s\circle.png",0,0 S,0,171861,,0.006487251 C,0,171861,,100,100,100 P,0,171861,,A M,22,171861,172361,503,139,543.2281,191.323 F,1,171861,172361,0.6,0
Sprite,Background,Centre,"sb\s\circle.png",0,0 S,0,171861,,0.00706869 C,0,171861,,100,100,100 P,0,171861,,A M,22,171861,172361,503,139,554.2233,80.1768 F,1,171861,172361,0.6,0
Sprite,Background,Centre,"sb\s\circle.png",0,0 S,0,171861,,0.008661694 C,0,171861,,100,100,100 P,0,171861,,A M,22,171861,172361,503,139,545.2524,107.0041 F,1,171861,172361,0.6,0
Sprite,Background,Centre,"sb\s\circle.png",0,0 S,0,171861,,0.009067125 C,0,171861,,100,100,100 P,0,171861,,A M,22,171861,172361,503,139,446.2858,122.7366 F,1,171861,172361,0.6,0
Sprite,Background,Centre,"sb\s\circle.png",0,0 S,0,171861,,0.008943374 C,0,171861,,100,100,100 P,0,171861,,A M,22,171861,172361,503,139,527.9049,136.8213 F,1,171861,172361,0.6,0
Sprite,Background,Centre,"sb\s\circle.png",0,0 S,0,171861,,0.006365409 C,0,171861,,100,100,100 P,0,171861,,A M,22,171861,172361,503,139,471.4119,83.33862 F,1,171861,172361,0.6,0
Sprite,Background,Centre,"sb\s\r.png",503,139 C,0,171861,,100,100,100 P,0,171861,,A F,1,171861,172361,1,0 S,22,171861,172361,0.2,0.35
Sprite,Background,Centre,"sb\s\pixel.png",283,114 R,0,172402,,-0.122173 C,0,172402,,100,100,100 P,0,172402,,A F,1,172402,172902,0.6,0 V,0,172402,172902,5,960,0,960
Sprite,Background,Centre,"sb\s\circle.png",0,0 S,0,172402,,0.005794143 C,0,172402,,100,100,100 P,0,172402,,A M,22,172402,172902,283,114,240.8252,65.86179 F,1,172402,172902,0.6,0
Sprite,Background,Centre,"sb\s\circle.png",0,0 S,0,172402,,0.009014451 C,0,172402,,100,100,100 P,0,172402,,A M,22,172402,172902,283,114,308.8336,103.2008 F,1,172402,172902,0.6,0
Sprite,Background,Centre,"sb\s\circle.png",0,0 S,0,172402,,0.006886062 C,0,172402,,100,100,100 P,0,172402,,A M,22,172402,172902,283,114,354.6542,83.18318 F,1,172402,172902,0.6,0
Sprite,Background,Centre,"sb\s\circle.png",0,0 S,0,172402,,0.007493747 C,0,172402,,100,100,100 P,0,172402,,A M,22,172402,172902,283,114,262.6512,71.63341 F,1,172402,172902,0.6,0
Sprite,Background,Centre,"sb\s\circle.png",0,0 S,0,172402,,0.009959249 C,0,172402,,100,100,100 P,0,172402,,A M,22,172402,172902,283,114,283.0193,161 F,1,172402,172902,0.6,0
Sprite,Background,Centre,"sb\s\circle.png",0,0 S,0,172402,,0.008987338 C,0,172402,,100,100,100 P,0,172402,,A M,22,172402,172902,283,114,318.1942,165.0428 F,1,172402,172902,0.6,0
Sprite,Background,Centre,"sb\s\circle.png",0,0 S,0,172402,,0.005183031 C,0,172402,,100,100,100 P,0,172402,,A M,22,172402,172902,283,114,272.963,152.7203 F,1,172402,172902,0.6,0
Sprite,Background,Centre,"sb\s\circle.png",0,0 S,0,172402,,0.006195055 C,0,172402,,100,100,100 P,0,172402,,A M,22,172402,172902,283,114,259.0987,175.5202 F,1,172402,172902,0.6,0
Sprite,Background,Centre,"sb\s\circle.png",0,0 S,0,172402,,0.006857948 C,0,172402,,100,100,100 P,0,172402,,A M,22,172402,172902,283,114,285.6478,79.1003 F,1,172402,172902,0.6,0
Sprite,Background,Centre,"sb\s\circle.png",0,0 S,0,172402,,0.009031068 C,0,172402,,100,100,100 P,0,172402,,A M,22,172402,172902,283,114,221.6154,132.1088 F,1,172402,172902,0.6,0
Sprite,Background,Centre,"sb\s\r.png",283,114 C,0,172402,,100,100,100 P,0,172402,,A F,1,172402,172902,1,0 S,22,172402,172902,0.2,0.35
Sprite,Background,Centre,"sb\s\pixel.png",283,114 R,0,172510,,-0.01745329 C,0,172510,,100,100,100 P,0,172510,,A V,0,172510,173010,5,960,0,960 F,1,172510,173226,0.6,0
Sprite,Background,Centre,"sb\s\circle.png",0,0 S,0,172510,,0.007421519 C,0,172510,,100,100,100 P,0,172510,,A M,22,172510,173010,283,114,254.4728,126.1325 F,1,172510,173010,0.6,0
Sprite,Background,Centre,"sb\s\circle.png",0,0 S,0,172510,,0.009934264 C,0,172510,,100,100,100 P,0,172510,,A M,22,172510,173010,283,114,318.8431,137.7544 F,1,172510,173010,0.6,0
Sprite,Background,Centre,"sb\s\circle.png",0,0 S,0,172510,,0.005305679 C,0,172510,,100,100,100 P,0,172510,,A M,22,172510,173010,283,114,297.7048,90.17212 F,1,172510,173010,0.6,0
Sprite,Background,Centre,"sb\s\circle.png",0,0 S,0,172510,,0.007598172 C,0,172510,,100,100,100 P,0,172510,,A M,22,172510,173010,283,114,326.9626,127.5383 F,1,172510,173010,0.6,0
Sprite,Background,Centre,"sb\s\circle.png",0,0 S,0,172510,,0.005228487 C,0,172510,,100,100,100 P,0,172510,,A M,22,172510,173010,283,114,309.7972,89.9603 F,1,172510,173010,0.6,0
Sprite,Background,Centre,"sb\s\circle.png",0,0 S,0,172510,,0.00997131 C,0,172510,,100,100,100 P,0,172510,,A M,22,172510,173010,283,114,249.7181,137.9441 F,1,172510,173010,0.6,0
Sprite,Background,Centre,"sb\s\circle.png",0,0 S,0,172510,,0.009351895 C,0,172510,,100,100,100 P,0,172510,,A M,22,172510,173010,283,114,305.1165,104.6801 F,1,172510,173010,0.6,0
Sprite,Background,Centre,"sb\s\circle.png",0,0 S,0,172510,,0.005799802 C,0,172510,,100,100,100 P,0,172510,,A M,22,172510,173010,283,114,210.7576,134.1504 F,1,172510,173010,0.6,0
Sprite,Background,Centre,"sb\s\circle.png",0,0 S,0,172510,,0.009599088 C,0,172510,,100,100,100 P,0,172510,,A M,22,172510,173010,283,114,247.3904,182.2712 F,1,172510,173010,0.6,0
Sprite,Background,Centre,"sb\s\circle.png",0,0 S,0,172510,,0.007156502 C,0,172510,,100,100,100 P,0,172510,,A M,22,172510,173010,283,114,316.1695,179.0291 F,1,172510,173010,0.6,0
Sprite,Background,Centre,"sb\s\r.png",283,114 C,0,172510,,100,100,100 P,0,172510,,A F,1,172510,173010,1,0 S,22,172510,173010,0.2,0.35
Sprite,Background,Centre,"sb\s\pixel.png",199,157 R,0,172834,,-0.01745329 C,0,172834,,100,100,100 P,0,172834,,A F,1,172834,173334,0.6,0 V,0,172834,173334,5,960,0,960
Sprite,Background,Centre,"sb\s\circle.png",0,0 S,0,172834,,0.005974601 C,0,172834,,100,100,100 P,0,172834,,A M,22,172834,173334,199,157,206.3008,210.5042 F,1,172834,173334,0.6,0
Sprite,Background,Centre,"sb\s\circle.png",0,0 S,0,172834,,0.008828154 C,0,172834,,100,100,100 P,0,172834,,A M,22,172834,173334,199,157,236.3581,163.9551 F,1,172834,173334,0.6,0
Sprite,Background,Centre,"sb\s\circle.png",0,0 S,0,172834,,0.005835368 C,0,172834,,100,100,100 P,0,172834,,A M,22,172834,173334,199,157,162.1995,199.2105 F,1,172834,173334,0.6,0
Sprite,Background,Centre,"sb\s\circle.png",0,0 S,0,172834,,0.006146156 C,0,172834,,100,100,100 P,0,172834,,A M,22,172834,173334,199,157,239.8998,115.8757 F,1,172834,173334,0.6,0
Sprite,Background,Centre,"sb\s\circle.png",0,0 S,0,172834,,0.008946712 C,0,172834,,100,100,100 P,0,172834,,A M,22,172834,173334,199,157,181.9134,209.2785 F,1,172834,173334,0.6,0
Sprite,Background,Centre,"sb\s\circle.png",0,0 S,0,172834,,0.008581772 C,0,172834,,100,100,100 P,0,172834,,A M,22,172834,173334,199,157,260.9946,109.6643 F,1,172834,173334,0.6,0
Sprite,Background,Centre,"sb\s\circle.png",0,0 S,0,172834,,0.007300406 C,0,172834,,100,100,100 P,0,172834,,A M,22,172834,173334,199,157,210.7122,140.7882 F,1,172834,173334,0.6,0
Sprite,Background,Centre,"sb\s\circle.png",0,0 S,0,172834,,0.008067182 C,0,172834,,100,100,100 P,0,172834,,A M,22,172834,173334,199,157,219.3495,97.37704 F,1,172834,173334,0.6,0
Sprite,Background,Centre,"sb\s\circle.png",0,0 S,0,172834,,0.006621717 C,0,172834,,100,100,100 P,0,172834,,A M,22,172834,173334,199,157,234.6957,152.3294 F,1,172834,173334,0.6,0
Sprite,Background,Centre,"sb\s\circle.png",0,0 S,0,172834,,0.005335177 C,0,172834,,100,100,100 P,0,172834,,A M,22,172834,173334,199,157,203.7985,111.251 F,1,172834,173334,0.6,0
Sprite,Background,Centre,"sb\s\r.png",199,157 C,0,172834,,100,100,100 P,0,172834,,A F,1,172834,173334,1,0 S,22,172834,173334,0.2,0.35
Sprite,Background,Centre,"sb\s\pixel.png",116,156 R,0,173050,,0.05235988 C,0,173050,,100,100,100 P,0,173050,,A V,0,173050,173550,5,960,0,960 F,1,173050,173874,0.6,0
Sprite,Background,Centre,"sb\s\circle.png",0,0 S,0,173050,,0.007832657 C,0,173050,,100,100,100 P,0,173050,,A M,22,173050,173550,116,156,115.926,213 F,1,173050,173550,0.6,0
Sprite,Background,Centre,"sb\s\circle.png",0,0 S,0,173050,,0.008443521 C,0,173050,,100,100,100 P,0,173050,,A M,22,173050,173550,116,156,131.1627,230.4721 F,1,173050,173550,0.6,0
Sprite,Background,Centre,"sb\s\circle.png",0,0 S,0,173050,,0.008175561 C,0,173050,,100,100,100 P,0,173050,,A M,22,173050,173550,116,156,120.9218,219.8105 F,1,173050,173550,0.6,0
Sprite,Background,Centre,"sb\s\circle.png",0,0 S,0,173050,,0.008847262 C,0,173050,,100,100,100 P,0,173050,,A M,22,173050,173550,116,156,158.9462,153.8494 F,1,173050,173550,0.6,0
Sprite,Background,Centre,"sb\s\circle.png",0,0 S,0,173050,,0.006137382 C,0,173050,,100,100,100 P,0,173050,,A M,22,173050,173550,116,156,125.8922,187.4825 F,1,173050,173550,0.6,0
Sprite,Background,Centre,"sb\s\circle.png",0,0 S,0,173050,,0.007685872 C,0,173050,,100,100,100 P,0,173050,,A M,22,173050,173550,116,156,77.81256,117.8199 F,1,173050,173550,0.6,0
Sprite,Background,Centre,"sb\s\circle.png",0,0 S,0,173050,,0.007292883 C,0,173050,,100,100,100 P,0,173050,,A M,22,173050,173550,116,156,186.5518,184.2568 F,1,173050,173550,0.6,0
Sprite,Background,Centre,"sb\s\circle.png",0,0 S,0,173050,,0.005104662 C,0,173050,,100,100,100 P,0,173050,,A M,22,173050,173550,116,156,157.9402,169.3048 F,1,173050,173550,0.6,0
Sprite,Background,Centre,"sb\s\circle.png",0,0 S,0,173050,,0.007907418 C,0,173050,,100,100,100 P,0,173050,,A M,22,173050,173550,116,156,53.41747,187.3596 F,1,173050,173550,0.6,0
Sprite,Background,Centre,"sb\s\circle.png",0,0 S,0,173050,,0.007206437 C,0,173050,,100,100,100 P,0,173050,,A M,22,173050,173550,116,156,136.9232,162.7986 F,1,173050,173550,0.6,0
Sprite,Background,Centre,"sb\s\r.png",116,156 C,0,173050,,100,100,100 P,0,173050,,A F,1,173050,173550,1,0 S,22,173050,173550,0.2,0.35
Sprite,Background,Centre,"sb\s\pixel.png",174,273 R,0,173483,,0.01745329 C,0,173483,,100,100,100 P,0,173483,,A V,0,173483,173983,5,960,0,960 F,1,173483,174199,0.6,0
Sprite,Background,Centre,"sb\s\circle.png",0,0 S,0,173483,,0.006057478 C,0,173483,,100,100,100 P,0,173483,,A M,22,173483,173983,174,273,187.102,295.4575 F,1,173483,173983,0.6,0
Sprite,Background,Centre,"sb\s\circle.png",0,0 S,0,173483,,0.008668723 C,0,173483,,100,100,100 P,0,173483,,A M,22,173483,173983,174,273,129.7921,305.721 F,1,173483,173983,0.6,0
Sprite,Background,Centre,"sb\s\circle.png",0,0 S,0,173483,,0.006037542 C,0,173483,,100,100,100 P,0,173483,,A M,22,173483,173983,174,273,125.4047,323.3835 F,1,173483,173983,0.6,0
Sprite,Background,Centre,"sb\s\circle.png",0,0 S,0,173483,,0.006072302 C,0,173483,,100,100,100 P,0,173483,,A M,22,173483,173983,174,273,166.2789,195.3831 F,1,173483,173983,0.6,0
Sprite,Background,Centre,"sb\s\circle.png",0,0 S,0,173483,,0.005164472 C,0,173483,,100,100,100 P,0,173483,,A M,22,173483,173983,174,273,196.7519,276.369 F,1,173483,173983,0.6,0
Sprite,Background,Centre,"sb\s\circle.png",0,0 S,0,173483,,0.008759083 C,0,173483,,100,100,100 P,0,173483,,A M,22,173483,173983,174,273,131.6903,265.326 F,1,173483,173983,0.6,0
Sprite,Background,Centre,"sb\s\circle.png",0,0 S,0,173483,,0.006147289 C,0,173483,,100,100,100 P,0,173483,,A M,22,173483,173983,174,273,133.2326,222.3737 F,1,173483,173983,0.6,0
Sprite,Background,Centre,"sb\s\circle.png",0,0 S,0,173483,,0.00602246 C,0,173483,,100,100,100 P,0,173483,,A M,22,173483,173983,174,273,155.0403,292.2232 F,1,173483,173983,0.6,0
Sprite,Background,Centre,"sb\s\circle.png",0,0 S,0,173483,,0.007727995 C,0,173483,,100,100,100 P,0,173483,,A M,22,173483,173983,174,273,183.6366,303.5145 F,1,173483,173983,0.6,0
Sprite,Background,Centre,"sb\s\circle.png",0,0 S,0,173483,,0.005536104 C,0,173483,,100,100,100 P,0,173483,,A M,22,173483,173983,174,273,180.7761,247.8985 F,1,173483,173983,0.6,0
Sprite,Background,Centre,"sb\s\r.png",174,273 C,0,173483,,100,100,100 P,0,173483,,A F,1,173483,173983,1,0 S,22,173483,173983,0.2,0.35
Sprite,Background,Centre,"sb\s\pixel.png",289,289 R,0,173807,,-0.122173 C,0,173807,,100,100,100 P,0,173807,,A V,0,173807,174307,5,960,0,960 F,1,173807,174523,0.6,0
Sprite,Background,Centre,"sb\s\circle.png",0,0 S,0,173807,,0.006972748 C,0,173807,,100,100,100 P,0,173807,,A M,22,173807,174307,289,289,279.417,259.5184 F,1,173807,174307,0.6,0
Sprite,Background,Centre,"sb\s\circle.png",0,0 S,0,173807,,0.009950253 C,0,173807,,100,100,100 P,0,173807,,A M,22,173807,174307,289,289,297.3268,348.4194 F,1,173807,174307,0.6,0
Sprite,Background,Centre,"sb\s\circle.png",0,0 S,0,173807,,0.009456201 C,0,173807,,100,100,100 P,0,173807,,A M,22,173807,174307,289,289,314.2345,237.8901 F,1,173807,174307,0.6,0
Sprite,Background,Centre,"sb\s\circle.png",0,0 S,0,173807,,0.009265606 C,0,173807,,100,100,100 P,0,173807,,A M,22,173807,174307,289,289,308.6945,346.7332 F,1,173807,174307,0.6,0
Sprite,Background,Centre,"sb\s\circle.png",0,0 S,0,173807,,0.009172153 C,0,173807,,100,100,100 P,0,173807,,A M,22,173807,174307,289,289,299.8737,335.7521 F,1,173807,174307,0.6,0
Sprite,Background,Centre,"sb\s\circle.png",0,0 S,0,173807,,0.006965873 C,0,173807,,100,100,100 P,0,173807,,A M,22,173807,174307,289,289,228.9159,337.1549 F,1,173807,174307,0.6,0
Sprite,Background,Centre,"sb\s\circle.png",0,0 S,0,173807,,0.006490927 C,0,173807,,100,100,100 P,0,173807,,A M,22,173807,174307,289,289,277.1656,317.6522 F,1,173807,174307,0.6,0
Sprite,Background,Centre,"sb\s\circle.png",0,0 S,0,173807,,0.006840146 C,0,173807,,100,100,100 P,0,173807,,A M,22,173807,174307,289,289,240.2856,325.7138 F,1,173807,174307,0.6,0
Sprite,Background,Centre,"sb\s\circle.png",0,0 S,0,173807,,0.005035018 C,0,173807,,100,100,100 P,0,173807,,A M,22,173807,174307,289,289,309.3662,213.7058 F,1,173807,174307,0.6,0
Sprite,Background,Centre,"sb\s\circle.png",0,0 S,0,173807,,0.005940727 C,0,173807,,100,100,100 P,0,173807,,A M,22,173807,174307,289,289,302.986,329.6619 F,1,173807,174307,0.6,0
Sprite,Background,Centre,"sb\s\r.png",289,289 C,0,173807,,100,100,100 P,0,173807,,A F,1,173807,174307,1,0 S,22,173807,174307,0.2,0.35
Sprite,Background,Centre,"sb\s\pixel.png",312,394 R,0,174131,,0.01745329 C,0,174131,,100,100,100 P,0,174131,,A V,0,174131,174631,5,960,0,960 F,1,174131,174847,0.6,0
Sprite,Background,Centre,"sb\s\circle.png",0,0 S,0,174131,,0.007732367 C,0,174131,,100,100,100 P,0,174131,,A M,22,174131,174631,312,394,309.2228,368.1487 F,1,174131,174631,0.6,0
Sprite,Background,Centre,"sb\s\circle.png",0,0 S,0,174131,,0.008144235 C,0,174131,,100,100,100 P,0,174131,,A M,22,174131,174631,312,394,308.4444,414.6968 F,1,174131,174631,0.6,0
Sprite,Background,Centre,"sb\s\circle.png",0,0 S,0,174131,,0.007692529 C,0,174131,,100,100,100 P,0,174131,,A M,22,174131,174631,312,394,333.6317,359.1709 F,1,174131,174631,0.6,0
Sprite,Background,Centre,"sb\s\circle.png",0,0 S,0,174131,,0.008754311 C,0,174131,,100,100,100 P,0,174131,,A M,22,174131,174631,312,394,287.4882,382.6788 F,1,174131,174631,0.6,0
Sprite,Background,Centre,"sb\s\circle.png",0,0 S,0,174131,,0.007603901 C,0,174131,,100,100,100 P,0,174131,,A M,22,174131,174631,312,394,264.2206,376.1639 F,1,174131,174631,0.6,0
Sprite,Background,Centre,"sb\s\circle.png",0,0 S,0,174131,,0.006834426 C,0,174131,,100,100,100 P,0,174131,,A M,22,174131,174631,312,394,364.2293,358.7708 F,1,174131,174631,0.6,0
Sprite,Background,Centre,"sb\s\circle.png",0,0 S,0,174131,,0.006993944 C,0,174131,,100,100,100 P,0,174131,,A M,22,174131,174631,312,394,335.8852,344.4571 F,1,174131,174631,0.6,0
Sprite,Background,Centre,"sb\s\circle.png",0,0 S,0,174131,,0.009447804 C,0,174131,,100,100,100 P,0,174131,,A M,22,174131,174631,312,394,333.105,322.0307 F,1,174131,174631,0.6,0
Sprite,Background,Centre,"sb\s\circle.png",0,0 S,0,174131,,0.005132603 C,0,174131,,100,100,100 P,0,174131,,A M,22,174131,174631,312,394,295.7242,441.2768 F,1,174131,174631,0.6,0
Sprite,Background,Centre,"sb\s\circle.png",0,0 S,0,174131,,0.009915235 C,0,174131,,100,100,100 P,0,174131,,A M,22,174131,174631,312,394,255.8963,417.9453 F,1,174131,174631,0.6,0
Sprite,Background,Centre,"sb\s\r.png",312,394 C,0,174131,,100,100,100 P,0,174131,,A F,1,174131,174631,1,0 S,22,174131,174631,0.2,0.35
Sprite,Background,Centre,"sb\s\pixel.png",425,410 R,0,174456,,0.03490658 C,0,174456,,100,100,100 P,0,174456,,A F,1,174456,174956,0.6,0 V,0,174456,174956,5,960,0,960
Sprite,Background,Centre,"sb\s\circle.png",0,0 S,0,174456,,0.008087581 C,0,174456,,100,100,100 P,0,174456,,A M,22,174456,174956,425,410,427.8612,471.934 F,1,174456,174956,0.6,0
Sprite,Background,Centre,"sb\s\circle.png",0,0 S,0,174456,,0.008335784 C,0,174456,,100,100,100 P,0,174456,,A M,22,174456,174956,425,410,488.2982,395.2235 F,1,174456,174956,0.6,0
Sprite,Background,Centre,"sb\s\circle.png",0,0 S,0,174456,,0.008818116 C,0,174456,,100,100,100 P,0,174456,,A M,22,174456,174956,425,410,444.2007,475.2329 F,1,174456,174956,0.6,0
Sprite,Background,Centre,"sb\s\circle.png",0,0 S,0,174456,,0.00886917 C,0,174456,,100,100,100 P,0,174456,,A M,22,174456,174956,425,410,440.6487,424.0042 F,1,174456,174956,0.6,0
Sprite,Background,Centre,"sb\s\circle.png",0,0 S,0,174456,,0.00823175 C,0,174456,,100,100,100 P,0,174456,,A M,22,174456,174956,425,410,403.23,389.3586 F,1,174456,174956,0.6,0
Sprite,Background,Centre,"sb\s\circle.png",0,0 S,0,174456,,0.006356317 C,0,174456,,100,100,100 P,0,174456,,A M,22,174456,174956,425,410,472.9556,460.9928 F,1,174456,174956,0.6,0
Sprite,Background,Centre,"sb\s\circle.png",0,0 S,0,174456,,0.009151948 C,0,174456,,100,100,100 P,0,174456,,A M,22,174456,174956,425,410,457.9358,426.8592 F,1,174456,174956,0.6,0
Sprite,Background,Centre,"sb\s\circle.png",0,0 S,0,174456,,0.005906864 C,0,174456,,100,100,100 P,0,174456,,A M,22,174456,174956,425,410,374.3777,388.4968 F,1,174456,174956,0.6,0
Sprite,Background,Centre,"sb\s\circle.png",0,0 S,0,174456,,0.008284562 C,0,174456,,100,100,100 P,0,174456,,A M,22,174456,174956,425,410,452.7213,398.5314 F,1,174456,174956,0.6,0
Sprite,Background,Centre,"sb\s\circle.png",0,0 S,0,174456,,0.008011632 C,0,174456,,100,100,100 P,0,174456,,A M,22,174456,174956,425,410,474.3499,401.9637 F,1,174456,174956,0.6,0
Sprite,Background,Centre,"sb\s\r.png",425,410 C,0,174456,,100,100,100 P,0,174456,,A F,1,174456,174956,1,0 S,22,174456,174956,0.2,0.35
Sprite,Background,Centre,"sb\s\pixel.png",513,289 R,0,174780,,-0.03490658 C,0,174780,,100,100,100 P,0,174780,,A V,0,174780,175280,5,960,0,960 F,1,174780,175496,0.6,0
Sprite,Background,Centre,"sb\s\circle.png",0,0 S,0,174780,,0.009715729 C,0,174780,,100,100,100 P,0,174780,,A M,22,174780,175280,513,289,488.9145,241.7889 F,1,174780,175280,0.6,0
Sprite,Background,Centre,"sb\s\circle.png",0,0 S,0,174780,,0.009696733 C,0,174780,,100,100,100 P,0,174780,,A M,22,174780,175280,513,289,529.1395,274.0495 F,1,174780,175280,0.6,0
Sprite,Background,Centre,"sb\s\circle.png",0,0 S,0,174780,,0.006191993 C,0,174780,,100,100,100 P,0,174780,,A M,22,174780,175280,513,289,453.1917,261.09 F,1,174780,175280,0.6,0
Sprite,Background,Centre,"sb\s\circle.png",0,0 S,0,174780,,0.005289374 C,0,174780,,100,100,100 P,0,174780,,A M,22,174780,175280,513,289,460.3589,282.8422 F,1,174780,175280,0.6,0
Sprite,Background,Centre,"sb\s\circle.png",0,0 S,0,174780,,0.005107827 C,0,174780,,100,100,100 P,0,174780,,A M,22,174780,175280,513,289,471.5262,295.6277 F,1,174780,175280,0.6,0
Sprite,Background,Centre,"sb\s\circle.png",0,0 S,0,174780,,0.008282096 C,0,174780,,100,100,100 P,0,174780,,A M,22,174780,175280,513,289,495.0208,348.3359 F,1,174780,175280,0.6,0
Sprite,Background,Centre,"sb\s\circle.png",0,0 S,0,174780,,0.00582267 C,0,174780,,100,100,100 P,0,174780,,A M,22,174780,175280,513,289,490.7795,310.616 F,1,174780,175280,0.6,0
Sprite,Background,Centre,"sb\s\circle.png",0,0 S,0,174780,,0.008976637 C,0,174780,,100,100,100 P,0,174780,,A M,22,174780,175280,513,289,466.806,249.1614 F,1,174780,175280,0.6,0
Sprite,Background,Centre,"sb\s\circle.png",0,0 S,0,174780,,0.007180716 C,0,174780,,100,100,100 P,0,174780,,A M,22,174780,175280,513,289,501.7413,265.5641 F,1,174780,175280,0.6,0
Sprite,Background,Centre,"sb\s\circle.png",0,0 S,0,174780,,0.005051222 C,0,174780,,100,100,100 P,0,174780,,A M,22,174780,175280,513,289,566.2848,297.7596 F,1,174780,175280,0.6,0
Sprite,Background,Centre,"sb\s\r.png",513,289 C,0,174780,,100,100,100 P,0,174780,,A F,1,174780,175280,1,0 S,22,174780,175280,0.2,0.35
Sprite,Background,Centre,"sb\s\pixel.png",500,276 R,0,175104,,-0.1047198 C,0,175104,,100,100,100 P,0,175104,,A V,0,175104,175604,5,960,0,960 F,1,175104,175820,0.6,0
Sprite,Background,Centre,"sb\s\circle.png",0,0 S,0,175104,,0.008567626 C,0,175104,,100,100,100 P,0,175104,,A M,22,175104,175604,500,276,490.9973,303.5672 F,1,175104,175604,0.6,0
Sprite,Background,Centre,"sb\s\circle.png",0,0 S,0,175104,,0.0083881 C,0,175104,,100,100,100 P,0,175104,,A M,22,175104,175604,500,276,479.8109,302.1036 F,1,175104,175604,0.6,0
Sprite,Background,Centre,"sb\s\circle.png",0,0 S,0,175104,,0.005952685 C,0,175104,,100,100,100 P,0,175104,,A M,22,175104,175604,500,276,485.1987,328.9709 F,1,175104,175604,0.6,0
Sprite,Background,Centre,"sb\s\circle.png",0,0 S,0,175104,,0.009184494 C,0,175104,,100,100,100 P,0,175104,,A M,22,175104,175604,500,276,495.123,325.7616 F,1,175104,175604,0.6,0
Sprite,Background,Centre,"sb\s\circle.png",0,0 S,0,175104,,0.007530274 C,0,175104,,100,100,100 P,0,175104,,A M,22,175104,175604,500,276,503.4996,240.1705 F,1,175104,175604,0.6,0
Sprite,Background,Centre,"sb\s\circle.png",0,0 S,0,175104,,0.009580014 C,0,175104,,100,100,100 P,0,175104,,A M,22,175104,175604,500,276,548.8612,323.2925 F,1,175104,175604,0.6,0
Sprite,Background,Centre,"sb\s\circle.png",0,0 S,0,175104,,0.006589445 C,0,175104,,100,100,100 P,0,175104,,A M,22,175104,175604,500,276,557.2823,226.0527 F,1,175104,175604,0.6,0
Sprite,Background,Centre,"sb\s\circle.png",0,0 S,0,175104,,0.006190617 C,0,175104,,100,100,100 P,0,175104,,A M,22,175104,175604,500,276,528.8141,309.2528 F,1,175104,175604,0.6,0
Sprite,Background,Centre,"sb\s\circle.png",0,0 S,0,175104,,0.005739093 C,0,175104,,100,100,100 P,0,175104,,A M,22,175104,175604,500,276,565.7388,302.8218 F,1,175104,175604,0.6,0
Sprite,Background,Centre,"sb\s\circle.png",0,0 S,0,175104,,0.007516017 C,0,175104,,100,100,100 P,0,175104,,A M,22,175104,175604,500,276,522.4106,348.6207 F,1,175104,175604,0.6,0
Sprite,Background,Centre,"sb\s\r.png",500,276 C,0,175104,,100,100,100 P,0,175104,,A F,1,175104,175604,1,0 S,22,175104,175604,0.2,0.35
Sprite,Background,Centre,"sb\s\pixel.png",486,169 R,0,175429,,0 C,0,175429,,100,100,100 P,0,175429,,A F,1,175429,175929,0.6,0 V,0,175429,175929,5,960,0,960
Sprite,Background,Centre,"sb\s\circle.png",0,0 S,0,175429,,0.006442004 C,0,175429,,100,100,100 P,0,175429,,A M,22,175429,175929,486,169,496.6288,200.2415 F,1,175429,175929,0.6,0
Sprite,Background,Centre,"sb\s\circle.png",0,0 S,0,175429,,0.008806272 C,0,175429,,100,100,100 P,0,175429,,A M,22,175429,175929,486,169,484.6917,241.9883 F,1,175429,175929,0.6,0
Sprite,Background,Centre,"sb\s\circle.png",0,0 S,0,175429,,0.008096028 C,0,175429,,100,100,100 P,0,175429,,A M,22,175429,175929,486,169,553.725,175.1097 F,1,175429,175929,0.6,0
Sprite,Background,Centre,"sb\s\circle.png",0,0 S,0,175429,,0.005933288 C,0,175429,,100,100,100 P,0,175429,,A M,22,175429,175929,486,169,465.7246,179.8585 F,1,175429,175929,0.6,0
Sprite,Background,Centre,"sb\s\circle.png",0,0 S,0,175429,,0.008881827 C,0,175429,,100,100,100 P,0,175429,,A M,22,175429,175929,486,169,538.7255,142.5232 F,1,175429,175929,0.6,0
Sprite,Background,Centre,"sb\s\circle.png",0,0 S,0,175429,,0.005863341 C,0,175429,,100,100,100 P,0,175429,,A M,22,175429,175929,486,169,532.6153,148.3114 F,1,175429,175929,0.6,0
Sprite,Background,Centre,"sb\s\circle.png",0,0 S,0,175429,,0.005549646 C,0,175429,,100,100,100 P,0,175429,,A M,22,175429,175929,486,169,542.6942,163.1039 F,1,175429,175929,0.6,0
Sprite,Background,Centre,"sb\s\circle.png",0,0 S,0,175429,,0.009561217 C,0,175429,,100,100,100 P,0,175429,,A M,22,175429,175929,486,169,476.3672,147.018 F,1,175429,175929,0.6,0
Sprite,Background,Centre,"sb\s\circle.png",0,0 S,0,175429,,0.007377009 C,0,175429,,100,100,100 P,0,175429,,A M,22,175429,175929,486,169,519.4824,224.713 F,1,175429,175929,0.6,0
Sprite,Background,Centre,"sb\s\circle.png",0,0 S,0,175429,,0.007649007 C,0,175429,,100,100,100 P,0,175429,,A M,22,175429,175929,486,169,475.0271,208.5044 F,1,175429,175929,0.6,0
Sprite,Background,Centre,"sb\s\r.png",486,169 C,0,175429,,100,100,100 P,0,175429,,A F,1,175429,175929,1,0 S,22,175429,175929,0.2,0.35
Sprite,Background,Centre,"sb\s\pixel.png",361,76 R,0,175753,,-0.1570796 C,0,175753,,100,100,100 P,0,175753,,A V,0,175753,176253,5,960,0,960 F,1,175753,176469,0.6,0
Sprite,Background,Centre,"sb\s\circle.png",0,0 S,0,175753,,0.008609952 C,0,175753,,100,100,100 P,0,175753,,A M,22,175753,176253,361,76,327.262,25.17925 F,1,175753,176253,0.6,0
Sprite,Background,Centre,"sb\s\circle.png",0,0 S,0,175753,,0.007385477 C,0,175753,,100,100,100 P,0,175753,,A M,22,175753,176253,361,76,341.8624,128.6284 F,1,175753,176253,0.6,0
Sprite,Background,Centre,"sb\s\circle.png",0,0 S,0,175753,,0.006805746 C,0,175753,,100,100,100 P,0,175753,,A M,22,175753,176253,361,76,416.3407,84.56799 F,1,175753,176253,0.6,0
Sprite,Background,Centre,"sb\s\circle.png",0,0 S,0,175753,,0.006333323 C,0,175753,,100,100,100 P,0,175753,,A M,22,175753,176253,361,76,368.7167,51.17154 F,1,175753,176253,0.6,0
Sprite,Background,Centre,"sb\s\circle.png",0,0 S,0,175753,,0.009748525 C,0,175753,,100,100,100 P,0,175753,,A M,22,175753,176253,361,76,326.2775,71.60148 F,1,175753,176253,0.6,0
Sprite,Background,Centre,"sb\s\circle.png",0,0 S,0,175753,,0.006426446 C,0,175753,,100,100,100 P,0,175753,,A M,22,175753,176253,361,76,307.2425,81.11161 F,1,175753,176253,0.6,0
Sprite,Background,Centre,"sb\s\circle.png",0,0 S,0,175753,,0.005148462 C,0,175753,,100,100,100 P,0,175753,,A M,22,175753,176253,361,76,411.4449,49.46114 F,1,175753,176253,0.6,0
Sprite,Background,Centre,"sb\s\circle.png",0,0 S,0,175753,,0.007168145 C,0,175753,,100,100,100 P,0,175753,,A M,22,175753,176253,361,76,430.5485,57.37191 F,1,175753,176253,0.6,0
Sprite,Background,Centre,"sb\s\circle.png",0,0 S,0,175753,,0.006880787 C,0,175753,,100,100,100 P,0,175753,,A M,22,175753,176253,361,76,332.1049,73.53571 F,1,175753,176253,0.6,0
Sprite,Background,Centre,"sb\s\circle.png",0,0 S,0,175753,,0.006429263 C,0,175753,,100,100,100 P,0,175753,,A M,22,175753,176253,361,76,384.7371,90.85097 F,1,175753,176253,0.6,0
Sprite,Background,Centre,"sb\s\r.png",361,76 C,0,175753,,100,100,100 P,0,175753,,A F,1,175753,176253,1,0 S,22,175753,176253,0.2,0.35
Sprite,Background,Centre,"sb\s\pixel.png",339,182 R,0,176077,,0.06981317 C,0,176077,,100,100,100 P,0,176077,,A V,0,176077,176577,5,960,0,960 F,1,176077,176793,0.6,0
Sprite,Background,Centre,"sb\s\circle.png",0,0 S,0,176077,,0.006653707 C,0,176077,,100,100,100 P,0,176077,,A M,22,176077,176577,339,182,315.6837,191.0193 F,1,176077,176577,0.6,0
Sprite,Background,Centre,"sb\s\circle.png",0,0 S,0,176077,,0.006019712 C,0,176077,,100,100,100 P,0,176077,,A M,22,176077,176577,339,182,299.1581,210.524 F,1,176077,176577,0.6,0
Sprite,Background,Centre,"sb\s\circle.png",0,0 S,0,176077,,0.007282128 C,0,176077,,100,100,100 P,0,176077,,A M,22,176077,176577,339,182,320.5074,205.6226 F,1,176077,176577,0.6,0
Sprite,Background,Centre,"sb\s\circle.png",0,0 S,0,176077,,0.00811179 C,0,176077,,100,100,100 P,0,176077,,A M,22,176077,176577,339,182,286.0431,184.1368 F,1,176077,176577,0.6,0
Sprite,Background,Centre,"sb\s\circle.png",0,0 S,0,176077,,0.007088017 C,0,176077,,100,100,100 P,0,176077,,A M,22,176077,176577,339,182,375.2654,111.8158 F,1,176077,176577,0.6,0
Sprite,Background,Centre,"sb\s\circle.png",0,0 S,0,176077,,0.006070849 C,0,176077,,100,100,100 P,0,176077,,A M,22,176077,176577,339,182,282.7061,164.3367 F,1,176077,176577,0.6,0
Sprite,Background,Centre,"sb\s\circle.png",0,0 S,0,176077,,0.005039156 C,0,176077,,100,100,100 P,0,176077,,A M,22,176077,176577,339,182,331.8835,254.6523 F,1,176077,176577,0.6,0
Sprite,Background,Centre,"sb\s\circle.png",0,0 S,0,176077,,0.005306562 C,0,176077,,100,100,100 P,0,176077,,A M,22,176077,176577,339,182,270.3667,209.6672 F,1,176077,176577,0.6,0
Sprite,Background,Centre,"sb\s\circle.png",0,0 S,0,176077,,0.006441807 C,0,176077,,100,100,100 P,0,176077,,A M,22,176077,176577,339,182,317.3284,117.5458 F,1,176077,176577,0.6,0
Sprite,Background,Centre,"sb\s\circle.png",0,0 S,0,176077,,0.00550469 C,0,176077,,100,100,100 P,0,176077,,A M,22,176077,176577,339,182,350.9898,137.59 F,1,176077,176577,0.6,0
Sprite,Background,Centre,"sb\s\r.png",339,182 C,0,176077,,100,100,100 P,0,176077,,A F,1,176077,176577,1,0 S,22,176077,176577,0.2,0.35
Sprite,Background,Centre,"sb\s\pixel.png",246,156 R,0,176402,,0.1396263 C,0,176402,,100,100,100 P,0,176402,,A V,0,176402,176902,5,960,0,960 F,1,176402,177118,0.6,0
Sprite,Background,Centre,"sb\s\circle.png",0,0 S,0,176402,,0.005383802 C,0,176402,,100,100,100 P,0,176402,,A M,22,176402,176902,246,156,222.6335,161.4779 F,1,176402,176902,0.6,0
Sprite,Background,Centre,"sb\s\circle.png",0,0 S,0,176402,,0.005946564 C,0,176402,,100,100,100 P,0,176402,,A M,22,176402,176902,246,156,231.8051,129.5707 F,1,176402,176902,0.6,0
Sprite,Background,Centre,"sb\s\circle.png",0,0 S,0,176402,,0.006404847 C,0,176402,,100,100,100 P,0,176402,,A M,22,176402,176902,246,156,275.7173,119.5873 F,1,176402,176902,0.6,0
Sprite,Background,Centre,"sb\s\circle.png",0,0 S,0,176402,,0.007332473 C,0,176402,,100,100,100 P,0,176402,,A M,22,176402,176902,246,156,250.8596,182.5591 F,1,176402,176902,0.6,0
Sprite,Background,Centre,"sb\s\circle.png",0,0 S,0,176402,,0.006679955 C,0,176402,,100,100,100 P,0,176402,,A M,22,176402,176902,246,156,276.813,191.4903 F,1,176402,176902,0.6,0
Sprite,Background,Centre,"sb\s\circle.png",0,0 S,0,176402,,0.005479686 C,0,176402,,100,100,100 P,0,176402,,A M,22,176402,176902,246,156,289.4319,171.1549 F,1,176402,176902,0.6,0
Sprite,Background,Centre,"sb\s\circle.png",0,0 S,0,176402,,0.009374038 C,0,176402,,100,100,100 P,0,176402,,A M,22,176402,176902,246,156,197.7926,115.4408 F,1,176402,176902,0.6,0
Sprite,Background,Centre,"sb\s\circle.png",0,0 S,0,176402,,0.008566837 C,0,176402,,100,100,100 P,0,176402,,A M,22,176402,176902,246,156,277.4539,126.6802 F,1,176402,176902,0.6,0
Sprite,Background,Centre,"sb\s\circle.png",0,0 S,0,176402,,0.006347145 C,0,176402,,100,100,100 P,0,176402,,A M,22,176402,176902,246,156,276.9969,156.4368 F,1,176402,176902,0.6,0
Sprite,Background,Centre,"sb\s\circle.png",0,0 S,0,176402,,0.009577905 C,0,176402,,100,100,100 P,0,176402,,A M,22,176402,176902,246,156,228.1494,97.67028 F,1,176402,176902,0.6,0
Sprite,Background,Centre,"sb\s\r.png",246,156 C,0,176402,,100,100,100 P,0,176402,,A F,1,176402,176902,1,0 S,22,176402,176902,0.2,0.35
Sprite,Background,Centre,"sb\s\pixel.png",125,165 R,0,176726,,0.01745329 C,0,176726,,100,100,100 P,0,176726,,A V,0,176726,177226,5,960,0,960 F,1,176726,177442,0.6,0
Sprite,Background,Centre,"sb\s\circle.png",0,0 S,0,176726,,0.007790562 C,0,176726,,100,100,100 P,0,176726,,A M,22,176726,177226,125,165,116.96,124.796 F,1,176726,177226,0.6,0
Sprite,Background,Centre,"sb\s\circle.png",0,0 S,0,176726,,0.008745727 C,0,176726,,100,100,100 P,0,176726,,A M,22,176726,177226,125,165,167.0994,195.5228 F,1,176726,177226,0.6,0
Sprite,Background,Centre,"sb\s\circle.png",0,0 S,0,176726,,0.006795382 C,0,176726,,100,100,100 P,0,176726,,A M,22,176726,177226,125,165,109.4578,195.2397 F,1,176726,177226,0.6,0
Sprite,Background,Centre,"sb\s\circle.png",0,0 S,0,176726,,0.009922853 C,0,176726,,100,100,100 P,0,176726,,A M,22,176726,177226,125,165,142.4472,102.3853 F,1,176726,177226,0.6,0
Sprite,Background,Centre,"sb\s\circle.png",0,0 S,0,176726,,0.009862593 C,0,176726,,100,100,100 P,0,176726,,A M,22,176726,177226,125,165,92.80118,99.48484 F,1,176726,177226,0.6,0
Sprite,Background,Centre,"sb\s\circle.png",0,0 S,0,176726,,0.006811929 C,0,176726,,100,100,100 P,0,176726,,A M,22,176726,177226,125,165,129.7637,110.2067 F,1,176726,177226,0.6,0
Sprite,Background,Centre,"sb\s\circle.png",0,0 S,0,176726,,0.008480154 C,0,176726,,100,100,100 P,0,176726,,A M,22,176726,177226,125,165,127.0351,94.02917 F,1,176726,177226,0.6,0
Sprite,Background,Centre,"sb\s\circle.png",0,0 S,0,176726,,0.005303307 C,0,176726,,100,100,100 P,0,176726,,A M,22,176726,177226,125,165,146.993,129.2186 F,1,176726,177226,0.6,0
Sprite,Background,Centre,"sb\s\circle.png",0,0 S,0,176726,,0.006816965 C,0,176726,,100,100,100 P,0,176726,,A M,22,176726,177226,125,165,72.06371,134.6891 F,1,176726,177226,0.6,0
Sprite,Background,Centre,"sb\s\circle.png",0,0 S,0,176726,,0.009599419 C,0,176726,,100,100,100 P,0,176726,,A M,22,176726,177226,125,165,86.64322,95.93657 F,1,176726,177226,0.6,0
Sprite,Background,Centre,"sb\s\r.png",125,165 C,0,176726,,100,100,100 P,0,176726,,A F,1,176726,177226,1,0 S,22,176726,177226,0.2,0.35
Sprite,Background,Centre,"sb\s\pixel.png",86,184 R,0,177050,,-0.122173 C,0,177050,,100,100,100 P,0,177050,,A F,1,177050,177550,0.6,0 V,0,177050,177550,5,960,0,960
Sprite,Background,Centre,"sb\s\circle.png",0,0 S,0,177050,,0.008287286 C,0,177050,,100,100,100 P,0,177050,,A M,22,177050,177550,86,184,88.33074,143.0663 F,1,177050,177550,0.6,0
Sprite,Background,Centre,"sb\s\circle.png",0,0 S,0,177050,,0.007890482 C,0,177050,,100,100,100 P,0,177050,,A M,22,177050,177550,86,184,65.05406,199.4035 F,1,177050,177550,0.6,0
Sprite,Background,Centre,"sb\s\circle.png",0,0 S,0,177050,,0.006521435 C,0,177050,,100,100,100 P,0,177050,,A M,22,177050,177550,86,184,41.17039,233.7926 F,1,177050,177550,0.6,0
Sprite,Background,Centre,"sb\s\circle.png",0,0 S,0,177050,,0.006261222 C,0,177050,,100,100,100 P,0,177050,,A M,22,177050,177550,86,184,140.4346,229.5837 F,1,177050,177550,0.6,0
Sprite,Background,Centre,"sb\s\circle.png",0,0 S,0,177050,,0.009480079 C,0,177050,,100,100,100 P,0,177050,,A M,22,177050,177550,86,184,109.575,173.0356 F,1,177050,177550,0.6,0
Sprite,Background,Centre,"sb\s\circle.png",0,0 S,0,177050,,0.00514862 C,0,177050,,100,100,100 P,0,177050,,A M,22,177050,177550,86,184,68.86535,117.1614 F,1,177050,177550,0.6,0
Sprite,Background,Centre,"sb\s\circle.png",0,0 S,0,177050,,0.006701742 C,0,177050,,100,100,100 P,0,177050,,A M,22,177050,177550,86,184,32.43884,211.0407 F,1,177050,177550,0.6,0
Sprite,Background,Centre,"sb\s\circle.png",0,0 S,0,177050,,0.009338548 C,0,177050,,100,100,100 P,0,177050,,A M,22,177050,177550,86,184,107.2084,175.1004 F,1,177050,177550,0.6,0
Sprite,Background,Centre,"sb\s\circle.png",0,0 S,0,177050,,0.007487255 C,0,177050,,100,100,100 P,0,177050,,A M,22,177050,177550,86,184,143.1516,130.918 F,1,177050,177550,0.6,0
Sprite,Background,Centre,"sb\s\circle.png",0,0 S,0,177050,,0.006928762 C,0,177050,,100,100,100 P,0,177050,,A M,22,177050,177550,86,184,15.40831,176.3965 F,1,177050,177550,0.6,0
Sprite,Background,Centre,"sb\s\r.png",86,184 C,0,177050,,100,100,100 P,0,177050,,A F,1,177050,177550,1,0 S,22,177050,177550,0.2,0.35
Sprite,Background,Centre,"sb\s\pixel.png",320,248 R,0,177158,,0.05235988 C,0,177158,,100,100,100 P,0,177158,,A V,0,177158,177658,5,960,0,960 F,1,177158,180145,0.6,0
Sprite,Background,Centre,"sb\s\circle.png",0,0 S,0,177158,,0.008185218 C,0,177158,,100,100,100 P,0,177158,,A M,22,177158,177658,320,248,319.2845,293.9944 F,1,177158,177658,0.6,0
Sprite,Background,Centre,"sb\s\circle.png",0,0 S,0,177158,,0.005099203 C,0,177158,,100,100,100 P,0,177158,,A M,22,177158,177658,320,248,376.9748,249.696 F,1,177158,177658,0.6,0
Sprite,Background,Centre,"sb\s\circle.png",0,0 S,0,177158,,0.005928528 C,0,177158,,100,100,100 P,0,177158,,A M,22,177158,177658,320,248,249.1115,251.9768 F,1,177158,177658,0.6,0
Sprite,Background,Centre,"sb\s\circle.png",0,0 S,0,177158,,0.007251378 C,0,177158,,100,100,100 P,0,177158,,A M,22,177158,177658,320,248,327.3897,301.492 F,1,177158,177658,0.6,0
Sprite,Background,Centre,"sb\s\circle.png",0,0 S,0,177158,,0.007927345 C,0,177158,,100,100,100 P,0,177158,,A M,22,177158,177658,320,248,315.9982,178.1145 F,1,177158,177658,0.6,0
Sprite,Background,Centre,"sb\s\circle.png",0,0 S,0,177158,,0.008433742 C,0,177158,,100,100,100 P,0,177158,,A M,22,177158,177658,320,248,248.292,273.1787 F,1,177158,177658,0.6,0
Sprite,Background,Centre,"sb\s\circle.png",0,0 S,0,177158,,0.008197947 C,0,177158,,100,100,100 P,0,177158,,A M,22,177158,177658,320,248,371.4986,240.7961 F,1,177158,177658,0.6,0
Sprite,Background,Centre,"sb\s\circle.png",0,0 S,0,177158,,0.009079291 C,0,177158,,100,100,100 P,0,177158,,A M,22,177158,177658,320,248,288.5699,235.0329 F,1,177158,177658,0.6,0
Sprite,Background,Centre,"sb\s\circle.png",0,0 S,0,177158,,0.008948738 C,0,177158,,100,100,100 P,0,177158,,A M,22,177158,177658,320,248,336.6718,213.8525 F,1,177158,177658,0.6,0
Sprite,Background,Centre,"sb\s\circle.png",0,0 S,0,177158,,0.005403228 C,0,177158,,100,100,100 P,0,177158,,A M,22,177158,177658,320,248,293.1765,244.9177 F,1,177158,177658,0.6,0
Sprite,Background,Centre,"sb\s\r.png",320,248 C,0,177158,,100,100,100 P,0,177158,,A F,1,177158,177658,1,0 S,22,177158,177658,0.2,0.35
//Storyboard Layer 1 (Fail)
//Storyboard Layer 2 (Pass)
//Storyboard Layer 3 (Foreground)
Sprite,Foreground,Centre,"sb\t\credits\006b.png",0,240 F,0,618,,1 S,0,618,,0.22 C,0,618,,200,200,200 MX,0,618,5807,357.52,342.52 F,0,5807,,0
Sprite,Foreground,Centre,"sb\t\credits\0061.png",0,240 F,0,618,,1 S,0,618,,0.22 C,0,618,,200,200,200 MX,0,618,5807,379.08,364.08 F,0,5807,,0
Sprite,Foreground,Centre,"sb\t\credits\006d.png",0,240 F,0,618,,1 S,0,618,,0.22 C,0,618,,200,200,200 MX,0,618,5807,400.64,385.64 F,0,5807,,0
Sprite,Foreground,Centre,"sb\t\credits\0069.png",0,240 F,0,618,,1 S,0,618,,0.22 C,0,618,,200,200,200 MX,0,618,5807,422.2,407.2 F,0,5807,,0
Sprite,Foreground,Centre,"sb\t\credits\0073.png",0,240 F,0,618,,1 S,0,618,,0.22 C,0,618,,200,200,200 MX,0,618,5807,443.76,428.76 F,0,5807,,0
Sprite,Foreground,Centre,"sb\t\credits\0061.png",0,240 F,0,618,,1 S,0,618,,0.22 C,0,618,,200,200,200 MX,0,618,5807,465.32,450.32 F,0,5807,,0
Sprite,Foreground,Centre,"sb\t\credits\006d.png",0,240 F,0,618,,1 S,0,618,,0.22 C,0,618,,200,200,200 MX,0,618,5807,486.88,471.88 F,0,5807,,0
Sprite,Foreground,Centre,"sb\t\credits\0061.png",0,240 F,0,618,,1 S,0,618,,0.22 C,0,618,,200,200,200 MX,0,618,5807,508.44,493.44 F,0,5807,,0
Sprite,Foreground,Centre,"sb\t\credits\006e.png",0,240 F,0,618,,1 S,0,618,,0.22 C,0,618,,200,200,200 MX,0,618,5807,551.56,536.56 F,0,5807,,0
Sprite,Foreground,Centre,"sb\t\credits\006f.png",0,240 F,0,618,,1 S,0,618,,0.22 C,0,618,,200,200,200 MX,0,618,5807,573.12,558.12 F,0,5807,,0
Sprite,Foreground,Centre,"sb\t\credits\0064.png",0,240 F,0,618,,1 S,0,618,,0.22 C,0,618,,200,200,200 MX,0,618,5807,616.24,601.24 F,0,5807,,0
Sprite,Foreground,Centre,"sb\t\credits\0061.png",0,240 F,0,618,,1 S,0,618,,0.22 C,0,618,,200,200,200 MX,0,618,5807,637.8,622.8 F,0,5807,,0
Sprite,Foreground,Centre,"sb\t\credits\006e.png",0,240 F,0,618,,1 S,0,618,,0.22 C,0,618,,200,200,200 MX,0,618,5807,659.36,644.36 F,0,5807,,0
Sprite,Foreground,Centre,"sb\t\credits\0063.png",0,240 F,0,618,,1 S,0,618,,0.22 C,0,618,,200,200,200 MX,0,618,5807,680.92,665.92 F,0,5807,,0
Sprite,Foreground,Centre,"sb\t\credits\0065.png",0,240 F,0,618,,1 S,0,618,,0.22 C,0,618,,200,200,200 MX,0,618,5807,702.48,687.48 F,0,5807,,0
Sprite,Foreground,Centre,"sb\t\artist\0059.png",0,225 S,0,618,,0.05 C,0,618,,254,175,203 F,0,618,942,1,0.5 MX,0,618,5807,436.775,421.775 F,0,942,1590,1,0.5 F,0,1590,2239,1,0.5 F,0,2239,2888,1,0.5 F,0,2888,3536,1,0.5 F,0,3536,4185,1,0.5 F,0,4185,4834,1,0.5 F,0,4834,5482,1,0.5 F,0,5482,5807,1,0.5
Sprite,Foreground,Centre,"sb\t\artist\006f.png",0,225 S,0,618,,0.05 C,0,618,,254,175,203 F,0,618,942,1,0.5 MX,0,618,5807,448.4,433.4 F,0,942,1590,1,0.5 F,0,1590,2239,1,0.5 F,0,2239,2888,1,0.5 F,0,2888,3536,1,0.5 F,0,3536,4185,1,0.5 F,0,4185,4834,1,0.5 F,0,4834,5482,1,0.5 F,0,5482,5807,1,0.5
Sprite,Foreground,Centre,"sb\t\artist\0072.png",0,225 S,0,618,,0.05 C,0,618,,254,175,203 F,0,618,942,1,0.5 MX,0,618,5807,456.85,441.85 F,0,942,1590,1,0.5 F,0,1590,2239,1,0.5 F,0,2239,2888,1,0.5 F,0,2888,3536,1,0.5 F,0,3536,4185,1,0.5 F,0,4185,4834,1,0.5 F,0,4834,5482,1,0.5 F,0,5482,5807,1,0.5
Sprite,Foreground,Centre,"sb\t\artist\0075.png",0,225 S,0,618,,0.05 C,0,618,,254,175,203 F,0,618,942,1,0.5 MX,0,618,5807,466.3,451.3 F,0,942,1590,1,0.5 F,0,1590,2239,1,0.5 F,0,2239,2888,1,0.5 F,0,2888,3536,1,0.5 F,0,3536,4185,1,0.5 F,0,4185,4834,1,0.5 F,0,4834,5482,1,0.5 F,0,5482,5807,1,0.5
Sprite,Foreground,Centre,"sb\t\artist\0073.png",0,225 S,0,618,,0.05 C,0,618,,254,175,203 F,0,618,942,1,0.5 MX,0,618,5807,476.125,461.125 F,0,942,1590,1,0.5 F,0,1590,2239,1,0.5 F,0,2239,2888,1,0.5 F,0,2888,3536,1,0.5 F,0,3536,4185,1,0.5 F,0,4185,4834,1,0.5 F,0,4834,5482,1,0.5 F,0,5482,5807,1,0.5
Sprite,Foreground,Centre,"sb\t\artist\0068.png",0,225 S,0,618,,0.05 C,0,618,,254,175,203 F,0,618,942,1,0.5 MX,0,618,5807,485.85,470.85 F,0,942,1590,1,0.5 F,0,1590,2239,1,0.5 F,0,2239,2888,1,0.5 F,0,2888,3536,1,0.5 F,0,3536,4185,1,0.5 F,0,4185,4834,1,0.5 F,0,4834,5482,1,0.5 F,0,5482,5807,1,0.5
Sprite,Foreground,Centre,"sb\t\artist\0069.png",0,225 S,0,618,,0.05 C,0,618,,254,175,203 F,0,618,942,1,0.5 MX,0,618,5807,494.45,479.45 F,0,942,1590,1,0.5 F,0,1590,2239,1,0.5 F,0,2239,2888,1,0.5 F,0,2888,3536,1,0.5 F,0,3536,4185,1,0.5 F,0,4185,4834,1,0.5 F,0,4834,5482,1,0.5 F,0,5482,5807,1,0.5
Sprite,Foreground,Centre,"sb\t\artist\006b.png",0,225 S,0,618,,0.05 C,0,618,,254,175,203 F,0,618,942,1,0.5 MX,0,618,5807,502.7,487.7 F,0,942,1590,1,0.5 F,0,1590,2239,1,0.5 F,0,2239,2888,1,0.5 F,0,2888,3536,1,0.5 F,0,3536,4185,1,0.5 F,0,4185,4834,1,0.5 F,0,4834,5482,1,0.5 F,0,5482,5807,1,0.5
Sprite,Foreground,Centre,"sb\t\artist\0061.png",0,225 S,0,618,,0.05 C,0,618,,254,175,203 F,0,618,942,1,0.5 MX,0,618,5807,513.9,498.9 F,0,942,1590,1,0.5 F,0,1590,2239,1,0.5 F,0,2239,2888,1,0.5 F,0,2888,3536,1,0.5 F,0,3536,4185,1,0.5 F,0,4185,4834,1,0.5 F,0,4834,5482,1,0.5 F,0,5482,5807,1,0.5
Sprite,Foreground,Centre,"sb\t\artist\0027.png",0,225 S,0,618,,0.05 C,0,618,,254,175,203 F,0,618,942,1,0.5 MX,0,618,5807,520.875,505.875 F,0,942,1590,1,0.5 F,0,1590,2239,1,0.5 F,0,2239,2888,1,0.5 F,0,2888,3536,1,0.5 F,0,3536,4185,1,0.5 F,0,4185,4834,1,0.5 F,0,4834,5482,1,0.5 F,0,5482,5807,1,0.5
Sprite,Foreground,Centre,"sb\t\artist\0073.png",0,225 S,0,618,,0.05 C,0,618,,254,175,203 F,0,618,942,1,0.5 MX,0,618,5807,526.025,511.025 F,0,942,1590,1,0.5 F,0,1590,2239,1,0.5 F,0,2239,2888,1,0.5 F,0,2888,3536,1,0.5 F,0,3536,4185,1,0.5 F,0,4185,4834,1,0.5 F,0,4834,5482,1,0.5 F,0,5482,5807,1,0.5
Sprite,Foreground,Centre,"sb\t\artist\006e.png",0,219 S,0,5807,,0.05 C,0,5807,,254,175,203 F,0,5807,6131,1,0.5 MX,0,5807,10996,455.375,440.375 F,0,6131,6779,1,0.5 F,0,6779,7428,1,0.5 F,0,7428,8077,1,0.5 F,0,8077,8725,1,0.5 F,0,8725,9374,1,0.5 F,0,9374,10023,1,0.5 F,0,10023,10671,1,0.5 F,0,10671,10996,1,0.5
Sprite,Foreground,Centre,"sb\t\artist\0065.png",0,219 S,0,5807,,0.05 C,0,5807,,254,175,203 F,0,5807,6131,1,0.5 MX,0,5807,10996,465.225,450.225 F,0,6131,6779,1,0.5 F,0,6779,7428,1,0.5 F,0,7428,8077,1,0.5 F,0,8077,8725,1,0.5 F,0,8725,9374,1,0.5 F,0,9374,10023,1,0.5 F,0,10023,10671,1,0.5 F,0,10671,10996,1,0.5
Sprite,Foreground,Centre,"sb\t\artist\0077.png",0,219 S,0,5807,,0.05 C,0,5807,,254,175,203 F,0,5807,6131,1,0.5 MX,0,5807,10996,476.125,461.125 F,0,6131,6779,1,0.5 F,0,6779,7428,1,0.5 F,0,7428,8077,1,0.5 F,0,8077,8725,1,0.5 F,0,8725,9374,1,0.5 F,0,9374,10023,1,0.5 F,0,10023,10671,1,0.5 F,0,10671,10996,1,0.5
Sprite,Foreground,Centre,"sb\t\artist\0074.png",0,219 S,0,5807,,0.05 C,0,5807,,254,175,203 F,0,5807,6131,1,0.5 MX,0,5807,10996,485.95,470.95 F,0,6131,6779,1,0.5 F,0,6779,7428,1,0.5 F,0,7428,8077,1,0.5 F,0,8077,8725,1,0.5 F,0,8725,9374,1,0.5 F,0,9374,10023,1,0.5 F,0,10023,10671,1,0.5 F,0,10671,10996,1,0.5
Sprite,Foreground,Centre,"sb\t\artist\006f.png",0,219 S,0,5807,,0.05 C,0,5807,,254,175,203 F,0,5807,6131,1,0.5 MX,0,5807,10996,493.825,478.825 F,0,6131,6779,1,0.5 F,0,6779,7428,1,0.5 F,0,7428,8077,1,0.5 F,0,8077,8725,1,0.5 F,0,8725,9374,1,0.5 F,0,9374,10023,1,0.5 F,0,10023,10671,1,0.5 F,0,10671,10996,1,0.5
Sprite,Foreground,Centre,"sb\t\artist\006e.png",0,219 S,0,5807,,0.05 C,0,5807,,254,175,203 F,0,5807,6131,1,0.5 MX,0,5807,10996,504.325,489.325 F,0,6131,6779,1,0.5 F,0,6779,7428,1,0.5 F,0,7428,8077,1,0.5 F,0,8077,8725,1,0.5 F,0,8725,9374,1,0.5 F,0,9374,10023,1,0.5 F,0,10023,10671,1,0.5 F,0,10671,10996,1,0.5
Sprite,Foreground,Centre,"sb\t\artist\0027.png",0,219 S,0,5807,,0.05 C,0,5807,,254,175,203 F,0,5807,6131,1,0.5 MX,0,5807,10996,511.15,496.15 F,0,6131,6779,1,0.5 F,0,6779,7428,1,0.5 F,0,7428,8077,1,0.5 F,0,8077,8725,1,0.5 F,0,8725,9374,1,0.5 F,0,9374,10023,1,0.5 F,0,10023,10671,1,0.5 F,0,10671,10996,1,0.5
Sprite,Foreground,Centre,"sb\t\artist\0073.png",0,219 S,0,5807,,0.05 C,0,5807,,254,175,203 F,0,5807,6131,1,0.5 MX,0,5807,10996,516.3,501.3 F,0,6131,6779,1,0.5 F,0,6779,7428,1,0.5 F,0,7428,8077,1,0.5 F,0,8077,8725,1,0.5 F,0,8725,9374,1,0.5 F,0,9374,10023,1,0.5 F,0,10023,10671,1,0.5 F,0,10671,10996,1,0.5
Sprite,Foreground,Centre,"sb\t\credits\0068.png",0,240 F,0,5807,,1 S,0,5807,,0.22 C,0,5807,,200,200,200 MX,0,5807,10996,482.66,467.66 F,0,10996,,0
Sprite,Foreground,Centre,"sb\t\credits\0061.png",0,240 F,0,5807,,1 S,0,5807,,0.22 C,0,5807,,200,200,200 MX,0,5807,10996,504.22,489.22 F,0,10996,,0
Sprite,Foreground,Centre,"sb\t\credits\0072.png",0,240 F,0,5807,,1 S,0,5807,,0.22 C,0,5807,,200,200,200 MX,0,5807,10996,525.78,510.78 F,0,10996,,0
Sprite,Foreground,Centre,"sb\t\credits\0064.png",0,240 F,0,5807,,1 S,0,5807,,0.22 C,0,5807,,200,200,200 MX,0,5807,10996,547.34,532.34 F,0,10996,,0
Sprite,Foreground,Centre,"sb\t\credits\0068.png",0,240 F,0,10996,,1 S,0,10996,,0.22 C,0,10996,,200,200,200 MX,0,10996,16185,433.76,418.76 F,0,16185,,0
Sprite,Foreground,Centre,"sb\t\credits\0069.png",0,240 F,0,10996,,1 S,0,10996,,0.22 C,0,10996,,200,200,200 MX,0,10996,16185,455.32,440.32 F,0,16185,,0
Sprite,Foreground,Centre,"sb\t\credits\0074.png",0,240 F,0,10996,,1 S,0,10996,,0.22 C,0,10996,,200,200,200 MX,0,10996,16185,476.88,461.88 F,0,16185,,0
Sprite,Foreground,Centre,"sb\t\credits\0073.png",0,240 F,0,10996,,1 S,0,10996,,0.22 C,0,10996,,200,200,200 MX,0,10996,16185,498.44,483.44 F,0,16185,,0
Sprite,Foreground,Centre,"sb\t\credits\006f.png",0,240 F,0,10996,,1 S,0,10996,,0.22 C,0,10996,,200,200,200 MX,0,10996,16185,520,505 F,0,16185,,0
Sprite,Foreground,Centre,"sb\t\credits\0075.png",0,240 F,0,10996,,1 S,0,10996,,0.22 C,0,10996,,200,200,200 MX,0,10996,16185,541.56,526.56 F,0,16185,,0
Sprite,Foreground,Centre,"sb\t\credits\006e.png",0,240 F,0,10996,,1 S,0,10996,,0.22 C,0,10996,,200,200,200 MX,0,10996,16185,563.12,548.12 F,0,16185,,0
Sprite,Foreground,Centre,"sb\t\credits\0064.png",0,240 F,0,10996,,1 S,0,10996,,0.22 C,0,10996,,200,200,200 MX,0,10996,16185,584.68,569.68 F,0,16185,,0
Sprite,Foreground,Centre,"sb\t\credits\0073.png",0,240 F,0,10996,,1 S,0,10996,,0.22 C,0,10996,,200,200,200 MX,0,10996,16185,606.24,591.24 F,0,16185,,0
Sprite,Foreground,Centre,"sb\t\artist\0044.png",0,225 S,0,10996,,0.05 C,0,10996,,161,231,241 F,0,10996,11320,1,0.5 MX,0,10996,16185,520.55,505.55 F,0,11320,11968,1,0.5 F,0,11968,12617,1,0.5 F,0,12617,13266,1,0.5 F,0,13266,13914,1,0.5 F,0,13914,14563,1,0.5 F,0,14563,15212,1,0.5 F,0,15212,15860,1,0.5 F,0,15860,16185,1,0.5
Sprite,Foreground,Centre,"sb\t\artist\006f.png",0,225 S,0,10996,,0.05 C,0,10996,,161,231,241 F,0,10996,11320,1,0.5 MX,0,10996,16185,533.9,518.9 F,0,11320,11968,1,0.5 F,0,11968,12617,1,0.5 F,0,12617,13266,1,0.5 F,0,13266,13914,1,0.5 F,0,13914,14563,1,0.5 F,0,14563,15212,1,0.5 F,0,15212,15860,1,0.5 F,0,15860,16185,1,0.5
Sprite,Foreground,Centre,"sb\t\artist\0072.png",0,225 S,0,10996,,0.05 C,0,10996,,161,231,241 F,0,10996,11320,1,0.5 MX,0,10996,16185,542.35,527.35 F,0,11320,11968,1,0.5 F,0,11968,12617,1,0.5 F,0,12617,13266,1,0.5 F,0,13266,13914,1,0.5 F,0,13914,14563,1,0.5 F,0,14563,15212,1,0.5 F,0,15212,15860,1,0.5 F,0,15860,16185,1,0.5
Sprite,Foreground,Centre,"sb\t\artist\0061.png",0,225 S,0,10996,,0.05 C,0,10996,,161,231,241 F,0,10996,11320,1,0.5 MX,0,10996,16185,551.85,536.85 F,0,11320,11968,1,0.5 F,0,11968,12617,1,0.5 F,0,12617,13266,1,0.5 F,0,13266,13914,1,0.5 F,0,13914,14563,1,0.5 F,0,14563,15212,1,0.5 F,0,15212,15860,1,0.5 F,0,15860,16185,1,0.5
Sprite,Foreground,Centre,"sb\t\artist\0027.png",0,225 S,0,10996,,0.05 C,0,10996,,161,231,241 F,0,10996,11320,1,0.5 MX,0,10996,16185,558.825,543.825 F,0,11320,11968,1,0.5 F,0,11968,12617,1,0.5 F,0,12617,13266,1,0.5 F,0,13266,13914,1,0.5 F,0,13914,14563,1,0.5 F,0,14563,15212,1,0.5 F,0,15212,15860,1,0.5 F,0,15860,16185,1,0.5
Sprite,Foreground,Centre,"sb\t\artist\0073.png",0,225 S,0,10996,,0.05 C,0,10996,,161,231,241 F,0,10996,11320,1,0.5 MX,0,10996,16185,563.975,548.975 F,0,11320,11968,1,0.5 F,0,11968,12617,1,0.5 F,0,12617,13266,1,0.5 F,0,13266,13914,1,0.5 F,0,13914,14563,1,0.5 F,0,14563,15212,1,0.5 F,0,15212,15860,1,0.5 F,0,15860,16185,1,0.5
Sprite,Foreground,Centre,"sb\t\credits\0073.png",0,240 F,0,16185,,1 S,0,16185,,0.22 C,0,16185,,200,200,200 MX,0,16185,21049,407.98,392.98 F,0,21049,,0
Sprite,Foreground,Centre,"sb\t\credits\0074.png",0,240 F,0,16185,,1 S,0,16185,,0.22 C,0,16185,,200,200,200 MX,0,16185,21049,429.54,414.54 F,0,21049,,0
Sprite,Foreground,Centre,"sb\t\credits\006f.png",0,240 F,0,16185,,1 S,0,16185,,0.22 C,0,16185,,200,200,200 MX,0,16185,21049,451.1,436.1 F,0,21049,,0
Sprite,Foreground,Centre,"sb\t\credits\0072.png",0,240 F,0,16185,,1 S,0,16185,,0.22 C,0,16185,,200,200,200 MX,0,16185,21049,472.66,457.66 F,0,21049,,0
Sprite,Foreground,Centre,"sb\t\credits\0079.png",0,240 F,0,16185,,1 S,0,16185,,0.22 C,0,16185,,200,200,200 MX,0,16185,21049,494.22,479.22 F,0,21049,,0
Sprite,Foreground,Centre,"sb\t\credits\0062.png",0,240 F,0,16185,,1 S,0,16185,,0.22 C,0,16185,,200,200,200 MX,0,16185,21049,515.78,500.78 F,0,21049,,0
Sprite,Foreground,Centre,"sb\t\credits\006f.png",0,240 F,0,16185,,1 S,0,16185,,0.22 C,0,16185,,200,200,200 MX,0,16185,21049,537.34,522.34 F,0,21049,,0
Sprite,Foreground,Centre,"sb\t\credits\0061.png",0,240 F,0,16185,,1 S,0,16185,,0.22 C,0,16185,,200,200,200 MX,0,16185,21049,558.9,543.9 F,0,21049,,0
Sprite,Foreground,Centre,"sb\t\credits\0072.png",0,240 F,0,16185,,1 S,0,16185,,0.22 C,0,16185,,200,200,200 MX,0,16185,21049,580.46,565.46 F,0,21049,,0
Sprite,Foreground,Centre,"sb\t\credits\0064.png",0,240 F,0,16185,,1 S,0,16185,,0.22 C,0,16185,,200,200,200 MX,0,16185,21049,602.02,587.02 F,0,21049,,0
Sprite,Foreground,Centre,"sb\t\artist\004a.png",0,222 S,0,16185,,0.05 C,0,16185,,161,231,241 F,0,16185,16509,1,0.5 MX,0,16185,21049,443.675,428.675 F,0,16509,17157,1,0.5 F,0,17157,17806,1,0.5 F,0,17806,18455,1,0.5 F,0,18455,19103,1,0.5 F,0,19103,19752,1,0.5 F,0,19752,20401,1,0.5 F,0,20724,21049,1,0.5
Sprite,Foreground,Centre,"sb\t\artist\0069.png",0,222 S,0,16185,,0.05 C,0,16185,,161,231,241 F,0,16185,16509,1,0.5 MX,0,16185,21049,453.4,438.4 F,0,16509,17157,1,0.5 F,0,17157,17806,1,0.5 F,0,17806,18455,1,0.5 F,0,18455,19103,1,0.5 F,0,19103,19752,1,0.5 F,0,19752,20401,1,0.5 F,0,20724,21049,1,0.5
Sprite,Foreground,Centre,"sb\t\artist\0079.png",0,222 S,0,16185,,0.05 C,0,16185,,161,231,241 F,0,16185,16509,1,0.5 MX,0,16185,21049,461.55,446.55 F,0,16509,17157,1,0.5 F,0,17157,17806,1,0.5 F,0,17806,18455,1,0.5 F,0,18455,19103,1,0.5 F,0,19103,19752,1,0.5 F,0,19752,20401,1,0.5 F,0,20724,21049,1,0.5
Sprite,Foreground,Centre,"sb\t\artist\0073.png",0,222 S,0,16185,,0.05 C,0,16185,,161,231,241 F,0,16185,16509,1,0.5 MX,0,16185,21049,470.825,455.825 F,0,16509,17157,1,0.5 F,0,17157,17806,1,0.5 F,0,17806,18455,1,0.5 F,0,18455,19103,1,0.5 F,0,19103,19752,1,0.5 F,0,19752,20401,1,0.5 F,0,20724,21049,1,0.5
Sprite,Foreground,Centre,"sb\t\artist\0065.png",0,222 S,0,16185,,0.05 C,0,16185,,161,231,241 F,0,16185,16509,1,0.5 MX,0,16185,21049,479,464 F,0,16509,17157,1,0.5 F,0,17157,17806,1,0.5 F,0,17806,18455,1,0.5 F,0,18455,19103,1,0.5 F,0,19103,19752,1,0.5 F,0,19752,20401,1,0.5 F,0,20724,21049,1,0.5
Sprite,Foreground,Centre,"sb\t\artist\0061.png",0,222 S,0,16185,,0.05 C,0,16185,,161,231,241 F,0,16185,16509,1,0.5 MX,0,16185,21049,489,474 F,0,16509,17157,1,0.5 F,0,17157,17806,1,0.5 F,0,17806,18455,1,0.5 F,0,18455,19103,1,0.5 F,0,19103,19752,1,0.5 F,0,19752,20401,1,0.5 F,0,20724,21049,1,0.5
Sprite,Foreground,Centre,"sb\t\artist\0027.png",0,222 S,0,16185,,0.05 C,0,16185,,161,231,241 F,0,16185,16509,1,0.5 MX,0,16185,21049,495.975,480.975 F,0,16509,17157,1,0.5 F,0,17157,17806,1,0.5 F,0,17806,18455,1,0.5 F,0,18455,19103,1,0.5 F,0,19103,19752,1,0.5 F,0,19752,20401,1,0.5 F,0,20724,21049,1,0.5
Sprite,Foreground,Centre,"sb\t\artist\0073.png",0,222 S,0,16185,,0.05 C,0,16185,,161,231,241 F,0,16185,16509,1,0.5 MX,0,16185,21049,501.125,486.125 F,0,16509,17157,1,0.5 F,0,17157,17806,1,0.5 F,0,17806,18455,1,0.5 F,0,18455,19103,1,0.5 F,0,19103,19752,1,0.5 F,0,19752,20401,1,0.5 F,0,20724,21049,1,0.5
Sprite,Foreground,CentreLeft,"sb\s\pixel.png",0,0 F,0,618,,1 C,0,618,,120,120,120 M,19,618,3212,747,265,450,265 V,19,618,3212,4,3,150,3 M,18,3212,5807,450,265,340,265 V,18,3212,5807,150,3,0,3 M,19,5807,8402,747,265,490,265 V,19,5807,8402,4,3,40,3 M,18,8402,10996,490,265,340,265 V,18,8402,10996,40,3,0,3 M,19,10996,13591,747,265,450,265 V,19,10996,13591,4,3,120,3 M,18,13591,16185,450,265,340,265 V,18,13591,16185,120,3,0,3 M,19,16185,18780,747,265,450,265 V,19,16185,18780,4,3,130,3 M,18,18780,21333,450,265,340,265 V,18,18780,21333,130,3,0,3
Sprite,Foreground,Centre,"sb\t\artist\0059.png",0,200 S,0,210780,,0.05 C,0,210780,,254,175,203 F,0,210780,211104,1,0.5 MX,0,210780,215969,436.775,421.775 F,0,211104,211752,1,0.5 F,0,211752,212401,1,0.5 F,0,212401,213050,1,0.5 F,0,213050,213698,1,0.5 F,0,213698,214347,1,0.5 F,0,214347,214996,1,0.5 F,0,214996,215644,1,0.5 F,0,215644,215969,1,0.5
Sprite,Foreground,Centre,"sb\t\artist\006f.png",0,200 S,0,210780,,0.05 C,0,210780,,254,175,203 F,0,210780,211104,1,0.5 MX,0,210780,215969,448.4,433.4 F,0,211104,211752,1,0.5 F,0,211752,212401,1,0.5 F,0,212401,213050,1,0.5 F,0,213050,213698,1,0.5 F,0,213698,214347,1,0.5 F,0,214347,214996,1,0.5 F,0,214996,215644,1,0.5 F,0,215644,215969,1,0.5
Sprite,Foreground,Centre,"sb\t\artist\0072.png",0,200 S,0,210780,,0.05 C,0,210780,,254,175,203 F,0,210780,211104,1,0.5 MX,0,210780,215969,456.85,441.85 F,0,211104,211752,1,0.5 F,0,211752,212401,1,0.5 F,0,212401,213050,1,0.5 F,0,213050,213698,1,0.5 F,0,213698,214347,1,0.5 F,0,214347,214996,1,0.5 F,0,214996,215644,1,0.5 F,0,215644,215969,1,0.5
Sprite,Foreground,Centre,"sb\t\artist\0075.png",0,200 S,0,210780,,0.05 C,0,210780,,254,175,203 F,0,210780,211104,1,0.5 MX,0,210780,215969,466.3,451.3 F,0,211104,211752,1,0.5 F,0,211752,212401,1,0.5 F,0,212401,213050,1,0.5 F,0,213050,213698,1,0.5 F,0,213698,214347,1,0.5 F,0,214347,214996,1,0.5 F,0,214996,215644,1,0.5 F,0,215644,215969,1,0.5
Sprite,Foreground,Centre,"sb\t\artist\0073.png",0,200 S,0,210780,,0.05 C,0,210780,,254,175,203 F,0,210780,211104,1,0.5 MX,0,210780,215969,476.125,461.125 F,0,211104,211752,1,0.5 F,0,211752,212401,1,0.5 F,0,212401,213050,1,0.5 F,0,213050,213698,1,0.5 F,0,213698,214347,1,0.5 F,0,214347,214996,1,0.5 F,0,214996,215644,1,0.5 F,0,215644,215969,1,0.5
Sprite,Foreground,Centre,"sb\t\artist\0068.png",0,200 S,0,210780,,0.05 C,0,210780,,254,175,203 F,0,210780,211104,1,0.5 MX,0,210780,215969,485.85,470.85 F,0,211104,211752,1,0.5 F,0,211752,212401,1,0.5 F,0,212401,213050,1,0.5 F,0,213050,213698,1,0.5 F,0,213698,214347,1,0.5 F,0,214347,214996,1,0.5 F,0,214996,215644,1,0.5 F,0,215644,215969,1,0.5
Sprite,Foreground,Centre,"sb\t\artist\0069.png",0,200 S,0,210780,,0.05 C,0,210780,,254,175,203 F,0,210780,211104,1,0.5 MX,0,210780,215969,494.45,479.45 F,0,211104,211752,1,0.5 F,0,211752,212401,1,0.5 F,0,212401,213050,1,0.5 F,0,213050,213698,1,0.5 F,0,213698,214347,1,0.5 F,0,214347,214996,1,0.5 F,0,214996,215644,1,0.5 F,0,215644,215969,1,0.5
Sprite,Foreground,Centre,"sb\t\artist\006b.png",0,200 S,0,210780,,0.05 C,0,210780,,254,175,203 F,0,210780,211104,1,0.5 MX,0,210780,215969,502.7,487.7 F,0,211104,211752,1,0.5 F,0,211752,212401,1,0.5 F,0,212401,213050,1,0.5 F,0,213050,213698,1,0.5 F,0,213698,214347,1,0.5 F,0,214347,214996,1,0.5 F,0,214996,215644,1,0.5 F,0,215644,215969,1,0.5
Sprite,Foreground,Centre,"sb\t\artist\0061.png",0,200 S,0,210780,,0.05 C,0,210780,,254,175,203 F,0,210780,211104,1,0.5 MX,0,210780,215969,513.9,498.9 F,0,211104,211752,1,0.5 F,0,211752,212401,1,0.5 F,0,212401,213050,1,0.5 F,0,213050,213698,1,0.5 F,0,213698,214347,1,0.5 F,0,214347,214996,1,0.5 F,0,214996,215644,1,0.5 F,0,215644,215969,1,0.5
Sprite,Foreground,Centre,"sb\t\artist\0027.png",0,200 S,0,210780,,0.05 C,0,210780,,254,175,203 F,0,210780,211104,1,0.5 MX,0,210780,215969,520.875,505.875 F,0,211104,211752,1,0.5 F,0,211752,212401,1,0.5 F,0,212401,213050,1,0.5 F,0,213050,213698,1,0.5 F,0,213698,214347,1,0.5 F,0,214347,214996,1,0.5 F,0,214996,215644,1,0.5 F,0,215644,215969,1,0.5
Sprite,Foreground,Centre,"sb\t\artist\0073.png",0,200 S,0,210780,,0.05 C,0,210780,,254,175,203 F,0,210780,211104,1,0.5 MX,0,210780,215969,526.025,511.025 F,0,211104,211752,1,0.5 F,0,211752,212401,1,0.5 F,0,212401,213050,1,0.5 F,0,213050,213698,1,0.5 F,0,213698,214347,1,0.5 F,0,214347,214996,1,0.5 F,0,214996,215644,1,0.5 F,0,215644,215969,1,0.5
Sprite,Foreground,Centre,"sb\t\credits\006b.png",0,215 F,0,210780,,1 S,0,210780,,0.22 C,0,210780,,200,200,200 MX,0,210780,215969,357.52,342.52 F,0,215969,,0
Sprite,Foreground,Centre,"sb\t\credits\0061.png",0,215 F,0,210780,,1 S,0,210780,,0.22 C,0,210780,,200,200,200 MX,0,210780,215969,379.08,364.08 F,0,215969,,0
Sprite,Foreground,Centre,"sb\t\credits\006d.png",0,215 F,0,210780,,1 S,0,210780,,0.22 C,0,210780,,200,200,200 MX,0,210780,215969,400.64,385.64 F,0,215969,,0
Sprite,Foreground,Centre,"sb\t\credits\0069.png",0,215 F,0,210780,,1 S,0,210780,,0.22 C,0,210780,,200,200,200 MX,0,210780,215969,422.2,407.2 F,0,215969,,0
Sprite,Foreground,Centre,"sb\t\credits\0073.png",0,215 F,0,210780,,1 S,0,210780,,0.22 C,0,210780,,200,200,200 MX,0,210780,215969,443.76,428.76 F,0,215969,,0
Sprite,Foreground,Centre,"sb\t\credits\0061.png",0,215 F,0,210780,,1 S,0,210780,,0.22 C,0,210780,,200,200,200 MX,0,210780,215969,465.32,450.32 F,0,215969,,0
Sprite,Foreground,Centre,"sb\t\credits\006d.png",0,215 F,0,210780,,1 S,0,210780,,0.22 C,0,210780,,200,200,200 MX,0,210780,215969,486.88,471.88 F,0,215969,,0
Sprite,Foreground,Centre,"sb\t\credits\0061.png",0,215 F,0,210780,,1 S,0,210780,,0.22 C,0,210780,,200,200,200 MX,0,210780,215969,508.44,493.44 F,0,215969,,0
Sprite,Foreground,Centre,"sb\t\credits\006e.png",0,215 F,0,210780,,1 S,0,210780,,0.22 C,0,210780,,200,200,200 MX,0,210780,215969,551.56,536.56 F,0,215969,,0
Sprite,Foreground,Centre,"sb\t\credits\006f.png",0,215 F,0,210780,,1 S,0,210780,,0.22 C,0,210780,,200,200,200 MX,0,210780,215969,573.12,558.12 F,0,215969,,0
Sprite,Foreground,Centre,"sb\t\credits\0064.png",0,215 F,0,210780,,1 S,0,210780,,0.22 C,0,210780,,200,200,200 MX,0,210780,215969,616.24,601.24 F,0,215969,,0
Sprite,Foreground,Centre,"sb\t\credits\0061.png",0,215 F,0,210780,,1 S,0,210780,,0.22 C,0,210780,,200,200,200 MX,0,210780,215969,637.8,622.8 F,0,215969,,0
Sprite,Foreground,Centre,"sb\t\credits\006e.png",0,215 F,0,210780,,1 S,0,210780,,0.22 C,0,210780,,200,200,200 MX,0,210780,215969,659.36,644.36 F,0,215969,,0
Sprite,Foreground,Centre,"sb\t\credits\0063.png",0,215 F,0,210780,,1 S,0,210780,,0.22 C,0,210780,,200,200,200 MX,0,210780,215969,680.92,665.92 F,0,215969,,0
Sprite,Foreground,Centre,"sb\t\credits\0065.png",0,215 F,0,210780,,1 S,0,210780,,0.22 C,0,210780,,200,200,200 MX,0,210780,215969,702.48,687.48 F,0,215969,,0
Sprite,Foreground,Centre,"sb\t\artist\006e.png",0,244 S,0,210780,,0.05 C,0,210780,,254,175,203 F,0,210780,211104,1,0.5 MX,0,210780,215969,455.375,440.375 F,0,211104,211752,1,0.5 F,0,211752,212401,1,0.5 F,0,212401,213050,1,0.5 F,0,213050,213698,1,0.5 F,0,213698,214347,1,0.5 F,0,214347,214996,1,0.5 F,0,214996,215644,1,0.5 F,0,215644,215969,1,0.5
Sprite,Foreground,Centre,"sb\t\artist\0065.png",0,244 S,0,210780,,0.05 C,0,210780,,254,175,203 F,0,210780,211104,1,0.5 MX,0,210780,215969,465.225,450.225 F,0,211104,211752,1,0.5 F,0,211752,212401,1,0.5 F,0,212401,213050,1,0.5 F,0,213050,213698,1,0.5 F,0,213698,214347,1,0.5 F,0,214347,214996,1,0.5 F,0,214996,215644,1,0.5 F,0,215644,215969,1,0.5
Sprite,Foreground,Centre,"sb\t\artist\0077.png",0,244 S,0,210780,,0.05 C,0,210780,,254,175,203 F,0,210780,211104,1,0.5 MX,0,210780,215969,476.125,461.125 F,0,211104,211752,1,0.5 F,0,211752,212401,1,0.5 F,0,212401,213050,1,0.5 F,0,213050,213698,1,0.5 F,0,213698,214347,1,0.5 F,0,214347,214996,1,0.5 F,0,214996,215644,1,0.5 F,0,215644,215969,1,0.5
Sprite,Foreground,Centre,"sb\t\artist\0074.png",0,244 S,0,210780,,0.05 C,0,210780,,254,175,203 F,0,210780,211104,1,0.5 MX,0,210780,215969,485.95,470.95 F,0,211104,211752,1,0.5 F,0,211752,212401,1,0.5 F,0,212401,213050,1,0.5 F,0,213050,213698,1,0.5 F,0,213698,214347,1,0.5 F,0,214347,214996,1,0.5 F,0,214996,215644,1,0.5 F,0,215644,215969,1,0.5
Sprite,Foreground,Centre,"sb\t\artist\006f.png",0,244 S,0,210780,,0.05 C,0,210780,,254,175,203 F,0,210780,211104,1,0.5 MX,0,210780,215969,493.825,478.825 F,0,211104,211752,1,0.5 F,0,211752,212401,1,0.5 F,0,212401,213050,1,0.5 F,0,213050,213698,1,0.5 F,0,213698,214347,1,0.5 F,0,214347,214996,1,0.5 F,0,214996,215644,1,0.5 F,0,215644,215969,1,0.5
Sprite,Foreground,Centre,"sb\t\artist\006e.png",0,244 S,0,210780,,0.05 C,0,210780,,254,175,203 F,0,210780,211104,1,0.5 MX,0,210780,215969,504.325,489.325 F,0,211104,211752,1,0.5 F,0,211752,212401,1,0.5 F,0,212401,213050,1,0.5 F,0,213050,213698,1,0.5 F,0,213698,214347,1,0.5 F,0,214347,214996,1,0.5 F,0,214996,215644,1,0.5 F,0,215644,215969,1,0.5
Sprite,Foreground,Centre,"sb\t\artist\0027.png",0,244 S,0,210780,,0.05 C,0,210780,,254,175,203 F,0,210780,211104,1,0.5 MX,0,210780,215969,511.15,496.15 F,0,211104,211752,1,0.5 F,0,211752,212401,1,0.5 F,0,212401,213050,1,0.5 F,0,213050,213698,1,0.5 F,0,213698,214347,1,0.5 F,0,214347,214996,1,0.5 F,0,214996,215644,1,0.5 F,0,215644,215969,1,0.5
Sprite,Foreground,Centre,"sb\t\artist\0073.png",0,244 S,0,210780,,0.05 C,0,210780,,254,175,203 F,0,210780,211104,1,0.5 MX,0,210780,215969,516.3,501.3 F,0,211104,211752,1,0.5 F,0,211752,212401,1,0.5 F,0,212401,213050,1,0.5 F,0,213050,213698,1,0.5 F,0,213698,214347,1,0.5 F,0,214347,214996,1,0.5 F,0,214996,215644,1,0.5 F,0,215644,215969,1,0.5
Sprite,Foreground,Centre,"sb\t\credits\0068.png",0,265 F,0,210780,,1 S,0,210780,,0.22 C,0,210780,,200,200,200 MX,0,210780,215969,482.66,467.66 F,0,215969,,0
Sprite,Foreground,Centre,"sb\t\credits\0061.png",0,265 F,0,210780,,1 S,0,210780,,0.22 C,0,210780,,200,200,200 MX,0,210780,215969,504.22,489.22 F,0,215969,,0
Sprite,Foreground,Centre,"sb\t\credits\0072.png",0,265 F,0,210780,,1 S,0,210780,,0.22 C,0,210780,,200,200,200 MX,0,210780,215969,525.78,510.78 F,0,215969,,0
Sprite,Foreground,Centre,"sb\t\credits\0064.png",0,265 F,0,210780,,1 S,0,210780,,0.22 C,0,210780,,200,200,200 MX,0,210780,215969,547.34,532.34 F,0,215969,,0
Sprite,Foreground,Centre,"sb\t\artist\0044.png",0,200 S,0,215969,,0.05 C,0,215969,,161,231,241 F,0,215969,216293,1,0.5 MX,0,215969,221158,520.55,505.55 F,0,216293,216941,1,0.5 F,0,216941,217590,1,0.5 F,0,217590,218239,1,0.5 F,0,218239,218887,1,0.5 F,0,218887,219536,1,0.5 F,0,219536,220185,1,0.5 F,0,220185,220833,1,0.5 F,0,220833,221158,1,0.5
Sprite,Foreground,Centre,"sb\t\artist\006f.png",0,200 S,0,215969,,0.05 C,0,215969,,161,231,241 F,0,215969,216293,1,0.5 MX,0,215969,221158,533.9,518.9 F,0,216293,216941,1,0.5 F,0,216941,217590,1,0.5 F,0,217590,218239,1,0.5 F,0,218239,218887,1,0.5 F,0,218887,219536,1,0.5 F,0,219536,220185,1,0.5 F,0,220185,220833,1,0.5 F,0,220833,221158,1,0.5
Sprite,Foreground,Centre,"sb\t\artist\0072.png",0,200 S,0,215969,,0.05 C,0,215969,,161,231,241 F,0,215969,216293,1,0.5 MX,0,215969,221158,542.35,527.35 F,0,216293,216941,1,0.5 F,0,216941,217590,1,0.5 F,0,217590,218239,1,0.5 F,0,218239,218887,1,0.5 F,0,218887,219536,1,0.5 F,0,219536,220185,1,0.5 F,0,220185,220833,1,0.5 F,0,220833,221158,1,0.5
Sprite,Foreground,Centre,"sb\t\artist\0061.png",0,200 S,0,215969,,0.05 C,0,215969,,161,231,241 F,0,215969,216293,1,0.5 MX,0,215969,221158,551.85,536.85 F,0,216293,216941,1,0.5 F,0,216941,217590,1,0.5 F,0,217590,218239,1,0.5 F,0,218239,218887,1,0.5 F,0,218887,219536,1,0.5 F,0,219536,220185,1,0.5 F,0,220185,220833,1,0.5 F,0,220833,221158,1,0.5
Sprite,Foreground,Centre,"sb\t\artist\0027.png",0,200 S,0,215969,,0.05 C,0,215969,,161,231,241 F,0,215969,216293,1,0.5 MX,0,215969,221158,558.825,543.825 F,0,216293,216941,1,0.5 F,0,216941,217590,1,0.5 F,0,217590,218239,1,0.5 F,0,218239,218887,1,0.5 F,0,218887,219536,1,0.5 F,0,219536,220185,1,0.5 F,0,220185,220833,1,0.5 F,0,220833,221158,1,0.5
Sprite,Foreground,Centre,"sb\t\artist\0073.png",0,200 S,0,215969,,0.05 C,0,215969,,161,231,241 F,0,215969,216293,1,0.5 MX,0,215969,221158,563.975,548.975 F,0,216293,216941,1,0.5 F,0,216941,217590,1,0.5 F,0,217590,218239,1,0.5 F,0,218239,218887,1,0.5 F,0,218887,219536,1,0.5 F,0,219536,220185,1,0.5 F,0,220185,220833,1,0.5 F,0,220833,221158,1,0.5
Sprite,Foreground,Centre,"sb\t\credits\0068.png",0,215 F,0,215969,,1 S,0,215969,,0.22 C,0,215969,,200,200,200 MX,0,215969,221158,433.76,418.76 F,0,221158,,0
Sprite,Foreground,Centre,"sb\t\credits\0069.png",0,215 F,0,215969,,1 S,0,215969,,0.22 C,0,215969,,200,200,200 MX,0,215969,221158,455.32,440.32 F,0,221158,,0
Sprite,Foreground,Centre,"sb\t\credits\0074.png",0,215 F,0,215969,,1 S,0,215969,,0.22 C,0,215969,,200,200,200 MX,0,215969,221158,476.88,461.88 F,0,221158,,0
Sprite,Foreground,Centre,"sb\t\credits\0073.png",0,215 F,0,215969,,1 S,0,215969,,0.22 C,0,215969,,200,200,200 MX,0,215969,221158,498.44,483.44 F,0,221158,,0
Sprite,Foreground,Centre,"sb\t\credits\006f.png",0,215 F,0,215969,,1 S,0,215969,,0.22 C,0,215969,,200,200,200 MX,0,215969,221158,520,505 F,0,221158,,0
Sprite,Foreground,Centre,"sb\t\credits\0075.png",0,215 F,0,215969,,1 S,0,215969,,0.22 C,0,215969,,200,200,200 MX,0,215969,221158,541.56,526.56 F,0,221158,,0
Sprite,Foreground,Centre,"sb\t\credits\006e.png",0,215 F,0,215969,,1 S,0,215969,,0.22 C,0,215969,,200,200,200 MX,0,215969,221158,563.12,548.12 F,0,221158,,0
Sprite,Foreground,Centre,"sb\t\credits\0064.png",0,215 F,0,215969,,1 S,0,215969,,0.22 C,0,215969,,200,200,200 MX,0,215969,221158,584.68,569.68 F,0,221158,,0
Sprite,Foreground,Centre,"sb\t\credits\0073.png",0,215 F,0,215969,,1 S,0,215969,,0.22 C,0,215969,,200,200,200 MX,0,215969,221158,606.24,591.24 F,0,221158,,0
Sprite,Foreground,Centre,"sb\t\artist\004a.png",0,247 S,0,215969,,0.05 C,0,215969,,161,231,241 F,0,215969,216293,1,0.5 MX,0,215969,221158,443.675,428.675 F,0,216293,216941,1,0.5 F,0,216941,217590,1,0.5 F,0,217590,218239,1,0.5 F,0,218239,218887,1,0.5 F,0,218887,219536,1,0.5 F,0,219536,220185,1,0.5 F,0,220185,220833,1,0.5 F,0,220833,221158,1,0.5
Sprite,Foreground,Centre,"sb\t\artist\0069.png",0,247 S,0,215969,,0.05 C,0,215969,,161,231,241 F,0,215969,216293,1,0.5 MX,0,215969,221158,453.4,438.4 F,0,216293,216941,1,0.5 F,0,216941,217590,1,0.5 F,0,217590,218239,1,0.5 F,0,218239,218887,1,0.5 F,0,218887,219536,1,0.5 F,0,219536,220185,1,0.5 F,0,220185,220833,1,0.5 F,0,220833,221158,1,0.5
Sprite,Foreground,Centre,"sb\t\artist\0079.png",0,247 S,0,215969,,0.05 C,0,215969,,161,231,241 F,0,215969,216293,1,0.5 MX,0,215969,221158,461.55,446.55 F,0,216293,216941,1,0.5 F,0,216941,217590,1,0.5 F,0,217590,218239,1,0.5 F,0,218239,218887,1,0.5 F,0,218887,219536,1,0.5 F,0,219536,220185,1,0.5 F,0,220185,220833,1,0.5 F,0,220833,221158,1,0.5
Sprite,Foreground,Centre,"sb\t\artist\0073.png",0,247 S,0,215969,,0.05 C,0,215969,,161,231,241 F,0,215969,216293,1,0.5 MX,0,215969,221158,470.825,455.825 F,0,216293,216941,1,0.5 F,0,216941,217590,1,0.5 F,0,217590,218239,1,0.5 F,0,218239,218887,1,0.5 F,0,218887,219536,1,0.5 F,0,219536,220185,1,0.5 F,0,220185,220833,1,0.5 F,0,220833,221158,1,0.5
Sprite,Foreground,Centre,"sb\t\artist\0065.png",0,247 S,0,215969,,0.05 C,0,215969,,161,231,241 F,0,215969,216293,1,0.5 MX,0,215969,221158,479,464 F,0,216293,216941,1,0.5 F,0,216941,217590,1,0.5 F,0,217590,218239,1,0.5 F,0,218239,218887,1,0.5 F,0,218887,219536,1,0.5 F,0,219536,220185,1,0.5 F,0,220185,220833,1,0.5 F,0,220833,221158,1,0.5
Sprite,Foreground,Centre,"sb\t\artist\0061.png",0,247 S,0,215969,,0.05 C,0,215969,,161,231,241 F,0,215969,216293,1,0.5 MX,0,215969,221158,489,474 F,0,216293,216941,1,0.5 F,0,216941,217590,1,0.5 F,0,217590,218239,1,0.5 F,0,218239,218887,1,0.5 F,0,218887,219536,1,0.5 F,0,219536,220185,1,0.5 F,0,220185,220833,1,0.5 F,0,220833,221158,1,0.5
Sprite,Foreground,Centre,"sb\t\artist\0027.png",0,247 S,0,215969,,0.05 C,0,215969,,161,231,241 F,0,215969,216293,1,0.5 MX,0,215969,221158,495.975,480.975 F,0,216293,216941,1,0.5 F,0,216941,217590,1,0.5 F,0,217590,218239,1,0.5 F,0,218239,218887,1,0.5 F,0,218887,219536,1,0.5 F,0,219536,220185,1,0.5 F,0,220185,220833,1,0.5 F,0,220833,221158,1,0.5
Sprite,Foreground,Centre,"sb\t\artist\0073.png",0,247 S,0,215969,,0.05 C,0,215969,,161,231,241 F,0,215969,216293,1,0.5 MX,0,215969,221158,501.125,486.125 F,0,216293,216941,1,0.5 F,0,216941,217590,1,0.5 F,0,217590,218239,1,0.5 F,0,218239,218887,1,0.5 F,0,218887,219536,1,0.5 F,0,219536,220185,1,0.5 F,0,220185,220833,1,0.5 F,0,220833,221158,1,0.5
Sprite,Foreground,Centre,"sb\t\credits\0073.png",0,265 F,0,215969,,1 S,0,215969,,0.22 C,0,215969,,200,200,200 MX,0,215969,221158,407.98,392.98 F,0,221158,,0
Sprite,Foreground,Centre,"sb\t\credits\0074.png",0,265 F,0,215969,,1 S,0,215969,,0.22 C,0,215969,,200,200,200 MX,0,215969,221158,429.54,414.54 F,0,221158,,0
Sprite,Foreground,Centre,"sb\t\credits\006f.png",0,265 F,0,215969,,1 S,0,215969,,0.22 C,0,215969,,200,200,200 MX,0,215969,221158,451.1,436.1 F,0,221158,,0
Sprite,Foreground,Centre,"sb\t\credits\0072.png",0,265 F,0,215969,,1 S,0,215969,,0.22 C,0,215969,,200,200,200 MX,0,215969,221158,472.66,457.66 F,0,221158,,0
Sprite,Foreground,Centre,"sb\t\credits\0079.png",0,265 F,0,215969,,1 S,0,215969,,0.22 C,0,215969,,200,200,200 MX,0,215969,221158,494.22,479.22 F,0,221158,,0
Sprite,Foreground,Centre,"sb\t\credits\0062.png",0,265 F,0,215969,,1 S,0,215969,,0.22 C,0,215969,,200,200,200 MX,0,215969,221158,515.78,500.78 F,0,221158,,0
Sprite,Foreground,Centre,"sb\t\credits\006f.png",0,265 F,0,215969,,1 S,0,215969,,0.22 C,0,215969,,200,200,200 MX,0,215969,221158,537.34,522.34 F,0,221158,,0
Sprite,Foreground,Centre,"sb\t\credits\0061.png",0,265 F,0,215969,,1 S,0,215969,,0.22 C,0,215969,,200,200,200 MX,0,215969,221158,558.9,543.9 F,0,221158,,0
Sprite,Foreground,Centre,"sb\t\credits\0072.png",0,265 F,0,215969,,1 S,0,215969,,0.22 C,0,215969,,200,200,200 MX,0,215969,221158,580.46,565.46 F,0,221158,,0
Sprite,Foreground,Centre,"sb\t\credits\0064.png",0,265 F,0,215969,,1 S,0,215969,,0.22 C,0,215969,,200,200,200 MX,0,215969,221158,602.02,587.02 F,0,221158,,0
//Storyboard Layer 4 (Overlay)
//Storyboard Sound Samples

[TimingPoints]
-679,324.324324324324,4,2,2,50,1,0
293,-100,4,2,1,50,0,0
618,-100,4,2,1,65,0,0
1158,-100,4,2,2,65,0,0
1591,-100,4,2,1,65,0,0
1807,-100,4,2,2,65,0,0
2239,-100,4,2,1,65,0,0
2456,-100,4,2,2,65,0,0
5483,-100,4,2,1,65,0,0
5807,-100,4,2,3,65,0,0
6131,-100,4,2,1,65,0,0
6348,-100,4,2,2,65,0,0
6780,-100,4,2,1,65,0,0
6996,-100,4,2,2,65,0,0
7429,-100,4,2,1,65,0,0
7645,-100,4,2,2,65,0,0
10456,-100,4,2,1,65,0,0
10996,-100,4,2,4,65,0,0
11320,-100,4,2,1,65,0,0
11537,-100,4,2,2,65,0,0
11969,-100,4,2,1,65,0,0
12185,-100,4,2,2,65,0,0
12618,-100,4,2,1,65,0,0
12834,-100,4,2,2,65,0,0
15861,-100,4,2,1,65,0,0
16185,-100,4,2,3,65,0,0
16510,-100,4,2,1,65,0,0
16726,-100,4,2,2,65,0,0
17158,-100,4,2,1,65,0,0
17375,-100,4,2,2,65,0,0
17807,-100,4,2,1,65,0,0
18023,-100,4,2,2,65,0,0
20402,-100,4,2,1,65,0,0
20726,-100,4,2,2,65,0,0
21050,283.018867924528,4,2,2,50,1,0
21050,-100,4,2,1,65,0,0
21333,365.853658536585,4,2,2,50,1,0
21333,-133.333333333333,4,2,5,35,0,0
21699,324.324324324324,4,2,2,35,1,0
22672,324.324324324324,4,2,2,35,1,0
22672,-133.333333333333,4,2,2,35,0,0
26564,-133.333333333333,4,2,1,35,0,0
26780,-133.333333333333,4,2,2,35,0,0
26888,-133.333333333333,4,2,1,35,0,0
27429,-133.333333333333,4,2,2,35,0,0
31753,-111.111111111111,4,2,5,45,0,0
36942,-111.111111111111,4,2,1,45,0,0
37158,-111.111111111111,4,2,2,45,0,0
37266,-111.111111111111,4,2,1,45,0,0
37915,-111.111111111111,4,2,2,45,0,0
42131,-100,4,2,1,60,0,0
43104,-100,4,2,2,60,0,0
43429,-100,4,2,1,60,0,0
43753,-100,4,2,2,60,0,0
44293,-100,4,2,1,60,0,0
44618,-100,4,2,2,60,0,0
44726,-100,4,2,1,60,0,0
44942,-100,4,2,2,60,0,0
45591,-100,4,2,1,60,0,0
45699,-100,4,2,2,60,0,0
46023,-100,4,2,1,60,0,0
46672,-100,4,2,2,60,0,0
46888,-100,4,2,1,60,0,0
47320,-100,4,2,3,60,0,0
47645,-100,4,2,1,60,0,0
48293,-100,4,2,2,60,0,0
48618,-100,4,2,1,60,0,0
48942,-100,4,2,2,60,0,0
49483,-100,4,2,1,60,0,0
52402,-100,4,2,5,60,0,0
53375,-100,4,2,2,60,0,0
53699,-100,4,2,4,75,0,0
55104,-83.3333333333333,4,2,1,80,0,0
55429,-83.3333333333333,4,2,6,80,0,0
55645,-83.3333333333333,4,2,4,80,0,0
59969,-83.3333333333333,4,2,7,80,0,0
60185,-83.3333333333333,4,2,2,80,0,0
60293,-83.3333333333333,4,2,8,80,0,0
60510,-83.3333333333333,4,2,5,80,0,0
62888,-83.3333333333333,4,2,6,80,0,0
63429,-83.3333333333333,4,2,4,80,0,0
64510,-83.3333333333333,4,2,7,80,0,0
65483,-83.3333333333333,4,2,1,80,0,0
65807,-83.3333333333333,4,2,6,80,0,0
67320,-83.3333333333333,4,2,4,80,0,0
69699,-83.3333333333333,4,2,7,80,0,0
69915,-83.3333333333333,4,2,4,80,0,0
70672,-83.3333333333333,4,2,8,80,0,0
70888,-83.3333333333333,4,2,5,80,0,0
73483,-83.3333333333333,4,2,4,80,0,0
73915,-83.3333333333333,4,2,5,80,0,0
74888,-83.3333333333333,4,2,6,80,0,0
75753,-83.3333333333333,4,2,2,80,0,0
75861,-83.3333333333333,4,2,9,70,0,0
76077,-83.3333333333333,4,2,5,70,0,0
76726,-83.3333333333333,4,2,1,70,0,0
76834,-83.3333333333333,4,2,5,70,0,0
77158,-83.3333333333333,4,2,4,70,0,0
77483,-83.3333333333333,4,2,5,70,0,0
77699,-83.3333333333333,4,2,4,70,0,0
78456,-83.3333333333333,4,2,6,70,0,0
78672,-83.3333333333333,4,2,1,70,0,0
78780,-83.3333333333333,4,2,9,70,0,0
79320,-83.3333333333333,4,2,2,70,0,0
79429,-83.3333333333333,4,2,10,70,0,0
79645,-83.3333333333333,4,2,2,70,0,0
79753,-83.3333333333333,4,2,4,70,0,0
79969,-83.3333333333333,4,2,5,70,0,0
80293,-83.3333333333333,4,2,1,70,0,0
80402,-83.3333333333333,4,2,11,70,0,0
80618,-83.3333333333333,4,2,9,70,0,0
81591,-83.3333333333333,4,2,1,70,0,0
81915,-83.3333333333333,4,2,2,70,0,0
82023,-83.3333333333333,4,2,3,70,0,0
82239,-83.3333333333333,4,2,1,70,0,0
82348,-83.3333333333333,4,2,12,70,0,0
82672,-83.3333333333333,4,2,1,70,0,0
82996,-83.3333333333333,4,2,2,70,0,0
83644,-100,4,2,1,65,0,0
84185,-100,4,2,2,65,0,0
84618,-100,4,2,1,65,0,0
84834,-100,4,2,2,65,0,0
85266,-100,4,2,1,65,0,0
85483,-100,4,2,2,65,0,0
88510,-100,4,2,1,65,0,0
88834,-100,4,2,3,65,0,0
89158,-100,4,2,1,65,0,0
89375,-100,4,2,2,65,0,0
89807,-100,4,2,1,65,0,0
90023,-100,4,2,2,65,0,0
90456,-100,4,2,1,65,0,0
90672,-100,4,2,2,65,0,0
93050,-100,4,2,5,65,0,0
93375,-100,4,2,2,65,0,0
94023,-100,4,2,11,35,0,0
94564,-100,4,2,3,35,0,0
94672,-100,4,2,2,35,0,0
95861,-100,4,2,8,35,0,0
96942,-100,4,2,2,35,0,0
97158,-100,4,2,8,35,0,0
97266,-100,4,2,2,35,0,0
98456,-100,4,2,8,35,0,0
99104,-100,4,2,2,35,0,0
99212,-100,4,2,1,35,0,0
99429,-100,4,2,2,35,0,0
99537,-100,4,2,3,35,0,0
100077,-100,4,2,2,35,0,0
101050,-100,4,2,8,35,0,0
101699,-100,4,2,2,35,0,0
102348,-100,4,2,3,35,0,0
102456,-100,4,2,2,35,0,0
103645,-100,4,2,8,35,0,0
103753,-100,4,2,1,35,0,0
103969,-125,4,2,1,35,0,0
104293,-125,4,2,11,35,0,0
104402,-111.111111111111,4,2,11,50,0,0
104726,-111.111111111111,4,2,2,50,0,0
106348,-111.111111111111,4,2,11,50,0,0
106672,-111.111111111111,4,2,2,50,0,0
108942,-111.111111111111,4,2,11,50,0,0
109266,-111.111111111111,4,2,2,50,0,0
109591,-111.111111111111,4,2,1,50,0,0
109807,-111.111111111111,4,2,11,50,0,0
109915,-111.111111111111,4,2,1,50,0,0
110564,-111.111111111111,4,2,2,50,0,0
111537,-111.111111111111,4,2,11,50,0,0
111861,-111.111111111111,4,2,2,50,0,0
112402,-111.111111111111,4,2,11,50,0,0
112510,-111.111111111111,4,2,2,50,0,0
114023,-111.111111111111,4,2,11,50,0,0
114131,-111.111111111111,4,2,2,50,0,0
114672,-111.111111111111,4,2,1,50,0,0
114780,-100,4,2,6,65,0,0
115104,-100,4,2,4,65,0,0
115753,-100,4,2,2,65,0,0
116077,-100,4,2,1,65,0,0
116402,-100,4,2,2,65,0,0
117375,-100,4,2,1,65,0,0
117591,-100,4,2,2,65,0,0
118672,-100,4,2,1,65,0,0
119320,-100,4,2,2,65,0,0
119645,-100,4,2,1,65,0,0
119969,-100,4,2,3,65,0,0
120293,-100,4,2,1,65,0,0
120942,-100,4,2,2,65,0,0
122564,-100,4,2,1,65,0,0
123104,-100,4,2,5,65,0,0
126023,-100,4,2,2,65,0,0
126348,-100,4,2,4,75,0,0
127753,-83.3333333333333,4,2,1,80,0,0
128077,-83.3333333333333,4,2,6,80,0,0
128293,-83.3333333333333,4,2,4,80,0,0
132618,-83.3333333333333,4,2,7,80,0,0
132834,-83.3333333333333,4,2,2,80,0,0
132942,-83.3333333333333,4,2,8,80,0,0
133158,-83.3333333333333,4,2,5,80,0,0
135537,-83.3333333333333,4,2,6,80,0,0
136077,-83.3333333333333,4,2,4,80,0,0
137158,-83.3333333333333,4,2,7,80,0,0
138131,-83.3333333333333,4,2,1,80,0,0
138456,-83.3333333333333,4,2,6,80,0,0
139969,-83.3333333333333,4,2,4,80,0,0
142348,-83.3333333333333,4,2,7,80,0,0
142564,-83.3333333333333,4,2,4,80,0,0
143212,-83.3333333333333,4,2,2,80,0,0
143320,-83.3333333333333,4,2,8,80,0,0
143537,-83.3333333333333,4,2,5,80,0,0
145915,-83.3333333333333,4,2,11,80,0,0
146239,-83.3333333333333,4,2,4,80,0,0
146564,-83.3333333333333,4,2,5,80,0,0
147537,-83.3333333333333,4,2,6,80,0,0
148402,-83.3333333333333,4,2,2,80,0,0
148510,-83.3333333333333,4,2,9,70,0,0
148726,-83.3333333333333,4,2,5,70,0,0
149375,-83.3333333333333,4,2,1,70,0,0
149483,-83.3333333333333,4,2,5,70,0,0
149807,-83.3333333333333,4,2,4,70,0,0
150131,-83.3333333333333,4,2,5,70,0,0
150348,-83.3333333333333,4,2,4,70,0,0
151104,-83.3333333333333,4,2,6,70,0,0
151320,-83.3333333333333,4,2,1,70,0,0
151429,-83.3333333333333,4,2,9,70,0,0
151645,-83.3333333333333,4,2,4,70,0,0
151969,-83.3333333333333,4,2,2,70,0,0
152077,-83.3333333333333,4,2,10,70,0,0
152293,-83.3333333333333,4,2,2,70,0,0
152402,-83.3333333333333,4,2,4,70,0,0
152618,-83.3333333333333,4,2,5,70,0,0
152942,-83.3333333333333,4,2,1,70,0,0
153050,-83.3333333333333,4,2,11,70,0,0
153266,-83.3333333333333,4,2,9,70,0,0
154348,-83.3333333333333,4,2,2,70,0,0
154672,-83.3333333333333,4,2,3,70,0,0
154888,-83.3333333333333,4,2,1,70,0,0
154996,-83.3333333333333,4,2,2,70,0,0
155320,-83.3333333333333,4,2,1,70,0,0
155537,-83.3333333333333,4,2,2,70,0,0
156293,-83.3333333333333,4,2,9,50,0,0
156942,-83.3333333333333,4,2,5,50,0,0
160185,-83.3333333333333,4,2,4,50,0,0
161050,-83.3333333333333,4,2,5,50,0,0
161483,-83.3333333333333,4,2,11,50,0,0
161807,-83.3333333333333,4,2,5,50,0,0
165266,-100,4,2,4,50,0,0
166023,-100,4,2,7,50,0,0
166348,-100,4,2,2,50,0,0
166564,-100,4,2,3,50,0,0
166672,-100,4,2,3,60,0,0
166996,-100,4,2,10,60,0,0
167050,-100,4,2,2,60,0,0
167320,-100,4,2,4,60,0,0
167537,-100,4,2,5,60,0,0
167969,-100,4,2,4,60,0,0
168185,-100,4,2,5,60,0,0
168618,-100,4,2,4,60,0,0
168780,-100,4,2,2,60,0,0
168942,-100,4,2,4,60,0,0
169050,-100,4,2,5,60,0,0
170780,-100,4,2,4,60,0,0
170996,-100,4,2,2,60,0,0
171212,-100,4,2,4,60,0,0
171429,-100,4,2,5,60,0,0
171861,-100,4,2,11,60,0,0
172023,-100,4,2,1,60,0,0
172185,-100,4,2,5,60,0,0
174456,-100,4,2,4,60,0,0
174780,-100,4,2,5,60,0,0
175104,-100,4,2,4,60,0,0
175510,-100,4,2,2,60,0,0
175753,-100,4,2,4,60,0,0
175969,-100,4,2,2,60,0,0
176077,-100,4,2,10,60,0,0
176293,-100,4,2,1,60,0,0
176402,-100,4,2,7,60,0,0
176510,-100,4,2,1,60,0,0
176618,-100,4,2,2,60,0,0
176726,-100,4,2,1,60,0,0
177861,-100,4,2,13,60,0,0
179537,-100,4,2,2,60,0,0
179644,-100,4,2,1,80,0,0
180510,-100,4,2,7,80,0,0
180618,-100,4,2,4,80,0,0
181591,-100,4,2,2,80,0,0
181807,-100,4,2,3,80,0,0
182239,-100,4,2,1,80,0,0
182780,-100,4,2,2,80,0,0
182888,-100,4,2,1,80,0,0
184510,-100,4,2,14,80,0,0
184834,-83.3333333333333,4,2,6,85,0,0
185050,-83.3333333333333,4,2,1,85,0,0
185483,-83.3333333333333,4,2,2,85,0,0
185807,-83.3333333333333,4,2,4,85,0,0
187104,-83.3333333333333,4,2,1,85,0,0
187429,-83.3333333333333,4,2,8,85,0,0
187645,-83.3333333333333,4,2,5,85,0,0
188726,-83.3333333333333,4,2,3,85,0,0
189050,-83.3333333333333,4,2,11,85,0,0
189375,-83.3333333333333,4,2,1,85,0,0
190348,-83.3333333333333,4,2,14,85,0,0
190564,-83.3333333333333,4,2,1,85,0,0
191320,-83.3333333333333,4,2,6,85,0,0
191429,-83.3333333333333,4,2,13,85,0,0
191645,-83.3333333333333,4,2,1,85,0,0
191969,-83.3333333333333,4,2,3,85,0,0
192077,-83.3333333333333,4,2,1,85,0,0
192942,-83.3333333333333,4,2,4,85,0,0
195104,-83.3333333333333,4,2,2,85,0,0
195212,-83.3333333333333,4,2,1,85,0,0
196834,-83.3333333333333,4,2,6,85,0,0
197050,-83.3333333333333,4,2,1,85,0,0
197483,-83.3333333333333,4,2,14,85,0,0
197699,-83.3333333333333,4,2,2,85,0,0
197807,-83.3333333333333,4,2,8,85,0,0
198023,-83.3333333333333,4,2,5,85,0,0
200726,-83.3333333333333,4,2,1,85,0,0
202888,-83.3333333333333,4,2,2,85,0,0
202996,-83.3333333333333,4,2,9,85,0,0
203212,-83.3333333333333,4,2,5,85,0,0
203861,-83.3333333333333,4,2,1,85,0,0
203969,-83.3333333333333,4,2,5,85,0,0
204293,-83.3333333333333,4,2,4,85,0,0
204618,-83.3333333333333,4,2,5,85,0,0
204834,-83.3333333333333,4,2,4,85,0,0
205915,-83.3333333333333,4,2,6,85,0,0
206131,-83.3333333333333,4,2,4,85,0,0
206456,-83.3333333333333,4,2,2,85,0,0
206564,-83.3333333333333,4,2,15,85,0,0
206780,-83.3333333333333,4,2,2,85,0,0
206888,-83.3333333333333,4,2,4,85,0,0
207104,-83.3333333333333,4,2,2,85,0,0
207212,-83.3333333333333,4,2,9,85,0,0
208185,-83.3333333333333,4,2,6,85,0,0
208834,-83.3333333333333,4,2,2,85,0,0
209158,-83.3333333333333,4,2,3,85,0,0
209375,-83.3333333333333,4,2,1,85,0,0
209483,-83.3333333333333,4,2,12,85,0,0
209807,-83.3333333333333,4,2,1,85,0,0
210023,-83.3333333333333,4,2,2,85,0,0
210780,-100,4,2,1,55,0,0
211320,-100,4,2,2,55,0,0
211753,-100,4,2,1,55,0,0
211969,-100,4,2,2,55,0,0
212402,-100,4,2,1,55,0,0
212618,-100,4,2,2,55,0,0
215645,-100,4,2,1,55,0,0
215969,-100,4,2,3,55,0,0
216293,-100,4,2,1,55,0,0
216510,-100,4,2,2,55,0,0
216942,-100,4,2,1,55,0,0
217158,-100,4,2,2,55,0,0
217591,-100,4,2,1,55,0,0
217807,-100,4,2,2,55,0,0
220185,-100,4,2,1,55,0,0
220510,-100,4,2,2,55,0,0
221050,-100,4,2,1,55,0,0
221158,-100,4,2,11,15,0,0
221699,-100,4,2,1,15,0,0
222456,-100,4,2,2,15,0,0
222996,-100,4,2,1,15,0,0
223753,-100,4,2,2,15,0,0
224293,-100,4,2,1,15,0,0
225050,-100,4,2,2,15,0,0
225591,-100,4,2,1,15,0,0
226348,-100,4,2,2,15,0,0
226888,-100,4,2,1,15,0,0
227645,-100,4,2,2,12,0,0
228185,-100,4,2,1,12,0,0
228942,-100,4,2,2,9,0,0
229483,-100,4,2,1,9,0,0
230239,-100,4,2,2,6,0,0
230780,-100,4,2,1,6,0,0

[Colours]
Combo1 : 128,128,128
Combo2 : 192,192,192
Combo3 : 33,150,243
Combo4 : 181,220,251
Combo5 : 250,69,115
Combo6 : 253,193,208
Combo7 : 177,63,239
Combo8 : 229,191,249

[HitObjects]
139,72,293,6,0,P|93:108|47:106,1,96.6666666666667,2|2,2:2|2:2,0:0:0:0:
40,103,618,1,6,3:2:0:0:
184,160,942,102,0,P|232:165|279:172,1,96.6666666666667,10|2,1:2|2:2,0:0:0:0:
298,155,1266,2,0,P|346:160|393:167,1,96.6666666666667,10|0,2:2|3:3,0:0:0:0:
412,156,1591,1,10,1:2:0:0:
512,262,1915,6,0,P|507:309|475:344,1,96.6666666666667,10|0,3:2|0:0,0:0:0:0:
459,348,2239,2,0,P|410:353|363:360,1,96.6666666666667,10|2,1:2|2:2,0:0:0:0:
350,352,2564,2,0,P|302:345|254:339,1,96.6666666666667,10|0,2:2|3:3,0:0:0:0:
234,348,2888,1,10,1:2:0:0:
72,311,3212,102,0,P|66:262|59:215,1,96.6666666666667,10|0,3:2|0:0,0:0:0:0:
60,203,3537,2,0,P|95:170|142:166,1,96.6666666666667,10|2,1:2|2:2,0:0:0:0:
151,172,3861,2,0,P|186:204|233:208,1,96.6666666666667,10|0,2:2|3:3,0:0:0:0:
245,204,4185,1,10,1:2:0:0:
370,269,4510,6,0,P|375:220|382:173,1,96.6666666666667,10|0,3:2|0:0,0:0:0:0:
384,164,4834,1,10,1:2:0:0:
467,205,5050,1,2,2:2:0:0:
467,205,5158,2,0,P|472:156|479:109,1,96.6666666666667,10|0,2:2|3:3,0:0:0:0:
447,79,5483,102,0,P|423:82|399:85,1,48.3333333333333,10|0,1:2|0:0,0:0:0:0:
363,65,5699,1,2,2:2:0:0:
363,65,5807,2,0,P|317:101|271:99,1,96.6666666666667,14|0,3:2|0:0,0:0:0:0:
264,96,6132,1,10,1:2:0:0:
136,39,6456,6,0,P|87:44|40:51,1,96.6666666666667,10|0,2:2|3:3,0:0:0:0:
24,54,6780,1,10,1:2:0:0:
124,130,7104,102,0,P|117:177|111:225,1,96.6666666666667,10|0,3:2|0:0,0:0:0:0:
100,232,7429,2,0,P|106:279|112:327,1,96.6666666666667,10|2,1:2|2:2,0:0:0:0:
123,337,7753,2,0,P|158:304|205:300,1,96.6666666666667,10|0,2:2|3:3,0:0:0:0:
223,307,8077,1,10,1:2:0:0:
344,367,8402,6,0,P|349:318|356:271,1,96.6666666666667,10|0,3:2|0:0,0:0:0:0:
364,263,8726,2,0,P|412:268|459:275,1,96.6666666666667,10|2,1:2|2:2,0:0:0:0:
468,266,9050,2,0,P|473:217|480:170,1,96.6666666666667,10|0,2:2|3:3,0:0:0:0:
482,160,9375,1,10,1:2:0:0:
440,26,9699,102,0,P|435:73|403:108,1,96.6666666666667,10|0,3:2|0:0,0:0:0:0:
386,111,10023,2,0,P|362:114|338:117,1,48.3333333333333,10|0,1:2|0:0,0:0:0:0:
297,138,10239,1,2,2:2:0:0:
297,138,10348,2,0,P|249:131|201:125,1,96.6666666666667,6|4,2:2|2:3,0:0:0:0:
155,103,10672,2,0,P|151:79|148:55,2,48.3333333333333,2|0|2,1:2|1:1|1:2,0:0:0:0:
108,116,10996,1,6,3:2:0:0:
134,243,11320,6,0,P|128:291|121:338,1,96.6666666666667,10|2,1:2|2:2,0:0:0:0:
130,351,11645,2,0,P|178:356|225:363,1,96.6666666666667,10|0,2:2|3:3,0:0:0:0:
240,356,11969,1,10,1:2:0:0:
325,316,12293,102,0,P|372:308|420:303,1,96.6666666666667,10|0,3:2|0:0,0:0:0:0:
429,292,12618,2,0,P|424:245|392:210,1,96.6666666666667,10|2,1:2|2:2,0:0:0:0:
380,200,12942,2,0,P|385:153|417:118,1,96.6666666666667,10|0,2:2|3:3,0:0:0:0:
428,114,13266,1,10,1:2:0:0:
291,172,13591,6,0,P|242:167|195:160,1,96.6666666666667,10|0,3:2|0:0,0:0:0:0:
187,152,13915,2,0,P|192:104|199:57,1,96.6666666666667,10|2,1:2|2:2,0:0:0:0:
190,48,14239,2,0,P|141:43|94:36,1,96.6666666666667,10|0,2:2|3:3,0:0:0:0:
84,34,14564,1,10,1:2:0:0:
99,123,14888,102,0,P|94:172|87:219,1,96.6666666666667,10|0,3:2|0:0,0:0:0:0:
85,228,15212,1,10,1:2:0:0:
175,228,15429,1,2,2:2:0:0:
175,228,15537,2,0,P|170:277|163:324,1,96.6666666666667,10|0,2:2|3:3,0:0:0:0:
195,354,15862,6,0,P|219:351|243:348,1,48.3333333333333,10|0,1:2|0:0,0:0:0:0:
263,317,16077,1,2,1:2:0:0:
263,317,16185,2,0,P|310:309|358:305,1,96.6666666666667,14|0,3:2|0:0,0:0:0:0:
372,303,16510,1,10,1:2:0:0:
490,348,16834,102,0,P|497:301|503:253,1,96.6666666666667,10|0,2:2|3:3,0:0:0:0:
506,241,17158,1,10,1:2:0:0:
350,220,17482,6,0,P|343:173|337:125,1,96.6666666666667,10|0,3:2|0:0,0:0:0:0:
326,118,17807,2,0,P|332:71|338:23,1,96.6666666666667,10|2,1:2|2:2,0:0:0:0:
329,10,18131,2,0,P|294:43|247:47,1,96.6666666666667,10|0,2:2|3:3,0:0:0:0:
229,40,18456,1,10,1:2:0:0:
90,119,18780,102,0,P|97:166|102:214,1,96.6666666666667,10|0,3:2|0:0,0:0:0:0:
114,223,19105,2,0,P|161:218|196:186,1,96.6666666666667,10|2,1:2|2:2,0:0:0:0:
206,174,19429,2,0,P|253:179|288:211,1,96.6666666666667,10|0,2:2|3:3,0:0:0:0:
292,222,19753,1,6,1:2:0:0:
413,364,20077,22,0,P|416:340|419:316,1,48.3333333333333,6|0,3:2|0:0,0:0:0:0:
446,297,20293,1,4,3:2:0:0:
446,297,20402,2,0,P|438:249|433:201,1,96.6666666666667,6|0,2:3|1:1,0:0:0:0:
450,182,20726,2,0,P|442:134|437:86,1,96.6666666666667,2|8,1:2|2:3,0:0:0:0:
409,60,21050,2,0,P|405:37|402:12,2,48.3333333333333,2|0|0,1:2|1:1|1:1,0:0:0:0:
361,140,21333,86,0,P|306:130|251:124,1,108.750004148483,6|2,2:2|2:2,0:0:0:0:
174,150,21915,1,2,2:2:0:0:
78,32,22672,6,0,P|87:87|93:142,1,108.750004148483,2|2,2:2|2:2,0:0:0:0:
68,219,23212,1,2,2:2:0:0:
254,125,23969,102,0,P|244:180|238:235,1,108.750004148483,2|2,2:2|2:2,0:0:0:0:
264,312,24509,1,2,2:2:0:0:
451,302,25266,6,0,P|395:292|340:286,1,108.750004148483,2|2,2:2|2:2,0:0:0:0:
264,312,25806,1,2,2:2:0:0:
16,259,26564,102,0,P|71:268|126:274,1,108.750004148483,2|2,2:2|2:2,0:0:0:0:
203,249,27104,1,2,2:2:0:0:
343,287,27861,6,0,P|333:231|327:176,1,108.750004148483,2|2,2:2|2:2,0:0:0:0:
353,100,28401,1,0,0:0:0:0:
140,187,29158,102,0,P|149:131|155:76,1,108.750004148483,2|2,2:2|2:2,0:0:0:0:
130,0,29698,1,2,2:2:0:0:
140,187,30456,6,0,P|195:177|250:171,1,108.750004148483,2|2,2:2|2:2,0:0:0:0:
327,197,30996,1,0,0:0:0:0:
327,197,31104,102,0,P|344:193|362:191,2,36.2500013828278,8|8|8,2:2|2:2|2:2,0:0:0:0:
312,226,31429,2,0,P|318:261|323:297,1,72.5000027656556,4|2,2:2|2:2,0:0:0:0:
313,305,31753,6,0,P|266:298|218:293,1,86.9999973449708,6|2,3:2|2:2,0:0:0:0:
209,307,32077,2,0,P|165:300|122:295,1,86.9999973449708,2|2,2:2|2:2,0:0:0:0:
108,308,32402,1,2,3:2:0:0:
17,253,32726,102,0,P|12:209|5:166,1,86.9999973449708,2|0,2:2|0:0,0:0:0:0:
3,150,33050,1,2,3:2:0:0:
114,85,33375,2,0,P|107:128|102:171,1,86.9999973449708,2|2,2:2|2:2,0:0:0:0:
111,182,33699,2,0,P|154:188|197:193,1,86.9999973449708,0|0,3:3|3:3,0:0:0:0:
207,194,34023,1,0,0:0:0:0:
310,122,34348,6,0,P|353:115|396:110,1,86.9999973449708,2|2,3:2|2:2,0:0:0:0:
403,117,34672,2,0,P|409:160|414:203,1,86.9999973449708,2|2,2:2|2:2,0:0:0:0:
416,211,34996,1,2,3:2:0:0:
325,276,35320,2,0,P|318:319|313:362,1,86.9999973449708,2|0,2:2|0:0,0:0:0:0:
306,367,35645,102,0,P|241:357|176:350,1,130.499996017456,2|2,3:2|2:2,0:0:0:0:
38,372,36185,1,2,2:2:0:0:
38,372,36293,2,0,P|44:328|49:285,1,86.9999973449708,0|0,3:3|3:3,0:0:0:0:
68,265,36618,2,0,P|61:221|56:178,1,86.9999973449708,0|2,0:0|2:2,0:0:0:0:
55,168,36942,1,2,3:2:0:0:
158,90,37266,6,0,P|151:133|146:176,1,86.9999973449708,2|2,2:2|2:2,0:0:0:0:
153,183,37591,2,0,P|196:189|239:194,1,86.9999973449708,2|0,3:2|0:0,0:0:0:0:
251,196,37915,1,2,2:2:0:0:
349,127,38131,1,2,2:2:0:0:
349,127,38239,2,0,P|392:120|435:115,1,86.9999973449708,2|2,3:2|2:2,0:0:0:0:
442,122,38564,2,0,P|435:165|430:208,1,86.9999973449708,2|2,2:2|2:2,0:0:0:0:
429,219,38888,1,0,3:3:0:0:
409,345,39212,1,0,0:0:0:0:
363,275,39429,101,0,0:0:0:0:
363,275,39537,2,0,P|319:281|276:286,1,86.9999973449708,2|0,3:2|0:0,0:0:0:0:
270,296,39861,2,0,P|226:291|183:284,1,86.9999973449708,2|2,2:2|2:2,0:0:0:0:
176,282,40185,1,2,3:2:0:0:
84,311,40402,1,2,2:2:0:0:
84,311,40510,2,0,P|90:267|95:224,1,86.9999973449708,2|2,2:2|2:2,0:0:0:0:
79,220,40834,6,0,P|74:176|67:133,1,86.9999973449708,2|0,3:2|3:3,0:0:0:0:
65,121,41158,1,4,1:2:0:0:
144,81,41375,1,0,0:0:0:0:
144,81,41483,1,2,3:2:0:0:
212,134,41699,101,2,3:2:0:0:
212,134,41807,2,0,P|255:138|298:145,1,86.9999973449708,10|0,1:3|0:0,0:0:0:0:
369,114,42131,38,0,P|331:172|358:236,2,145,6|2|0,3:2|1:2|0:0,0:0:0:0:
466,73,42995,1,2,3:2:0:0:
466,73,43104,2,0,P|458:121|453:169,1,96.6666666666667,2|2,1:2|2:2,0:0:0:0:
462,176,43429,22,0,P|470:224|475:272,1,96.6666666666667,2|0,3:2|0:0,0:0:0:0:
477,280,43753,1,2,1:2:0:0:
334,321,44077,2,0,P|261:310|187:302,1,145,2|0,2:2|1:1,0:0:0:0:
105,358,44618,85,2,2:2:0:0:
105,358,44726,2,0,P|99:309|92:262,1,96.6666666666667,2|2,3:2|2:2,0:0:0:0:
74,255,45050,2,0,P|68:206|61:159,1,96.6666666666667,2|2,1:2|2:2,0:0:0:0:
45,137,45375,2,0,P|117:147|191:155,1,145,2|2,2:2|1:2,0:0:0:0:
269,55,46023,22,0,P|316:59|351:91,1,96.6666666666667,2|0,3:2|0:0,0:0:0:0:
362,101,46348,2,0,P|409:96|444:64,1,96.6666666666667,0|0,1:1|0:0,0:0:0:0:
449,51,46672,1,2,2:2:0:0:
512,126,46888,1,2,3:2:0:0:
512,126,46996,2,0,P|504:173|499:221,1,96.6666666666667,2|0,1:2|0:0,0:0:0:0:
489,229,47320,86,0,P|498:297|446:343,2,145,6|2|0,3:2|1:2|0:0,0:0:0:0:
422,181,48185,1,2,3:2:0:0:
422,181,48293,2,0,P|374:188|326:193,1,96.6666666666667,2|0,1:2|0:0,0:0:0:0:
316,204,48618,22,0,P|268:196|220:191,1,96.6666666666667,2|0,3:2|0:0,0:0:0:0:
212,189,48942,1,2,1:2:0:0:
134,248,49266,2,0,P|126:175|115:104,1,145,2|0,2:2|1:1,0:0:0:0:
43,228,49915,86,0,P|50:300|61:371,1,145,6|0,3:2|1:1,0:0:0:0:
205,303,50564,22,0,P|253:295|301:290,1,96.6666666666667,2|0,3:2|3:3,0:0:0:0:
309,288,50888,1,0,1:1:0:0:
365,351,51104,86,0,P|433:360|479:308,1,145,2|0,2:2|0:0,0:0:0:0:
481,295,51537,2,0,P|473:247|468:199,1,96.6666666666667,2|0,1:2|0:0,0:0:0:0:
459,194,51861,2,0,P|464:145|471:98,1,96.6666666666667,0|2,3:3|3:2,0:0:0:0:
473,90,52185,1,0,1:1:0:0:
371,178,52510,70,0,P|322:183|275:190,1,96.6666666666667,6|2,3:2|2:2,0:0:0:0:
183,50,53050,5,2,3:2:0:0:
183,50,53158,2,0,P|190:98|195:146,1,96.6666666666667,0|12,1:1|2:3,0:0:0:0:
19,182,53699,102,0,P|87:173|133:225,1,145,4|0,3:2|3:3,0:0:0:0:
150,233,54131,2,0,P|143:281|138:329,1,96.6666666666667,0|0,1:1|0:0,0:0:0:0:
132,371,54456,1,2,1:2:0:0:
241,252,55104,54,0,P|301:241|362:234,1,115.999996459961,6|2,3:2|2:2,0:0:0:0:
366,238,55429,2,0,P|372:180|383:123,1,115.999996459961,6|2,1:2|2:2,0:0:0:0:
386,115,55753,1,10,3:2:0:0:
303,23,56077,2,0,P|296:80|285:137,1,115.999996459961,10|0,1:2|0:0,0:0:0:0:
279,145,56402,86,0,P|224:160|173:133,1,115.999996459961,10|0,3:2|0:0,0:0:0:0:
163,124,56726,1,10,1:2:0:0:
25,230,56942,1,2,2:2:0:0:
25,230,57050,2,0,P|79:244|130:217,1,115.999996459961,8|0,3:2|3:3,0:0:0:0:
140,224,57375,2,0,P|146:281|157:338,1,115.999996459961,8|0,1:2|0:0,0:0:0:0:
159,346,57699,1,10,3:2:0:0:
245,315,57915,21,2,2:2:0:0:
245,315,58023,1,10,1:2:0:0:
318,368,58239,1,2,2:2:0:0:
318,368,58348,2,0,P|375:361|432:350,1,115.999996459961,10|0,3:2|3:3,0:0:0:0:
444,350,58672,2,0,P|450:292|461:235,1,115.999996459961,10|0,1:2|0:0,0:0:0:0:
464,225,58996,1,10,3:2:0:0:
412,162,59212,85,2,2:2:0:0:
412,162,59320,2,0,P|357:147|306:174,1,115.999996459961,8|0,1:2|0:0,0:0:0:0:
297,170,59645,2,0,P|290:112|279:55,1,115.999996459961,8|2,3:2|3:2,0:0:0:0:
278,48,59969,1,12,1:2:0:0:
212,190,60293,22,0,P|205:247|194:304,1,115.999996459961,6|2,3:2|2:2,0:0:0:0:
188,310,60618,2,0,P|130:299|73:292,1,115.999996459961,10|2,1:2|2:2,0:0:0:0:
66,283,60942,2,0,P|72:225|83:168,1,115.999996459961,10|2,3:2|3:2,0:0:0:0:
85,161,61266,1,10,1:2:0:0:
293,262,61591,86,0,P|350:251|407:244,1,115.999996459961,10|0,3:2|0:0,0:0:0:0:
417,243,61915,1,10,1:2:0:0:
471,179,62131,1,2,2:2:0:0:
471,179,62239,2,0,P|485:124|458:73,1,115.999996459961,8|0,3:2|3:3,0:0:0:0:
453,68,62564,2,0,P|395:61|338:50,1,115.999996459961,8|2,1:2|2:2,0:0:0:0:
330,48,62888,1,14,3:2:0:0:
224,160,63212,22,0,P|166:166|109:177,1,115.999996459961,10|2,1:2|2:2,0:0:0:0:
98,179,63537,1,8,3:2:0:0:
76,99,63753,1,2,3:2:0:0:
76,99,63861,1,14,1:2:0:0:
0,139,64077,85,2,2:2:0:0:
0,139,64185,2,0,P|10:196|17:253,1,115.999996459961,10|2,3:2|2:2,0:0:0:0:
25,260,64510,2,0,P|75:286|130:272,1,115.999996459961,12|0,1:2|0:0,0:0:0:0:
138,265,64834,1,8,3:2:0:0:
217,290,65050,1,0,3:3:0:0:
217,290,65158,1,8,1:2:0:0:
296,319,65375,21,0,0:0:0:0:
296,319,65483,2,0,P|353:308|410:301,1,115.999996459961,6|0,3:2|0:0,0:0:0:0:
423,306,65807,2,0,P|429:248|440:191,1,115.999996459961,14|0,1:2|0:0,0:0:0:0:
442,181,66131,1,10,3:2:0:0:
294,152,66456,2,0,P|287:94|276:37,1,115.999996459961,10|0,1:2|0:0,0:0:0:0:
270,33,66780,86,0,P|215:18|164:45,1,115.999996459961,10|0,3:2|0:0,0:0:0:0:
160,52,67104,1,10,1:2:0:0:
69,39,67320,1,2,2:2:0:0:
69,39,67428,2,0,P|79:96|86:153,1,115.999996459961,8|0,3:2|3:3,0:0:0:0:
98,159,67753,2,0,P|87:216|80:273,1,115.999996459961,8|0,1:2|0:0,0:0:0:0:
81,282,68077,1,10,3:2:0:0:
145,342,68293,21,2,2:2:0:0:
145,342,68402,1,10,1:2:0:0:
217,297,68618,1,2,2:2:0:0:
217,297,68726,2,0,P|271:282|322:309,1,115.999996459961,10|0,3:2|3:3,0:0:0:0:
329,316,69050,2,0,P|386:305|443:298,1,115.999996459961,10|2,1:2|2:2,0:0:0:0:
452,298,69375,1,10,3:2:0:0:
483,189,69699,86,0,P|425:195|368:206,1,115.999996459961,14|2,1:2|2:2,0:0:0:0:
355,217,70023,2,0,P|365:159|372:102,1,115.999996459961,8|0,3:2|3:3,0:0:0:0:
337,68,70348,2,0,P|342:39|345:10,2,57.9999982299805,8|0|0,1:2|1:1|1:1,0:0:0:0:
299,89,70672,22,0,P|244:103|193:76,1,115.999996459961,6|2,3:2|2:2,0:0:0:0:
189,69,70996,1,10,1:2:0:0:
110,98,71212,1,2,2:2:0:0:
110,98,71320,1,10,3:2:0:0:
27,124,71537,1,2,3:2:0:0:
27,124,71645,2,0,P|37:181|44:238,1,115.999996459961,10|0,1:2|0:0,0:0:0:0:
45,247,71969,86,0,P|102:253|159:264,1,115.999996459961,10|0,3:2|0:0,0:0:0:0:
168,266,72293,1,10,1:2:0:0:
260,339,72510,1,2,2:2:0:0:
260,339,72618,2,0,P|274:284|247:233,1,115.999996459961,10|0,3:2|3:3,0:0:0:0:
241,224,72942,2,0,P|247:166|258:109,1,115.999996459961,10|0,1:2|0:0,0:0:0:0:
260,103,73266,1,8,3:2:0:0:
202,42,73483,22,0,P|116:58|30:69,1,173.999994689942,2|0,2:2|0:0,0:0:0:0:
21,85,73915,2,0,P|31:142|38:199,1,115.999996459961,10|2,3:2|3:2,0:0:0:0:
48,202,74239,2,0,P|37:259|30:316,1,115.999996459961,10|2,1:2|2:2,0:0:0:0:
30,324,74564,1,10,3:2:0:0:
105,376,74780,85,2,3:2:0:0:
105,376,74888,2,0,P|155:349|210:363,1,115.999996459961,14|0,1:2|0:0,0:0:0:0:
222,369,75212,2,0,P|276:383|327:356,1,115.999996459961,10|0,3:2|3:3,0:0:0:0:
361,327,75537,2,0,P|356:298|353:269,2,57.9999982299805,10|0|2,1:2|1:1|1:2,0:0:0:0:
402,348,75861,1,14,3:2:0:0:
428,202,76185,22,0,P|435:144|446:87,1,115.999996459961,0|0,1:1|0:0,0:0:0:0:
439,79,76510,2,0,P|381:71|324:60,1,115.999996459961,10|2,3:2|3:2,0:0:0:0:
315,58,76834,1,10,1:2:0:0:
198,134,77158,86,0,P|143:147|93:120,1,115.999996459961,10|0,3:2|0:0,0:0:0:0:
89,114,77483,1,10,1:2:0:0:
16,163,77699,1,2,2:2:0:0:
16,163,77807,2,0,P|26:220|33:277,1,115.999996459961,8|0,3:2|3:3,0:0:0:0:
44,284,78131,2,0,P|101:291|158:301,1,115.999996459961,8|0,1:2|0:0,0:0:0:0:
168,303,78456,1,14,3:2:0:0:
247,274,78672,21,2,2:2:0:0:
247,274,78780,1,14,1:2:0:0:
316,328,78996,85,0,0:0:0:0:
316,328,79104,2,0,P|370:341|420:314,1,115.999996459961,10|2,3:2|3:2,0:0:0:0:
427,307,79429,2,0,P|434:249|444:192,1,115.999996459961,14|2,1:2|2:2,0:0:0:0:
455,182,79753,22,0,P|447:124|437:67,1,115.999996459961,10|2,3:2|3:2,0:0:0:0:
436,54,80077,1,8,1:2:0:0:
355,80,80293,1,2,2:2:0:0:
355,80,80401,1,12,3:2:0:0:
268,74,80618,1,2,3:2:0:0:
268,74,80726,2,0,P|263:45|260:16,2,57.9999982299805,8|0|0,1:2|1:1|1:1,0:0:0:0:
244,97,81050,86,0,P|189:110|139:83,1,115.999996459961,6|0,3:2|0:0,0:0:0:0:
129,77,81375,22,0,P|74:63|24:90,1,115.999996459961,0|2,1:1|2:2,0:0:0:0:
10,117,81699,2,0,P|15:146|18:175,1,57.9999982299805,8|0,2:3|0:0,0:0:0:0:
37,198,81915,1,10,2:3:0:0:
37,198,82023,2,0,P|32:227|29:256,2,57.9999982299805,6|6|6,2:3|2:3|2:3,0:0:0:0:
118,241,82348,69,6,1:2:0:0:
118,241,82564,1,2,1:2:0:0:
18,341,82996,101,2,1:2:0:0:
18,341,83212,1,2,1:2:0:0:
201,260,83644,6,0,P|206:307|238:342,1,96.6666666666667,6|0,3:2|0:0,0:0:0:0:
254,346,83969,2,0,P|303:351|350:358,1,96.6666666666667,10|2,1:2|2:2,0:0:0:0:
363,350,84294,2,0,P|411:343|459:337,1,96.6666666666667,10|0,2:2|3:3,0:0:0:0:
479,346,84618,1,10,1:2:0:0:
402,218,84942,102,0,P|394:170|390:122,1,96.6666666666667,10|0,3:2|0:0,0:0:0:0:
386,106,85266,2,0,P|351:73|303:68,1,96.6666666666667,10|2,1:2|2:2,0:0:0:0:
294,75,85591,2,0,P|259:107|211:112,1,96.6666666666667,10|0,2:2|3:3,0:0:0:0:
201,105,85915,1,10,1:2:0:0:
18,68,86239,6,0,P|23:117|30:164,1,96.6666666666667,10|0,3:2|0:0,0:0:0:0:
38,172,86563,2,0,P|86:167|133:160,1,96.6666666666667,10|2,1:2|2:2,0:0:0:0:
142,169,86887,2,0,P|147:218|154:265,1,96.6666666666667,10|0,2:2|3:3,0:0:0:0:
156,275,87212,1,10,1:2:0:0:
280,347,87537,102,0,P|329:352|376:359,1,96.6666666666667,10|0,3:2|0:0,0:0:0:0:
385,361,87861,1,10,1:2:0:0:
459,312,88077,1,2,2:2:0:0:
459,312,88185,2,0,P|464:263|471:216,1,96.6666666666667,10|0,2:2|3:3,0:0:0:0:
455,202,88510,6,0,P|431:205|407:208,1,48.3333333333333,10|0,1:2|0:0,0:0:0:0:
371,188,88726,1,2,1:2:0:0:
371,188,88834,2,0,P|325:224|279:222,1,96.6666666666667,14|0,3:2|0:0,0:0:0:0:
272,219,89159,1,10,1:2:0:0:
91,261,89483,102,0,P|140:266|187:273,1,96.6666666666667,10|0,2:2|3:3,0:0:0:0:
203,276,89807,1,10,1:2:0:0:
158,150,90131,6,0,P|165:102|169:54,1,96.6666666666667,10|0,3:2|0:0,0:0:0:0:
174,38,90455,2,0,P|208:5|256:0,1,96.6666666666667,10|2,1:2|2:2,0:0:0:0:
266,7,90780,2,0,P|300:39|348:44,1,96.6666666666667,10|0,2:2|3:3,0:0:0:0:
359,37,91104,1,10,1:2:0:0:
488,133,91429,102,0,P|483:182|476:229,1,96.6666666666667,10|0,3:2|0:0,0:0:0:0:
468,237,91753,2,0,P|420:232|373:225,1,96.6666666666667,10|2,1:2|2:2,0:0:0:0:
364,234,92077,2,0,P|359:283|352:330,1,96.6666666666667,10|0,2:2|3:3,0:0:0:0:
350,340,92402,1,6,1:2:0:0:
220,219,92726,54,0,P|196:222|172:225,2,48.3333333333333,8|8|8,2:3|2:3|2:3,0:0:0:0:
228,210,93050,2,0,P|220:162|216:114,1,96.6666666666667,4|0,1:2|0:0,0:0:0:0:
242,90,93375,1,4,3:2:0:0:
242,90,93483,2,0,P|266:93|290:96,1,48.3333333333333,0|0,0:0|1:1,0:0:0:0:
324,121,93699,1,0,1:1:0:0:
324,121,93807,2,0,P|348:118|372:115,1,48.3333333333333,0|0,1:1|1:1,0:0:0:0:
452,104,94023,1,6,3:2:0:0:
402,70,103969,69,4,2:3:0:0:
402,70,104077,2,0,P|407:108|410:146,1,77.3333333333333,0|2,1:1|2:2,0:0:0:0:
346,204,104402,102,0,P|299:197|251:192,1,86.9999973449708,6|2,3:2|2:2,0:0:0:0:
253,198,104726,2,0,P|260:245|265:293,1,86.9999973449708,2|2,1:2|2:2,0:0:0:0:
259,286,105050,2,0,P|216:279|173:274,1,86.9999973449708,2|2,3:2|3:2,0:0:0:0:
167,273,105375,1,2,1:2:0:0:
90,324,105591,5,0,0:0:0:0:
90,324,105699,2,0,P|84:280|77:237,1,86.9999973449708,2|0,3:2|0:0,0:0:0:0:
69,233,106023,2,0,P|74:189|81:146,1,86.9999973449708,2|2,1:2|2:2,0:0:0:0:
115,118,106348,2,0,P|112:94|109:70,2,43.4999986724854,0|0|0,1:1|1:1|1:1,0:0:0:0:
157,132,106672,1,0,1:1:0:0:
230,87,106888,101,0,0:0:0:0:
230,87,106996,2,0,P|277:80|325:75,1,86.9999973449708,2|2,3:2|2:2,0:0:0:0:
324,82,107320,2,0,P|317:129|312:177,1,86.9999973449708,2|2,1:2|2:2,0:0:0:0:
322,172,107645,2,0,P|369:165|417:160,1,86.9999973449708,2|0,3:2|3:3,0:0:0:0:
420,159,107969,1,2,1:2:0:0:
472,279,108293,6,0,P|428:273|385:266,1,86.9999973449708,2|0,3:2|0:0,0:0:0:0:
381,258,108617,2,0,P|337:263|294:270,1,86.9999973449708,2|2,1:2|2:2,0:0:0:0:
260,297,108942,2,0,P|263:321|266:345,2,43.4999986724854,0|0|0,1:1|1:1|1:1,0:0:0:0:
222,277,109266,1,0,1:1:0:0:
147,315,109483,101,2,2:2:0:0:
147,315,109591,2,0,P|100:308|52:303,1,86.9999973449708,2|2,3:2|1:2,0:0:0:0:
52,292,109915,2,0,P|59:245|64:197,1,86.9999973449708,2|2,1:2|2:2,0:0:0:0:
73,192,110239,2,0,P|120:199|168:204,1,86.9999973449708,2|0,3:2|3:3,0:0:0:0:
168,204,110564,1,2,1:2:0:0:
247,103,110888,6,0,P|289:96|333:90,1,86.9999973449708,2|2,3:2|2:2,0:0:0:0:
346,89,111212,1,2,1:2:0:0:
419,47,111429,1,2,2:2:0:0:
419,47,111537,2,0,P|422:23|425:-1,2,43.4999986724854,0|0|0,1:1|1:1|1:1,0:0:0:0:
441,68,111861,2,0,P|447:110|453:154,1,86.9999973449708,0|0,1:1|0:0,0:0:0:0:
478,171,112185,102,0,P|471:213|465:257,1,86.9999973449708,2|0,3:2|1:1,0:0:0:0:
464,270,112510,1,2,1:2:0:0:
384,247,112726,1,2,2:2:0:0:
384,247,112834,2,0,P|337:240|289:235,1,86.9999973449708,2|2,3:2|3:2,0:0:0:0:
290,242,113158,2,0,P|297:289|302:337,1,86.9999973449708,2|2,1:2|2:2,0:0:0:0:
293,335,113483,6,0,P|246:328|198:323,1,86.9999973449708,2|0,1:2|1:1,0:0:0:0:
197,322,113807,1,0,0:0:0:0:
106,348,114023,1,0,1:1:0:0:
106,348,114131,2,0,P|112:305|118:261,1,86.9999973449708,2|2,1:2|1:2,0:0:0:0:
98,239,114456,1,10,2:3:0:0:
98,239,114564,2,0,P|95:215|92:191,1,43.4999986724854,8|4,2:3|2:3,0:0:0:0:
77,121,114780,54,0,P|123:157|169:155,1,96.6666666666667,6|0,3:2|0:0,0:0:0:0:
182,178,115104,2,0,P|240:140|304:167,1,145,6|0,1:2|0:0,0:0:0:0:
388,128,115645,1,2,3:2:0:0:
388,128,115753,2,0,P|393:177|400:224,1,96.6666666666667,2|2,1:2|2:2,0:0:0:0:
413,231,116077,86,0,P|408:280|401:327,1,96.6666666666667,2|0,3:2|0:0,0:0:0:0:
399,336,116402,1,2,1:2:0:0:
256,312,116726,2,0,P|183:319|112:329,1,145,2|0,2:2|1:1,0:0:0:0:
45,273,117267,21,2,2:2:0:0:
45,273,117375,2,0,P|50:224|57:177,1,96.6666666666667,2|2,3:2|2:2,0:0:0:0:
68,172,117699,2,0,P|73:123|80:76,1,96.6666666666667,2|2,1:2|2:2,0:0:0:0:
77,54,118023,2,0,P|148:63|220:71,1,145,2|2,2:2|1:2,0:0:0:0:
275,181,118672,86,0,P|322:177|357:145,1,96.6666666666667,2|0,3:2|0:0,0:0:0:0:
368,135,118997,2,0,P|415:140|450:172,1,96.6666666666667,0|0,1:1|0:0,0:0:0:0:
455,185,119321,1,2,2:2:0:0:
424,272,119537,1,2,3:2:0:0:
424,272,119645,2,0,P|375:277|328:284,1,96.6666666666667,2|0,1:2|0:0,0:0:0:0:
302,270,119969,22,0,P|310:339|257:384,2,145,6|2|0,3:2|1:2|0:0,0:0:0:0:
233,219,120834,1,2,3:2:0:0:
233,219,120942,2,0,P|184:214|137:207,1,96.6666666666667,2|2,1:2|2:2,0:0:0:0:
127,210,121266,86,0,P|134:162|138:114,1,96.6666666666667,2|0,3:2|0:0,0:0:0:0:
135,101,121591,2,0,P|182:108|230:112,1,96.6666666666667,2|0,1:2|0:0,0:0:0:0:
241,114,121915,1,2,2:2:0:0:
313,69,122131,1,0,3:3:0:0:
313,69,122239,2,0,P|360:74|395:106,1,96.6666666666667,0|0,1:1|0:0,0:0:0:0:
407,111,122564,22,0,P|414:183|424:254,1,145,6|0,3:2|1:1,0:0:0:0:
376,325,123104,1,2,2:2:0:0:
376,325,123212,2,0,P|327:330|280:337,1,96.6666666666667,2|0,3:2|3:3,0:0:0:0:
269,339,123537,1,2,1:2:0:0:
111,376,123861,86,0,P|106:327|99:280,1,96.6666666666667,0|2,3:3|2:2,0:0:0:0:
82,279,124185,2,0,P|77:230|70:183,1,96.6666666666667,2|0,1:2|0:0,0:0:0:0:
60,178,124510,2,0,P|55:129|48:82,1,96.6666666666667,2|2,3:2|3:2,0:0:0:0:
46,73,124834,1,0,1:1:0:0:
156,193,125158,85,6,3:2:0:0:
294,120,125699,1,2,3:2:0:0:
294,120,125807,2,0,P|343:125|390:132,1,96.6666666666667,0|12,1:1|2:3,0:0:0:0:
495,45,126348,102,0,P|502:117|512:188,1,145,4|0,3:2|3:3,0:0:0:0:
507,215,126780,2,0,P|500:263|495:311,1,96.6666666666667,0|0,1:1|0:0,0:0:0:0:
489,353,127105,1,2,1:2:0:0:
407,246,127753,22,0,P|400:189|389:132,1,115.999996459961,6|2,3:2|2:2,0:0:0:0:
383,124,128078,2,0,P|328:109|277:136,1,115.999996459961,6|2,1:2|2:2,0:0:0:0:
272,146,128402,1,10,3:2:0:0:
172,48,128726,2,0,P|117:63|66:36,1,115.999996459961,10|0,1:2|0:0,0:0:0:0:
57,43,129050,22,0,P|50:100|39:157,1,115.999996459961,10|0,3:2|0:0,0:0:0:0:
36,172,129375,1,10,1:2:0:0:
111,226,129591,1,2,2:2:0:0:
111,226,129698,2,0,P|122:286|129:347,1,115.999996459961,8|0,3:2|3:3,0:0:0:0:
131,350,130023,2,0,P|189:356|246:367,1,115.999996459961,8|0,1:2|0:0,0:0:0:0:
261,371,130348,1,10,3:2:0:0:
343,348,130564,85,2,2:2:0:0:
343,348,130672,1,10,1:2:0:0:
423,322,130888,1,2,2:2:0:0:
423,322,130996,2,0,P|438:267|411:216,1,115.999996459961,10|0,3:2|3:3,0:0:0:0:
404,213,131320,2,0,P|347:223|289:229,1,115.999996459961,10|2,1:2|2:2,0:0:0:0:
278,224,131645,22,0,P|263:169|290:118,1,115.999996459961,10|2,3:2|2:2,0:0:0:0:
301,109,131969,1,8,1:2:0:0:
171,25,132293,2,0,P|113:36|56:43,1,115.999996459961,8|2,3:2|3:2,0:0:0:0:
50,55,132618,2,0,P|61:113|68:170,1,115.999996459961,12|2,1:2|2:2,0:0:0:0:
77,175,132942,86,0,P|66:233|59:290,1,115.999996459961,6|2,3:2|2:2,0:0:0:0:
59,298,133266,1,10,1:2:0:0:
121,364,133483,1,2,2:2:0:0:
121,364,133591,2,0,P|179:370|236:381,1,115.999996459961,10|2,3:2|3:2,0:0:0:0:
243,383,133915,1,10,1:2:0:0:
330,301,134239,22,0,P|387:290|444:283,1,115.999996459961,10|0,3:2|0:0,0:0:0:0:
454,282,134563,1,10,1:2:0:0:
495,215,134780,1,2,2:2:0:0:
495,215,134888,2,0,P|510:160|483:109,1,115.999996459961,8|0,3:2|3:3,0:0:0:0:
476,106,135212,2,0,P|419:116|361:122,1,115.999996459961,8|2,1:2|2:2,0:0:0:0:
348,123,135537,1,14,3:2:0:0:
280,178,135753,85,0,0:0:0:0:
280,178,135861,2,0,P|222:184|165:195,1,115.999996459961,10|2,1:2|2:2,0:0:0:0:
154,188,136185,2,0,P|148:130|137:73,1,115.999996459961,8|2,3:2|3:2,0:0:0:0:
135,62,136510,1,14,1:2:0:0:
61,16,136726,21,2,2:2:0:0:
61,16,136834,1,10,3:2:0:0:
0,82,137050,1,2,2:2:0:0:
0,82,137158,2,0,P|6:140|17:197,1,115.999996459961,12|0,1:2|0:0,0:0:0:0:
20,207,137483,1,8,3:2:0:0:
97,259,137699,1,0,3:3:0:0:
97,259,137807,2,0,P|91:317|80:374,1,115.999996459961,8|0,1:2|0:0,0:0:0:0:
78,382,138131,1,6,3:2:0:0:
176,370,138348,85,0,0:0:0:0:
176,370,138456,2,0,P|233:359|290:352,1,115.999996459961,14|0,1:2|0:0,0:0:0:0:
298,344,138780,2,0,P|355:333|412:326,1,115.999996459961,10|0,3:2|3:3,0:0:0:0:
428,324,139104,1,10,1:2:0:0:
480,256,139320,21,0,0:0:0:0:
480,256,139428,2,0,P|495:201|468:150,1,115.999996459961,10|0,3:2|0:0,0:0:0:0:
460,147,139753,2,0,P|403:158|346:165,1,115.999996459961,10|2,1:2|2:2,0:0:0:0:
337,166,140077,1,8,3:2:0:0:
273,111,140293,1,0,3:3:0:0:
273,111,140401,1,8,1:2:0:0:
195,150,140618,85,0,0:0:0:0:
195,150,140726,2,0,P|184:207|177:264,1,115.999996459961,10|2,3:2|2:2,0:0:0:0:
170,269,141050,2,0,P|113:258|56:251,1,115.999996459961,8|2,1:2|2:2,0:0:0:0:
48,250,141375,1,10,3:2:0:0:
156,363,141699,2,0,P|213:352|270:345,1,115.999996459961,10|2,1:2|2:2,0:0:0:0:
279,335,142023,22,0,P|329:309|384:324,1,115.999996459961,10|0,3:2|3:3,0:0:0:0:
395,330,142348,1,14,1:2:0:0:
454,269,142564,1,2,2:2:0:0:
454,269,142672,1,8,3:2:0:0:
418,189,142888,1,0,3:3:0:0:
418,189,142996,2,0,P|425:131|436:74,1,115.999996459961,8|2,1:2|1:2,0:0:0:0:
429,64,143320,86,0,P|371:56|314:45,1,115.999996459961,6|2,3:2|2:2,0:0:0:0:
308,44,143645,1,10,1:2:0:0:
239,94,143861,2,0,P|152:105|67:120,1,173.999994689942,2|2,2:2|3:2,0:0:0:0:
64,127,144293,2,0,P|74:183|82:241,1,115.999996459961,10|0,1:2|0:0,0:0:0:0:
83,251,144618,1,10,3:2:0:0:
212,336,144942,22,0,P|269:343|326:354,1,115.999996459961,10|2,1:2|2:2,0:0:0:0:
334,349,145266,2,0,P|341:291|352:234,1,115.999996459961,10|0,3:2|3:3,0:0:0:0:
360,231,145591,2,0,P|417:238|474:249,1,115.999996459961,10|0,1:2|0:0,0:0:0:0:
484,251,145915,1,12,3:2:0:0:
435,122,146239,86,0,P|423:65|416:7,1,115.999996459961,8|2,1:2|2:2,0:0:0:0:
409,3,146564,2,0,P|352:14|294:21,1,115.999996459961,10|2,3:2|3:2,0:0:0:0:
287,20,146888,1,10,1:2:0:0:
240,93,147104,21,2,2:2:0:0:
240,93,147212,2,0,P|183:81|125:74,1,115.999996459961,10|2,3:2|3:2,0:0:0:0:
119,81,147537,2,0,P|107:137|100:195,1,115.999996459961,14|0,1:2|0:0,0:0:0:0:
76,240,147861,2,0,P|47:245|18:248,2,57.9999982299805,10|0|0,3:2|0:0|3:3,0:0:0:0:
117,275,148185,2,0,P|112:304|109:333,2,57.9999982299805,10|0|2,1:2|1:1|1:2,0:0:0:0:
164,253,148510,1,14,3:2:0:0:
274,356,148834,86,0,P|330:344|388:337,1,115.999996459961,0|0,1:1|0:0,0:0:0:0:
397,325,149158,2,0,P|385:268|378:210,1,115.999996459961,10|2,3:2|3:2,0:0:0:0:
377,197,149483,1,10,1:2:0:0:
474,73,149807,22,0,P|388:57|302:47,1,173.999994689942,10|10,3:2|1:2,0:0:0:0:
207,26,150348,1,2,2:2:0:0:
207,26,150456,2,0,P|218:82|225:140,1,115.999996459961,8|0,3:2|3:3,0:0:0:0:
218,148,150780,2,0,P|161:136|103:129,1,115.999996459961,8|0,1:2|0:0,0:0:0:0:
94,138,151104,86,0,P|67:188|83:243,1,115.999996459961,14|2,3:2|2:2,0:0:0:0:
90,252,151429,1,14,1:2:0:0:
177,278,151645,1,2,2:2:0:0:
177,278,151753,2,0,P|233:266|291:259,1,115.999996459961,10|2,3:2|3:2,0:0:0:0:
301,267,152077,2,0,P|351:293|406:277,1,115.999996459961,14|2,1:2|2:2,0:0:0:0:
415,270,152402,1,10,3:2:0:0:
466,203,152618,21,2,3:2:0:0:
466,203,152726,2,0,P|454:146|447:88,1,115.999996459961,8|2,1:2|2:2,0:0:0:0:
439,84,153050,2,0,P|382:95|324:102,1,115.999996459961,12|2,3:2|3:2,0:0:0:0:
289,76,153375,2,0,P|294:47|297:18,2,57.9999982299805,8|0|0,1:2|1:1|1:1,0:0:0:0:
244,85,153699,1,6,3:2:0:0:
66,24,154023,86,0,P|77:80|84:138,1,115.999996459961,0|0,1:1|0:0,0:0:0:0:
95,146,154348,2,0,P|87:203|76:260,1,115.999996459961,10|8,2:3|2:3,0:0:0:0:
61,303,154672,2,0,P|32:306|3:310,2,57.9999982299805,6|4|6,2:3|2:3|2:3,0:0:0:0:
129,356,154996,5,2,1:2:0:0:
129,356,155212,1,2,1:2:0:0:
258,288,155645,21,2,1:2:0:0:
258,288,155861,1,2,1:2:0:0:
383,356,156293,37,6,3:2:0:0:
414,126,165266,22,0,P|341:133|270:143,1,145,6|0,3:2|3:3,0:0:0:0:
260,154,165699,2,0,P|212:146|164:141,1,96.6666666666667,2|0,1:2|0:0,0:0:0:0:
150,139,166023,1,6,3:2:0:0:
77,99,166239,1,0,1:1:0:0:
76,99,166348,2,0,P|80:75|82:51,2,48.3333333333333,10|8|4,2:3|2:3|2:3,0:0:0:0:
51,126,166672,54,0,P|59:174|64:222,1,96.6666666666667,4|0,3:2|0:0,0:0:0:0:
71,238,166996,2,0,P|105:270|153:274,1,96.6666666666667,14|0,1:2|0:0,0:0:0:0:
170,294,167320,2,0,P|204:261|252:257,1,96.6666666666667,10|2,3:2|2:2,0:0:0:0:
267,265,167645,1,10,1:2:0:0:
346,314,167861,6,0,P|353:241|363:170,1,145,0|2,3:0|2:2,0:0:0:0:
365,160,168293,1,10,1:2:0:0:
316,88,168510,1,2,2:2:0:0:
316,88,168618,2,0,P|268:96|220:101,1,96.6666666666667,10|0,3:2|0:0,0:0:0:0:
204,90,168942,2,0,P|156:82|108:77,1,96.6666666666667,10|2,1:2|2:2,0:0:0:0:
92,82,169266,102,0,P|39:127|47:196,1,145,10|10,3:2|1:2,0:0:0:0:
124,243,169807,1,2,2:2:0:0:
124,243,169915,2,0,P|132:291|137:339,1,96.6666666666667,10|2,3:2|2:2,0:0:0:0:
139,352,170239,1,10,1:2:0:0:
220,323,170456,6,0,P|293:330|364:340,1,145,0|2,0:0|2:2,0:0:0:0:
375,342,170888,2,0,P|367:294|362:246,1,96.6666666666667,8|2,1:2|2:2,0:0:0:0:
360,234,171212,1,10,3:2:0:0:
437,191,171429,1,2,2:2:0:0:
437,191,171537,2,0,P|445:143|450:95,1,96.6666666666667,10|2,1:2|1:2,0:0:0:0:
439,83,171861,102,0,P|367:93|295:99,1,145,6|10,3:2|1:2,0:0:0:0:
219,58,172402,1,0,0:0:0:0:
219,58,172510,2,0,P|171:62|136:94,1,96.6666666666667,10|0,3:2|0:0,0:0:0:0:
135,101,172834,1,10,1:2:0:0:
52,100,173050,6,0,P|43:169|96:214,1,145,2|0,0:0|0:0,0:0:0:0:
110,217,173483,2,0,P|158:222|205:229,1,96.6666666666667,10|0,1:2|0:0,0:0:0:0:
225,233,173807,2,0,P|230:281|237:328,1,96.6666666666667,10|0,3:2|0:0,0:0:0:0:
248,338,174131,2,0,P|296:343|343:350,1,96.6666666666667,10|2,3:2|1:2,0:0:0:0:
361,354,174456,1,10,3:2:0:0:
449,233,174780,102,0,P|473:237|497:239,2,48.3333333333333,10|2|0,1:2|2:2|0:0,0:0:0:0:
436,220,175104,2,0,P|428:172|423:124,1,96.6666666666667,10|0,3:2|0:0,0:0:0:0:
422,113,175429,1,8,1:2:0:0:
297,20,175753,6,0,P|289:67|284:115,1,96.6666666666667,10|2,3:2|3:2,0:0:0:0:
275,126,176077,2,0,P|240:93|192:89,1,96.6666666666667,14|2,1:2|2:2,0:0:0:0:
182,100,176402,2,0,P|147:132|99:136,1,96.6666666666667,12|2,3:2|1:2,0:0:0:0:
61,109,176726,2,0,P|65:85|67:61,2,48.3333333333333,10|10|6,2:3|2:3|2:3,0:0:0:0:
22,128,177050,1,6,3:2:0:0:
256,192,177158,12,6,179645,3:2:0:0:
173,143,180185,5,2,3:2:0:0:
173,143,180293,1,0,1:1:0:0:
391,37,180834,6,0,P|384:109|374:180,1,145,6|0,3:2|3:3,0:0:0:0:
366,190,181266,2,0,P|317:195|270:202,1,96.6666666666667,0|0,1:1|3:3,0:0:0:0:
263,215,181591,2,0,P|255:262|250:310,1,96.6666666666667,10|6,2:3|2:3,0:0:0:0:
216,338,181915,2,0,P|218:349|219:361,4,24.1666666666667,6|0|0|0|2,2:3|0:0|0:0|0:0|2:2,0:0:0:0:
174,319,182239,101,2,1:2:0:0:
95,352,182456,1,0,1:1:0:0:
186,306,183537,5,2,1:2:0:0:
107,339,183754,1,0,1:1:0:0:
198,293,184402,101,0,3:3:0:0:
198,293,184510,2,0,P|246:298|293:305,1,96.6666666666667,4|0,1:2|0:0,0:0:0:0:
314,296,184834,6,0,P|329:241|302:190,1,115.999996459961,6|2,3:2|2:2,0:0:0:0:
294,182,185158,2,0,P|279:127|306:76,1,115.999996459961,2|2,1:2|2:2,0:0:0:0:
322,64,185483,2,0,P|378:74|436:81,1,115.999996459961,10|0,2:3|1:1,0:0:0:0:
451,83,185807,1,2,3:2:0:0:
473,160,186023,102,0,P|489:246|500:332,1,173.999994689942,0|2,3:3|3:2,0:0:0:0:
492,341,186456,2,0,P|434:347|377:358,1,115.999996459961,4|0,1:2|0:0,0:0:0:0:
362,355,186780,2,0,P|307:370|256:343,1,115.999996459961,0|2,3:3|1:2,0:0:0:0:
224,305,187104,2,0,P|227:276|232:247,2,57.9999982299805,8|8|6,2:3|2:3|2:3,0:0:0:0:
183,326,187429,6,0,P|125:332|68:343,1,115.999996459961,6|2,3:2|2:2,0:0:0:0:
47,348,187753,1,6,1:2:0:0:
0,278,187969,1,2,2:2:0:0:
0,278,188077,1,2,3:2:0:0:
65,220,188293,1,0,3:3:0:0:
65,220,188402,2,0,P|75:163|82:105,1,115.999996459961,2|2,1:2|2:2,0:0:0:0:
86,88,188726,101,6,3:2:0:0:
169,121,188942,5,4,3:2:0:0:
234,66,189158,102,0,P|263:69|291:74,1,57.9999982299805,0|2,1:1|1:2,0:0:0:0:
339,99,189375,2,0,P|342:128|347:156,2,57.9999982299805,0|0|0,1:1|1:1|1:1,0:0:0:0:
376,62,189699,2,0,P|432:51|490:44,1,115.999996459961,8|6,2:3|2:3,0:0:0:0:
506,42,190023,1,6,3:2:0:0:
429,185,190348,6,0,P|418:241|411:299,1,115.999996459961,6|2,1:2|2:2,0:0:0:0:
401,308,190672,2,0,P|344:297|286:290,1,115.999996459961,0|2,3:3|3:2,0:0:0:0:
277,289,190996,1,2,1:2:0:0:
199,318,191212,101,2,2:2:0:0:
199,318,191320,2,0,P|202:347|207:375,2,57.9999982299805,6|0|2,3:2|1:1|1:2,0:0:0:0:
163,283,191645,2,0,P|166:254|171:225,2,57.9999982299805,0|0|0,1:1|1:1|1:1,0:0:0:0:
115,305,191969,1,4,3:2:0:0:
115,305,192077,2,0,P|86:302|57:296,1,57.9999982299805,0|0,1:1|1:1,0:0:0:0:
31,283,192293,2,0,P|16:228|43:177,1,115.999996459961,8|4,2:3|2:3,0:0:0:0:
63,158,192618,54,0,P|120:151|177:140,1,115.999996459961,6|0,3:2|0:0,0:0:0:0:
193,135,192942,1,6,1:2:0:0:
264,190,193158,1,2,2:2:0:0:
264,190,193266,1,2,3:2:0:0:
345,157,193483,1,0,3:3:0:0:
345,157,193591,2,0,P|355:100|362:42,1,115.999996459961,2|0,1:2|0:0,0:0:0:0:
374,31,193915,86,0,P|429:16|480:43,1,115.999996459961,2|0,3:2|0:0,0:0:0:0:
491,57,194239,1,2,1:2:0:0:
440,128,194456,1,2,2:2:0:0:
440,128,194564,2,0,P|446:185|457:242,1,115.999996459961,0|0,3:3|3:3,0:0:0:0:
452,253,194888,2,0,P|394:259|337:270,1,115.999996459961,0|2,1:1|2:2,0:0:0:0:
327,273,195212,1,2,3:2:0:0:
253,304,195429,21,2,2:2:0:0:
253,304,195537,1,2,1:2:0:0:
176,333,195753,1,2,2:2:0:0:
176,333,195861,2,0,P|119:322|61:315,1,115.999996459961,2|0,3:2|3:3,0:0:0:0:
49,305,196185,86,0,P|34:250|61:199,1,115.999996459961,2|2,1:2|2:2,0:0:0:0:
72,190,196510,1,2,3:2:0:0:
158,166,196726,1,2,3:2:0:0:
158,166,196834,22,0,P|173:111|146:60,1,115.999996459961,6|2,1:2|2:2,0:0:0:0:
157,49,197158,2,0,P|213:59|271:66,1,115.999996459961,0|0,3:3|3:3,0:0:0:0:
288,77,197483,2,0,P|345:70|402:59,1,115.999996459961,4|2,1:2|2:2,0:0:0:0:
415,55,197807,1,6,3:2:0:0:
465,129,198023,85,2,2:2:0:0:
465,129,198131,1,2,1:2:0:0:
406,189,198348,1,2,2:2:0:0:
406,189,198456,2,0,P|395:245|388:303,1,115.999996459961,2|2,3:2|3:2,0:0:0:0:
384,311,198780,2,0,P|326:317|269:328,1,115.999996459961,2|2,1:2|2:2,0:0:0:0:
260,331,199104,1,2,3:2:0:0:
129,225,199429,22,0,P|184:210|235:237,1,115.999996459961,2|2,1:2|2:2,0:0:0:0:
247,249,199753,2,0,P|253:191|264:134,1,115.999996459961,2|0,3:2|3:3,0:0:0:0:
266,126,200077,1,2,1:2:0:0:
376,8,200402,86,0,P|360:94|350:180,1,173.999994689942,4|2,3:2|1:2,0:0:0:0:
368,264,200942,1,2,2:2:0:0:
368,264,201050,2,0,P|424:253|482:247,1,115.999996459961,0|0,3:3|3:3,0:0:0:0:
493,235,201375,2,0,P|498:177|509:120,1,115.999996459961,2|2,1:2|2:2,0:0:0:0:
471,85,201699,22,0,P|475:56|478:27,2,57.9999982299805,0|2|0,3:3|2:2|3:3,0:0:0:0:
428,107,202023,2,0,P|373:122|322:95,1,115.999996459961,2|2,1:2|2:2,0:0:0:0:
288,59,202348,2,0,P|290:30|295:1,2,57.9999982299805,2|2|0,3:2|2:2|1:1,0:0:0:0:
246,84,202672,2,0,P|241:112|238:141,2,57.9999982299805,2|0|2,1:2|1:1|1:2,0:0:0:0:
201,61,202996,1,14,3:2:0:0:
70,103,203320,86,0,P|75:160|86:217,1,115.999996459961,0|0,1:1|0:0,0:0:0:0:
98,229,203645,2,0,P|155:234|212:245,1,115.999996459961,10|2,3:2|3:2,0:0:0:0:
228,249,203969,1,10,1:2:0:0:
294,368,204293,22,0,P|380:352|466:342,1,173.999994689942,10|10,3:2|1:2,0:0:0:0:
512,271,204834,1,2,2:2:0:0:
512,271,204942,2,0,P|527:216|500:165,1,115.999996459961,8|0,3:2|3:3,0:0:0:0:
493,160,205266,2,0,P|436:170|378:176,1,115.999996459961,8|0,1:2|0:0,0:0:0:0:
368,178,205591,85,10,3:2:0:0:
302,121,205807,1,2,2:2:0:0:
302,121,205915,1,14,1:2:0:0:
216,158,206131,1,2,2:2:0:0:
216,158,206239,2,0,P|205:214|199:272,1,115.999996459961,10|2,3:2|3:2,0:0:0:0:
195,279,206564,2,0,P|137:284|80:295,1,115.999996459961,14|2,1:2|2:2,0:0:0:0:
72,297,206888,1,10,3:2:0:0:
2,242,207104,21,2,3:2:0:0:
2,242,207212,2,0,P|-13:187|14:136,1,115.999996459961,12|0,1:2|0:0,0:0:0:0:
50,107,207537,2,0,P|47:78|42:49,2,57.9999982299805,8|0|0,3:2|0:0|3:3,0:0:0:0:
98,129,207861,2,0,P|102:157|105:186,2,57.9999982299805,8|0|0,1:2|1:1|1:1,0:0:0:0:
135,96,208185,1,6,3:2:0:0:
255,161,208510,86,0,P|312:166|369:177,1,115.999996459961,2|0,1:2|0:0,0:0:0:0:
380,170,208834,2,0,P|369:113|363:55,1,115.999996459961,10|8,2:3|2:3,0:0:0:0:
376,45,209158,2,0,P|404:49|433:52,2,57.9999982299805,6|4|6,2:3|2:3|2:3,0:0:0:0:
282,31,209483,85,6,1:2:0:0:
282,31,209699,1,2,1:2:0:0:
470,143,210131,5,2,1:2:0:0:
470,143,210347,1,2,1:2:0:0:
337,200,210780,102,0,P|343:249|350:296,1,96.6666666666667,6|0,3:2|0:0,0:0:0:0:
349,308,211105,2,0,P|314:341|267:345,1,96.6666666666667,10|2,1:2|2:2,0:0:0:0:
258,339,211429,2,0,P|223:307|176:303,1,96.6666666666667,10|0,2:2|3:3,0:0:0:0:
164,307,211753,1,10,1:2:0:0:
21,241,212077,6,0,P|26:192|33:145,1,96.6666666666667,10|0,3:2|0:0,0:0:0:0:
41,137,212401,2,0,P|89:142|136:149,1,96.6666666666667,10|2,1:2|2:2,0:0:0:0:
145,140,212725,2,0,P|150:91|157:44,1,96.6666666666667,10|0,2:2|3:3,0:0:0:0:
159,34,213050,1,10,1:2:0:0:
234,160,213375,102,0,P|239:207|271:242,1,96.6666666666667,10|0,3:2|0:0,0:0:0:0:
287,246,213699,2,0,P|336:251|383:258,1,96.6666666666667,10|2,1:2|2:2,0:0:0:0:
396,250,214024,2,0,P|444:243|492:237,1,96.6666666666667,10|0,2:2|3:3,0:0:0:0:
512,246,214348,1,10,1:2:0:0:
388,166,214672,6,0,P|383:117|376:70,1,96.6666666666667,10|0,3:2|0:0,0:0:0:0:
374,61,214996,1,10,1:2:0:0:
299,19,215212,1,2,2:2:0:0:
299,19,215320,2,0,P|250:24|203:31,1,96.6666666666667,10|0,2:2|3:3,0:0:0:0:
183,61,215645,2,0,P|159:64|135:67,1,48.3333333333333,10|0,1:2|0:0,0:0:0:0:
109,43,215861,1,2,1:2:0:0:
109,43,215969,102,0,P|63:79|17:77,1,96.6666666666667,14|0,3:2|0:0,0:0:0:0:
10,74,216294,1,10,1:2:0:0:
120,152,216618,6,0,P|125:201|132:248,1,96.6666666666667,10|0,2:2|3:3,0:0:0:0:
134,257,216942,1,10,1:2:0:0:
198,375,217266,102,0,P|247:370|294:363,1,96.6666666666667,10|0,3:2|0:0,0:0:0:0:
302,355,217590,2,0,P|297:307|290:260,1,96.6666666666667,10|2,1:2|2:2,0:0:0:0:
299,251,217914,2,0,P|348:246|395:239,1,96.6666666666667,10|0,2:2|3:3,0:0:0:0:
405,237,218239,1,10,1:2:0:0:
337,138,218564,6,0,P|290:141|255:174,1,96.6666666666667,10|0,3:2|0:0,0:0:0:0:
245,180,218888,2,0,P|198:175|164:143,1,96.6666666666667,10|2,1:2|2:2,0:0:0:0:
163,130,219213,2,0,P|170:82|176:35,1,96.6666666666667,10|0,2:2|3:3,0:0:0:0:
178,23,219537,1,10,1:2:0:0:
73,123,219861,102,0,P|78:172|85:219,1,96.6666666666667,2|0,3:2|3:3,0:0:0:0:
72,262,220185,2,0,P|48:259|24:256,2,48.3333333333333,6|8|0,2:3|2:3|1:1,0:0:0:0:
99,297,220510,1,2,1:2:0:0:
169,245,220726,1,0,1:1:0:0:
169,245,220834,2,0,P|193:248|217:251,2,48.3333333333333,10|8|4,2:3|2:3|2:3,0:0:0:0:
