osu file format v14

[General]
AudioFilename: audio.mp3
AudioLeadIn: 0
PreviewTime: 195140
Countdown: 0
SampleSet: Normal
StackLeniency: 0.7
Mode: 1
LetterboxInBreaks: 0
WidescreenStoryboard: 0

[Editor]
Bookmarks: 2891,13557,24224,34891,45557,61557,72224,85557,96224,106890,117557,128224,149557,170890,181557,201557,212224,220224,230890
DistanceSpacing: 1.4
BeatDivisor: 3
GridSize: 32
TimelineZoom: 2.2

[Metadata]
Title:Itte.
TitleUnicode:言って。
Artist:Yorushika
ArtistUnicode:ヨルシカ
Creator:gaston_2199
Version:Saigo no Kotoba.
Source:
Tags:say it ナブナ n-buna nbuna n buna スイ suis 夏草が邪魔をする Natsukusa ga Jama wo Suru pop j-pop jpop rock jrock j-rock japanese female vocal
BeatmapID:2760215
BeatmapSetID:1332152

[Difficulty]
HPDrainRate:6
CircleSize:2
OverallDifficulty:6.2
ApproachRate:10
SliderMultiplier:1.4
SliderTickRate:1

[Events]
//Background and Video events
0,0,"BG Inner.png",0,60
Video,-951,"TaikoVideo.mp4"
//Break Periods
2,192257,195774
//Storyboard Layer 0 (Background)
//Storyboard Layer 1 (Fail)
//Storyboard Layer 2 (Pass)
//Storyboard Layer 3 (Foreground)
//Storyboard Layer 4 (Overlay)
//Storyboard Sound Samples

[TimingPoints]
225,333.333333333333,4,1,0,60,1,0
225,-133.333333333333,4,1,0,60,0,0
2891,333.333333333333,4,1,0,80,1,0
24557,-111.111111111111,4,1,0,70,0,0
45890,-105.263157894737,4,1,0,70,0,0
56224,-100,4,1,0,70,0,0
61557,-100,4,1,0,90,0,1
82890,-100,4,1,0,80,0,0
84224,-111.111111111111,4,1,0,80,0,0
85557,-100,4,1,0,80,0,0
107224,-111.111111111111,4,1,0,70,0,0
128224,-100,4,1,0,80,0,1
149557,-100,4,1,0,80,0,0
149890,-133.333333333333,4,1,0,60,0,0
170890,-100,4,1,0,80,0,0
196224,-133.333333333333,4,1,0,60,0,0
200224,-125,4,1,0,70,0,0
200890,-111.111111111111,4,1,0,70,0,0
201557,-90.9090909090909,4,1,0,90,0,1
231224,-86.9565217391304,4,1,0,90,0,1
231390,-90.9090909090909,4,1,0,90,0,1
231890,-86.9565217391304,4,1,0,90,0,1
232057,-90.9090909090909,4,1,0,90,0,1
232557,-86.9565217391304,4,1,0,90,0,1
232724,-90.9090909090909,4,1,0,90,0,1
233224,-86.9565217391304,4,1,0,90,0,1
233390,-90.9090909090909,4,1,0,90,0,1
233890,-86.9565217391304,4,1,0,90,0,1
234057,-90.9090909090909,4,1,0,90,0,1
234557,-86.9565217391304,4,1,0,90,0,1
234724,-90.9090909090909,4,1,0,90,0,1
235224,-86.9565217391304,4,1,0,90,0,1
235390,-90.9090909090909,4,1,0,90,0,1
235890,-86.9565217391304,4,1,0,90,0,1
236057,-90.9090909090909,4,1,0,90,0,1
236224,-86.9565217391304,4,1,0,80,0,0
237557,-100,4,1,0,80,0,0
238890,-90.9090909090909,4,1,0,80,0,0

[HitObjects]
296,239,225,5,8,0:0:0:0:
296,239,558,1,8,0:0:0:0:
296,239,891,1,0,0:0:0:0:
296,239,1224,1,8,0:0:0:0:
296,239,1391,1,0,0:0:0:0:
296,239,1724,1,8,0:0:0:0:
296,239,2058,1,8,0:0:0:0:
296,239,2891,5,12,0:0:0:0:
296,239,3057,1,0,0:0:0:0:
296,239,3224,1,8,0:0:0:0:
296,239,3390,1,8,0:0:0:0:
291,196,3474,1,0,0:0:0:0:
296,239,3557,1,8,0:0:0:0:
277,190,3640,1,8,0:0:0:0:
299,154,3724,1,0,0:0:0:0:
296,239,3890,1,8,0:0:0:0:
296,239,4057,1,0,0:0:0:0:
296,175,4390,1,0,0:0:0:0:
296,175,4557,1,8,0:0:0:0:
296,175,4724,1,8,0:0:0:0:
307,175,4890,1,0,0:0:0:0:
296,175,5057,1,0,0:0:0:0:
296,175,5140,1,0,0:0:0:0:
296,175,5224,1,8,0:0:0:0:
296,143,5557,1,8,0:0:0:0:
296,175,5724,1,0,0:0:0:0:
296,175,5890,1,8,0:0:0:0:
328,79,6057,1,8,0:0:0:0:
328,79,6140,1,8,0:0:0:0:
296,111,6224,1,8,0:0:0:0:
296,111,6307,1,8,0:0:0:0:
296,143,6390,1,0,0:0:0:0:
296,175,6557,1,8,0:0:0:0:
296,175,6724,1,0,0:0:0:0:
296,175,6807,1,0,0:0:0:0:
296,175,6890,1,8,0:0:0:0:
296,175,7057,1,0,0:0:0:0:
296,175,7224,1,8,0:0:0:0:
296,79,7390,1,8,0:0:0:0:
296,79,7474,1,8,0:0:0:0:
296,175,7557,1,0,0:0:0:0:
328,271,7724,1,0,0:0:0:0:
328,207,7890,1,8,0:0:0:0:
296,143,8057,1,0,0:0:0:0:
303,104,8140,1,0,0:0:0:0:
296,239,8224,1,8,0:0:0:0:
296,239,8390,5,0,0:0:0:0:
296,239,8557,1,8,0:0:0:0:
296,143,8724,1,8,0:0:0:0:
296,143,8807,1,0,0:0:0:0:
296,143,8890,1,8,0:0:0:0:
296,143,8974,1,0,0:0:0:0:
296,239,9057,1,0,0:0:0:0:
296,239,9224,1,8,0:0:0:0:
296,239,9390,1,0,0:0:0:0:
296,175,9724,1,0,0:0:0:0:
296,175,9890,1,8,0:0:0:0:
296,175,10057,1,8,0:0:0:0:
296,175,10224,1,0,0:0:0:0:
296,175,10390,1,0,0:0:0:0:
296,175,10474,1,0,0:0:0:0:
296,175,10557,1,8,0:0:0:0:
293,103,10640,1,0,0:0:0:0:
293,103,10724,1,0,0:0:0:0:
296,143,10890,1,8,0:0:0:0:
296,175,11057,1,0,0:0:0:0:
296,175,11224,1,8,0:0:0:0:
328,111,11557,1,8,0:0:0:0:
296,175,11724,1,0,0:0:0:0:
296,175,11890,1,8,0:0:0:0:
328,111,12057,1,0,0:0:0:0:
264,79,12140,1,8,0:0:0:0:
328,111,12224,1,0,0:0:0:0:
296,175,12390,1,0,0:0:0:0:
296,175,12557,1,8,0:0:0:0:
264,111,12724,1,8,0:0:0:0:
264,111,12807,1,0,0:0:0:0:
296,175,12890,1,0,0:0:0:0:
328,271,13057,1,0,0:0:0:0:
328,207,13224,1,8,0:0:0:0:
296,239,13557,5,4,0:0:0:0:
296,239,13724,1,0,0:0:0:0:
296,239,13890,1,8,0:0:0:0:
296,239,14057,1,8,0:0:0:0:
296,239,14140,1,0,0:0:0:0:
296,239,14224,1,8,0:0:0:0:
296,207,14307,1,8,0:0:0:0:
296,239,14390,1,0,0:0:0:0:
296,239,14557,1,8,0:0:0:0:
296,239,14724,1,0,0:0:0:0:
296,175,15057,1,0,0:0:0:0:
296,175,15224,1,8,0:0:0:0:
296,175,15390,1,8,0:0:0:0:
296,175,15557,1,0,0:0:0:0:
296,175,15724,1,0,0:0:0:0:
296,175,15807,1,0,0:0:0:0:
296,175,15890,1,8,0:0:0:0:
296,143,16224,1,8,0:0:0:0:
296,175,16390,1,0,0:0:0:0:
296,175,16557,1,8,0:0:0:0:
328,79,16724,1,8,0:0:0:0:
328,79,16807,1,8,0:0:0:0:
296,111,16890,1,8,0:0:0:0:
296,111,16974,1,8,0:0:0:0:
296,143,17057,1,0,0:0:0:0:
296,175,17224,1,8,0:0:0:0:
296,175,17390,1,0,0:0:0:0:
296,175,17474,1,0,0:0:0:0:
296,175,17557,1,8,0:0:0:0:
296,175,17724,1,0,0:0:0:0:
296,175,17890,1,8,0:0:0:0:
296,79,18057,1,8,0:0:0:0:
296,79,18140,1,8,0:0:0:0:
296,175,18224,1,0,0:0:0:0:
328,271,18390,1,0,0:0:0:0:
328,207,18557,1,8,0:0:0:0:
296,143,18724,1,0,0:0:0:0:
296,79,18807,1,0,0:0:0:0:
296,239,18890,1,8,0:0:0:0:
296,239,19057,5,0,0:0:0:0:
296,239,19224,1,8,0:0:0:0:
296,239,19390,1,8,0:0:0:0:
296,207,19474,1,0,0:0:0:0:
296,175,19557,1,8,0:0:0:0:
296,143,19640,1,0,0:0:0:0:
296,239,19724,1,0,0:0:0:0:
296,239,19890,1,8,0:0:0:0:
296,239,20057,1,0,0:0:0:0:
296,175,20390,1,0,0:0:0:0:
296,175,20557,1,8,0:0:0:0:
296,175,20724,1,8,0:0:0:0:
296,175,20890,1,0,0:0:0:0:
296,175,21057,1,0,0:0:0:0:
296,175,21140,1,0,0:0:0:0:
296,175,21224,1,8,0:0:0:0:
278,123,21307,1,0,0:0:0:0:
296,79,21390,1,0,0:0:0:0:
296,143,21557,1,8,0:0:0:0:
296,175,21724,1,0,0:0:0:0:
296,175,21890,1,8,0:0:0:0:
328,111,22224,1,8,0:0:0:0:
296,175,22390,1,0,0:0:0:0:
296,175,22557,1,8,0:0:0:0:
328,111,22724,1,0,0:0:0:0:
264,79,22807,1,8,0:0:0:0:
328,111,22890,1,0,0:0:0:0:
296,175,23057,1,0,0:0:0:0:
296,175,23224,1,8,0:0:0:0:
264,111,23390,1,8,0:0:0:0:
264,111,23474,1,0,0:0:0:0:
296,175,23557,1,0,0:0:0:0:
328,271,23724,1,8,0:0:0:0:
328,207,23890,1,0,0:0:0:0:
296,143,24057,1,8,0:0:0:0:
296,143,24224,1,4,0:0:0:0:
296,143,24557,5,8,0:0:0:0:
296,143,24890,1,0,0:0:0:0:
296,143,25057,1,0,0:0:0:0:
296,143,25224,1,8,0:0:0:0:
296,143,25390,1,0,0:0:0:0:
296,143,25724,1,0,0:0:0:0:
296,143,25890,1,8,0:0:0:0:
296,143,26057,1,8,0:0:0:0:
296,79,26140,1,8,0:0:0:0:
296,143,26224,1,0,0:0:0:0:
296,143,26390,1,0,0:0:0:0:
296,143,26557,1,8,0:0:0:0:
296,143,26724,1,8,0:0:0:0:
296,143,26890,1,0,0:0:0:0:
296,111,27224,1,8,0:0:0:0:
296,111,27557,1,0,0:0:0:0:
296,111,27724,1,0,0:0:0:0:
296,111,27890,1,8,0:0:0:0:
296,111,27974,1,0,0:0:0:0:
360,175,28057,1,8,0:0:0:0:
360,143,28390,1,0,0:0:0:0:
360,143,28557,1,8,0:0:0:0:
360,143,28724,1,8,0:0:0:0:
328,111,28807,1,0,0:0:0:0:
360,143,28890,1,8,0:0:0:0:
360,143,29057,1,0,0:0:0:0:
360,143,29224,1,8,0:0:0:0:
360,143,29390,1,0,0:0:0:0:
360,143,29557,1,8,0:0:0:0:
360,143,29890,1,8,0:0:0:0:
360,143,30224,1,0,0:0:0:0:
296,111,30390,1,0,0:0:0:0:
360,143,30557,1,8,0:0:0:0:
328,111,30640,1,8,0:0:0:0:
328,111,30724,1,0,0:0:0:0:
296,111,31057,1,0,0:0:0:0:
296,111,31224,1,8,0:0:0:0:
296,111,31390,1,8,0:0:0:0:
296,111,31557,1,0,0:0:0:0:
296,111,31724,1,0,0:0:0:0:
296,111,31807,1,0,0:0:0:0:
296,111,31890,1,8,0:0:0:0:
296,111,32057,1,8,0:0:0:0:
296,111,32224,1,0,0:0:0:0:
296,111,32557,1,8,0:0:0:0:
296,111,32890,1,0,0:0:0:0:
296,111,33057,1,0,0:0:0:0:
296,111,33224,1,8,0:0:0:0:
296,111,33390,1,0,0:0:0:0:
328,111,33724,1,0,0:0:0:0:
328,111,33890,1,8,0:0:0:0:
328,111,34057,1,8,0:0:0:0:
328,111,34140,1,8,0:0:0:0:
328,111,34224,1,0,0:0:0:0:
328,111,34390,1,0,0:0:0:0:
328,111,34557,1,8,0:0:0:0:
328,111,34724,1,0,0:0:0:0:
296,143,34890,1,12,0:0:0:0:
296,143,35224,5,8,0:0:0:0:
296,143,35557,1,0,0:0:0:0:
296,143,35724,1,0,0:0:0:0:
296,143,35890,1,8,0:0:0:0:
296,143,36057,1,0,0:0:0:0:
296,143,36390,1,0,0:0:0:0:
296,143,36557,1,8,0:0:0:0:
296,143,36724,1,8,0:0:0:0:
296,79,36807,1,8,0:0:0:0:
296,143,36890,1,0,0:0:0:0:
296,143,37057,1,0,0:0:0:0:
296,143,37224,1,8,0:0:0:0:
296,143,37390,1,0,0:0:0:0:
296,143,37557,1,8,0:0:0:0:
296,111,37890,1,8,0:0:0:0:
296,111,38224,1,0,0:0:0:0:
296,111,38390,1,0,0:0:0:0:
296,111,38557,1,8,0:0:0:0:
296,111,38640,1,8,0:0:0:0:
360,175,38724,1,0,0:0:0:0:
360,143,39057,1,0,0:0:0:0:
360,143,39224,1,8,0:0:0:0:
360,143,39390,1,8,0:0:0:0:
328,111,39474,1,0,0:0:0:0:
360,143,39557,1,8,0:0:0:0:
360,143,39724,1,0,0:0:0:0:
360,143,39890,1,8,0:0:0:0:
360,143,40057,1,0,0:0:0:0:
360,143,40224,1,8,0:0:0:0:
360,143,40557,1,8,0:0:0:0:
360,143,40890,1,0,0:0:0:0:
296,111,41057,1,0,0:0:0:0:
360,143,41224,1,8,0:0:0:0:
328,111,41307,1,0,0:0:0:0:
328,111,41390,1,8,0:0:0:0:
296,111,41724,1,0,0:0:0:0:
296,111,41890,1,8,0:0:0:0:
296,111,42057,1,8,0:0:0:0:
296,111,42224,1,0,0:0:0:0:
296,111,42390,1,0,0:0:0:0:
296,111,42474,1,0,0:0:0:0:
296,111,42557,1,8,0:0:0:0:
296,111,42724,1,0,0:0:0:0:
296,111,42890,1,12,0:0:0:0:
296,111,43224,5,8,0:0:0:0:
296,111,43390,1,4,0:0:0:0:
296,111,43724,5,0,0:0:0:0:
296,111,43890,1,8,0:0:0:0:
296,111,44057,1,0,0:0:0:0:
232,47,44224,1,12,0:0:0:0:
328,79,44390,5,0,0:0:0:0:
328,111,44557,1,0,0:0:0:0:
328,111,44724,1,12,0:0:0:0:
328,111,45057,5,0,0:0:0:0:
328,111,45224,1,8,0:0:0:0:
328,111,45390,1,8,0:0:0:0:
328,111,45474,1,8,0:0:0:0:
328,111,45557,1,4,0:0:0:0:
168,47,45890,5,8,0:0:0:0:
264,79,46057,1,0,0:0:0:0:
264,79,46140,1,8,0:0:0:0:
264,79,46224,1,0,0:0:0:0:
296,175,46390,1,0,0:0:0:0:
296,175,46557,1,8,0:0:0:0:
296,175,46724,1,0,0:0:0:0:
296,175,46807,1,0,0:0:0:0:
296,175,46890,1,8,0:0:0:0:
296,175,47057,1,0,0:0:0:0:
296,175,47224,1,8,0:0:0:0:
296,175,47390,1,8,0:0:0:0:
296,175,47474,1,0,0:0:0:0:
296,175,47557,1,8,0:0:0:0:
296,175,47724,1,0,0:0:0:0:
296,175,47890,1,8,0:0:0:0:
296,175,48057,1,8,0:0:0:0:
296,175,48224,1,0,0:0:0:0:
328,111,48557,5,8,0:0:0:0:
328,111,48724,1,0,0:0:0:0:
264,79,48807,1,0,0:0:0:0:
264,79,48890,1,8,0:0:0:0:
264,79,49057,1,0,0:0:0:0:
264,79,49224,1,8,0:0:0:0:
246,72,49390,1,8,0:0:0:0:
240,72,49474,1,8,0:0:0:0:
264,79,49557,1,0,0:0:0:0:
264,79,49724,1,0,0:0:0:0:
264,79,49890,1,8,0:0:0:0:
266,48,49974,1,0,0:0:0:0:
264,79,50057,1,8,0:0:0:0:
264,79,50224,1,0,0:0:0:0:
264,79,50390,1,0,0:0:0:0:
264,79,50557,1,8,0:0:0:0:
264,79,50724,1,8,0:0:0:0:
264,79,50890,1,0,0:0:0:0:
168,47,51224,5,8,0:0:0:0:
264,79,51390,1,0,0:0:0:0:
264,79,51474,1,0,0:0:0:0:
264,79,51557,1,0,0:0:0:0:
296,175,51724,1,0,0:0:0:0:
296,175,51890,1,8,0:0:0:0:
296,175,52057,1,0,0:0:0:0:
264,79,52140,1,0,0:0:0:0:
296,175,52224,1,8,0:0:0:0:
296,175,52390,1,0,0:0:0:0:
296,175,52557,1,8,0:0:0:0:
296,175,52724,1,0,0:0:0:0:
264,79,52807,1,8,0:0:0:0:
296,175,52890,1,0,0:0:0:0:
296,175,53057,1,0,0:0:0:0:
296,175,53224,1,8,0:0:0:0:
296,175,53390,1,0,0:0:0:0:
296,175,53557,1,0,0:0:0:0:
328,111,53890,5,8,0:0:0:0:
328,111,54057,1,0,0:0:0:0:
264,79,54140,1,8,0:0:0:0:
264,79,54224,1,0,0:0:0:0:
264,79,54390,1,0,0:0:0:0:
264,79,54557,1,8,0:0:0:0:
264,79,54724,1,0,0:0:0:0:
294,45,54807,1,0,0:0:0:0:
264,79,54890,1,8,0:0:0:0:
264,79,55057,1,0,0:0:0:0:
264,79,55224,1,8,0:0:0:0:
232,47,55307,1,0,0:0:0:0:
264,79,55390,1,8,0:0:0:0:
264,79,55557,1,0,0:0:0:0:
264,79,55724,1,0,0:0:0:0:
296,79,55807,1,0,0:0:0:0:
264,79,55890,1,8,0:0:0:0:
264,79,56224,5,4,0:0:0:0:
264,79,56557,1,8,0:0:0:0:
264,79,56890,1,0,0:0:0:0:
264,79,57057,1,8,0:0:0:0:
264,79,57224,1,8,0:0:0:0:
264,79,57390,1,0,0:0:0:0:
264,79,57474,1,0,0:0:0:0:
264,79,57557,1,8,0:0:0:0:
264,79,57724,1,0,0:0:0:0:
264,79,57890,1,8,0:0:0:0:
264,79,58057,1,8,0:0:0:0:
264,79,58140,1,8,0:0:0:0:
264,79,58224,1,0,0:0:0:0:
264,79,58390,1,0,0:0:0:0:
264,79,58557,1,8,0:0:0:0:
264,79,58724,1,0,0:0:0:0:
264,79,58890,1,8,0:0:0:0:
264,79,59224,5,8,0:0:0:0:
264,79,59390,1,8,0:0:0:0:
232,111,59474,1,0,0:0:0:0:
264,79,59557,1,8,0:0:0:0:
264,79,59724,1,8,0:0:0:0:
264,79,59890,1,8,0:0:0:0:
264,79,60057,1,0,0:0:0:0:
264,79,60224,1,12,0:0:0:0:
264,79,61557,5,4,0:0:0:0:
264,79,61890,1,8,0:0:0:0:
264,79,62057,1,0,0:0:0:0:
264,79,62224,1,8,0:0:0:0:
328,111,62307,1,8,0:0:0:0:
328,111,62390,1,0,0:0:0:0:
264,79,62557,1,8,0:0:0:0:
264,79,62640,1,0,0:0:0:0:
264,79,62724,1,0,0:0:0:0:
264,79,62807,1,0,0:0:0:0:
264,79,62890,1,8,0:0:0:0:
264,79,63057,1,0,0:0:0:0:
232,175,63224,1,8,0:0:0:0:
264,79,63390,1,8,0:0:0:0:
232,111,63474,1,8,0:0:0:0:
232,111,63557,1,0,0:0:0:0:
232,111,63724,1,0,0:0:0:0:
232,111,63890,1,8,0:0:0:0:
232,111,64057,1,0,0:0:0:0:
232,111,64140,1,0,0:0:0:0:
232,111,64224,1,8,0:0:0:0:
296,79,64390,1,0,0:0:0:0:
232,111,64557,1,8,0:0:0:0:
296,79,64724,1,0,0:0:0:0:
296,79,64807,1,8,0:0:0:0:
296,79,64890,1,0,0:0:0:0:
296,79,65057,1,0,0:0:0:0:
296,79,65224,1,8,0:0:0:0:
296,79,65307,1,0,0:0:0:0:
296,79,65390,1,8,0:0:0:0:
296,79,65474,1,0,0:0:0:0:
296,79,65557,1,8,0:0:0:0:
296,79,65724,1,0,0:0:0:0:
296,79,65890,1,8,0:0:0:0:
296,79,66057,1,0,0:0:0:0:
273,101,66140,1,0,0:0:0:0:
296,79,66224,1,8,0:0:0:0:
296,79,66390,1,0,0:0:0:0:
296,79,66474,1,0,0:0:0:0:
296,79,66557,1,8,0:0:0:0:
296,79,66724,1,0,0:0:0:0:
296,79,66890,1,8,0:0:0:0:
296,79,67224,5,8,0:0:0:0:
296,79,67390,1,0,0:0:0:0:
246,79,67474,1,0,0:0:0:0:
296,79,67557,1,0,0:0:0:0:
296,79,67724,1,0,0:0:0:0:
296,79,67890,1,8,0:0:0:0:
296,79,68057,1,8,0:0:0:0:
296,79,68140,1,8,0:0:0:0:
296,79,68224,1,0,0:0:0:0:
296,79,68390,1,0,0:0:0:0:
296,79,68557,1,8,0:0:0:0:
296,79,68724,1,0,0:0:0:0:
296,79,68807,1,0,0:0:0:0:
296,79,68890,1,8,0:0:0:0:
296,79,68974,1,8,0:0:0:0:
296,79,69057,1,0,0:0:0:0:
296,79,69224,1,8,0:0:0:0:
296,79,69390,1,8,0:0:0:0:
296,79,69474,1,8,0:0:0:0:
296,79,69557,1,0,0:0:0:0:
292,127,69724,1,0,0:0:0:0:
272,136,69890,1,8,0:0:0:0:
283,147,70057,1,0,0:0:0:0:
264,79,70140,1,0,0:0:0:0:
264,79,70224,1,8,0:0:0:0:
264,79,70390,1,0,0:0:0:0:
264,79,70557,1,8,0:0:0:0:
264,79,70724,5,12,0:0:0:0:
264,79,71057,5,0,0:0:0:0:
264,79,71224,1,8,0:0:0:0:
264,79,71390,1,0,0:0:0:0:
264,79,71474,1,0,0:0:0:0:
264,79,71557,1,8,0:0:0:0:
264,79,71724,1,0,0:0:0:0:
264,111,71807,1,0,0:0:0:0:
264,111,71890,1,8,0:0:0:0:
264,79,71974,1,8,0:0:0:0:
264,79,72057,1,8,0:0:0:0:
264,79,72140,1,8,0:0:0:0:
264,79,72224,1,4,0:0:0:0:
264,79,72557,5,8,0:0:0:0:
264,79,72724,1,0,0:0:0:0:
264,79,72890,1,8,0:0:0:0:
296,111,72974,1,8,0:0:0:0:
264,79,73057,1,0,0:0:0:0:
264,79,73224,1,8,0:0:0:0:
264,79,73307,1,0,0:0:0:0:
264,79,73390,1,0,0:0:0:0:
264,79,73474,1,0,0:0:0:0:
264,79,73557,1,8,0:0:0:0:
264,79,73724,1,0,0:0:0:0:
232,175,73890,1,8,0:0:0:0:
264,79,74057,1,8,0:0:0:0:
232,111,74140,1,8,0:0:0:0:
232,111,74224,1,0,0:0:0:0:
232,111,74390,1,0,0:0:0:0:
232,111,74557,1,8,0:0:0:0:
232,111,74724,1,0,0:0:0:0:
232,111,74807,1,0,0:0:0:0:
232,111,74890,1,8,0:0:0:0:
311,103,75057,1,0,0:0:0:0:
232,111,75224,1,8,0:0:0:0:
296,79,75390,1,0,0:0:0:0:
264,79,75474,1,0,0:0:0:0:
264,79,75557,1,8,0:0:0:0:
264,79,75640,1,8,0:0:0:0:
296,79,75724,1,0,0:0:0:0:
296,79,75890,1,8,0:0:0:0:
296,79,76057,1,8,0:0:0:0:
296,79,76140,1,0,0:0:0:0:
296,79,76224,1,8,0:0:0:0:
296,79,76390,1,0,0:0:0:0:
296,79,76557,1,8,0:0:0:0:
296,79,76724,1,0,0:0:0:0:
296,79,76807,1,0,0:0:0:0:
296,79,76890,1,8,0:0:0:0:
296,79,77057,1,0,0:0:0:0:
286,91,77224,1,8,0:0:0:0:
296,79,77390,1,8,0:0:0:0:
296,79,77557,1,4,0:0:0:0:
296,79,77890,5,8,0:0:0:0:
296,79,78057,1,0,0:0:0:0:
296,79,78140,1,0,0:0:0:0:
296,79,78224,1,8,0:0:0:0:
296,79,78390,1,0,0:0:0:0:
296,79,78557,1,8,0:0:0:0:
296,79,78724,1,8,0:0:0:0:
296,79,78890,1,0,0:0:0:0:
296,79,79057,1,0,0:0:0:0:
296,79,79224,1,8,0:0:0:0:
296,79,79390,1,0,0:0:0:0:
296,79,79474,1,0,0:0:0:0:
296,79,79557,1,8,0:0:0:0:
296,79,79724,1,0,0:0:0:0:
296,79,79890,1,8,0:0:0:0:
296,79,80057,1,8,0:0:0:0:
296,79,80224,1,0,0:0:0:0:
72,111,80557,1,8,0:0:0:0:
168,79,80724,1,0,0:0:0:0:
264,79,80807,1,0,0:0:0:0:
264,79,80890,1,0,0:0:0:0:
264,79,81057,1,0,0:0:0:0:
264,79,81224,1,8,0:0:0:0:
264,79,81390,1,8,0:0:0:0:
264,79,81474,1,0,0:0:0:0:
264,79,81557,1,8,0:0:0:0:
264,79,81724,1,0,0:0:0:0:
264,79,81890,1,12,0:0:0:0:
264,79,82057,1,0,0:0:0:0:
264,79,82140,1,0,0:0:0:0:
264,79,82224,1,8,0:0:0:0:
264,79,82390,1,0,0:0:0:0:
264,111,82474,1,0,0:0:0:0:
264,79,82557,1,8,0:0:0:0:
264,79,82640,1,8,0:0:0:0:
264,79,82724,1,8,0:0:0:0:
264,79,82807,1,8,0:0:0:0:
264,79,82890,1,4,0:0:0:0:
264,79,84224,1,4,0:0:0:0:
296,239,85557,5,12,0:0:0:0:
296,239,85724,1,0,0:0:0:0:
296,239,85890,1,8,0:0:0:0:
296,239,86057,1,8,0:0:0:0:
296,239,86140,1,0,0:0:0:0:
296,239,86224,1,8,0:0:0:0:
296,207,86307,1,8,0:0:0:0:
296,239,86390,1,0,0:0:0:0:
296,239,86557,1,8,0:0:0:0:
296,239,86724,1,0,0:0:0:0:
296,175,87057,1,0,0:0:0:0:
296,175,87224,1,8,0:0:0:0:
296,175,87390,1,8,0:0:0:0:
296,175,87557,1,0,0:0:0:0:
296,175,87724,1,0,0:0:0:0:
296,175,87807,1,0,0:0:0:0:
296,175,87890,1,8,0:0:0:0:
296,143,88224,1,8,0:0:0:0:
296,175,88390,1,0,0:0:0:0:
296,175,88557,1,8,0:0:0:0:
328,79,88724,1,8,0:0:0:0:
328,79,88807,1,8,0:0:0:0:
296,111,88890,1,8,0:0:0:0:
296,111,88974,1,8,0:0:0:0:
296,143,89057,1,0,0:0:0:0:
296,175,89224,1,8,0:0:0:0:
296,175,89390,1,0,0:0:0:0:
296,175,89474,1,0,0:0:0:0:
296,175,89557,1,8,0:0:0:0:
296,175,89724,1,0,0:0:0:0:
296,175,89890,1,8,0:0:0:0:
296,79,90057,1,8,0:0:0:0:
296,79,90140,1,8,0:0:0:0:
296,175,90224,1,0,0:0:0:0:
328,271,90390,1,0,0:0:0:0:
328,207,90557,1,8,0:0:0:0:
296,143,90724,1,0,0:0:0:0:
296,79,90807,1,0,0:0:0:0:
296,239,90890,1,8,0:0:0:0:
296,239,91057,5,0,0:0:0:0:
296,239,91224,1,8,0:0:0:0:
296,239,91390,1,8,0:0:0:0:
296,207,91474,1,0,0:0:0:0:
296,175,91557,1,8,0:0:0:0:
296,143,91640,1,0,0:0:0:0:
296,239,91724,1,0,0:0:0:0:
296,239,91890,1,8,0:0:0:0:
296,239,92057,1,0,0:0:0:0:
296,175,92390,1,0,0:0:0:0:
296,175,92557,1,8,0:0:0:0:
296,175,92724,1,8,0:0:0:0:
296,175,92890,1,0,0:0:0:0:
296,175,93057,1,0,0:0:0:0:
296,79,93140,1,0,0:0:0:0:
296,175,93224,1,8,0:0:0:0:
276,110,93307,1,0,0:0:0:0:
296,79,93390,1,0,0:0:0:0:
296,143,93557,1,8,0:0:0:0:
296,175,93724,1,0,0:0:0:0:
296,175,93890,1,8,0:0:0:0:
328,111,94224,1,8,0:0:0:0:
296,175,94390,1,0,0:0:0:0:
296,175,94557,1,8,0:0:0:0:
328,111,94724,1,0,0:0:0:0:
264,79,94807,1,8,0:0:0:0:
328,111,94890,1,0,0:0:0:0:
296,175,95057,1,0,0:0:0:0:
296,175,95224,1,8,0:0:0:0:
264,111,95390,1,8,0:0:0:0:
264,111,95474,1,0,0:0:0:0:
296,175,95557,1,0,0:0:0:0:
328,271,95724,1,0,0:0:0:0:
328,207,95890,1,8,0:0:0:0:
296,143,96057,1,8,0:0:0:0:
296,239,96224,5,4,0:0:0:0:
296,239,96390,1,0,0:0:0:0:
296,239,96557,1,8,0:0:0:0:
296,239,96724,1,8,0:0:0:0:
296,239,96807,1,0,0:0:0:0:
296,239,96890,1,8,0:0:0:0:
296,207,96974,1,8,0:0:0:0:
296,239,97057,1,0,0:0:0:0:
296,239,97224,1,8,0:0:0:0:
296,239,97390,1,0,0:0:0:0:
296,175,97724,1,0,0:0:0:0:
296,175,97890,1,8,0:0:0:0:
296,175,98057,1,8,0:0:0:0:
296,175,98224,1,0,0:0:0:0:
296,175,98390,1,0,0:0:0:0:
296,79,98474,1,0,0:0:0:0:
296,175,98557,1,8,0:0:0:0:
296,143,98890,1,8,0:0:0:0:
296,175,99057,1,0,0:0:0:0:
296,175,99224,1,8,0:0:0:0:
328,79,99390,1,8,0:0:0:0:
328,79,99474,1,8,0:0:0:0:
296,111,99557,1,8,0:0:0:0:
296,111,99640,1,8,0:0:0:0:
296,143,99724,1,0,0:0:0:0:
296,175,99890,1,8,0:0:0:0:
296,175,100057,1,0,0:0:0:0:
296,175,100140,1,0,0:0:0:0:
296,175,100224,1,8,0:0:0:0:
296,175,100390,1,0,0:0:0:0:
296,175,100557,1,8,0:0:0:0:
296,79,100724,1,8,0:0:0:0:
296,79,100807,1,8,0:0:0:0:
296,175,100890,1,0,0:0:0:0:
328,271,101057,1,0,0:0:0:0:
328,207,101224,1,8,0:0:0:0:
296,79,101390,1,0,0:0:0:0:
296,79,101474,1,0,0:0:0:0:
296,79,101557,1,8,0:0:0:0:
296,239,101724,5,0,0:0:0:0:
296,239,101890,1,8,0:0:0:0:
296,239,102057,1,8,0:0:0:0:
296,207,102140,1,0,0:0:0:0:
296,175,102224,1,8,0:0:0:0:
296,143,102307,1,0,0:0:0:0:
296,239,102390,1,0,0:0:0:0:
296,239,102557,1,8,0:0:0:0:
296,239,102724,1,0,0:0:0:0:
296,175,103057,1,0,0:0:0:0:
296,175,103224,1,8,0:0:0:0:
296,175,103390,1,8,0:0:0:0:
296,175,103557,1,0,0:0:0:0:
296,175,103724,1,0,0:0:0:0:
296,79,103807,1,0,0:0:0:0:
296,175,103890,1,8,0:0:0:0:
265,148,103974,1,0,0:0:0:0:
296,79,104057,1,0,0:0:0:0:
296,143,104224,1,8,0:0:0:0:
296,175,104390,1,0,0:0:0:0:
296,175,104557,1,8,0:0:0:0:
328,111,104890,1,8,0:0:0:0:
296,175,105057,1,0,0:0:0:0:
296,175,105224,1,8,0:0:0:0:
328,111,105390,1,0,0:0:0:0:
264,79,105474,1,8,0:0:0:0:
328,111,105557,1,0,0:0:0:0:
296,175,105724,1,0,0:0:0:0:
296,175,105890,1,8,0:0:0:0:
264,111,106057,1,8,0:0:0:0:
264,111,106140,1,8,0:0:0:0:
296,175,106224,1,0,0:0:0:0:
328,271,106390,1,0,0:0:0:0:
328,207,106557,1,8,0:0:0:0:
296,143,106724,1,8,0:0:0:0:
296,143,106890,1,4,0:0:0:0:
296,143,107224,5,8,0:0:0:0:
296,143,107557,1,0,0:0:0:0:
296,143,107724,1,0,0:0:0:0:
296,143,107890,1,8,0:0:0:0:
296,143,108057,1,0,0:0:0:0:
296,143,108390,1,0,0:0:0:0:
296,143,108557,1,8,0:0:0:0:
296,143,108724,1,8,0:0:0:0:
296,79,108807,1,8,0:0:0:0:
296,143,108890,1,0,0:0:0:0:
296,143,109057,1,0,0:0:0:0:
296,143,109224,1,8,0:0:0:0:
296,143,109390,1,8,0:0:0:0:
296,143,109557,1,0,0:0:0:0:
296,111,109890,1,8,0:0:0:0:
296,111,110224,1,0,0:0:0:0:
296,111,110390,1,0,0:0:0:0:
296,111,110557,1,8,0:0:0:0:
296,111,110640,1,0,0:0:0:0:
360,175,110724,1,8,0:0:0:0:
360,143,111057,1,0,0:0:0:0:
360,143,111224,1,8,0:0:0:0:
360,143,111390,1,8,0:0:0:0:
328,111,111474,1,0,0:0:0:0:
360,143,111557,1,8,0:0:0:0:
360,143,111724,1,0,0:0:0:0:
360,143,111890,1,8,0:0:0:0:
360,143,112057,1,0,0:0:0:0:
360,143,112224,1,8,0:0:0:0:
360,143,112557,1,8,0:0:0:0:
360,143,112890,1,0,0:0:0:0:
296,111,113057,1,0,0:0:0:0:
360,143,113224,1,8,0:0:0:0:
328,111,113307,1,8,0:0:0:0:
328,111,113390,1,0,0:0:0:0:
296,111,113724,1,0,0:0:0:0:
296,111,113890,1,8,0:0:0:0:
296,111,114057,1,8,0:0:0:0:
296,111,114224,1,0,0:0:0:0:
296,111,114390,1,0,0:0:0:0:
296,111,114474,1,0,0:0:0:0:
296,111,114557,1,8,0:0:0:0:
296,111,114724,1,8,0:0:0:0:
296,111,114890,1,0,0:0:0:0:
296,111,115224,1,8,0:0:0:0:
296,111,115557,1,0,0:0:0:0:
296,111,115724,1,0,0:0:0:0:
296,111,115890,1,8,0:0:0:0:
296,111,116057,1,0,0:0:0:0:
328,111,116390,1,0,0:0:0:0:
328,111,116557,1,8,0:0:0:0:
328,111,116724,1,8,0:0:0:0:
328,111,116807,1,8,0:0:0:0:
328,111,116890,1,0,0:0:0:0:
328,111,117057,1,0,0:0:0:0:
328,111,117224,1,8,0:0:0:0:
328,111,117390,1,0,0:0:0:0:
296,143,117557,1,12,0:0:0:0:
296,143,117890,5,8,0:0:0:0:
296,143,118224,1,0,0:0:0:0:
296,143,118390,1,0,0:0:0:0:
296,143,118557,1,8,0:0:0:0:
296,143,118724,1,0,0:0:0:0:
296,143,119057,1,0,0:0:0:0:
296,143,119224,1,8,0:0:0:0:
296,143,119390,1,8,0:0:0:0:
296,79,119474,1,8,0:0:0:0:
296,143,119557,1,0,0:0:0:0:
296,143,119724,1,0,0:0:0:0:
296,143,119890,1,8,0:0:0:0:
296,143,120057,1,0,0:0:0:0:
296,143,120224,1,8,0:0:0:0:
296,111,120557,1,8,0:0:0:0:
296,111,120890,1,0,0:0:0:0:
296,111,121057,1,0,0:0:0:0:
296,111,121224,1,8,0:0:0:0:
296,111,121307,1,8,0:0:0:0:
360,175,121390,1,0,0:0:0:0:
360,143,121724,1,0,0:0:0:0:
360,143,121890,1,8,0:0:0:0:
360,143,122057,1,8,0:0:0:0:
328,111,122140,1,0,0:0:0:0:
360,143,122224,1,8,0:0:0:0:
360,143,122390,1,0,0:0:0:0:
360,143,122557,1,8,0:0:0:0:
360,143,122724,1,0,0:0:0:0:
360,143,122890,1,8,0:0:0:0:
360,143,123224,1,8,0:0:0:0:
360,143,123557,1,0,0:0:0:0:
296,111,123724,1,0,0:0:0:0:
360,143,123890,1,8,0:0:0:0:
328,111,123974,1,0,0:0:0:0:
328,111,124057,1,8,0:0:0:0:
296,111,124390,1,0,0:0:0:0:
296,111,124557,1,8,0:0:0:0:
296,111,124724,1,8,0:0:0:0:
296,111,124890,1,0,0:0:0:0:
296,111,125057,1,0,0:0:0:0:
296,111,125140,1,0,0:0:0:0:
296,111,125224,1,8,0:0:0:0:
296,111,125390,1,8,0:0:0:0:
296,111,125557,1,0,0:0:0:0:
296,111,125890,1,8,0:0:0:0:
296,79,126224,1,0,0:0:0:0:
296,111,126390,1,0,0:0:0:0:
296,111,126557,1,8,0:0:0:0:
296,111,126724,1,0,0:0:0:0:
328,79,127057,1,0,0:0:0:0:
328,111,127224,1,8,0:0:0:0:
328,111,127390,1,8,0:0:0:0:
296,79,127557,1,4,0:0:0:0:
296,239,128224,5,12,0:0:0:0:
296,239,128390,1,0,0:0:0:0:
291,204,128474,1,0,0:0:0:0:
296,239,128557,1,8,0:0:0:0:
296,239,128724,1,8,0:0:0:0:
281,192,128807,1,8,0:0:0:0:
282,182,128890,1,0,0:0:0:0:
296,207,128974,1,0,0:0:0:0:
290,229,129057,1,0,0:0:0:0:
296,239,129224,1,8,0:0:0:0:
296,239,129390,1,0,0:0:0:0:
289,211,129474,1,0,0:0:0:0:
296,175,129557,1,8,0:0:0:0:
296,175,129724,1,8,0:0:0:0:
261,149,129807,1,8,0:0:0:0:
281,126,129890,1,8,0:0:0:0:
264,79,130057,1,8,0:0:0:0:
296,175,130224,1,0,0:0:0:0:
264,143,130307,1,8,0:0:0:0:
236,220,130390,1,0,0:0:0:0:
281,126,130474,1,0,0:0:0:0:
264,79,130557,1,8,0:0:0:0:
296,79,130724,1,0,0:0:0:0:
236,220,130807,1,0,0:0:0:0:
296,143,130890,1,8,0:0:0:0:
236,220,130974,1,8,0:0:0:0:
236,220,131057,1,0,0:0:0:0:
296,175,131224,1,8,0:0:0:0:
328,79,131390,1,0,0:0:0:0:
328,79,131474,1,8,0:0:0:0:
296,111,131557,1,0,0:0:0:0:
296,143,131724,1,0,0:0:0:0:
296,175,131890,1,8,0:0:0:0:
195,104,131974,1,0,0:0:0:0:
296,175,132057,1,8,0:0:0:0:
248,86,132140,1,0,0:0:0:0:
296,175,132224,1,8,0:0:0:0:
296,175,132390,1,0,0:0:0:0:
296,111,132474,1,0,0:0:0:0:
296,175,132557,1,8,0:0:0:0:
296,79,132724,1,8,0:0:0:0:
296,175,132890,1,0,0:0:0:0:
296,111,132974,1,8,0:0:0:0:
328,271,133057,1,0,0:0:0:0:
328,239,133140,1,0,0:0:0:0:
328,207,133224,1,8,0:0:0:0:
296,79,133307,1,0,0:0:0:0:
296,143,133390,1,8,0:0:0:0:
296,239,133557,1,4,0:0:0:0:
424,143,133890,5,8,0:0:0:0:
328,207,134057,1,0,0:0:0:0:
360,175,134140,1,0,0:0:0:0:
360,175,134224,1,8,0:0:0:0:
360,175,134307,1,8,0:0:0:0:
360,175,134390,1,0,0:0:0:0:
343,151,134474,1,0,0:0:0:0:
360,175,134557,1,8,0:0:0:0:
360,175,134724,1,0,0:0:0:0:
360,175,134807,1,8,0:0:0:0:
360,175,134890,1,0,0:0:0:0:
360,175,135057,1,0,0:0:0:0:
360,175,135224,1,8,0:0:0:0:
360,175,135390,1,0,0:0:0:0:
360,175,135474,1,0,0:0:0:0:
360,175,135557,1,8,0:0:0:0:
328,143,135640,1,0,0:0:0:0:
328,111,135724,1,0,0:0:0:0:
343,151,135807,1,0,0:0:0:0:
328,111,135890,1,8,0:0:0:0:
328,111,136057,1,0,0:0:0:0:
328,111,136224,1,8,0:0:0:0:
328,111,136335,1,8,0:0:0:0:
328,111,136446,1,0,0:0:0:0:
328,111,136557,1,8,0:0:0:0:
296,79,136668,1,0,0:0:0:0:
328,111,136779,1,0,0:0:0:0:
328,111,136890,1,8,0:0:0:0:
328,111,137057,1,0,0:0:0:0:
328,111,137224,1,8,0:0:0:0:
282,82,137307,1,0,0:0:0:0:
328,111,137390,1,8,0:0:0:0:
420,113,137474,1,8,0:0:0:0:
328,111,137557,1,0,0:0:0:0:
328,111,137724,1,0,0:0:0:0:
280,63,137807,1,0,0:0:0:0:
328,111,137890,1,8,0:0:0:0:
328,111,138057,1,0,0:0:0:0:
280,79,138224,1,8,0:0:0:0:
328,111,138390,1,8,0:0:0:0:
328,111,138474,1,0,0:0:0:0:
328,111,138557,1,8,0:0:0:0:
328,111,138640,1,0,0:0:0:0:
328,111,138724,1,8,0:0:0:0:
328,111,138807,1,8,0:0:0:0:
328,111,138890,1,0,0:0:0:0:
296,111,139224,5,12,0:0:0:0:
296,111,139390,1,0,0:0:0:0:
296,111,139474,1,0,0:0:0:0:
296,111,139557,1,8,0:0:0:0:
296,111,139640,1,8,0:0:0:0:
296,111,139724,1,0,0:0:0:0:
296,111,139807,1,0,0:0:0:0:
296,111,139890,1,8,0:0:0:0:
296,111,139974,1,0,0:0:0:0:
264,79,140057,1,0,0:0:0:0:
296,111,140140,1,0,0:0:0:0:
264,79,140224,1,8,0:0:0:0:
264,79,140307,1,8,0:0:0:0:
296,111,140390,1,0,0:0:0:0:
264,79,140474,1,0,0:0:0:0:
264,79,140557,1,8,0:0:0:0:
296,111,140640,1,0,0:0:0:0:
264,79,140724,1,8,0:0:0:0:
264,79,140807,1,0,0:0:0:0:
296,111,140890,1,8,0:0:0:0:
264,79,140974,1,8,0:0:0:0:
296,111,141057,1,0,0:0:0:0:
296,111,141140,1,0,0:0:0:0:
296,111,141224,1,8,0:0:0:0:
264,79,141307,1,0,0:0:0:0:
296,111,141390,1,0,0:0:0:0:
296,111,141474,1,0,0:0:0:0:
296,111,141557,1,8,0:0:0:0:
296,111,141724,1,0,0:0:0:0:
296,111,141890,1,8,0:0:0:0:
298,89,141974,1,8,0:0:0:0:
296,79,142057,1,0,0:0:0:0:
296,111,142224,1,8,0:0:0:0:
296,111,142390,1,0,0:0:0:0:
239,101,142474,1,0,0:0:0:0:
296,111,142557,1,8,0:0:0:0:
296,111,142724,1,8,0:0:0:0:
296,111,142807,1,8,0:0:0:0:
296,111,142890,1,0,0:0:0:0:
296,111,143057,1,0,0:0:0:0:
296,111,143224,1,8,0:0:0:0:
296,111,143390,1,8,0:0:0:0:
296,79,143474,1,0,0:0:0:0:
296,111,143557,1,8,0:0:0:0:
296,111,143724,1,0,0:0:0:0:
296,111,143807,1,0,0:0:0:0:
296,111,143890,1,8,0:0:0:0:
296,111,144057,1,8,0:0:0:0:
296,111,144224,1,4,0:0:0:0:
296,111,144557,5,8,0:0:0:0:
296,111,144724,1,0,0:0:0:0:
296,111,144807,1,0,0:0:0:0:
296,111,144890,1,8,0:0:0:0:
296,111,145057,1,0,0:0:0:0:
296,111,145224,1,8,0:0:0:0:
296,111,145390,1,8,0:0:0:0:
296,111,145474,1,8,0:0:0:0:
296,111,145557,1,0,0:0:0:0:
296,111,145724,1,0,0:0:0:0:
296,111,145890,1,8,0:0:0:0:
296,111,145974,1,0,0:0:0:0:
296,111,146057,1,8,0:0:0:0:
296,111,146224,1,0,0:0:0:0:
296,111,146390,1,0,0:0:0:0:
296,111,146474,1,0,0:0:0:0:
296,111,146557,1,8,0:0:0:0:
296,111,146724,1,0,0:0:0:0:
296,111,146890,1,8,0:0:0:0:
296,111,147057,1,0,0:0:0:0:
296,111,147224,1,12,0:0:0:0:
296,111,147557,5,8,0:0:0:0:
296,111,147724,1,0,0:0:0:0:
296,111,147890,1,12,0:0:0:0:
296,111,148224,5,0,0:0:0:0:
296,111,148390,1,0,0:0:0:0:
296,111,148557,1,12,0:0:0:0:
296,111,148724,1,8,0:0:0:0:
296,111,148807,1,0,0:0:0:0:
296,111,148890,1,8,0:0:0:0:
296,111,149057,1,0,0:0:0:0:
296,111,149224,1,8,0:0:0:0:
296,111,149390,1,0,0:0:0:0:
296,111,149557,1,8,0:0:0:0:
264,207,151890,5,8,0:0:0:0:
264,207,152057,1,0,0:0:0:0:
264,207,152224,1,0,0:0:0:0:
264,207,153224,1,8,0:0:0:0:
264,207,153390,1,0,0:0:0:0:
264,207,153724,1,8,0:0:0:0:
264,207,154057,1,0,0:0:0:0:
264,207,154224,1,8,0:0:0:0:
264,207,154557,1,8,0:0:0:0:
264,207,154724,1,8,0:0:0:0:
264,207,154890,1,0,0:0:0:0:
264,207,155890,1,0,0:0:0:0:
264,207,156057,1,8,0:0:0:0:
264,207,156390,1,8,0:0:0:0:
264,207,156557,1,0,0:0:0:0:
264,207,156724,1,8,0:0:0:0:
264,207,156890,1,0,0:0:0:0:
264,207,157224,1,8,0:0:0:0:
264,207,157390,1,8,0:0:0:0:
264,207,157557,1,0,0:0:0:0:
264,207,159890,5,8,0:0:0:0:
264,207,160057,1,0,0:0:0:0:
264,207,160224,1,8,0:0:0:0:
264,207,162557,1,0,0:0:0:0:
264,207,162724,1,8,0:0:0:0:
264,207,162890,1,8,0:0:0:0:
264,207,163890,1,8,0:0:0:0:
264,207,164057,1,0,0:0:0:0:
264,207,164390,1,8,0:0:0:0:
264,207,164724,1,0,0:0:0:0:
264,207,164890,1,0,0:0:0:0:
264,207,165224,1,8,0:0:0:0:
264,207,165390,1,8,0:0:0:0:
264,207,165557,1,0,0:0:0:0:
264,207,166557,1,8,0:0:0:0:
264,207,166724,1,0,0:0:0:0:
264,207,167057,1,8,0:0:0:0:
264,207,167390,1,0,0:0:0:0:
264,207,167557,1,8,0:0:0:0:
264,207,167890,1,8,0:0:0:0:
264,207,168057,1,8,0:0:0:0:
264,207,168224,1,0,0:0:0:0:
296,111,170890,5,4,0:0:0:0:
296,111,171224,1,8,0:0:0:0:
296,111,171390,1,8,0:0:0:0:
296,111,171474,1,8,0:0:0:0:
296,111,171557,1,0,0:0:0:0:
296,111,171724,1,0,0:0:0:0:
296,111,171890,1,8,0:0:0:0:
296,111,172057,1,0,0:0:0:0:
296,111,172140,1,0,0:0:0:0:
296,111,172224,1,8,0:0:0:0:
296,111,172390,1,0,0:0:0:0:
296,111,172557,1,8,0:0:0:0:
296,111,172890,1,8,0:0:0:0:
296,111,173057,1,0,0:0:0:0:
296,111,173224,1,8,0:0:0:0:
360,111,173390,1,0,0:0:0:0:
296,111,173474,1,8,0:0:0:0:
296,111,173557,1,0,0:0:0:0:
360,111,173724,1,0,0:0:0:0:
360,111,173890,1,8,0:0:0:0:
360,111,174057,1,8,0:0:0:0:
360,111,174140,1,0,0:0:0:0:
360,111,174224,1,0,0:0:0:0:
360,111,174390,1,0,0:0:0:0:
360,111,174557,1,8,0:0:0:0:
360,111,174724,1,0,0:0:0:0:
360,111,174807,1,0,0:0:0:0:
360,111,174890,1,8,0:0:0:0:
360,111,175057,1,0,0:0:0:0:
360,111,175224,1,8,0:0:0:0:
360,111,175557,1,8,0:0:0:0:
360,111,175724,1,0,0:0:0:0:
360,111,175890,1,8,0:0:0:0:
360,111,176057,1,8,0:0:0:0:
360,111,176140,1,0,0:0:0:0:
360,111,176224,1,0,0:0:0:0:
360,111,176390,1,0,0:0:0:0:
360,111,176557,1,8,0:0:0:0:
328,175,176724,1,0,0:0:0:0:
360,111,176807,1,8,0:0:0:0:
360,111,176890,1,0,0:0:0:0:
360,111,177057,1,0,0:0:0:0:
360,111,177224,1,8,0:0:0:0:
360,111,177390,1,8,0:0:0:0:
328,175,177474,1,8,0:0:0:0:
328,207,177557,1,0,0:0:0:0:
360,175,177640,1,0,0:0:0:0:
360,111,177724,1,0,0:0:0:0:
360,111,177890,1,8,0:0:0:0:
328,175,178057,1,8,0:0:0:0:
328,175,178140,1,8,0:0:0:0:
328,207,178224,1,8,0:0:0:0:
328,175,178390,1,0,0:0:0:0:
328,175,178557,1,8,0:0:0:0:
328,175,178724,1,0,0:0:0:0:
328,175,178807,1,0,0:0:0:0:
328,175,178890,1,8,0:0:0:0:
328,175,179057,1,0,0:0:0:0:
328,175,179224,1,8,0:0:0:0:
328,175,179557,1,0,0:0:0:0:
328,175,179724,1,0,0:0:0:0:
328,175,179890,1,8,0:0:0:0:
328,175,180057,1,0,0:0:0:0:
328,175,180390,1,0,0:0:0:0:
328,175,180557,1,8,0:0:0:0:
328,175,180724,1,8,0:0:0:0:
328,175,180890,1,0,0:0:0:0:
328,175,181057,1,0,0:0:0:0:
328,175,181140,1,0,0:0:0:0:
328,175,181224,1,0,0:0:0:0:
328,175,181390,1,8,0:0:0:0:
328,175,181557,5,4,0:0:0:0:
296,111,181890,1,8,0:0:0:0:
296,111,182057,1,0,0:0:0:0:
296,111,182140,1,8,0:0:0:0:
296,111,182224,1,0,0:0:0:0:
296,111,182390,1,0,0:0:0:0:
296,111,182557,1,8,0:0:0:0:
296,111,182724,1,8,0:0:0:0:
296,111,182807,1,0,0:0:0:0:
296,111,182890,1,8,0:0:0:0:
296,111,183057,1,0,0:0:0:0:
296,111,183224,1,8,0:0:0:0:
296,111,183557,1,8,0:0:0:0:
296,111,183724,1,0,0:0:0:0:
296,111,183890,1,8,0:0:0:0:
360,111,184057,1,8,0:0:0:0:
296,111,184140,1,8,0:0:0:0:
296,111,184224,1,0,0:0:0:0:
360,111,184390,1,0,0:0:0:0:
360,111,184557,1,8,0:0:0:0:
360,111,184724,1,0,0:0:0:0:
360,111,184807,1,8,0:0:0:0:
360,111,184890,1,0,0:0:0:0:
360,111,185057,1,0,0:0:0:0:
360,111,185224,1,8,0:0:0:0:
328,175,185390,1,8,0:0:0:0:
328,207,185474,1,0,0:0:0:0:
360,111,185557,1,8,0:0:0:0:
360,143,185640,1,8,0:0:0:0:
360,111,185724,1,0,0:0:0:0:
360,111,185890,1,8,0:0:0:0:
296,79,186057,1,8,0:0:0:0:
360,111,186224,1,0,0:0:0:0:
264,79,186390,1,0,0:0:0:0:
360,111,186474,1,0,0:0:0:0:
360,111,186557,1,8,0:0:0:0:
360,111,186724,1,8,0:0:0:0:
264,79,186890,1,0,0:0:0:0:
360,111,187224,1,8,0:0:0:0:
360,111,187557,1,0,0:0:0:0:
360,111,187724,1,0,0:0:0:0:
360,111,187890,1,8,0:0:0:0:
360,111,188057,1,0,0:0:0:0:
360,111,188390,1,0,0:0:0:0:
360,111,188557,1,8,0:0:0:0:
328,175,188724,1,8,0:0:0:0:
328,175,188807,1,8,0:0:0:0:
328,175,188890,1,0,0:0:0:0:
328,175,189057,1,0,0:0:0:0:
328,175,189224,1,8,0:0:0:0:
328,175,189390,1,8,0:0:0:0:
328,175,189557,1,0,0:0:0:0:
328,175,189890,1,8,0:0:0:0:
328,175,190224,1,0,0:0:0:0:
328,175,190390,1,0,0:0:0:0:
328,175,190557,1,8,0:0:0:0:
328,175,190724,1,0,0:0:0:0:
328,175,191057,1,0,0:0:0:0:
328,175,191224,1,8,0:0:0:0:
328,175,191390,1,8,0:0:0:0:
328,175,191557,1,0,0:0:0:0:
265,102,191724,1,0,0:0:0:0:
328,175,191890,1,8,0:0:0:0:
261,77,191974,1,0,0:0:0:0:
328,175,192057,1,8,0:0:0:0:
312,111,196224,5,4,0:0:0:0:
312,111,198890,5,0,0:0:0:0:
312,111,199224,1,8,0:0:0:0:
312,111,199557,1,8,0:0:0:0:
312,111,199724,1,0,0:0:0:0:
312,111,199890,1,0,0:0:0:0:
312,111,200057,1,0,0:0:0:0:
312,111,200224,5,12,0:0:0:0:
312,111,200390,1,12,0:0:0:0:
312,111,200890,5,12,0:0:0:0:
312,111,201057,1,12,0:0:0:0:
264,79,201557,5,4,0:0:0:0:
264,79,201890,1,8,0:0:0:0:
264,79,202057,1,0,0:0:0:0:
264,79,202224,1,8,0:0:0:0:
328,111,202307,1,8,0:0:0:0:
328,111,202390,1,0,0:0:0:0:
264,79,202557,1,8,0:0:0:0:
264,79,202640,1,8,0:0:0:0:
264,79,202724,1,0,0:0:0:0:
264,79,202807,1,0,0:0:0:0:
264,79,202890,1,8,0:0:0:0:
264,79,202974,1,0,0:0:0:0:
264,79,203057,1,0,0:0:0:0:
232,175,203224,1,8,0:0:0:0:
264,79,203390,1,8,0:0:0:0:
232,111,203474,1,8,0:0:0:0:
248,111,203557,1,0,0:0:0:0:
232,111,203724,1,0,0:0:0:0:
296,95,203890,1,8,0:0:0:0:
232,111,204057,1,0,0:0:0:0:
232,111,204140,1,0,0:0:0:0:
232,111,204224,1,8,0:0:0:0:
296,95,204307,1,8,0:0:0:0:
328,95,204390,1,0,0:0:0:0:
232,111,204557,1,8,0:0:0:0:
296,79,204724,1,0,0:0:0:0:
296,79,204807,1,8,0:0:0:0:
296,79,204890,1,0,0:0:0:0:
296,79,205057,1,0,0:0:0:0:
296,79,205224,1,8,0:0:0:0:
236,87,205307,1,0,0:0:0:0:
296,79,205390,1,8,0:0:0:0:
296,79,205474,1,0,0:0:0:0:
296,79,205557,1,8,0:0:0:0:
296,79,205640,1,8,0:0:0:0:
296,79,205724,1,0,0:0:0:0:
296,79,205890,1,8,0:0:0:0:
296,79,206057,1,0,0:0:0:0:
307,88,206140,1,0,0:0:0:0:
296,79,206224,1,8,0:0:0:0:
296,79,206390,1,0,0:0:0:0:
296,79,206474,1,0,0:0:0:0:
296,79,206557,1,8,0:0:0:0:
259,60,206640,1,8,0:0:0:0:
296,79,206724,1,0,0:0:0:0:
296,79,206890,1,12,0:0:0:0:
296,79,207224,5,8,0:0:0:0:
296,79,207390,1,0,0:0:0:0:
296,79,207474,1,0,0:0:0:0:
296,79,207557,1,8,0:0:0:0:
296,79,207724,1,0,0:0:0:0:
296,79,207890,1,8,0:0:0:0:
296,79,207974,1,0,0:0:0:0:
296,79,208057,1,8,0:0:0:0:
296,79,208140,1,8,0:0:0:0:
296,79,208224,1,0,0:0:0:0:
296,79,208390,1,0,0:0:0:0:
296,79,208557,1,8,0:0:0:0:
296,79,208724,1,0,0:0:0:0:
296,79,208807,1,8,0:0:0:0:
296,79,208890,1,8,0:0:0:0:
296,79,208974,1,8,0:0:0:0:
296,79,209057,1,0,0:0:0:0:
296,79,209224,1,8,0:0:0:0:
296,79,209390,1,8,0:0:0:0:
296,79,209474,1,8,0:0:0:0:
296,79,209557,1,0,0:0:0:0:
283,92,209724,1,0,0:0:0:0:
300,123,209890,1,8,0:0:0:0:
264,135,210057,1,0,0:0:0:0:
264,79,210140,1,0,0:0:0:0:
264,79,210224,1,8,0:0:0:0:
264,79,210390,1,0,0:0:0:0:
264,79,210557,1,8,0:0:0:0:
264,79,210724,5,12,0:0:0:0:
264,79,211057,5,0,0:0:0:0:
264,79,211224,1,8,0:0:0:0:
264,79,211390,1,0,0:0:0:0:
264,79,211474,1,0,0:0:0:0:
264,79,211557,1,8,0:0:0:0:
264,79,211724,1,0,0:0:0:0:
264,111,211807,1,0,0:0:0:0:
264,79,211890,1,8,0:0:0:0:
264,79,211974,1,8,0:0:0:0:
264,79,212057,1,8,0:0:0:0:
264,79,212140,1,8,0:0:0:0:
264,79,212224,1,4,0:0:0:0:
264,79,212557,1,12,0:0:0:0:
264,79,212724,5,0,0:0:0:0:
264,79,212890,1,8,0:0:0:0:
296,111,212974,1,8,0:0:0:0:
264,79,213057,1,0,0:0:0:0:
264,79,213224,1,8,0:0:0:0:
264,79,213307,1,8,0:0:0:0:
264,79,213390,1,0,0:0:0:0:
264,79,213474,1,0,0:0:0:0:
264,79,213557,1,8,0:0:0:0:
296,111,213640,1,0,0:0:0:0:
264,79,213724,1,0,0:0:0:0:
232,175,213890,1,8,0:0:0:0:
264,79,214057,1,8,0:0:0:0:
232,111,214140,1,8,0:0:0:0:
232,111,214224,1,0,0:0:0:0:
232,111,214390,1,0,0:0:0:0:
232,111,214557,1,8,0:0:0:0:
232,111,214724,1,0,0:0:0:0:
232,111,214807,1,0,0:0:0:0:
232,111,214890,1,8,0:0:0:0:
248,111,214974,1,8,0:0:0:0:
280,95,215057,1,0,0:0:0:0:
232,111,215224,1,8,0:0:0:0:
296,79,215390,1,0,0:0:0:0:
264,79,215474,1,0,0:0:0:0:
264,79,215557,1,8,0:0:0:0:
264,79,215640,1,8,0:0:0:0:
296,79,215724,1,0,0:0:0:0:
280,95,215807,1,0,0:0:0:0:
296,79,215890,1,8,0:0:0:0:
296,79,216057,1,8,0:0:0:0:
296,79,216140,1,0,0:0:0:0:
296,79,216224,1,8,0:0:0:0:
296,79,216390,1,0,0:0:0:0:
296,79,216557,1,8,0:0:0:0:
296,79,216724,1,0,0:0:0:0:
296,79,216807,1,0,0:0:0:0:
275,100,216890,1,8,0:0:0:0:
275,76,216974,1,0,0:0:0:0:
296,79,217057,1,8,0:0:0:0:
275,100,217140,1,8,0:0:0:0:
296,79,217224,1,0,0:0:0:0:
296,79,217390,1,8,0:0:0:0:
296,79,217557,5,4,0:0:0:0:
296,79,217724,1,0,0:0:0:0:
333,117,217807,1,0,0:0:0:0:
333,117,217890,1,8,0:0:0:0:
296,79,218057,1,0,0:0:0:0:
296,79,218224,1,8,0:0:0:0:
312,99,218307,1,8,0:0:0:0:
296,79,218390,1,0,0:0:0:0:
296,79,218557,1,8,0:0:0:0:
296,79,218640,1,0,0:0:0:0:
296,79,218724,1,8,0:0:0:0:
232,79,218807,1,8,0:0:0:0:
296,79,218890,1,0,0:0:0:0:
296,79,219057,1,0,0:0:0:0:
296,79,219224,1,8,0:0:0:0:
296,79,219390,1,0,0:0:0:0:
296,79,219474,1,0,0:0:0:0:
296,79,219557,1,8,0:0:0:0:
264,111,219724,1,0,0:0:0:0:
296,79,219807,1,0,0:0:0:0:
296,79,219890,1,8,0:0:0:0:
296,79,219974,1,8,0:0:0:0:
296,79,220057,1,8,0:0:0:0:
296,79,220140,1,8,0:0:0:0:
296,79,220224,1,4,0:0:0:0:
265,139,220557,5,8,0:0:0:0:
232,124,220724,1,0,0:0:0:0:
264,79,220807,1,0,0:0:0:0:
264,79,220890,1,8,0:0:0:0:
264,79,221057,1,0,0:0:0:0:
264,79,221224,1,8,0:0:0:0:
264,79,221307,1,0,0:0:0:0:
264,79,221390,1,8,0:0:0:0:
264,79,221557,1,0,0:0:0:0:
264,79,221724,1,0,0:0:0:0:
264,79,221890,1,8,0:0:0:0:
264,79,222057,1,0,0:0:0:0:
264,79,222140,1,0,0:0:0:0:
264,79,222224,1,8,0:0:0:0:
264,79,222390,1,0,0:0:0:0:
264,79,222557,1,8,0:0:0:0:
264,79,222640,1,0,0:0:0:0:
264,79,222724,1,8,0:0:0:0:
264,79,222890,1,4,0:0:0:0:
199,155,223224,5,8,0:0:0:0:
277,159,223390,1,0,0:0:0:0:
264,79,223474,1,0,0:0:0:0:
264,79,223557,1,8,0:0:0:0:
264,79,223724,1,0,0:0:0:0:
264,79,223890,1,8,0:0:0:0:
264,79,223974,1,0,0:0:0:0:
264,79,224057,1,8,0:0:0:0:
264,79,224224,1,0,0:0:0:0:
264,79,224390,1,0,0:0:0:0:
264,79,224557,1,8,0:0:0:0:
264,79,224724,1,0,0:0:0:0:
264,79,224807,1,0,0:0:0:0:
264,79,224890,1,8,0:0:0:0:
264,79,225057,1,0,0:0:0:0:
264,79,225224,1,8,0:0:0:0:
264,79,225307,1,0,0:0:0:0:
264,79,225390,1,8,0:0:0:0:
264,79,225557,1,4,0:0:0:0:
235,166,225890,5,8,0:0:0:0:
212,158,226057,1,0,0:0:0:0:
264,79,226140,1,0,0:0:0:0:
264,79,226224,1,8,0:0:0:0:
264,79,226390,1,0,0:0:0:0:
264,79,226557,1,8,0:0:0:0:
264,79,226640,1,0,0:0:0:0:
264,79,226724,1,8,0:0:0:0:
264,79,226890,1,0,0:0:0:0:
264,79,227057,1,0,0:0:0:0:
264,79,227224,1,8,0:0:0:0:
264,79,227390,1,0,0:0:0:0:
264,79,227474,1,0,0:0:0:0:
264,79,227557,1,8,0:0:0:0:
296,95,227640,1,0,0:0:0:0:
264,79,227724,1,0,0:0:0:0:
264,79,227890,1,8,0:0:0:0:
264,79,227974,1,0,0:0:0:0:
264,79,228057,1,8,0:0:0:0:
264,79,228224,1,4,0:0:0:0:
230,156,228557,5,8,0:0:0:0:
215,135,228724,1,0,0:0:0:0:
264,79,228807,1,0,0:0:0:0:
264,79,228890,1,8,0:0:0:0:
264,79,228974,1,0,0:0:0:0:
264,79,229057,1,8,0:0:0:0:
264,79,229224,1,8,0:0:0:0:
264,79,229390,1,0,0:0:0:0:
264,79,229557,1,12,0:0:0:0:
264,79,229724,1,0,0:0:0:0:
264,79,229807,1,0,0:0:0:0:
264,79,229890,1,8,0:0:0:0:
264,79,230057,1,8,0:0:0:0:
264,79,230140,1,0,0:0:0:0:
264,79,230224,1,8,0:0:0:0:
264,79,230307,1,8,0:0:0:0:
264,79,230390,1,0,0:0:0:0:
264,79,230474,1,0,0:0:0:0:
264,79,230557,1,8,0:0:0:0:
264,79,230640,1,8,0:0:0:0:
264,79,230724,1,8,0:0:0:0:
264,79,230807,1,8,0:0:0:0:
264,79,230890,1,4,0:0:0:0:
244,175,231224,5,12,0:0:0:0:
285,162,231390,1,0,0:0:0:0:
264,79,231474,1,0,0:0:0:0:
264,79,231557,1,8,0:0:0:0:
264,79,231724,1,0,0:0:0:0:
264,79,231890,5,12,0:0:0:0:
264,79,232057,1,0,0:0:0:0:
264,79,232140,1,8,0:0:0:0:
264,79,232224,1,0,0:0:0:0:
264,79,232390,1,0,0:0:0:0:
264,79,232557,5,12,0:0:0:0:
264,79,232724,1,0,0:0:0:0:
264,79,232807,1,0,0:0:0:0:
264,79,232890,1,8,0:0:0:0:
264,79,232974,1,0,0:0:0:0:
264,79,233057,1,0,0:0:0:0:
264,79,233224,5,12,0:0:0:0:
264,79,233390,1,8,0:0:0:0:
264,79,233474,1,8,0:0:0:0:
264,79,233557,1,0,0:0:0:0:
264,79,233724,1,0,0:0:0:0:
250,145,233890,5,12,0:0:0:0:
268,154,234057,1,0,0:0:0:0:
264,79,234140,1,0,0:0:0:0:
264,79,234224,1,8,0:0:0:0:
264,79,234307,1,8,0:0:0:0:
264,79,234390,1,0,0:0:0:0:
264,79,234557,5,12,0:0:0:0:
264,79,234724,1,8,0:0:0:0:
264,79,234807,1,8,0:0:0:0:
264,79,234890,1,8,0:0:0:0:
264,79,235057,1,0,0:0:0:0:
264,79,235224,5,12,0:0:0:0:
264,79,235390,1,0,0:0:0:0:
264,79,235474,1,0,0:0:0:0:
264,79,235557,1,8,0:0:0:0:
264,79,235724,1,0,0:0:0:0:
264,79,235890,5,12,0:0:0:0:
264,79,236057,1,8,0:0:0:0:
264,79,236224,5,4,0:0:0:0:
264,79,237557,1,4,0:0:0:0:
264,79,238891,5,12,0:0:0:0:
