osu file format v14

[General]
AudioFilename: audio.mp3
AudioLeadIn: 0
PreviewTime: 195140
Countdown: 0
SampleSet: Normal
StackLeniency: 0.7
Mode: 1
LetterboxInBreaks: 0
WidescreenStoryboard: 1

[Editor]
Bookmarks: 2891,13557,24224,34891,45557,61557,72224,85557,96224,106890,117557,128224,149557,170890,181557,201557,212224,220224,230890
DistanceSpacing: 1.4
BeatDivisor: 4
GridSize: 32
TimelineZoom: 1.6

[Metadata]
Title:Itte.
TitleUnicode:言って。
Artist:Yorushika
ArtistUnicode:ヨルシカ
Creator:gaston_2199
Version:Muzukashii.
Source:
Tags:say it ナブナ n-buna nbuna n buna スイ suis 夏草が邪魔をする Natsukusa ga Jama wo Suru pop j-pop jpop rock jrock j-rock japanese female vocal
BeatmapID:2760213
BeatmapSetID:1332152

[Difficulty]
HPDrainRate:6
CircleSize:2
OverallDifficulty:5
ApproachRate:10
SliderMultiplier:1.4
SliderTickRate:1

[Events]
//Background and Video events
0,0,"BG Muzukashii.png",0,-40
Video,-951,"TaikoVideo.mp4"
//Break Periods
2,192257,195774
//Storyboard Layer 0 (Background)
//Storyboard Layer 1 (Fail)
//Storyboard Layer 2 (Pass)
//Storyboard Layer 3 (Foreground)
//Storyboard Layer 4 (Overlay)
//Storyboard Sound Samples

[TimingPoints]
225,333.333333333333,4,1,0,60,1,0
225,-133.333333333333,4,1,0,60,0,0
2891,333.333333333333,4,1,0,80,1,0
24557,-111.111111111111,4,1,0,70,0,0
45890,-105.263157894737,4,1,0,70,0,0
56224,-100,4,1,0,70,0,0
61557,-100,4,1,0,90,0,1
82890,-100,4,1,0,80,0,0
84224,-111.111111111111,4,1,0,80,0,0
85557,-100,4,1,0,80,0,0
107224,-111.111111111111,4,1,0,70,0,0
128224,-100,4,1,0,80,0,1
149557,-100,4,1,0,80,0,0
149890,-133.333333333333,4,1,0,60,0,0
170890,-100,4,1,0,80,0,0
196224,-133.333333333333,4,1,0,60,0,0
200224,-125,4,1,0,70,0,0
200890,-111.111111111111,4,1,0,70,0,0
201557,-100,4,1,0,90,0,1
236224,-100,4,1,0,80,0,0
237557,-111.111111111111,4,1,0,80,0,0
238890,-100,4,1,0,80,0,0

[HitObjects]
256,192,225,5,8,0:0:0:0:
256,192,891,1,0,0:0:0:0:
256,192,1224,1,8,0:0:0:0:
256,192,1391,1,0,0:0:0:0:
256,192,1724,1,8,0:0:0:0:
256,192,2058,1,8,0:0:0:0:
256,192,2891,1,12,0:0:0:0:
256,192,3224,1,8,0:0:0:0:
256,192,3390,1,0,0:0:0:0:
256,192,3557,1,8,0:0:0:0:
143,18,3890,1,8,0:0:0:0:
256,192,4057,1,0,0:0:0:0:
256,128,4390,1,8,0:0:0:0:
256,128,4724,1,0,0:0:0:0:
256,128,4890,1,0,0:0:0:0:
256,128,5224,1,8,0:0:0:0:
256,96,5557,1,0,0:0:0:0:
256,128,5890,1,8,0:0:0:0:
288,32,6057,1,8,0:0:0:0:
256,96,6390,1,0,0:0:0:0:
256,128,6557,1,8,0:0:0:0:
144,68,6724,1,0,0:0:0:0:
256,128,6890,1,8,0:0:0:0:
256,128,7224,1,8,0:0:0:0:
256,32,7390,1,0,0:0:0:0:
288,160,7890,1,8,0:0:0:0:
256,96,8057,1,0,0:0:0:0:
256,192,8224,1,8,0:0:0:0:
256,192,8557,1,8,0:0:0:0:
256,96,8890,1,8,0:0:0:0:
256,192,9057,1,0,0:0:0:0:
256,192,9224,1,8,0:0:0:0:
256,192,9390,1,0,0:0:0:0:
256,128,9724,1,8,0:0:0:0:
256,128,10057,1,8,0:0:0:0:
256,128,10224,1,0,0:0:0:0:
256,128,10557,1,8,0:0:0:0:
256,96,10890,1,0,0:0:0:0:
256,128,11224,1,8,0:0:0:0:
256,128,11724,1,0,0:0:0:0:
256,128,11890,1,8,0:0:0:0:
288,64,12057,1,0,0:0:0:0:
256,128,12390,1,0,0:0:0:0:
256,128,12557,1,8,0:0:0:0:
224,64,12724,1,8,0:0:0:0:
256,128,12890,1,0,0:0:0:0:
288,160,13224,1,8,0:0:0:0:
256,192,13557,1,4,0:0:0:0:
256,192,13890,1,8,0:0:0:0:
256,192,14057,1,0,0:0:0:0:
256,192,14224,1,8,0:0:0:0:
139,72,14557,1,8,0:0:0:0:
256,192,14724,1,0,0:0:0:0:
256,128,15057,1,8,0:0:0:0:
256,128,15390,1,0,0:0:0:0:
256,128,15557,1,0,0:0:0:0:
256,128,15890,1,8,0:0:0:0:
256,96,16224,1,0,0:0:0:0:
256,128,16557,1,8,0:0:0:0:
288,32,16724,1,8,0:0:0:0:
93,163,17057,1,0,0:0:0:0:
256,128,17224,1,8,0:0:0:0:
175,26,17390,1,0,0:0:0:0:
256,128,17557,1,8,0:0:0:0:
256,128,17890,1,8,0:0:0:0:
256,32,18057,1,0,0:0:0:0:
288,160,18557,1,8,0:0:0:0:
256,96,18724,1,0,0:0:0:0:
256,192,18890,1,8,0:0:0:0:
256,192,19224,1,8,0:0:0:0:
256,128,19557,1,8,0:0:0:0:
256,192,19724,1,0,0:0:0:0:
256,192,19890,1,8,0:0:0:0:
256,192,20057,1,0,0:0:0:0:
256,128,20390,1,8,0:0:0:0:
256,128,20724,1,8,0:0:0:0:
256,128,20890,1,0,0:0:0:0:
256,128,21224,1,8,0:0:0:0:
256,96,21557,1,0,0:0:0:0:
256,128,21890,1,8,0:0:0:0:
256,128,22390,1,0,0:0:0:0:
256,128,22557,1,8,0:0:0:0:
288,64,22724,1,0,0:0:0:0:
256,128,23057,1,0,0:0:0:0:
256,128,23224,1,8,0:0:0:0:
224,64,23390,1,0,0:0:0:0:
224,64,23474,1,0,0:0:0:0:
256,128,23557,1,0,0:0:0:0:
288,224,23724,1,0,0:0:0:0:
288,160,23890,1,8,0:0:0:0:
256,96,24224,1,12,0:0:0:0:
256,96,24557,1,8,0:0:0:0:
256,96,24890,1,0,0:0:0:0:
256,96,25390,1,0,0:0:0:0:
256,96,25724,1,8,0:0:0:0:
256,96,26057,1,8,0:0:0:0:
256,96,26224,1,0,0:0:0:0:
256,96,26557,1,8,0:0:0:0:
256,96,26724,1,8,0:0:0:0:
256,96,26890,1,0,0:0:0:0:
256,64,27224,1,8,0:0:0:0:
256,64,27557,1,0,0:0:0:0:
256,64,27890,1,8,0:0:0:0:
320,128,28057,1,0,0:0:0:0:
144,112,28390,1,8,0:0:0:0:
320,96,28724,1,8,0:0:0:0:
320,96,28890,1,0,0:0:0:0:
320,96,29224,1,8,0:0:0:0:
349,109,29390,1,0,0:0:0:0:
320,96,29557,1,8,0:0:0:0:
320,96,29890,1,8,0:0:0:0:
320,96,30224,1,0,0:0:0:0:
320,96,30557,1,8,0:0:0:0:
288,64,30724,1,0,0:0:0:0:
256,64,31224,1,8,0:0:0:0:
256,64,31557,1,0,0:0:0:0:
256,64,31890,1,8,0:0:0:0:
179,57,32057,1,0,0:0:0:0:
256,64,32224,1,0,0:0:0:0:
256,64,32557,1,8,0:0:0:0:
256,64,32890,1,0,0:0:0:0:
256,64,33390,1,0,0:0:0:0:
288,64,33724,1,8,0:0:0:0:
288,64,34057,1,8,0:0:0:0:
288,64,34224,1,0,0:0:0:0:
288,64,34557,1,8,0:0:0:0:
288,64,34724,1,0,0:0:0:0:
256,96,34890,1,12,0:0:0:0:
256,96,35224,1,8,0:0:0:0:
256,96,35557,1,0,0:0:0:0:
256,96,36057,1,0,0:0:0:0:
256,96,36390,1,8,0:0:0:0:
256,96,36724,1,8,0:0:0:0:
256,96,36890,1,0,0:0:0:0:
256,96,37224,1,8,0:0:0:0:
229,204,37390,1,0,0:0:0:0:
256,96,37557,1,8,0:0:0:0:
256,64,37890,1,8,0:0:0:0:
256,64,38224,1,0,0:0:0:0:
256,64,38557,1,8,0:0:0:0:
320,128,38724,1,0,0:0:0:0:
320,96,39057,1,8,0:0:0:0:
171,1,39390,1,0,0:0:0:0:
320,96,39557,1,0,0:0:0:0:
320,96,39890,1,8,0:0:0:0:
250,44,40057,1,0,0:0:0:0:
320,96,40224,1,8,0:0:0:0:
320,96,40557,1,8,0:0:0:0:
320,96,40890,1,0,0:0:0:0:
320,96,41224,1,8,0:0:0:0:
288,64,41390,1,0,0:0:0:0:
256,64,41890,1,8,0:0:0:0:
256,64,42224,1,0,0:0:0:0:
256,64,42557,1,8,0:0:0:0:
222,49,42724,5,0,0:0:0:0:
256,64,42890,1,12,0:0:0:0:
256,64,43390,1,4,0:0:0:0:
256,64,43890,1,8,0:0:0:0:
192,0,44224,1,4,0:0:0:0:
288,64,44724,1,12,0:0:0:0:
288,64,45224,1,8,0:0:0:0:
288,64,45390,1,8,0:0:0:0:
288,64,45557,1,4,0:0:0:0:
128,0,45890,1,8,0:0:0:0:
224,32,46224,1,8,0:0:0:0:
167,39,46390,1,0,0:0:0:0:
256,128,46557,1,8,0:0:0:0:
256,128,46890,1,0,0:0:0:0:
162,53,47224,1,8,0:0:0:0:
256,128,47557,1,8,0:0:0:0:
256,128,47724,1,0,0:0:0:0:
256,128,47890,1,8,0:0:0:0:
256,128,48224,1,0,0:0:0:0:
288,64,48557,1,8,0:0:0:0:
288,64,48890,1,0,0:0:0:0:
147,57,49057,1,0,0:0:0:0:
224,32,49224,1,8,0:0:0:0:
224,32,49557,1,0,0:0:0:0:
224,32,50224,1,8,0:0:0:0:
224,32,50390,1,0,0:0:0:0:
224,32,50557,1,8,0:0:0:0:
224,32,50890,1,0,0:0:0:0:
128,0,51224,1,8,0:0:0:0:
224,32,51557,1,8,0:0:0:0:
207,33,51724,1,0,0:0:0:0:
256,128,51890,1,8,0:0:0:0:
256,128,52224,1,0,0:0:0:0:
256,128,52557,1,8,0:0:0:0:
256,128,52890,1,0,0:0:0:0:
256,128,53057,1,0,0:0:0:0:
256,128,53224,1,8,0:0:0:0:
256,128,53557,1,0,0:0:0:0:
288,64,53890,1,8,0:0:0:0:
288,64,54224,1,0,0:0:0:0:
148,81,54390,1,0,0:0:0:0:
224,32,54557,1,8,0:0:0:0:
224,32,54890,1,8,0:0:0:0:
224,32,55057,1,0,0:0:0:0:
224,32,55224,1,8,0:0:0:0:
170,83,55390,1,8,0:0:0:0:
224,32,55557,1,0,0:0:0:0:
224,32,55890,1,8,0:0:0:0:
224,32,56224,1,4,0:0:0:0:
224,32,56557,1,8,0:0:0:0:
224,32,57057,1,8,0:0:0:0:
224,32,57390,1,0,0:0:0:0:
224,32,57557,1,8,0:0:0:0:
224,32,57724,1,0,0:0:0:0:
224,32,58057,1,8,0:0:0:0:
224,32,58557,1,8,0:0:0:0:
224,32,58724,1,8,0:0:0:0:
224,32,58890,1,0,0:0:0:0:
224,32,59224,1,8,0:0:0:0:
224,32,59390,1,8,0:0:0:0:
224,32,59557,1,8,0:0:0:0:
224,32,59724,1,8,0:0:0:0:
224,32,59890,1,8,0:0:0:0:
224,32,60057,1,0,0:0:0:0:
224,32,60224,1,12,0:0:0:0:
224,32,61557,1,4,0:0:0:0:
224,32,61890,1,8,0:0:0:0:
224,32,62224,1,0,0:0:0:0:
288,64,62390,1,0,0:0:0:0:
224,32,62557,1,8,0:0:0:0:
224,32,62890,1,0,0:0:0:0:
192,128,63224,1,8,0:0:0:0:
224,32,63390,1,0,0:0:0:0:
149,154,63724,1,0,0:0:0:0:
192,64,63890,1,8,0:0:0:0:
192,64,64224,1,0,0:0:0:0:
192,64,64557,1,8,0:0:0:0:
256,32,64890,1,0,0:0:0:0:
256,32,65057,1,0,0:0:0:0:
256,32,65224,1,8,0:0:0:0:
256,32,65390,1,8,0:0:0:0:
256,32,65557,1,0,0:0:0:0:
256,32,66224,1,8,0:0:0:0:
158,136,66390,1,0,0:0:0:0:
256,32,66557,1,8,0:0:0:0:
256,32,66890,1,0,0:0:0:0:
256,32,67224,1,8,0:0:0:0:
256,32,67557,1,0,0:0:0:0:
256,32,67724,1,0,0:0:0:0:
256,32,67890,1,8,0:0:0:0:
256,32,68057,1,0,0:0:0:0:
174,65,68390,1,8,0:0:0:0:
256,32,68724,1,0,0:0:0:0:
256,32,68890,1,8,0:0:0:0:
256,32,69224,1,8,0:0:0:0:
256,32,69390,1,8,0:0:0:0:
256,32,69557,1,0,0:0:0:0:
32,64,69890,1,8,0:0:0:0:
224,32,70224,1,0,0:0:0:0:
224,32,70724,1,12,0:0:0:0:
224,32,71557,1,8,0:0:0:0:
224,32,71724,1,0,0:0:0:0:
224,32,71890,1,8,0:0:0:0:
224,32,71974,1,8,0:0:0:0:
224,32,72057,1,8,0:0:0:0:
224,32,72224,1,4,0:0:0:0:
224,32,72557,1,8,0:0:0:0:
216,20,72890,1,0,0:0:0:0:
224,32,73057,1,0,0:0:0:0:
224,32,73224,1,8,0:0:0:0:
224,32,73557,1,0,0:0:0:0:
192,128,73890,1,8,0:0:0:0:
224,32,74057,1,0,0:0:0:0:
192,64,74390,1,0,0:0:0:0:
192,64,74557,1,8,0:0:0:0:
192,64,74890,1,0,0:0:0:0:
192,64,75224,1,8,0:0:0:0:
224,32,75557,1,8,0:0:0:0:
256,32,75724,1,0,0:0:0:0:
256,32,75890,1,8,0:0:0:0:
256,32,76057,1,8,0:0:0:0:
256,32,76224,1,0,0:0:0:0:
256,32,76890,1,8,0:0:0:0:
130,136,77057,1,0,0:0:0:0:
256,32,77224,1,8,0:0:0:0:
256,32,77557,1,4,0:0:0:0:
256,32,77890,1,8,0:0:0:0:
256,32,78224,1,8,0:0:0:0:
202,39,78390,1,0,0:0:0:0:
256,32,78557,1,8,0:0:0:0:
256,32,78890,1,0,0:0:0:0:
256,32,79224,1,8,0:0:0:0:
256,32,79557,1,8,0:0:0:0:
202,28,79724,1,0,0:0:0:0:
256,32,79890,1,8,0:0:0:0:
256,32,80224,1,0,0:0:0:0:
32,64,80557,1,8,0:0:0:0:
224,32,80890,1,0,0:0:0:0:
224,32,81557,1,0,0:0:0:0:
165,73,81724,1,0,0:0:0:0:
224,32,81890,1,12,0:0:0:0:
224,32,82224,1,8,0:0:0:0:
224,32,82390,1,8,0:0:0:0:
224,32,82474,1,8,0:0:0:0:
224,32,82557,1,8,0:0:0:0:
224,32,82724,1,8,0:0:0:0:
224,32,82890,1,4,0:0:0:0:
224,32,84224,1,4,0:0:0:0:
256,192,85557,1,12,0:0:0:0:
256,192,85890,1,8,0:0:0:0:
256,192,86057,1,0,0:0:0:0:
256,192,86224,1,8,0:0:0:0:
215,141,86557,1,8,0:0:0:0:
256,192,86724,1,0,0:0:0:0:
256,128,87057,1,8,0:0:0:0:
256,128,87390,1,0,0:0:0:0:
256,128,87557,1,0,0:0:0:0:
256,128,87890,1,8,0:0:0:0:
256,96,88224,1,0,0:0:0:0:
256,128,88557,1,8,0:0:0:0:
288,32,88724,1,8,0:0:0:0:
256,96,89057,1,0,0:0:0:0:
256,128,89224,1,8,0:0:0:0:
144,68,89390,1,0,0:0:0:0:
256,128,89557,1,8,0:0:0:0:
256,128,89890,1,8,0:0:0:0:
256,32,90057,1,0,0:0:0:0:
288,160,90557,1,8,0:0:0:0:
256,96,90724,1,0,0:0:0:0:
256,192,90890,1,8,0:0:0:0:
256,192,91224,1,8,0:0:0:0:
256,96,91557,1,8,0:0:0:0:
256,192,91724,1,0,0:0:0:0:
256,192,91890,1,8,0:0:0:0:
256,192,92057,1,0,0:0:0:0:
256,128,92390,1,8,0:0:0:0:
256,128,92724,1,8,0:0:0:0:
256,128,92890,1,0,0:0:0:0:
256,128,93224,1,8,0:0:0:0:
256,96,93557,1,0,0:0:0:0:
256,128,93890,1,8,0:0:0:0:
256,128,94390,1,0,0:0:0:0:
256,128,94557,1,8,0:0:0:0:
288,64,94724,1,0,0:0:0:0:
256,128,95057,1,0,0:0:0:0:
256,128,95224,1,8,0:0:0:0:
224,64,95390,1,8,0:0:0:0:
256,128,95557,1,0,0:0:0:0:
288,160,95890,1,8,0:0:0:0:
256,192,96224,1,4,0:0:0:0:
256,192,96557,1,8,0:0:0:0:
256,192,96724,1,0,0:0:0:0:
256,192,96890,1,8,0:0:0:0:
179,81,97224,1,8,0:0:0:0:
256,192,97390,1,0,0:0:0:0:
256,128,97724,1,8,0:0:0:0:
256,128,98057,1,0,0:0:0:0:
256,128,98224,1,0,0:0:0:0:
256,128,98557,1,8,0:0:0:0:
256,96,98890,1,0,0:0:0:0:
256,128,99224,1,8,0:0:0:0:
288,32,99390,1,8,0:0:0:0:
256,96,99724,1,0,0:0:0:0:
256,128,99890,1,8,0:0:0:0:
175,26,100057,1,0,0:0:0:0:
256,128,100224,1,8,0:0:0:0:
256,128,100557,1,8,0:0:0:0:
256,32,100724,1,0,0:0:0:0:
288,160,101224,1,8,0:0:0:0:
256,96,101390,1,0,0:0:0:0:
256,192,101557,1,8,0:0:0:0:
256,192,101890,1,8,0:0:0:0:
256,128,102224,1,8,0:0:0:0:
256,192,102390,1,0,0:0:0:0:
256,192,102557,1,8,0:0:0:0:
256,192,102724,1,0,0:0:0:0:
256,128,103057,1,8,0:0:0:0:
256,128,103390,1,8,0:0:0:0:
256,128,103557,1,0,0:0:0:0:
256,128,103890,1,8,0:0:0:0:
256,96,104224,1,0,0:0:0:0:
256,128,104557,1,8,0:0:0:0:
256,128,105057,1,0,0:0:0:0:
256,128,105224,1,8,0:0:0:0:
288,64,105390,1,0,0:0:0:0:
256,128,105724,1,0,0:0:0:0:
256,128,105890,1,8,0:0:0:0:
171,5,106224,1,0,0:0:0:0:
288,224,106390,1,0,0:0:0:0:
288,160,106557,1,8,0:0:0:0:
240,91,106724,1,8,0:0:0:0:
256,96,106890,1,4,0:0:0:0:
256,96,107224,1,8,0:0:0:0:
256,96,107557,1,0,0:0:0:0:
256,96,108057,1,0,0:0:0:0:
256,96,108390,1,8,0:0:0:0:
256,96,108724,1,8,0:0:0:0:
256,96,108890,1,0,0:0:0:0:
256,96,109224,1,8,0:0:0:0:
256,96,109390,1,8,0:0:0:0:
256,96,109557,1,0,0:0:0:0:
256,64,109890,1,8,0:0:0:0:
256,64,110224,1,0,0:0:0:0:
256,64,110557,1,8,0:0:0:0:
320,128,110724,1,0,0:0:0:0:
256,64,111057,1,8,0:0:0:0:
320,96,111390,1,8,0:0:0:0:
320,96,111557,1,0,0:0:0:0:
320,96,111890,1,8,0:0:0:0:
349,109,112057,1,0,0:0:0:0:
320,96,112224,1,8,0:0:0:0:
320,96,112557,1,8,0:0:0:0:
320,96,112890,1,0,0:0:0:0:
320,96,113224,1,8,0:0:0:0:
288,64,113390,1,0,0:0:0:0:
256,64,113890,1,8,0:0:0:0:
256,64,114224,1,0,0:0:0:0:
256,64,114557,1,8,0:0:0:0:
179,57,114724,1,0,0:0:0:0:
256,64,114890,1,0,0:0:0:0:
256,64,115224,1,8,0:0:0:0:
256,64,115557,1,0,0:0:0:0:
256,64,116057,1,0,0:0:0:0:
288,64,116390,1,8,0:0:0:0:
288,64,116724,1,8,0:0:0:0:
288,64,116890,1,0,0:0:0:0:
288,64,117224,1,8,0:0:0:0:
288,64,117390,1,0,0:0:0:0:
256,96,117557,1,12,0:0:0:0:
256,96,117890,1,8,0:0:0:0:
256,96,118224,1,0,0:0:0:0:
256,96,118724,1,0,0:0:0:0:
256,96,119057,1,8,0:0:0:0:
256,96,119390,1,8,0:0:0:0:
256,96,119557,1,0,0:0:0:0:
256,96,119890,1,8,0:0:0:0:
256,96,120057,1,0,0:0:0:0:
256,96,120224,1,8,0:0:0:0:
256,64,120557,1,8,0:0:0:0:
256,64,120890,1,0,0:0:0:0:
256,64,121224,1,8,0:0:0:0:
320,128,121390,1,0,0:0:0:0:
256,64,121724,1,8,0:0:0:0:
320,96,122057,1,0,0:0:0:0:
320,96,122224,1,0,0:0:0:0:
320,96,122557,1,8,0:0:0:0:
250,44,122724,1,0,0:0:0:0:
320,96,122890,1,8,0:0:0:0:
320,96,123224,1,8,0:0:0:0:
320,96,123557,1,0,0:0:0:0:
320,96,123890,1,8,0:0:0:0:
288,64,124057,1,0,0:0:0:0:
256,64,124557,1,8,0:0:0:0:
256,64,124890,1,0,0:0:0:0:
256,64,125224,1,8,0:0:0:0:
222,49,125390,5,0,0:0:0:0:
256,64,125557,1,0,0:0:0:0:
200,10,125890,1,8,0:0:0:0:
185,7,126224,1,0,0:0:0:0:
231,10,126724,1,0,0:0:0:0:
161,44,127057,1,0,0:0:0:0:
229,27,127224,1,8,0:0:0:0:
288,64,127390,1,8,0:0:0:0:
230,31,127557,1,4,0:0:0:0:
288,64,128224,1,4,0:0:0:0:
256,192,128557,1,8,0:0:0:0:
256,192,128724,1,0,0:0:0:0:
172,134,129057,1,0,0:0:0:0:
256,192,129224,1,8,0:0:0:0:
256,192,129390,1,0,0:0:0:0:
256,128,129557,1,8,0:0:0:0:
256,128,129724,1,0,0:0:0:0:
256,128,130224,1,8,0:0:0:0:
211,27,130390,1,0,0:0:0:0:
224,32,130557,1,8,0:0:0:0:
256,96,130890,1,0,0:0:0:0:
256,128,131224,1,8,0:0:0:0:
196,10,131390,1,8,0:0:0:0:
256,64,131557,1,0,0:0:0:0:
256,128,131890,1,8,0:0:0:0:
256,128,132224,1,0,0:0:0:0:
225,2,132390,1,0,0:0:0:0:
256,128,132557,1,8,0:0:0:0:
256,128,132890,1,8,0:0:0:0:
288,224,133057,1,0,0:0:0:0:
229,22,133224,1,8,0:0:0:0:
222,12,133307,1,8,0:0:0:0:
256,96,133390,1,8,0:0:0:0:
256,192,133557,1,4,0:0:0:0:
384,96,133890,1,8,0:0:0:0:
320,128,134224,1,0,0:0:0:0:
320,128,134390,1,0,0:0:0:0:
320,128,134557,1,8,0:0:0:0:
320,128,134724,1,0,0:0:0:0:
320,128,135224,1,8,0:0:0:0:
214,40,135390,1,0,0:0:0:0:
320,128,135557,1,0,0:0:0:0:
288,64,135890,1,8,0:0:0:0:
288,64,136224,1,0,0:0:0:0:
288,64,136557,1,8,0:0:0:0:
187,14,136724,1,0,0:0:0:0:
288,64,136890,1,8,0:0:0:0:
288,64,137224,1,8,0:0:0:0:
187,22,137390,1,0,0:0:0:0:
149,119,137724,1,0,0:0:0:0:
288,64,137890,1,8,0:0:0:0:
240,32,138224,1,0,0:0:0:0:
288,64,138390,1,8,0:0:0:0:
288,64,138474,1,8,0:0:0:0:
288,64,138557,1,8,0:0:0:0:
288,64,138724,1,8,0:0:0:0:
288,64,138890,1,4,0:0:0:0:
256,64,139224,1,12,0:0:0:0:
256,64,139557,1,8,0:0:0:0:
256,64,139724,1,0,0:0:0:0:
256,64,139890,1,8,0:0:0:0:
184,59,140057,1,8,0:0:0:0:
224,32,140224,1,0,0:0:0:0:
256,64,140390,1,0,0:0:0:0:
224,32,140557,1,8,0:0:0:0:
171,24,140724,1,0,0:0:0:0:
210,43,140807,1,0,0:0:0:0:
256,64,140890,1,0,0:0:0:0:
210,43,141057,1,0,0:0:0:0:
256,64,141224,1,8,0:0:0:0:
256,64,141557,1,8,0:0:0:0:
229,50,141724,1,0,0:0:0:0:
256,64,141890,1,8,0:0:0:0:
256,64,142224,1,0,0:0:0:0:
256,64,142390,1,0,0:0:0:0:
256,64,142557,1,8,0:0:0:0:
256,64,142724,1,0,0:0:0:0:
179,39,143224,1,8,0:0:0:0:
163,40,143390,1,0,0:0:0:0:
256,64,143557,1,8,0:0:0:0:
256,64,143890,1,8,0:0:0:0:
197,7,144057,1,8,0:0:0:0:
256,64,144224,1,4,0:0:0:0:
256,64,144557,1,8,0:0:0:0:
256,64,144890,1,0,0:0:0:0:
256,64,145224,1,8,0:0:0:0:
256,64,145390,1,0,0:0:0:0:
256,64,145890,1,8,0:0:0:0:
256,64,146057,1,8,0:0:0:0:
256,64,146224,1,0,0:0:0:0:
160,45,146390,1,0,0:0:0:0:
256,64,146557,1,8,0:0:0:0:
256,64,146890,1,0,0:0:0:0:
256,64,147224,1,12,0:0:0:0:
256,64,147557,1,0,0:0:0:0:
256,64,147890,1,12,0:0:0:0:
256,64,148224,1,0,0:0:0:0:
256,64,148557,1,12,0:0:0:0:
256,64,148890,1,8,0:0:0:0:
256,64,149057,1,0,0:0:0:0:
256,64,149224,1,8,0:0:0:0:
256,64,149390,1,0,0:0:0:0:
256,64,149557,1,0,0:0:0:0:
224,160,151890,1,8,0:0:0:0:
224,160,152057,1,0,0:0:0:0:
224,160,152224,1,8,0:0:0:0:
224,160,153224,1,8,0:0:0:0:
224,160,153390,1,0,0:0:0:0:
224,160,153724,1,8,0:0:0:0:
83,105,154057,1,0,0:0:0:0:
224,160,154224,1,8,0:0:0:0:
224,160,154557,1,8,0:0:0:0:
224,160,154724,1,8,0:0:0:0:
224,160,154890,1,0,0:0:0:0:
224,160,155890,1,0,0:0:0:0:
224,160,156057,1,8,0:0:0:0:
224,160,156390,1,8,0:0:0:0:
79,131,156724,1,0,0:0:0:0:
224,160,156890,1,0,0:0:0:0:
224,160,157224,1,8,0:0:0:0:
224,160,157390,1,8,0:0:0:0:
224,160,157557,1,0,0:0:0:0:
224,160,159890,1,8,0:0:0:0:
224,160,160057,1,0,0:0:0:0:
224,160,160224,1,8,0:0:0:0:
224,160,162557,1,0,0:0:0:0:
224,160,162724,1,8,0:0:0:0:
224,160,162890,1,8,0:0:0:0:
224,160,163890,1,8,0:0:0:0:
224,160,164057,1,0,0:0:0:0:
224,160,164390,1,8,0:0:0:0:
128,64,164724,1,0,0:0:0:0:
224,160,165224,1,8,0:0:0:0:
224,160,165390,1,8,0:0:0:0:
224,160,165557,1,0,0:0:0:0:
224,160,166557,1,8,0:0:0:0:
224,160,166724,1,0,0:0:0:0:
224,160,167057,1,8,0:0:0:0:
121,62,167390,1,0,0:0:0:0:
224,160,167557,1,8,0:0:0:0:
224,160,167890,1,8,0:0:0:0:
224,160,168057,1,8,0:0:0:0:
224,160,168224,1,0,0:0:0:0:
256,64,170890,5,4,0:0:0:0:
256,64,171224,1,8,0:0:0:0:
256,64,171390,1,0,0:0:0:0:
128,96,171724,1,0,0:0:0:0:
256,64,171890,1,8,0:0:0:0:
256,64,172224,1,8,0:0:0:0:
192,32,172390,1,0,0:0:0:0:
257,104,172557,1,8,0:0:0:0:
224,32,172890,1,0,0:0:0:0:
256,64,173224,1,8,0:0:0:0:
320,64,173390,1,0,0:0:0:0:
192,32,173557,1,0,0:0:0:0:
320,64,173890,1,8,0:0:0:0:
320,64,174057,1,0,0:0:0:0:
141,24,174390,1,0,0:0:0:0:
320,64,174557,1,8,0:0:0:0:
200,11,174724,1,0,0:0:0:0:
320,64,174890,1,8,0:0:0:0:
320,64,175557,1,8,0:0:0:0:
320,64,175890,1,8,0:0:0:0:
320,64,176057,1,8,0:0:0:0:
192,32,176224,1,0,0:0:0:0:
320,64,176557,1,8,0:0:0:0:
288,128,176724,1,0,0:0:0:0:
320,64,177057,1,0,0:0:0:0:
320,64,177224,1,8,0:0:0:0:
320,64,177390,1,8,0:0:0:0:
173,18,177724,1,0,0:0:0:0:
320,64,177890,1,8,0:0:0:0:
288,128,178057,1,8,0:0:0:0:
224,32,178224,1,0,0:0:0:0:
192,0,178390,1,0,0:0:0:0:
288,128,178557,1,8,0:0:0:0:
288,128,178890,1,0,0:0:0:0:
288,128,179224,1,8,0:0:0:0:
288,128,179557,1,0,0:0:0:0:
288,128,180057,1,0,0:0:0:0:
288,128,180390,1,8,0:0:0:0:
288,128,180724,1,8,0:0:0:0:
288,128,180890,1,0,0:0:0:0:
288,128,181224,1,8,0:0:0:0:
288,128,181557,1,4,0:0:0:0:
256,64,181890,1,8,0:0:0:0:
256,64,182057,1,0,0:0:0:0:
192,64,182390,1,0,0:0:0:0:
256,64,182557,1,8,0:0:0:0:
256,64,182890,1,8,0:0:0:0:
202,3,183057,1,8,0:0:0:0:
238,61,183224,1,8,0:0:0:0:
256,64,183557,1,0,0:0:0:0:
256,64,183890,1,8,0:0:0:0:
320,64,184057,1,0,0:0:0:0:
160,32,184224,1,0,0:0:0:0:
320,64,184557,1,8,0:0:0:0:
192,32,184724,1,8,0:0:0:0:
192,32,184890,1,0,0:0:0:0:
320,64,185224,1,8,0:0:0:0:
320,64,185557,1,8,0:0:0:0:
192,32,185724,1,0,0:0:0:0:
320,64,185890,1,8,0:0:0:0:
224,0,186057,1,8,0:0:0:0:
320,64,186224,1,0,0:0:0:0:
320,64,186557,1,8,0:0:0:0:
224,32,186890,1,0,0:0:0:0:
320,64,187224,1,8,0:0:0:0:
320,64,187557,1,0,0:0:0:0:
320,64,188057,1,0,0:0:0:0:
320,64,188390,1,8,0:0:0:0:
288,128,188724,1,8,0:0:0:0:
288,128,188890,1,0,0:0:0:0:
288,128,189224,1,8,0:0:0:0:
288,128,189557,1,0,0:0:0:0:
288,128,189890,1,8,0:0:0:0:
288,128,190224,1,0,0:0:0:0:
288,128,190724,1,0,0:0:0:0:
288,128,191057,1,0,0:0:0:0:
198,91,191224,1,8,0:0:0:0:
288,128,191390,1,8,0:0:0:0:
288,128,191557,1,0,0:0:0:0:
288,128,191890,1,8,0:0:0:0:
288,128,192057,1,8,0:0:0:0:
272,64,196224,5,4,0:0:0:0:
272,64,198890,1,0,0:0:0:0:
272,64,199224,1,8,0:0:0:0:
272,64,199557,1,8,0:0:0:0:
272,64,199890,1,0,0:0:0:0:
272,64,200057,1,0,0:0:0:0:
272,64,200224,1,12,0:0:0:0:
272,64,200390,1,12,0:0:0:0:
272,64,200890,1,12,0:0:0:0:
272,64,201057,1,12,0:0:0:0:
221,32,201557,1,4,0:0:0:0:
221,32,201890,1,8,0:0:0:0:
256,8,202224,1,8,0:0:0:0:
285,64,202390,1,0,0:0:0:0:
221,32,202557,1,8,0:0:0:0:
221,32,202890,1,0,0:0:0:0:
189,128,203224,1,8,0:0:0:0:
221,32,203390,1,0,0:0:0:0:
64,121,203724,1,0,0:0:0:0:
189,64,203890,1,8,0:0:0:0:
189,64,204224,1,0,0:0:0:0:
189,64,204557,1,8,0:0:0:0:
253,32,204890,1,0,0:0:0:0:
253,32,205057,1,0,0:0:0:0:
253,32,205224,1,8,0:0:0:0:
253,32,205390,1,8,0:0:0:0:
253,32,205557,1,0,0:0:0:0:
253,32,206224,1,8,0:0:0:0:
196,23,206390,1,0,0:0:0:0:
253,32,206557,1,8,0:0:0:0:
253,32,206890,1,4,0:0:0:0:
253,32,207224,1,8,0:0:0:0:
173,42,207557,1,0,0:0:0:0:
253,32,207724,1,0,0:0:0:0:
253,32,207890,1,8,0:0:0:0:
253,32,208057,1,0,0:0:0:0:
200,7,208390,1,8,0:0:0:0:
253,32,208724,1,0,0:0:0:0:
253,32,208890,1,8,0:0:0:0:
253,32,209224,1,8,0:0:0:0:
253,32,209390,1,8,0:0:0:0:
253,32,209557,1,0,0:0:0:0:
29,64,209890,1,8,0:0:0:0:
221,32,210224,1,0,0:0:0:0:
221,32,210724,1,12,0:0:0:0:
221,32,211557,1,8,0:0:0:0:
221,32,211724,1,0,0:0:0:0:
221,32,211890,1,8,0:0:0:0:
221,32,211974,1,8,0:0:0:0:
221,32,212057,1,8,0:0:0:0:
221,32,212224,1,4,0:0:0:0:
221,32,212557,1,12,0:0:0:0:
221,32,212890,1,8,0:0:0:0:
221,32,213057,1,0,0:0:0:0:
221,32,213224,1,8,0:0:0:0:
221,32,213557,1,0,0:0:0:0:
189,128,213890,1,8,0:0:0:0:
221,32,214057,1,0,0:0:0:0:
88,143,214390,1,0,0:0:0:0:
189,64,214557,1,8,0:0:0:0:
189,64,214890,1,0,0:0:0:0:
189,64,215224,1,8,0:0:0:0:
221,32,215557,1,8,0:0:0:0:
253,32,215724,1,0,0:0:0:0:
253,32,215890,1,8,0:0:0:0:
253,32,216057,1,8,0:0:0:0:
253,32,216224,1,0,0:0:0:0:
253,32,216890,1,8,0:0:0:0:
253,32,217057,1,0,0:0:0:0:
253,32,217224,1,8,0:0:0:0:
253,32,217557,1,4,0:0:0:0:
253,32,217890,1,8,0:0:0:0:
186,129,218057,1,0,0:0:0:0:
253,32,218224,1,8,0:0:0:0:
253,32,218557,1,8,0:0:0:0:
253,32,218724,1,8,0:0:0:0:
138,70,218890,1,0,0:0:0:0:
253,32,219557,1,8,0:0:0:0:
253,32,219724,1,0,0:0:0:0:
253,32,219890,1,8,0:0:0:0:
203,3,219974,1,8,0:0:0:0:
253,32,220057,1,8,0:0:0:0:
253,32,220224,1,4,0:0:0:0:
128,76,220557,1,8,0:0:0:0:
256,32,220890,1,8,0:0:0:0:
256,32,221057,1,0,0:0:0:0:
256,32,221224,1,8,0:0:0:0:
256,32,221557,1,0,0:0:0:0:
256,32,221890,1,8,0:0:0:0:
256,32,222224,1,8,0:0:0:0:
256,32,222390,1,0,0:0:0:0:
256,32,222557,1,8,0:0:0:0:
253,32,222890,1,4,0:0:0:0:
128,76,223224,1,8,0:0:0:0:
256,32,223557,1,8,0:0:0:0:
256,32,223724,1,0,0:0:0:0:
256,32,223890,1,8,0:0:0:0:
256,32,224224,1,0,0:0:0:0:
256,32,224557,1,8,0:0:0:0:
256,32,224890,1,8,0:0:0:0:
256,32,225057,1,0,0:0:0:0:
256,32,225224,1,8,0:0:0:0:
256,32,225557,1,4,0:0:0:0:
128,76,225890,1,8,0:0:0:0:
256,32,226224,1,8,0:0:0:0:
256,32,226390,1,0,0:0:0:0:
256,32,226557,1,8,0:0:0:0:
256,32,226890,1,0,0:0:0:0:
256,32,227224,1,8,0:0:0:0:
256,32,227557,1,8,0:0:0:0:
256,32,227724,1,0,0:0:0:0:
256,32,227890,1,8,0:0:0:0:
256,32,228224,1,4,0:0:0:0:
179,72,228557,1,8,0:0:0:0:
179,72,228890,1,8,0:0:0:0:
179,72,229057,1,8,0:0:0:0:
179,72,229224,1,8,0:0:0:0:
179,72,229557,1,12,0:0:0:0:
218,27,230057,1,0,0:0:0:0:
218,27,230224,1,8,0:0:0:0:
218,27,230390,1,0,0:0:0:0:
218,27,230557,1,8,0:0:0:0:
197,7,230640,1,8,0:0:0:0:
218,27,230724,1,8,0:0:0:0:
253,32,230890,1,4,0:0:0:0:
128,76,231224,1,8,0:0:0:0:
256,32,231557,1,8,0:0:0:0:
256,32,231724,1,0,0:0:0:0:
256,32,231890,1,8,0:0:0:0:
256,32,232057,1,8,0:0:0:0:
256,32,232224,1,0,0:0:0:0:
256,32,232557,1,8,0:0:0:0:
256,32,232890,1,8,0:0:0:0:
256,32,233057,1,0,0:0:0:0:
256,32,233224,1,8,0:0:0:0:
242,36,233390,1,8,0:0:0:0:
253,32,233557,1,0,0:0:0:0:
128,76,233890,1,8,0:0:0:0:
256,32,234224,1,8,0:0:0:0:
256,32,234390,1,8,0:0:0:0:
256,32,234557,1,8,0:0:0:0:
256,32,234724,1,8,0:0:0:0:
256,32,234890,1,0,0:0:0:0:
256,32,235224,1,8,0:0:0:0:
256,32,235557,1,8,0:0:0:0:
256,32,235724,1,0,0:0:0:0:
256,32,235890,1,8,0:0:0:0:
262,74,236057,1,8,0:0:0:0:
256,32,236224,1,4,0:0:0:0:
166,8,237557,1,4,0:0:0:0:
194,70,238891,1,12,0:0:0:0:
