osu file format v14

[General]
AudioFilename: audio.mp3
AudioLeadIn: 0
PreviewTime: 195140
Countdown: 0
SampleSet: Normal
StackLeniency: 0.7
Mode: 1
LetterboxInBreaks: 0
WidescreenStoryboard: 1

[Editor]
Bookmarks: 2891,13557,24224,34891,45557,61557,72224,85557,96224,106890,117557,128224,149557,170890,181557,201557,212224,220224,230890
DistanceSpacing: 1.4
BeatDivisor: 4
GridSize: 32
TimelineZoom: 1.4

[Metadata]
Title:Itte.
TitleUnicode:言って。
Artist:Yorushika
ArtistUnicode:ヨルシカ
Creator:gaston_2199
Version:Futsuu.
Source:
Tags:say it ナブナ n-buna nbuna n buna スイ suis 夏草が邪魔をする Natsukusa ga Jama wo Suru pop j-pop jpop rock jrock j-rock japanese female vocal
BeatmapID:2760211
BeatmapSetID:1332152

[Difficulty]
HPDrainRate:7
CircleSize:2
OverallDifficulty:4
ApproachRate:10
SliderMultiplier:1.4
SliderTickRate:1

[Events]
//Background and Video events
0,0,"BG Futsuu.png",0,-60
Video,-951,"TaikoVideo.mp4"
//Break Periods
2,192257,195774
//Storyboard Layer 0 (Background)
//Storyboard Layer 1 (Fail)
//Storyboard Layer 2 (Pass)
//Storyboard Layer 3 (Foreground)
//Storyboard Layer 4 (Overlay)
//Storyboard Sound Samples

[TimingPoints]
225,333.333333333333,4,1,0,60,1,0
225,-133.333333333333,4,1,0,60,0,0
2891,333.333333333333,4,1,0,80,1,0
24557,-111.111111111111,4,1,0,70,0,0
45890,-105.263157894737,4,1,0,70,0,0
56224,-100,4,1,0,70,0,0
61557,-100,4,1,0,90,0,1
82890,-100,4,1,0,80,0,0
84224,-111.111111111111,4,1,0,80,0,0
85557,-100,4,1,0,80,0,0
107224,-111.111111111111,4,1,0,70,0,0
128224,-100,4,1,0,80,0,1
149557,-100,4,1,0,80,0,0
149890,-133.333333333333,4,1,0,60,0,0
170890,-100,4,1,0,80,0,0
196224,-133.333333333333,4,1,0,60,0,0
200224,-125,4,1,0,70,0,0
200890,-111.111111111111,4,1,0,70,0,0
201557,-100,4,1,0,90,0,1
236224,-100,4,1,0,80,0,0
237557,-111.111111111111,4,1,0,80,0,0
238890,-100,4,1,0,80,0,0

[HitObjects]
256,192,225,5,8,0:0:0:0:
256,192,891,1,0,0:0:0:0:
256,192,1724,1,8,0:0:0:0:
256,192,2058,1,8,0:0:0:0:
256,192,2891,1,12,0:0:0:0:
256,192,3224,1,8,0:0:0:0:
256,192,3557,1,0,0:0:0:0:
256,192,4057,1,8,0:0:0:0:
256,128,4890,1,0,0:0:0:0:
256,128,5224,1,8,0:0:0:0:
256,96,5557,1,0,0:0:0:0:
288,32,6057,1,8,0:0:0:0:
256,128,6557,1,8,0:0:0:0:
256,128,6890,1,0,0:0:0:0:
256,32,7390,1,8,0:0:0:0:
256,192,8224,1,8,0:0:0:0:
256,192,8557,1,8,0:0:0:0:
256,96,8890,1,0,0:0:0:0:
256,192,9390,1,8,0:0:0:0:
256,128,10224,1,0,0:0:0:0:
256,128,10557,1,8,0:0:0:0:
256,96,10890,1,0,0:0:0:0:
67,23,11224,1,8,0:0:0:0:
256,128,11724,1,8,0:0:0:0:
210,29,12057,1,0,0:0:0:0:
256,128,12557,1,8,0:0:0:0:
224,64,12724,1,8,0:0:0:0:
256,128,12890,1,0,0:0:0:0:
288,160,13224,1,8,0:0:0:0:
256,192,13557,1,4,0:0:0:0:
256,192,13890,1,8,0:0:0:0:
256,192,14224,1,0,0:0:0:0:
256,192,14724,1,8,0:0:0:0:
256,128,15557,1,0,0:0:0:0:
256,128,15890,1,8,0:0:0:0:
256,96,16224,1,0,0:0:0:0:
288,32,16724,1,8,0:0:0:0:
256,128,17224,1,8,0:0:0:0:
256,128,17557,1,0,0:0:0:0:
256,32,18057,1,8,0:0:0:0:
256,192,18890,1,8,0:0:0:0:
256,192,19224,1,8,0:0:0:0:
256,128,19557,1,0,0:0:0:0:
256,192,20057,1,8,0:0:0:0:
256,128,20890,1,0,0:0:0:0:
256,128,21224,1,8,0:0:0:0:
256,96,21557,1,0,0:0:0:0:
256,128,21890,1,8,0:0:0:0:
124,48,22557,1,8,0:0:0:0:
288,64,22890,1,0,0:0:0:0:
256,128,23224,1,8,0:0:0:0:
224,64,23390,1,8,0:0:0:0:
256,128,23557,1,0,0:0:0:0:
288,160,23890,1,8,0:0:0:0:
256,96,24224,1,4,0:0:0:0:
256,96,24890,1,0,0:0:0:0:
256,96,25390,1,0,0:0:0:0:
256,96,26224,1,0,0:0:0:0:
256,96,26557,1,8,0:0:0:0:
256,96,26890,1,0,0:0:0:0:
256,64,27557,1,0,0:0:0:0:
256,64,27890,1,8,0:0:0:0:
320,96,28557,1,8,0:0:0:0:
320,96,28890,1,0,0:0:0:0:
320,96,29224,1,8,0:0:0:0:
320,96,29557,1,8,0:0:0:0:
320,96,30224,1,0,0:0:0:0:
320,96,30557,1,8,0:0:0:0:
256,64,31224,1,8,0:0:0:0:
256,64,31557,1,0,0:0:0:0:
256,64,31890,1,8,0:0:0:0:
256,64,32224,1,0,0:0:0:0:
256,64,32890,1,0,0:0:0:0:
256,64,33390,1,0,0:0:0:0:
288,64,34224,1,0,0:0:0:0:
288,64,34557,1,8,0:0:0:0:
256,96,34890,1,4,0:0:0:0:
256,96,35557,1,0,0:0:0:0:
256,96,36057,1,0,0:0:0:0:
256,96,36890,1,0,0:0:0:0:
256,96,37224,1,8,0:0:0:0:
256,96,37557,1,8,0:0:0:0:
256,64,38224,1,0,0:0:0:0:
256,64,38557,1,8,0:0:0:0:
320,96,39224,1,8,0:0:0:0:
320,96,39557,1,0,0:0:0:0:
320,96,39890,1,8,0:0:0:0:
320,96,40224,1,8,0:0:0:0:
320,96,40890,1,0,0:0:0:0:
320,96,41224,1,8,0:0:0:0:
256,64,41890,1,8,0:0:0:0:
256,64,42224,1,0,0:0:0:0:
256,64,42557,1,8,0:0:0:0:
256,64,42890,1,12,0:0:0:0:
256,64,43390,1,4,0:0:0:0:
192,0,44224,1,12,0:0:0:0:
288,64,44724,1,12,0:0:0:0:
288,64,45224,1,8,0:0:0:0:
288,64,45557,1,4,0:0:0:0:
207,21,46224,1,0,0:0:0:0:
256,128,46557,1,8,0:0:0:0:
256,128,46890,1,0,0:0:0:0:
183,66,47557,1,8,0:0:0:0:
256,128,47890,1,8,0:0:0:0:
256,128,48224,1,0,0:0:0:0:
288,64,48557,1,8,0:0:0:0:
224,32,49224,1,8,0:0:0:0:
224,32,49557,1,0,0:0:0:0:
224,32,50224,1,0,0:0:0:0:
170,96,50390,1,0,0:0:0:0:
224,32,50557,1,8,0:0:0:0:
224,32,50890,1,0,0:0:0:0:
192,45,51557,5,0,0:0:0:0:
256,128,51890,1,8,0:0:0:0:
256,128,52224,1,0,0:0:0:0:
256,128,52890,1,0,0:0:0:0:
256,128,53224,1,8,0:0:0:0:
256,128,53557,1,0,0:0:0:0:
288,64,53890,1,8,0:0:0:0:
224,32,54557,1,8,0:0:0:0:
224,32,54890,1,8,0:0:0:0:
146,15,55057,1,0,0:0:0:0:
224,32,55224,1,8,0:0:0:0:
224,32,55557,1,0,0:0:0:0:
224,32,55890,1,8,0:0:0:0:
224,32,56224,1,4,0:0:0:0:
137,115,56557,1,8,0:0:0:0:
224,32,57057,1,8,0:0:0:0:
224,32,57557,1,8,0:0:0:0:
224,32,58057,1,8,0:0:0:0:
224,32,58557,1,8,0:0:0:0:
224,32,58890,1,0,0:0:0:0:
224,32,59224,1,8,0:0:0:0:
224,32,59390,1,8,0:0:0:0:
224,32,59557,1,8,0:0:0:0:
224,32,59890,1,8,0:0:0:0:
224,32,60057,1,0,0:0:0:0:
224,32,60224,1,12,0:0:0:0:
224,32,61557,1,4,0:0:0:0:
224,32,61890,1,8,0:0:0:0:
224,32,62224,1,8,0:0:0:0:
224,32,62557,1,0,0:0:0:0:
192,128,63224,1,8,0:0:0:0:
224,32,63390,1,0,0:0:0:0:
192,64,63890,1,8,0:0:0:0:
192,64,64224,1,0,0:0:0:0:
162,91,64557,1,8,0:0:0:0:
256,32,64890,1,0,0:0:0:0:
256,32,65224,1,8,0:0:0:0:
256,32,65390,1,8,0:0:0:0:
256,32,65557,1,0,0:0:0:0:
256,32,66224,1,0,0:0:0:0:
256,32,66557,1,8,0:0:0:0:
256,32,66890,1,0,0:0:0:0:
198,23,67557,1,0,0:0:0:0:
256,32,67890,1,8,0:0:0:0:
164,49,68057,1,0,0:0:0:0:
164,49,68390,1,8,0:0:0:0:
164,49,68724,1,0,0:0:0:0:
256,32,68890,1,0,0:0:0:0:
256,32,69224,1,8,0:0:0:0:
189,38,69390,1,8,0:0:0:0:
256,32,69557,1,0,0:0:0:0:
224,32,69890,1,8,0:0:0:0:
224,32,70724,1,12,0:0:0:0:
224,32,71557,1,8,0:0:0:0:
224,32,71724,1,0,0:0:0:0:
224,32,71890,1,8,0:0:0:0:
224,32,72224,1,4,0:0:0:0:
224,32,72557,1,8,0:0:0:0:
216,20,72890,1,8,0:0:0:0:
224,32,73224,1,0,0:0:0:0:
192,128,73890,1,8,0:0:0:0:
139,0,74057,1,0,0:0:0:0:
192,64,74557,1,8,0:0:0:0:
192,64,74890,1,0,0:0:0:0:
179,84,75224,1,8,0:0:0:0:
224,32,75557,1,8,0:0:0:0:
256,32,75890,1,0,0:0:0:0:
174,82,76057,1,8,0:0:0:0:
256,32,76224,1,0,0:0:0:0:
256,32,76890,1,8,0:0:0:0:
256,32,77224,1,8,0:0:0:0:
256,32,77557,1,4,0:0:0:0:
256,32,78224,1,8,0:0:0:0:
256,32,78557,1,8,0:0:0:0:
256,32,78890,1,0,0:0:0:0:
256,32,79557,1,8,0:0:0:0:
256,32,79890,1,8,0:0:0:0:
256,32,80224,1,0,0:0:0:0:
32,64,80557,1,8,0:0:0:0:
224,32,81224,1,8,0:0:0:0:
224,32,81557,1,0,0:0:0:0:
224,32,82224,1,8,0:0:0:0:
224,32,82557,1,8,0:0:0:0:
197,33,82724,1,8,0:0:0:0:
224,32,82890,1,4,0:0:0:0:
224,32,84224,1,4,0:0:0:0:
256,192,85557,1,12,0:0:0:0:
256,192,85890,1,8,0:0:0:0:
256,192,86224,1,0,0:0:0:0:
256,192,86724,1,8,0:0:0:0:
256,128,87557,1,0,0:0:0:0:
256,128,87890,1,8,0:0:0:0:
256,96,88224,1,0,0:0:0:0:
288,32,88724,1,8,0:0:0:0:
256,128,89224,1,8,0:0:0:0:
256,128,89557,1,0,0:0:0:0:
256,32,90057,1,8,0:0:0:0:
256,192,90890,1,8,0:0:0:0:
256,192,91224,1,8,0:0:0:0:
256,96,91557,1,0,0:0:0:0:
256,192,92057,1,8,0:0:0:0:
256,128,92890,1,0,0:0:0:0:
256,128,93224,1,8,0:0:0:0:
256,96,93557,1,0,0:0:0:0:
104,13,93890,1,8,0:0:0:0:
256,128,94390,1,8,0:0:0:0:
210,29,94724,1,0,0:0:0:0:
256,128,95224,1,8,0:0:0:0:
224,64,95390,1,8,0:0:0:0:
256,128,95557,1,0,0:0:0:0:
288,160,95890,1,8,0:0:0:0:
256,192,96224,1,4,0:0:0:0:
256,192,96557,1,8,0:0:0:0:
256,192,96890,1,0,0:0:0:0:
256,192,97390,1,8,0:0:0:0:
256,128,98224,1,0,0:0:0:0:
256,128,98557,1,8,0:0:0:0:
256,96,98890,1,0,0:0:0:0:
288,32,99390,1,8,0:0:0:0:
256,128,99890,1,8,0:0:0:0:
256,128,100224,1,0,0:0:0:0:
256,32,100724,1,8,0:0:0:0:
256,192,101557,1,8,0:0:0:0:
256,192,101890,1,8,0:0:0:0:
256,128,102224,1,0,0:0:0:0:
256,192,102724,1,8,0:0:0:0:
256,128,103557,1,0,0:0:0:0:
256,128,103890,1,8,0:0:0:0:
256,96,104224,1,0,0:0:0:0:
256,128,104557,1,8,0:0:0:0:
124,48,105057,1,8,0:0:0:0:
288,64,105390,1,0,0:0:0:0:
256,128,105890,1,8,0:0:0:0:
224,64,106057,1,8,0:0:0:0:
256,128,106224,1,0,0:0:0:0:
288,160,106557,1,8,0:0:0:0:
256,96,106890,1,4,0:0:0:0:
256,96,107557,1,0,0:0:0:0:
256,96,108057,1,0,0:0:0:0:
256,96,108890,1,0,0:0:0:0:
256,96,109224,1,8,0:0:0:0:
256,96,109557,1,0,0:0:0:0:
256,64,110224,1,0,0:0:0:0:
256,64,110557,1,8,0:0:0:0:
320,96,111224,1,8,0:0:0:0:
320,96,111557,1,0,0:0:0:0:
320,96,111890,1,8,0:0:0:0:
320,96,112224,1,8,0:0:0:0:
320,96,112890,1,0,0:0:0:0:
320,96,113224,1,8,0:0:0:0:
256,64,113890,1,8,0:0:0:0:
256,64,114224,1,0,0:0:0:0:
256,64,114557,1,8,0:0:0:0:
256,64,114890,5,0,0:0:0:0:
256,64,115557,1,0,0:0:0:0:
256,64,116057,1,0,0:0:0:0:
288,64,116890,1,0,0:0:0:0:
288,64,117224,1,8,0:0:0:0:
256,96,117557,1,4,0:0:0:0:
256,96,118224,1,0,0:0:0:0:
256,96,118724,1,0,0:0:0:0:
256,96,119557,1,0,0:0:0:0:
256,96,119890,1,8,0:0:0:0:
256,96,120224,1,8,0:0:0:0:
256,64,120890,1,0,0:0:0:0:
256,64,121224,1,8,0:0:0:0:
320,96,121890,1,8,0:0:0:0:
320,96,122224,1,0,0:0:0:0:
320,96,122557,1,8,0:0:0:0:
320,96,122890,1,8,0:0:0:0:
320,96,123557,1,0,0:0:0:0:
320,96,123890,1,8,0:0:0:0:
256,64,124557,1,8,0:0:0:0:
256,64,124890,1,0,0:0:0:0:
256,64,125224,1,8,0:0:0:0:
256,64,125557,5,0,0:0:0:0:
185,7,126224,1,0,0:0:0:0:
231,10,126724,1,0,0:0:0:0:
229,27,127224,1,8,0:0:0:0:
230,31,127557,1,4,0:0:0:0:
288,64,128224,1,4,0:0:0:0:
256,192,128557,1,8,0:0:0:0:
256,192,129224,1,8,0:0:0:0:
256,128,129557,1,0,0:0:0:0:
256,128,130224,1,8,0:0:0:0:
224,32,130557,1,8,0:0:0:0:
256,96,130890,1,0,0:0:0:0:
256,128,131224,1,8,0:0:0:0:
170,92,131557,1,0,0:0:0:0:
256,128,132224,1,0,0:0:0:0:
256,128,132557,1,8,0:0:0:0:
256,128,132890,1,8,0:0:0:0:
181,45,133057,1,0,0:0:0:0:
229,22,133224,1,8,0:0:0:0:
256,192,133557,1,4,0:0:0:0:
320,128,134224,1,0,0:0:0:0:
153,42,134390,1,0,0:0:0:0:
320,128,134557,1,8,0:0:0:0:
154,47,134890,1,0,0:0:0:0:
173,116,135224,1,8,0:0:0:0:
320,128,135557,1,0,0:0:0:0:
288,64,136224,1,0,0:0:0:0:
288,64,136890,1,0,0:0:0:0:
288,64,137224,1,8,0:0:0:0:
288,64,137890,1,8,0:0:0:0:
240,32,138224,1,0,0:0:0:0:
288,64,138390,1,8,0:0:0:0:
288,64,138557,1,8,0:0:0:0:
288,64,138890,1,4,0:0:0:0:
256,64,139224,1,12,0:0:0:0:
256,64,139890,1,8,0:0:0:0:
224,32,140224,1,0,0:0:0:0:
224,32,140557,1,8,0:0:0:0:
224,32,140724,1,8,0:0:0:0:
256,64,140890,1,0,0:0:0:0:
256,64,141224,1,8,0:0:0:0:
256,64,141557,1,8,0:0:0:0:
181,29,141724,1,0,0:0:0:0:
256,64,141890,1,8,0:0:0:0:
256,64,142557,1,8,0:0:0:0:
256,64,142890,1,0,0:0:0:0:
256,64,143557,1,8,0:0:0:0:
256,64,143890,1,8,0:0:0:0:
154,102,144057,1,0,0:0:0:0:
256,64,144224,1,4,0:0:0:0:
256,64,144890,1,0,0:0:0:0:
256,64,145224,1,8,0:0:0:0:
256,64,145890,1,8,0:0:0:0:
256,64,146224,1,0,0:0:0:0:
256,64,146557,1,8,0:0:0:0:
256,64,146890,1,0,0:0:0:0:
256,64,147224,1,12,0:0:0:0:
256,64,147890,1,12,0:0:0:0:
256,64,148557,1,12,0:0:0:0:
256,64,148890,1,0,0:0:0:0:
256,64,149224,1,8,0:0:0:0:
256,64,149557,1,0,0:0:0:0:
224,160,151890,1,8,0:0:0:0:
224,160,152224,1,8,0:0:0:0:
224,160,153224,1,8,0:0:0:0:
224,160,154224,1,0,0:0:0:0:
224,160,154557,1,8,0:0:0:0:
224,160,154890,1,0,0:0:0:0:
224,160,155890,1,8,0:0:0:0:
224,160,156890,1,0,0:0:0:0:
224,160,157224,1,8,0:0:0:0:
224,160,157557,1,0,0:0:0:0:
224,160,159890,1,8,0:0:0:0:
224,160,160224,1,0,0:0:0:0:
224,160,162557,1,0,0:0:0:0:
224,160,162890,1,8,0:0:0:0:
224,160,163890,1,8,0:0:0:0:
239,28,164890,1,0,0:0:0:0:
224,160,165224,1,8,0:0:0:0:
224,160,165557,1,0,0:0:0:0:
224,160,166557,1,8,0:0:0:0:
224,160,167557,1,0,0:0:0:0:
224,160,167890,1,8,0:0:0:0:
224,160,168224,1,0,0:0:0:0:
256,64,170890,5,4,0:0:0:0:
186,12,171390,1,8,0:0:0:0:
256,64,171890,1,8,0:0:0:0:
256,64,172224,1,0,0:0:0:0:
180,67,172390,1,0,0:0:0:0:
256,64,172890,1,0,0:0:0:0:
256,64,173224,1,8,0:0:0:0:
192,96,173557,1,0,0:0:0:0:
320,64,174057,1,8,0:0:0:0:
320,64,174557,1,8,0:0:0:0:
320,64,174890,1,0,0:0:0:0:
241,122,175057,1,0,0:0:0:0:
320,64,175557,1,8,0:0:0:0:
320,64,175890,1,8,0:0:0:0:
241,2,176224,1,0,0:0:0:0:
215,13,176724,1,0,0:0:0:0:
320,64,177390,1,8,0:0:0:0:
191,15,177890,1,8,0:0:0:0:
195,26,178057,1,8,0:0:0:0:
241,16,178224,1,0,0:0:0:0:
288,128,178557,1,8,0:0:0:0:
288,128,178890,1,0,0:0:0:0:
288,128,179557,1,0,0:0:0:0:
288,128,180057,1,0,0:0:0:0:
288,128,180890,1,0,0:0:0:0:
288,128,181224,1,8,0:0:0:0:
288,128,181557,1,4,0:0:0:0:
256,64,182057,1,8,0:0:0:0:
256,64,182557,1,8,0:0:0:0:
256,64,182890,1,0,0:0:0:0:
164,100,183057,1,0,0:0:0:0:
256,64,183557,1,0,0:0:0:0:
256,64,183890,1,8,0:0:0:0:
192,64,184224,1,0,0:0:0:0:
320,64,184724,1,0,0:0:0:0:
320,64,185224,1,8,0:0:0:0:
320,64,185557,1,0,0:0:0:0:
192,128,185724,1,8,0:0:0:0:
192,32,186057,1,8,0:0:0:0:
320,64,186224,1,0,0:0:0:0:
320,64,186557,1,8,0:0:0:0:
224,32,186890,1,0,0:0:0:0:
320,64,187557,1,0,0:0:0:0:
320,64,188057,1,0,0:0:0:0:
288,128,188890,1,0,0:0:0:0:
288,128,189224,1,8,0:0:0:0:
288,128,189557,1,0,0:0:0:0:
288,128,190224,1,0,0:0:0:0:
288,128,190724,1,0,0:0:0:0:
243,7,191224,1,8,0:0:0:0:
288,128,191390,1,8,0:0:0:0:
288,128,191557,1,0,0:0:0:0:
288,128,191890,1,8,0:0:0:0:
288,128,192057,1,8,0:0:0:0:
272,64,196224,5,4,0:0:0:0:
272,64,198890,1,0,0:0:0:0:
272,64,199224,1,8,0:0:0:0:
272,64,199557,1,0,0:0:0:0:
272,64,199890,1,0,0:0:0:0:
272,64,200224,1,8,0:0:0:0:
199,90,200390,1,8,0:0:0:0:
272,64,200890,1,8,0:0:0:0:
188,94,201057,1,8,0:0:0:0:
221,32,201557,1,4,0:0:0:0:
221,32,201890,1,8,0:0:0:0:
256,8,202224,1,8,0:0:0:0:
221,32,202557,1,8,0:0:0:0:
189,128,203224,1,8,0:0:0:0:
221,32,203390,1,0,0:0:0:0:
189,64,203890,1,8,0:0:0:0:
189,64,204224,1,0,0:0:0:0:
145,93,204557,1,8,0:0:0:0:
253,32,204890,1,0,0:0:0:0:
253,32,205224,1,8,0:0:0:0:
253,32,205390,1,8,0:0:0:0:
253,32,205557,1,0,0:0:0:0:
253,32,206224,1,0,0:0:0:0:
253,32,206557,1,8,0:0:0:0:
253,32,206890,1,4,0:0:0:0:
154,64,207557,1,0,0:0:0:0:
253,32,207890,1,8,0:0:0:0:
220,37,208057,1,0,0:0:0:0:
55,7,208390,1,8,0:0:0:0:
112,17,208724,1,0,0:0:0:0:
253,32,208890,1,0,0:0:0:0:
253,32,209224,1,8,0:0:0:0:
176,65,209390,1,8,0:0:0:0:
253,32,209557,1,0,0:0:0:0:
155,29,209890,1,8,0:0:0:0:
221,32,210724,1,12,0:0:0:0:
221,32,211557,1,8,0:0:0:0:
221,32,211724,1,0,0:0:0:0:
221,32,211890,1,8,0:0:0:0:
221,32,212224,1,4,0:0:0:0:
221,32,212557,1,8,0:0:0:0:
221,32,212890,1,8,0:0:0:0:
221,32,213224,1,8,0:0:0:0:
189,128,213890,1,8,0:0:0:0:
221,32,214057,1,0,0:0:0:0:
189,64,214557,1,8,0:0:0:0:
189,64,214890,1,0,0:0:0:0:
133,93,215224,1,8,0:0:0:0:
221,32,215557,1,8,0:0:0:0:
253,32,215890,1,0,0:0:0:0:
253,32,216057,1,8,0:0:0:0:
253,32,216224,1,0,0:0:0:0:
253,32,216890,1,0,0:0:0:0:
188,29,217224,1,8,0:0:0:0:
253,32,217557,1,4,0:0:0:0:
253,32,218224,1,8,0:0:0:0:
253,32,218557,1,8,0:0:0:0:
151,35,218724,1,0,0:0:0:0:
203,113,218890,1,0,0:0:0:0:
253,32,219557,1,8,0:0:0:0:
253,32,219724,1,0,0:0:0:0:
253,32,219890,1,8,0:0:0:0:
253,32,220224,1,4,0:0:0:0:
256,32,220890,1,8,0:0:0:0:
256,32,221224,1,8,0:0:0:0:
256,32,221557,1,0,0:0:0:0:
256,32,222224,1,8,0:0:0:0:
256,32,222557,1,8,0:0:0:0:
253,32,222890,1,4,0:0:0:0:
256,32,223557,1,8,0:0:0:0:
256,32,223890,1,8,0:0:0:0:
256,32,224224,1,0,0:0:0:0:
256,32,224890,1,8,0:0:0:0:
256,32,225224,1,8,0:0:0:0:
256,32,225557,1,4,0:0:0:0:
256,32,226224,1,8,0:0:0:0:
256,32,226557,1,8,0:0:0:0:
256,32,226890,1,0,0:0:0:0:
256,32,227557,1,8,0:0:0:0:
256,32,227890,1,8,0:0:0:0:
256,32,228224,1,4,0:0:0:0:
179,72,228890,1,8,0:0:0:0:
258,34,229057,1,8,0:0:0:0:
179,72,229224,1,0,0:0:0:0:
179,72,229557,1,12,0:0:0:0:
218,27,230224,1,8,0:0:0:0:
218,27,230390,1,0,0:0:0:0:
218,27,230557,1,8,0:0:0:0:
253,32,230890,1,4,0:0:0:0:
256,32,231557,1,8,0:0:0:0:
98,8,231724,1,0,0:0:0:0:
256,32,231890,1,8,0:0:0:0:
256,32,232224,1,0,0:0:0:0:
256,32,232557,1,8,0:0:0:0:
256,32,232890,1,8,0:0:0:0:
256,32,233224,1,8,0:0:0:0:
253,32,233557,1,0,0:0:0:0:
256,32,234224,1,8,0:0:0:0:
256,32,234390,1,0,0:0:0:0:
256,32,234557,1,8,0:0:0:0:
256,32,234890,1,0,0:0:0:0:
256,32,235224,1,8,0:0:0:0:
256,32,235557,1,8,0:0:0:0:
256,32,235890,1,8,0:0:0:0:
256,32,236224,1,4,0:0:0:0:
166,8,237557,1,4,0:0:0:0:
194,70,238891,1,12,0:0:0:0:
