osu file format v14

[General]
AudioFilename: audio.mp3
AudioLeadIn: 0
PreviewTime: 60853
Countdown: 0
SampleSet: Soft
StackLeniency: 0.7
Mode: 0
LetterboxInBreaks: 0
WidescreenStoryboard: 1

[Editor]
Bookmarks: 2881,24214,45548,61548,82881,85548,106881,128214,149548,170881,192214,196214,201548,220214,236214,238881
DistanceSpacing: 0.76
BeatDivisor: 4
GridSize: 16
TimelineZoom: 2.1

[Metadata]
Title:Itte.
TitleUnicode:言って。
Artist:Yorushika
ArtistUnicode:ヨルシカ
Creator:Xen
Version:Noble
Source:
Tags:say it n-buna nbuna n buna suis 夏草が邪魔をする Natsukusa ga Jama wo Suru jpop j-pop pop japanese xenon- xehn
BeatmapID:2684278
BeatmapSetID:1119169

[Difficulty]
HPDrainRate:5.2
CircleSize:4.2
OverallDifficulty:9
ApproachRate:9.2
SliderMultiplier:1
SliderTickRate:1

[Events]
//Background and Video events
0,0,"bg.jpg",0,0
Video,-925,"yorudone.avi"
//Break Periods
2,149581,170281
2,192331,195614
//Storyboard Layer 0 (Background)
//Storyboard Layer 1 (Fail)
//Storyboard Layer 2 (Pass)
//Storyboard Layer 3 (Foreground)
//Storyboard Layer 4 (Overlay)
//Storyboard Sound Samples

[TimingPoints]
215,333.333333333333,4,2,2,70,1,0
2881,-62.5,4,2,2,70,0,0
4298,-62.5,4,2,2,5,0,0
4381,-62.5,4,2,2,70,0,0
6298,-62.5,4,2,2,5,0,0
6381,-62.5,4,2,2,70,0,0
7631,-62.5,4,2,2,5,0,0
7714,-62.5,4,2,2,70,0,0
9631,-62.5,4,2,2,5,0,0
9714,-62.5,4,2,2,70,0,0
11131,-62.5,4,2,2,5,0,0
11214,-62.5,4,2,2,70,0,0
14964,-62.5,4,2,2,5,0,0
15047,-62.5,4,2,2,70,0,0
16964,-62.5,4,2,2,5,0,0
17047,-62.5,4,2,2,70,0,0
18298,-62.5,4,2,2,5,0,0
18381,-62.5,4,2,2,70,0,0
20298,-62.5,4,2,2,5,0,0
20381,-62.5,4,2,2,70,0,0
21798,-62.5,4,2,2,5,0,0
21881,-62.5,4,2,2,70,0,0
24214,-62.5,4,2,2,60,0,0
42881,-51.2820512820513,4,2,2,70,0,0
43131,-51.2820512820513,4,2,2,5,0,0
43214,-51.2820512820513,4,2,2,70,0,0
43298,-51.2820512820513,4,2,2,5,0,0
43381,-51.2820512820513,4,2,2,70,0,0
43631,-51.2820512820513,4,2,2,5,0,0
43714,-51.2820512820513,4,2,2,70,0,0
43798,-51.2820512820513,4,2,2,5,0,0
43881,-51.2820512820513,4,2,2,70,0,0
44964,-51.2820512820513,4,2,2,5,0,0
45047,-51.2820512820513,4,2,2,70,0,0
45548,-62.5,4,2,2,60,0,0
46464,-62.5,4,2,2,5,0,0
46547,-62.5,4,2,2,70,0,0
47798,-62.5,4,2,2,5,0,0
47881,-62.5,4,2,2,70,0,0
51798,-62.5,4,2,2,5,0,0
51881,-62.5,4,2,2,70,0,0
53131,-62.5,4,2,2,5,0,0
53214,-62.5,4,2,2,70,0,0
55881,-45.045045045045,4,2,2,60,0,0
56214,-57.1428571428571,4,2,2,60,0,0
56464,-57.1428571428571,4,2,2,5,0,0
56548,-62.5,4,2,2,60,0,0
58881,-51.2820512820513,4,2,2,60,0,0
59131,-51.2820512820513,4,2,2,5,0,0
59214,-51.2820512820513,4,2,2,60,0,0
59548,-41.3223140495868,4,2,2,60,0,0
59631,-41.3223140495868,4,2,2,5,0,0
59714,-41.3223140495868,4,2,2,60,0,0
59798,-41.3223140495868,4,2,2,5,0,0
59881,-41.3223140495868,4,2,2,60,0,0
59964,-41.3223140495868,4,2,2,5,0,0
60048,-54.9450549450549,4,2,2,60,0,0
60131,-54.9450549450549,4,2,2,5,0,0
60214,-48.780487804878,4,2,2,60,0,0
60881,-153.846153846154,4,2,2,40,0,0
61131,-153.846153846154,4,2,2,5,0,0
61214,-153.846153846154,4,2,2,40,0,0
61464,-153.846153846154,4,2,2,5,0,0
61548,-52.6315789473684,4,2,2,80,0,1
62464,-52.6315789473684,4,2,2,5,0,1
62548,-52.6315789473684,4,2,2,80,0,1
63131,-52.6315789473684,4,2,2,5,0,1
63215,-52.6315789473684,4,2,2,80,0,1
64464,-52.6315789473684,4,2,2,5,0,1
64548,-52.6315789473684,4,2,2,80,0,1
67131,-52.6315789473684,4,2,2,5,0,1
67215,-52.6315789473684,4,2,2,80,0,1
73131,-52.6315789473684,4,2,2,5,0,1
73215,-52.6315789473684,4,2,2,80,0,1
73798,-52.6315789473684,4,2,2,5,0,1
73882,-52.6315789473684,4,2,2,80,0,1
75131,-52.6315789473684,4,2,2,5,0,1
75215,-52.6315789473684,4,2,2,80,0,1
78464,-52.6315789473684,4,2,2,5,0,1
78548,-52.6315789473684,4,2,2,80,0,1
82881,-43.4782608695652,4,2,2,80,0,0
82964,-43.4782608695652,4,2,2,5,0,0
84214,-43.4782608695652,4,2,2,80,0,0
84297,-43.4782608695652,4,2,2,5,0,0
85548,-62.5,4,2,2,70,0,0
86131,-62.5,4,2,2,5,0,0
86214,-62.5,4,2,2,70,0,0
86964,-62.5,4,2,2,5,0,0
87047,-62.5,4,2,2,70,0,0
88964,-62.5,4,2,2,5,0,0
89047,-62.5,4,2,2,70,0,0
90297,-62.5,4,2,2,5,0,0
90380,-62.5,4,2,2,70,0,0
91464,-62.5,4,2,2,5,0,0
91547,-62.5,4,2,2,70,0,0
92297,-62.5,4,2,2,5,0,0
92380,-62.5,4,2,2,70,0,0
93797,-62.5,4,2,2,5,0,0
93880,-62.5,4,2,2,70,0,0
96798,-62.5,4,2,2,5,0,0
96881,-62.5,4,2,2,70,0,0
97630,-62.5,4,2,2,5,0,0
97713,-62.5,4,2,2,70,0,0
99630,-62.5,4,2,2,5,0,0
99713,-62.5,4,2,2,70,0,0
100964,-62.5,4,2,2,5,0,0
101047,-62.5,4,2,2,70,0,0
102131,-62.5,4,2,2,5,0,0
102214,-62.5,4,2,2,70,0,0
102964,-62.5,4,2,2,5,0,0
103047,-62.5,4,2,2,70,0,0
104464,-62.5,4,2,2,5,0,0
104547,-62.5,4,2,2,70,0,0
106881,-62.5,4,2,2,60,0,0
107131,-62.5,4,2,2,5,0,0
107214,-62.5,4,2,2,70,0,0
109798,-62.5,4,2,2,5,0,0
109881,-62.5,4,2,2,70,0,0
112464,-62.5,4,2,2,5,0,0
112547,-62.5,4,2,2,70,0,0
115131,-62.5,4,2,2,5,0,0
115214,-62.5,4,2,2,70,0,0
117798,-62.5,4,2,2,5,0,0
117881,-62.5,4,2,2,70,0,0
120464,-62.5,4,2,2,5,0,0
120547,-62.5,4,2,2,70,0,0
123131,-62.5,4,2,2,5,0,0
123214,-62.5,4,2,2,70,0,0
125798,-62.5,4,2,2,5,0,0
125881,-62.5,4,2,2,70,0,0
127548,-153.846153846154,4,2,2,60,0,0
128214,-62.5,4,2,2,70,0,0
135131,-62.5,4,2,2,5,0,0
135214,-62.5,4,2,2,70,0,0
140214,-51.2820512820513,4,2,2,70,0,0
141548,-54.054054054054,4,2,2,70,0,0
142381,-62.5,4,2,2,70,0,0
143798,-62.5,4,2,2,5,0,0
143881,-62.5,4,2,2,70,0,0
147464,-62.5,4,2,2,5,0,0
147547,-62.5,4,2,2,70,0,0
148131,-62.5,4,2,2,5,0,0
148214,-62.5,4,2,2,70,0,0
148881,-46.5116279069767,4,2,2,70,0,0
148964,-46.5116279069767,4,2,2,5,0,0
149048,-46.5116279069767,4,2,2,70,0,0
149548,-62.5,4,2,2,60,0,0
170881,-62.5,4,2,2,60,0,0
171131,-62.5,4,2,2,5,0,0
171214,-62.5,4,2,2,70,0,0
173631,-62.5,4,2,2,5,0,0
173714,-62.5,4,2,2,70,0,0
176298,-62.5,4,2,2,5,0,0
176381,-62.5,4,2,2,70,0,0
176964,-62.5,4,2,2,5,0,0
177047,-62.5,4,2,2,70,0,0
177631,-62.5,4,2,2,5,0,0
177714,-62.5,4,2,2,70,0,0
178298,-62.5,4,2,2,5,0,0
178381,-62.5,4,2,2,70,0,0
180298,-62.5,4,2,2,5,0,0
180381,-62.5,4,2,2,70,0,0
181798,-62.5,4,2,2,5,0,0
181881,-62.5,4,2,2,70,0,0
184298,-62.5,4,2,2,5,0,0
184381,-62.5,4,2,2,70,0,0
191881,-45.045045045045,4,2,2,60,0,0
192048,-45.045045045045,4,2,2,60,0,0
192131,-45.045045045045,4,2,2,5,0,0
196214,-111.111111111111,4,2,2,40,0,0
197214,-100,4,2,2,40,0,0
198048,-86.9565217391304,4,2,2,40,0,0
198881,-62.5,4,2,2,60,0,0
199131,-62.5,4,2,2,5,0,0
199214,-62.5,4,2,2,60,0,0
200214,-42.5531914893617,4,2,2,60,0,0
200298,-42.5531914893617,4,2,2,5,0,0
200381,-42.5531914893617,4,2,2,60,0,0
200464,-42.5531914893617,4,2,2,5,0,0
200881,-42.5531914893617,4,2,2,60,0,0
200965,-42.5531914893617,4,2,2,5,0,0
201048,-42.5531914893617,4,2,2,60,0,0
201131,-42.5531914893617,4,2,2,5,0,0
201548,-47.6190476190476,4,2,2,80,0,1
201798,-47.6190476190476,4,2,2,5,0,1
201881,-47.6190476190476,4,2,2,80,0,1
202464,-47.6190476190476,4,2,2,5,0,1
202547,-47.6190476190476,4,2,2,80,0,1
203131,-47.6190476190476,4,2,2,5,0,1
203214,-47.6190476190476,4,2,2,80,0,1
204464,-47.6190476190476,4,2,2,5,0,1
204547,-47.6190476190476,4,2,2,80,0,1
207131,-47.6190476190476,4,2,2,5,0,1
207214,-47.6190476190476,4,2,2,80,0,1
208298,-47.6190476190476,4,2,2,5,0,1
208381,-47.6190476190476,4,2,2,80,0,1
212464,-47.6190476190476,4,2,2,5,0,1
212547,-47.6190476190476,4,2,2,80,0,1
213131,-47.6190476190476,4,2,2,5,0,1
213214,-47.6190476190476,4,2,2,80,0,1
213798,-47.6190476190476,4,2,2,5,0,1
213881,-47.6190476190476,4,2,2,80,0,1
215131,-47.6190476190476,4,2,2,5,0,1
215214,-47.6190476190476,4,2,2,80,0,1
218464,-47.6190476190476,4,2,2,5,0,1
218547,-47.6190476190476,4,2,2,80,0,1
221131,-47.6190476190476,4,2,2,5,0,1
221214,-47.6190476190476,4,2,2,80,0,1
222464,-47.6190476190476,4,2,2,5,0,1
222547,-47.6190476190476,4,2,2,80,0,1
223798,-47.6190476190476,4,2,2,5,0,1
223881,-47.6190476190476,4,2,2,80,0,1
226464,-47.6190476190476,4,2,2,5,0,1
226547,-47.6190476190476,4,2,2,80,0,1
227798,-47.6190476190476,4,2,2,5,0,1
227881,-47.6190476190476,4,2,2,80,0,1
233131,-47.6190476190476,4,2,2,5,0,1
233214,-47.6190476190476,4,2,2,80,0,1
236214,-43.4782608695652,4,2,2,80,0,0
236298,-43.4782608695652,4,2,2,5,0,0
237548,-43.4782608695652,4,2,2,80,0,0
237632,-43.4782608695652,4,2,2,5,0,0
238881,-43.4782608695652,4,2,2,80,0,0
238965,-43.4782608695652,4,2,2,5,0,0

[Colours]
Combo1 : 251,160,103
Combo2 : 114,142,186
Combo3 : 216,60,73
Combo4 : 38,48,117

[HitObjects]
381,97,2881,6,0,L|390:17,1,80,4|2,1:2|0:0,0:0:0:0:
250,132,3214,2,0,B|329:116|317:190|397:174,1,160,8|0,0:0|1:0,0:0:0:0:
462,221,3714,1,2,0:0:0:0:
292,55,3881,5,8,0:0:0:0:
184,174,4048,2,0,P|172:115|214:61,1,120,0|0,3:0|0:0,0:0:0:0:
215,60,4381,2,0,B|186:87|186:87|152:67,1,80,0|8,3:0|0:0,0:0:0:0:
58,281,4714,5,2,0:0:0:0:
76,203,4881,1,0,3:0:0:0:
94,125,5048,1,0,3:0:0:0:
54,294,5214,1,8,0:0:0:0:
417,303,5548,5,0,1:0:0:0:
395,226,5714,1,2,0:0:0:0:
264,263,5881,1,8,0:0:0:0:
154,183,6048,6,0,P|185:232|173:289,1,120,2|0,0:0|0:0,0:0:0:0:
164,301,6381,1,2,0:0:0:0:
304,373,6548,2,0,B|333:346|333:346|367:366,1,80,8|0,0:0|3:0,0:0:0:0:
312,177,6881,6,0,B|283:150|283:150|249:170,1,80,2|0,0:0|3:0,0:0:0:0:
456,239,7214,1,8,0:0:0:0:
394,188,7381,2,0,L|376:45,1,120,2|0,0:0|0:0,0:0:0:0:
377,55,7714,5,0,3:0:0:0:
244,0,7881,1,8,0:0:0:0:
172,37,8048,1,2,0:0:0:0:
155,230,8214,6,0,P|188:208|227:215,1,80,0|2,1:0|0:0,0:0:0:0:
20,102,8548,2,0,P|91:87|156:138,1,160,8|0,0:0|1:0,0:0:0:0:
236,133,9048,1,2,0:0:0:0:
399,185,9214,5,8,0:0:0:0:
488,79,9381,2,0,P|429:67|375:109,1,120,0|0,3:0|0:0,0:0:0:0:
374,110,9714,2,0,B|345:83|345:83|311:103,1,80,0|8,3:0|0:0,0:0:0:0:
370,307,10048,5,8,0:0:0:0:
394,230,10214,1,0,3:0:0:0:
333,178,10381,1,0,3:0:0:0:
374,319,10548,1,8,0:0:0:0:
83,229,10881,6,0,P|142:217|196:259,1,120,0|0,1:0|0:0,0:0:0:0:
199,261,11214,2,0,L|187:165,1,80,8|0,0:0|0:0,0:0:0:0:
39,71,11548,5,0,1:0:0:0:
0,141,11714,2,0,B|29:168|29:168|63:148,1,80,2|8,0:0|0:0,0:0:0:0:
115,302,12048,2,0,P|92:237|39:280,1,160,0|0,3:0|3:0,0:0:0:0:
176,356,12548,5,8,0:0:0:0:
331,384,12714,1,8,0:0:0:0:
435,273,12881,5,0,3:0:0:0:
512,253,13048,1,0,3:0:0:0:
253,370,13214,5,12,3:0:0:0:
8,117,13548,6,0,P|1:155|23:187,1,80,4|2,1:2|0:0,0:0:0:0:
208,101,13881,2,0,B|129:117|141:43|61:59,1,160,8|0,0:0|1:0,0:0:0:0:
0,6,14381,1,2,0:0:0:0:
192,22,14548,5,8,0:0:0:0:
274,153,14714,2,0,P|262:212|304:266,1,120,0|0,3:0|0:0,0:0:0:0:
305,267,15048,2,0,B|276:240|276:240|242:260,1,80,0|8,3:0|0:0,0:0:0:0:
476,370,15381,5,2,0:0:0:0:
494,292,15548,1,0,3:0:0:0:
512,214,15714,1,0,3:0:0:0:
472,383,15881,1,8,0:0:0:0:
375,58,16214,5,0,1:0:0:0:
307,16,16381,1,2,0:0:0:0:
183,69,16548,1,8,0:0:0:0:
5,29,16714,6,0,P|54:-2|111:10,1,120,2|0,0:0|0:0,0:0:0:0:
123,19,17048,1,2,0:0:0:0:
223,138,17214,2,0,B|194:165|194:165|160:145,1,80,8|0,0:0|3:0,0:0:0:0:
0,281,17548,6,0,B|29:308|29:308|63:288,1,80,2|0,0:0|3:0,0:0:0:0:
226,374,17881,1,8,0:0:0:0:
149,352,18048,2,0,L|131:209,1,120,8|0,0:0|0:0,0:0:0:0:
132,219,18381,5,0,3:0:0:0:
291,275,18548,1,8,0:0:0:0:
363,238,18714,1,2,0:0:0:0:
300,373,18881,6,0,P|267:351|229:357,1,80,0|2,1:0|0:0,0:0:0:0:
127,226,19214,2,0,P|49:226|0:285,1,160,8|0,0:0|1:0,0:0:0:0:
55,344,19714,1,2,0:0:0:0:
201,192,19881,5,8,0:0:0:0:
331,291,20048,2,0,P|390:279|444:321,1,120,0|0,3:0|0:0,0:0:0:0:
445,322,20381,2,0,B|474:295|474:295|508:315,1,80,0|8,3:0|0:0,0:0:0:0:
388,201,20714,5,8,0:0:0:0:
364,124,20881,1,0,3:0:0:0:
425,72,21048,1,0,3:0:0:0:
384,213,21214,1,8,0:0:0:0:
132,47,21548,6,0,P|73:35|19:77,1,120,0|0,1:0|0:0,0:0:0:0:
16,79,21881,2,0,L|28:-17,1,80,8|0,0:0|0:0,0:0:0:0:
275,220,22214,5,0,1:0:0:0:
205,180,22381,2,0,L|193:84,1,80,2|8,0:0|0:0,0:0:0:0:
0,255,22714,2,0,B|53:261|53:261|94:230|94:230|148:236,1,160,0|0,3:0|3:0,0:0:0:0:
249,42,23214,5,8,0:0:0:0:
405,8,23381,1,8,0:0:0:0:
512,222,23548,5,0,3:0:0:0:
379,191,23714,1,8,3:0:0:0:
454,168,23881,5,8,3:0:0:0:
435,246,24048,1,2,0:0:0:0:
308,384,24214,6,0,B|228:400|240:326|161:342,2,160,4|8|0,1:2|0:0|1:0,0:0:0:0:
291,305,25048,1,2,0:0:0:0:
380,197,25214,5,8,0:0:0:0:
324,139,25381,2,0,P|363:71|336:0,1,160,0|0,3:0|3:0,0:0:0:0:
172,148,25881,5,8,0:0:0:0:
250,161,26048,1,8,0:0:0:0:
170,158,26214,1,0,3:0:0:0:
248,171,26381,1,0,3:0:0:0:
221,384,26548,5,8,0:0:0:0:
377,358,26714,1,2,0:0:0:0:
299,371,26881,6,0,B|308:294|308:294|305:290|305:290|315:214,2,160,0|8|0,1:0|0:0|1:0,0:0:0:0:
224,342,27714,1,2,0:0:0:0:
88,384,27881,5,8,0:0:0:0:
20,302,28048,2,0,B|73:308|73:308|114:277|114:277|168:283,1,160,0|0,3:0|3:0,0:0:0:0:
341,176,28548,5,8,0:0:0:0:
215,217,28714,1,8,0:0:0:0:
329,98,28881,1,0,3:0:0:0:
404,124,29048,1,0,3:0:0:0:
512,0,29214,5,8,0:0:0:0:
435,22,29381,1,2,0:0:0:0:
254,72,29548,6,0,P|181:98|114:59,2,160,0|8|0,1:0|0:0|1:0,0:0:0:0:
329,98,30381,1,2,0:0:0:0:
496,37,30548,5,8,0:0:0:0:
478,155,30714,2,0,P|433:103|402:163,1,160,0|0,3:0|3:0,0:0:0:0:
224,306,31214,5,8,0:0:0:0:
376,354,31381,1,8,0:0:0:0:
242,384,31548,1,0,3:0:0:0:
300,330,31714,1,0,3:0:0:0:
149,283,31881,5,8,0:0:0:0:
123,127,32048,1,2,0:0:0:0:
190,72,32214,6,0,B|145:66|136:20|136:20|116:62|72:57,2,160,0|8|0,1:0|0:0|1:0,0:0:0:0:
240,134,33048,1,2,0:0:0:0:
149,283,33214,5,8,0:0:0:0:
194,348,33381,2,0,P|121:320|54:359,1,160,0|0,3:0|3:0,0:0:0:0:
314,249,33881,5,8,0:0:0:0:
251,199,34048,1,8,0:0:0:0:
239,278,34214,1,0,3:0:0:0:
314,249,34381,1,0,3:0:0:0:
383,107,34548,5,12,0:3:0:0:
497,221,34714,1,2,0:0:0:0:
366,186,34881,6,0,B|446:202|434:128|513:144,2,160,4|8|0,1:2|0:0|1:0,0:0:0:0:
307,241,35714,1,2,0:0:0:0:
168,187,35881,5,8,0:0:0:0:
224,245,36048,2,0,P|185:313|212:384,1,160,0|0,3:0|3:0,0:0:0:0:
26,342,36548,5,8,0:0:0:0:
104,329,36714,1,2,0:0:0:0:
24,332,36881,1,0,3:0:0:0:
102,319,37048,1,0,3:0:0:0:
203,170,37214,5,8,0:0:0:0:
47,144,37381,1,2,0:0:0:0:
125,157,37548,6,0,B|116:80|116:80|119:76|119:76|109:0,2,160,0|8|0,1:0|0:0|1:0,0:0:0:0:
189,204,38381,1,2,0:0:0:0:
316,61,38548,5,8,0:0:0:0:
403,139,38714,2,0,B|350:133|350:133|309:164|309:164|255:158,1,160,0|0,3:0|3:0,0:0:0:0:
226,297,39214,5,8,0:0:0:0:
204,220,39381,1,8,0:0:0:0:
282,240,39548,1,0,3:0:0:0:
111,291,39714,1,0,3:0:0:0:
168,150,39881,5,8,0:0:0:0:
92,125,40048,1,2,0:0:0:0:
228,97,40214,6,0,P|301:71|368:110,2,160,0|8|0,1:0|0:0|1:0,0:0:0:0:
152,72,41048,1,2,0:0:0:0:
46,225,41214,5,8,0:0:0:0:
6,83,41381,2,0,P|27:147|78:102,1,160,0|0,3:0|3:0,0:0:0:0:
221,33,41881,5,8,0:0:0:0:
298,11,42048,1,8,0:0:0:0:
278,89,42214,1,0,3:0:0:0:
144,55,42381,1,0,3:0:0:0:
59,159,42548,5,8,0:0:0:0:
201,109,42714,1,2,0:0:0:0:
257,165,42881,6,0,B|283:136|328:128|360:147|360:147|356:183,1,146.250000557899,4|0,1:3|0:0,0:0:0:0:
362,190,43214,2,0,L|371:110,1,48.7500001859665,8|0,0:0|0:0,0:0:0:0:
491,94,43381,6,0,B|464:115|434:100|434:100|424:16,1,146.250000557899,4|0,1:3|0:0,0:0:0:0:
416,9,43714,2,0,L|421:57,1,48.7500001859665,0|0,3:0|0:0,0:0:0:0:
182,185,43881,5,8,0:0:0:0:
199,109,44048,1,0,0:0:0:0:
58,254,44214,5,4,1:3:0:0:
30,127,44381,1,0,3:0:0:0:
1,0,44548,1,0,3:0:0:0:
199,109,44714,6,0,B|252:59|252:59|314:96,1,146.250000557899,4|0,1:3|0:0,0:0:0:0:
325,103,45048,1,0,3:0:0:0:
361,258,45214,5,8,0:0:0:0:
409,194,45381,1,0,3:0:0:0:
379,172,45464,1,0,3:0:0:0:
343,180,45548,5,4,1:2:0:0:
369,354,45714,1,2,0:0:0:0:
441,384,45881,5,8,0:0:0:0:
320,256,46048,1,2,0:0:0:0:
266,198,46214,6,0,P|207:186|153:228,1,120,0|0,1:0|0:0,0:0:0:0:
151,231,46548,1,8,0:0:0:0:
78,198,46714,1,0,3:0:0:0:
0,343,46881,5,2,0:0:0:0:
161,307,47048,1,0,3:0:0:0:
226,352,47214,2,0,P|264:345|296:367,1,80,8|0,0:0|0:0,0:0:0:0:
447,259,47548,6,0,P|388:247|334:289,1,120,0|0,3:0|0:0,0:0:0:0:
333,291,47881,2,0,L|342:211,1,80,8|0,0:0|0:0,0:0:0:0:
205,29,48214,5,0,1:0:0:0:
271,180,48381,1,0,0:0:0:0:
192,157,48548,5,8,0:0:0:0:
281,0,48714,1,0,0:0:0:0:
411,69,48881,6,0,P|379:46|340:53,1,80,0|0,1:0|0:0,0:0:0:0:
271,180,49214,2,0,L|284:291,1,80,8|0,0:0|3:0,0:0:0:0:
396,148,49548,5,0,0:0:0:0:
356,217,49714,2,0,B|385:244|385:244|419:224,1,80,0|8,3:0|0:0,0:0:0:0:
211,128,50048,5,8,0:0:0:0:
126,73,50214,1,0,3:0:0:0:
29,105,50381,1,0,3:0:0:0:
275,79,50548,6,0,L|263:-16,1,80,8|0,0:0|0:0,0:0:0:0:
491,169,50881,5,0,1:0:0:0:
335,133,51048,1,2,0:0:0:0:
189,26,51214,5,8,0:0:0:0:
345,6,51381,1,2,0:0:0:0:
263,221,51548,6,0,P|322:209|376:251,1,120,0|0,1:0|0:0,0:0:0:0:
378,254,51881,1,8,0:0:0:0:
454,230,52048,1,0,3:0:0:0:
512,113,52214,5,2,0:0:0:0:
351,77,52381,1,0,3:0:0:0:
293,132,52548,2,0,P|261:109|222:116,1,80,8|0,0:0|0:0,0:0:0:0:
48,32,52881,6,0,P|107:44|161:2,1,120,0|0,3:0|0:0,0:0:0:0:
162,0,53214,2,0,L|153:80,1,80,8|0,0:0|0:0,0:0:0:0:
283,283,53548,5,0,1:0:0:0:
217,132,53714,1,0,0:0:0:0:
296,155,53881,5,8,0:0:0:0:
207,312,54048,1,0,0:0:0:0:
82,225,54214,5,0,1:0:0:0:
159,246,54381,1,2,0:0:0:0:
271,362,54548,2,0,L|382:349,1,80,8|0,0:0|3:0,0:0:0:0:
512,163,54881,5,2,0:0:0:0:
433,146,55048,1,0,3:0:0:0:
403,289,55214,1,8,0:0:0:0:
271,362,55381,5,8,0:0:0:0:
208,314,55548,1,0,3:0:0:0:
134,345,55714,1,0,3:0:0:0:
0,234,55881,6,0,P|-5:195|11:230,1,111.000002709961,12|0,0:3|0:0,0:0:0:0:
132,153,56214,6,0,P|97:206|111:269,1,131.250001251698,4|0,1:3|0:0,0:0:0:0:
120,283,56548,2,0,P|161:275|196:299,1,80,8|0,0:0|0:0,0:0:0:0:
46,126,56881,5,4,1:3:0:0:
109,79,57048,2,0,L|120:-16,1,80,2|8,0:0|0:0,0:0:0:0:
272,160,57381,5,0,3:0:0:0:
312,229,57548,2,0,B|283:256|283:256|249:236,1,80,6|0,0:3|3:0,0:0:0:0:
473,384,57881,5,8,0:0:0:0:
512,209,58048,1,8,0:0:0:0:
475,372,58214,5,4,3:3:0:0:
492,296,58381,1,0,3:0:0:0:
509,220,58548,1,8,0:3:0:0:
173,324,58881,6,0,P|112:362|43:347,1,146.250000557899,4|0,1:2|0:0,0:0:0:0:
33,338,59214,1,8,0:0:0:0:
84,157,59381,1,8,0:0:0:0:
231,384,59548,6,0,L|326:372,1,60.4999982921601,8|0,0:0|0:0,0:0:0:0:
430,360,59714,2,0,L|334:371,1,60.4999982921601,8|0,0:0|0:0,0:0:0:0:
500,209,59881,6,0,P|474:194|444:199,1,60.4999982921601,8|0,0:0|0:0,0:0:0:0:
439,277,60048,2,0,P|459:286|481:284,1,45.5000015274048,8|0,0:0|0:0,0:0:0:0:
380,153,60214,6,0,P|327:89|303:169,1,205.000003128052,8|0,1:2|0:0,0:0:0:0:
1,351,60881,6,0,L|48:356,1,48.7499977684022,0|0,0:0|0:0,0:0:0:0:
62,359,61214,2,0,L|109:364,1,48.7499977684022,0|0,0:0|0:0,0:0:0:0:
123,367,61548,6,0,B|60:374|60:374|31:342|32:291|62:258,1,189.999994926453,4|8,1:2|0:0,0:0:0:0:
25,190,62048,1,0,0:0:0:0:
243,141,62214,6,0,P|206:95|174:163,1,142.49999619484,0|0,1:0|0:0,0:0:0:0:
167,159,62548,2,0,P|131:129|85:137,1,94.9999974632264,8|0,0:0|0:0,0:0:0:0:
391,138,62881,6,0,P|326:162|302:227,1,142.49999619484,0|0,1:0|0:0,0:0:0:0:
305,242,63214,1,8,0:0:0:0:
479,384,63381,5,2,0:0:0:0:
362,366,63548,1,0,1:0:0:0:
374,287,63714,1,0,3:0:0:0:
234,159,63881,5,8,0:0:0:0:
282,94,64048,1,0,3:0:0:0:
260,64,64131,1,0,3:0:0:0:
268,27,64214,6,0,B|197:13|208:79|137:65,1,142.49999619484,0|0,1:0|0:0,0:0:0:0:
126,59,64548,1,8,0:0:0:0:
77,121,64714,1,2,0:0:0:0:
174,215,64881,5,0,1:0:0:0:
205,352,65048,1,0,3:0:0:0:
68,384,65214,1,8,0:0:0:0:
129,333,65381,1,2,0:0:0:0:
323,384,65548,6,0,B|275:361|281:312|281:312|293:213,1,189.999994926453,0|8,1:0|0:0,0:0:0:0:
230,166,66048,1,0,0:0:0:0:
115,44,66214,5,0,1:0:0:0:
88,119,66381,1,0,3:0:0:0:
174,224,66548,2,0,P|138:194|92:202,1,94.9999974632264,8|0,0:0|0:0,0:0:0:0:
167,307,66881,6,0,P|98:318|45:274,1,142.49999619484,0|0,1:0|0:0,0:0:0:0:
40,263,67214,2,0,L|51:358,1,94.9999974632264,8|0,0:0|0:0,0:0:0:0:
231,357,67548,5,0,1:0:0:0:
301,320,67714,1,0,3:0:0:0:
438,379,67881,1,8,0:0:0:0:
487,205,68048,6,0,P|421:216|382:325,1,189.999994926453,2|2,0:0|0:0,0:0:0:0:
253,160,68548,2,0,P|298:153|333:182,1,94.9999974632264,8|0,0:0|0:0,0:0:0:0:
103,263,68881,5,0,1:0:0:0:
198,101,69048,1,0,3:0:0:0:
12,76,69214,1,8,0:0:0:0:
46,148,69381,1,2,0:0:0:0:
103,263,69548,5,0,1:0:0:0:
137,335,69714,1,0,0:0:0:0:
93,268,69881,5,8,0:0:0:0:
127,340,70048,1,0,0:0:0:0:
344,197,70214,5,0,1:0:0:0:
186,156,70381,1,0,3:0:0:0:
114,190,70548,1,8,0:0:0:0:
0,66,70714,6,0,P|26:140|80:82,1,189.999994926453,4|0,3:3|3:0,0:0:0:0:
281,43,71214,2,0,P|235:37|208:1,1,94.9999974632264,8|0,0:0|0:0,0:0:0:0:
159,75,71548,5,0,1:0:0:0:
209,136,71714,1,0,3:0:0:0:
207,159,71798,1,0,3:0:0:0:
214,171,71881,5,8,3:2:0:0:
162,155,71964,1,0,3:0:0:0:
112,171,72048,1,0,3:0:0:0:
79,210,72131,1,0,3:0:0:0:
65,203,72214,6,0,B|128:196|128:196|157:228|156:279|126:312,1,189.999994926453,4|8,1:2|0:0,0:0:0:0:
171,377,72714,1,0,0:0:0:0:
377,307,72881,6,0,P|340:353|308:285,1,142.49999619484,0|0,1:0|0:0,0:0:0:0:
301,289,73214,2,0,P|265:319|219:311,1,94.9999974632264,8|0,0:0|0:0,0:0:0:0:
512,289,73548,6,0,P|447:265|423:200,1,142.49999619484,0|0,1:0|0:0,0:0:0:0:
426,185,73881,1,8,0:0:0:0:
362,0,74048,5,2,0:0:0:0:
495,51,74214,1,0,1:0:0:0:
483,130,74381,1,0,3:0:0:0:
343,214,74548,5,8,0:0:0:0:
295,279,74714,1,0,3:0:0:0:
317,309,74798,1,0,3:0:0:0:
309,346,74881,6,0,B|238:332|249:398|178:384,1,142.49999619484,0|0,1:0|0:0,0:0:0:0:
167,378,75214,1,8,0:0:0:0:
105,327,75381,1,2,0:0:0:0:
229,153,75548,5,0,1:0:0:0:
92,122,75714,1,0,3:0:0:0:
60,259,75881,1,8,0:0:0:0:
111,198,76048,1,2,0:0:0:0:
361,195,76214,6,0,B|320:178|287:206|287:206|301:315,1,189.999994926453,0|8,1:0|0:0,0:0:0:0:
259,384,76714,1,0,0:0:0:0:
128,265,76881,5,0,1:0:0:0:
67,317,77048,1,0,3:0:0:0:
37,295,77131,1,0,3:0:0:0:
0,303,77214,2,0,L|11:207,1,94.9999974632264,8|0,0:0|0:0,0:0:0:0:
249,131,77548,5,4,1:3:0:0:
89,233,77714,1,2,0:0:0:0:
1,69,77881,5,8,0:0:0:0:
152,184,78048,1,2,0:0:0:0:
165,262,78214,6,0,P|229:286|253:351,1,142.49999619484,4|0,1:3|0:0,0:0:0:0:
253,364,78548,2,0,P|263:332|261:365,1,94.9999974632264,8|2,0:0|0:0,0:0:0:0:
477,232,78881,5,4,1:3:0:0:
313,268,79048,1,2,0:0:0:0:
172,384,79214,5,8,0:0:0:0:
8,348,79381,1,2,0:0:0:0:
254,221,79548,5,4,1:3:0:0:
114,249,79714,1,2,0:0:0:0:
49,206,79881,1,8,0:0:0:0:
247,0,80214,5,4,1:3:0:0:
415,53,80381,1,2,0:0:0:0:
512,156,80548,5,8,0:0:0:0:
353,234,80714,1,2,0:0:0:0:
483,271,80881,5,4,1:3:0:0:
326,157,81048,1,2,0:0:0:0:
276,218,81214,1,8,0:0:0:0:
136,164,81381,6,0,B|85:176|61:121|61:121|51:180|0:180,1,189.999994926453,2|2,0:0|0:0,0:0:0:0:
85,333,81881,2,0,L|73:238,1,94.9999974632264,12|0,0:0|0:0,0:0:0:0:
201,117,82214,5,0,1:0:0:0:
263,168,82381,1,0,3:0:0:0:
285,164,82464,1,0,3:0:0:0:
293,153,82548,5,8,3:2:0:0:
337,131,82631,1,0,3:0:0:0:
384,149,82714,1,0,3:0:0:0:
404,195,82798,1,0,3:0:0:0:
421,193,82881,6,0,L|413:256,1,57.5000010967255,12|0,0:3|0:0,0:0:0:0:
421,193,84214,6,0,L|413:256,1,57.5000010967255,12|0,0:3|0:0,0:0:0:0:
421,193,85548,6,0,L|412:273,1,80,4|2,1:2|0:0,0:0:0:0:
310,169,85881,2,0,L|325:296,1,120,8|0,0:0|0:0,0:0:0:0:
327,302,86214,1,0,1:0:0:0:
256,340,86381,1,2,0:0:0:0:
126,281,86548,5,8,0:0:0:0:
16,351,86714,2,0,P|47:301|35:244,1,120,0|0,3:0|0:0,0:0:0:0:
28,236,87048,2,0,B|48:202|48:202|21:173,1,80,0|8,3:0|0:0,0:0:0:0:
181,294,87381,5,2,0:0:0:0:
121,240,87548,1,0,3:0:0:0:
197,215,87714,1,0,3:0:0:0:
358,290,87881,1,8,0:0:0:0:
512,77,88214,5,0,1:0:0:0:
490,0,88381,1,2,0:0:0:0:
359,37,88548,1,8,0:0:0:0:
227,0,88714,6,0,P|178:31|121:19,1,120,2|0,0:0|0:0,0:0:0:0:
109,10,89048,1,2,0:0:0:0:
10,95,89214,2,0,B|44:115|44:115|73:88,1,80,8|0,0:0|3:0,0:0:0:0:
169,182,89548,6,0,P|176:144|154:112,1,80,2|0,0:0|3:0,0:0:0:0:
33,302,89881,1,8,0:0:0:0:
97,253,90048,2,0,L|216:267,1,120,2|0,0:0|0:0,0:0:0:0:
230,270,90381,5,0,3:0:0:0:
351,358,90548,1,8,0:0:0:0:
428,338,90714,1,2,0:0:0:0:
512,192,90881,6,0,P|473:198|441:176,1,80,0|2,1:0|0:0,0:0:0:0:
296,302,91214,2,0,P|247:271|190:283,1,120,8|0,0:0|0:0,0:0:0:0:
178,292,91548,1,0,1:0:0:0:
103,266,91714,1,2,0:0:0:0:
94,101,91881,5,8,0:0:0:0:
160,207,92048,2,0,L|175:79,1,120,0|0,3:0|0:0,0:0:0:0:
175,75,92381,2,0,B|209:95|209:95|238:68,1,80,0|8,3:0|0:0,0:0:0:0:
401,212,92714,5,8,0:0:0:0:
324,188,92881,1,0,3:0:0:0:
247,164,93048,1,0,3:0:0:0:
295,10,93214,1,8,0:0:0:0:
0,349,93548,6,0,P|59:337|113:379,1,120,0|0,1:0|0:0,0:0:0:0:
116,381,93881,2,0,L|104:285,1,80,8|0,0:0|0:0,0:0:0:0:
362,384,94214,5,0,1:0:0:0:
401,314,94381,2,0,B|372:287|372:287|338:307,1,80,2|8,0:0|0:0,0:0:0:0:
188,245,94714,2,0,P|211:310|264:267,1,160,0|0,3:0|3:0,0:0:0:0:
0,134,95214,5,8,0:0:0:0:
136,186,95381,1,8,0:0:0:0:
255,104,95548,5,0,3:0:0:0:
363,62,95714,1,0,3:0:0:0:
438,166,95881,5,12,3:0:0:0:
512,195,96048,1,0,3:0:0:0:
391,305,96214,6,0,L|382:225,1,80,4|2,1:2|0:0,0:0:0:0:
280,326,96548,2,0,L|295:199,1,120,8|0,0:0|0:0,0:0:0:0:
297,193,96881,1,0,1:0:0:0:
226,155,97048,1,2,0:0:0:0:
70,325,97214,5,8,0:0:0:0:
0,215,97381,2,0,P|50:246|107:234,1,120,0|0,3:0|0:0,0:0:0:0:
115,227,97714,2,0,B|149:247|149:247|178:220,1,80,0|8,3:0|0:0,0:0:0:0:
300,309,98048,5,2,0:0:0:0:
246,369,98214,1,0,3:0:0:0:
221,293,98381,1,0,3:0:0:0:
296,132,98548,1,8,0:0:0:0:
33,320,98881,5,0,1:0:0:0:
104,355,99048,1,2,0:0:0:0:
221,293,99214,1,8,0:0:0:0:
347,384,99381,6,0,P|396:353|453:365,1,120,2|0,0:0|0:0,0:0:0:0:
465,374,99714,1,2,0:0:0:0:
363,277,99881,2,0,B|334:250|334:250|300:270,1,80,8|0,0:0|3:0,0:0:0:0:
108,270,100214,6,0,P|99:308|121:340,1,80,2|0,0:0|3:0,0:0:0:0:
229,162,100548,1,8,0:0:0:0:
186,229,100714,2,0,P|218:276|208:334,1,120,8|0,0:0|0:0,0:0:0:0:
201,348,101048,5,0,3:0:0:0:
284,221,101214,1,8,0:0:0:0:
229,162,101381,1,2,0:0:0:0:
296,0,101548,6,0,P|335:-6|367:16,1,80,0|2,1:0|0:0,0:0:0:0:
477,98,101881,2,0,P|419:85|370:116,1,120,8|0,0:0|0:0,0:0:0:0:
362,130,102214,1,0,1:0:0:0:
397,202,102381,1,2,0:0:0:0:
300,336,102548,5,8,0:0:0:0:
231,245,102714,2,0,L|216:373,1,120,0|0,3:0|0:0,0:0:0:0:
216,377,103048,2,0,B|182:357|182:357|153:384,1,80,0|8,3:0|0:0,0:0:0:0:
98,130,103381,5,8,0:0:0:0:
122,207,103548,1,0,3:0:0:0:
146,284,103714,1,0,3:0:0:0:
300,236,103881,1,8,0:0:0:0:
0,112,104214,6,0,P|59:100|113:142,1,120,0|0,1:0|0:0,0:0:0:0:
116,144,104548,2,0,L|104:48,1,80,8|0,0:0|0:0,0:0:0:0:
347,194,104881,5,0,1:0:0:0:
386,124,105048,2,0,B|357:97|357:97|323:117,1,80,2|8,0:0|0:0,0:0:0:0:
151,0,105381,2,0,B|231:-16|219:58|298:42,1,160,0|0,3:0|3:0,0:0:0:0:
412,199,105881,5,8,0:0:0:0:
373,20,106048,1,8,0:0:0:0:
442,124,106214,5,0,3:0:0:0:
424,202,106381,1,8,3:0:0:0:
229,204,106548,5,8,3:0:0:0:
268,383,106714,1,8,0:0:0:0:
335,339,106881,6,0,P|277:351|228:320,1,120,4|0,1:2|0:0,0:0:0:0:
223,308,107214,2,0,P|190:329|152:323,1,80,8|0,0:0|0:0,0:0:0:0:
203,230,107548,2,0,P|164:223|132:245,1,80,0|2,1:0|0:0,0:0:0:0:
72,74,107881,5,8,0:0:0:0:
16,132,108048,2,0,P|55:200|28:271,1,160,0|0,3:0|3:0,0:0:0:0:
128,153,108548,5,8,0:0:0:0:
161,80,108714,1,8,0:0:0:0:
241,90,108881,1,0,3:0:0:0:
256,168,109048,1,0,3:0:0:0:
166,365,109214,5,8,0:0:0:0:
186,207,109381,1,2,0:0:0:0:
176,286,109548,6,0,L|303:270,1,120,0|0,1:0|0:0,0:0:0:0:
310,270,109881,2,0,P|285:300|288:339,1,80,8|0,0:0|0:0,0:0:0:0:
361,177,110214,2,0,P|322:170|290:192,1,80,0|2,1:0|0:0,0:0:0:0:
446,360,110548,5,8,0:0:0:0:
470,284,110714,2,0,P|427:237|393:302,1,160,0|0,3:0|3:0,0:0:0:0:
202,384,111214,5,8,0:0:0:0:
336,360,111381,1,8,0:0:0:0:
186,308,111548,1,0,3:0:0:0:
111,282,111714,1,0,3:0:0:0:
44,384,111881,2,0,L|32:289,1,80,8|2,0:0|0:0,0:0:0:0:
172,148,112214,6,0,P|230:136|279:167,1,120,0|0,1:0|0:0,0:0:0:0:
289,178,112548,2,0,P|264:147|265:108,1,80,8|0,0:0|0:0,0:0:0:0:
172,229,112881,2,0,P|204:250|242:243,1,80,0|2,1:0|0:0,0:0:0:0:
428,129,113214,5,8,0:0:0:0:
371,186,113381,2,0,P|381:109|328:52,1,160,0|0,3:0|3:0,0:0:0:0:
160,191,113881,5,8,0:0:0:0:
312,239,114048,1,8,0:0:0:0:
178,269,114214,1,0,3:0:0:0:
236,215,114381,1,0,3:0:0:0:
371,186,114548,5,8,0:0:0:0:
397,30,114714,1,2,0:0:0:0:
385,108,114881,6,0,L|265:93,1,120,0|0,1:0|0:0,0:0:0:0:
253,90,115214,2,0,P|278:120|275:158,1,80,8|0,0:0|0:0,0:0:0:0:
327,220,115548,2,0,P|313:256|278:273,1,80,0|2,1:0|0:0,0:0:0:0:
150,384,115881,5,8,0:0:0:0:
100,310,116048,2,0,B|144:315|164:273|164:273|173:319|218:325,1,160,0|0,3:0|3:0,0:0:0:0:
500,281,116548,5,8,0:0:0:0:
424,257,116714,1,8,0:0:0:0:
358,302,116881,1,0,3:0:0:0:
282,278,117048,1,0,3:0:0:0:
119,378,117214,5,12,0:3:0:0:
272,284,117381,1,2,0:0:0:0:
227,217,117548,6,0,P|239:159|208:110,1,120,4|0,1:2|0:0,0:0:0:0:
196,105,117881,2,0,P|217:72|211:34,1,80,8|0,0:0|0:0,0:0:0:0:
119,86,118214,2,0,P|112:47|134:15,1,80,0|2,1:0|0:0,0:0:0:0:
284,148,118548,5,8,0:0:0:0:
328,215,118714,2,0,P|260:176|189:203,1,160,0|0,3:0|3:0,0:0:0:0:
63,298,119214,5,8,0:0:0:0:
96,371,119381,1,8,0:0:0:0:
176,361,119548,1,0,3:0:0:0:
191,283,119714,1,0,3:0:0:0:
101,86,119881,5,8,0:0:0:0:
121,244,120048,1,2,0:0:0:0:
111,164,120214,6,0,L|238:180,1,120,0|0,1:0|0:0,0:0:0:0:
245,180,120548,2,0,P|220:150|223:111,1,80,8|0,0:0|0:0,0:0:0:0:
296,273,120881,2,0,P|257:280|225:258,1,80,0|2,1:0|0:0,0:0:0:0:
399,384,121214,5,8,0:0:0:0:
452,325,121381,2,0,P|425:261|375:308,1,160,0|0,3:0|3:0,0:0:0:0:
252,103,121881,5,8,0:0:0:0:
118,127,122048,1,8,0:0:0:0:
268,179,122214,1,0,3:0:0:0:
343,205,122381,1,0,3:0:0:0:
410,103,122548,2,0,L|422:198,1,80,8|2,0:0|0:0,0:0:0:0:
108,101,122881,6,0,P|166:89|215:120,1,120,0|0,1:0|0:0,0:0:0:0:
225,131,123214,2,0,P|201:101|202:62,1,80,8|0,0:0|0:0,0:0:0:0:
108,182,123548,2,0,P|141:204|179:197,1,80,0|2,1:0|0:0,0:0:0:0:
364,82,123881,5,8,0:0:0:0:
307,139,124048,2,0,P|318:63|265:6,1,160,0|0,3:0|3:0,0:0:0:0:
191,250,124548,5,8,0:0:0:0:
268,272,124714,1,8,0:0:0:0:
248,194,124881,1,0,3:0:0:0:
114,228,125048,1,0,3:0:0:0:
29,124,125214,5,8,0:0:0:0:
171,174,125381,1,2,0:0:0:0:
227,118,125548,6,0,L|346:104,1,120,0|0,1:0|0:0,0:0:0:0:
359,100,125881,2,0,P|333:131|336:169,1,80,8|0,0:0|0:0,0:0:0:0:
285,230,126214,2,0,P|298:267|333:284,1,80,0|2,1:0|0:0,0:0:0:0:
179,384,126548,5,8,0:0:0:0:
111,325,126714,2,0,B|156:319|165:273|165:273|185:315|229:310,1,160,0|0,3:0|3:0,0:0:0:0:
317,214,127214,5,8,0:0:0:0:
158,195,127381,1,8,0:0:0:0:
17,178,127548,6,0,L|80:185,1,64.9999970245363,0|2,3:0|0:0,0:0:0:0:
512,0,128214,5,4,1:2:0:0:
353,35,128381,1,2,0:0:0:0:
388,194,128548,1,8,0:0:0:0:
465,214,128714,6,0,B|386:198|398:272|318:256,1,160,2|0,0:0|0:0,0:0:0:0:
0,278,129214,5,8,0:0:0:0:
159,313,129381,1,0,3:0:0:0:
268,192,129548,1,2,0:0:0:0:
208,139,129714,6,0,P|234:66|195:-1,1,160,0|8,3:0|0:0,0:0:0:0:
327,248,130214,5,0,3:0:0:0:
407,238,130381,1,0,3:0:0:0:
391,111,130548,1,8,0:3:0:0:
312,121,130714,1,2,0:0:0:0:
155,111,130881,6,0,P|227:138|255:210,1,160,0|8,1:0|0:0,0:0:0:0:
186,251,131381,1,2,0:0:0:0:
328,155,131548,5,0,1:0:0:0:
478,173,131714,1,2,0:0:0:0:
400,184,131881,2,0,L|405:136,2,40,8|2|0,0:0|0:0|3:0,0:0:0:0:
216,59,132214,5,2,0:0:0:0:
138,77,132381,1,0,3:0:0:0:
191,136,132548,1,8,0:0:0:0:
163,0,132714,1,8,0:0:0:0:
90,237,132881,5,0,3:0:0:0:
249,285,133048,1,0,3:0:0:0:
298,125,133214,1,8,0:3:0:0:
138,77,133381,1,2,0:0:0:0:
62,51,133548,6,0,B|139:42|139:42|143:45|143:45|219:35,2,160,4|8|0,1:2|0:0|1:0,0:0:0:0:
16,117,134381,1,2,0:0:0:0:
106,212,134548,5,8,0:0:0:0:
58,320,134714,1,0,3:0:0:0:
113,377,134881,6,0,P|162:345|219:358,1,120,2|0,0:0|0:0,0:0:0:0:
231,367,135214,1,8,0:0:0:0:
342,225,135381,2,0,B|263:209|275:283|195:267,1,160,0|0,0:0|3:0,0:0:0:0:
396,361,135881,2,0,L|407:265,1,80,8|2,0:3|0:0,0:0:0:0:
158,195,136214,5,0,1:0:0:0:
186,171,136298,1,0,0:0:0:0:
223,177,136381,1,0,0:0:0:0:
286,128,136548,2,0,P|316:153|354:150,1,80,8|0,0:0|0:0,0:0:0:0:
283,0,136881,5,0,1:0:0:0:
238,66,137048,1,2,0:0:0:0:
283,229,137214,1,8,0:0:0:0:
212,344,137381,6,0,B|256:349|276:307|276:307|285:353|330:359,1,160,0|0,3:0|3:0,0:0:0:0:
340,351,137798,1,0,0:0:0:0:
351,344,137881,1,8,0:0:0:0:
512,278,138048,2,0,L|500:182,1,80,8|0,0:0|3:0,0:0:0:0:
320,223,138381,5,0,3:0:0:0:
283,229,138464,1,0,3:0:0:0:
255,205,138548,1,8,0:3:0:0:
147,295,138714,1,0,3:0:0:0:
119,271,138798,1,0,3:0:0:0:
82,277,138881,5,4,1:2:0:0:
93,356,139048,1,2,0:0:0:0:
19,197,139214,2,0,L|11:260,3,40,8|2|2|2,0:0|0:0|0:0|0:0,0:0:0:0:
87,153,139548,5,0,1:0:0:0:
123,168,139631,1,2,0:0:0:0:
140,155,139714,5,2,0:0:0:0:
176,139,139798,1,2,0:0:0:0:
193,153,139881,5,8,0:0:0:0:
229,169,139964,1,2,0:0:0:0:
246,155,140048,5,0,3:0:0:0:
318,64,140214,6,0,L|310:127,1,48.7500001859665,2|2,0:0|0:0,0:0:0:0:
392,101,140381,1,0,3:0:0:0:
169,233,140548,6,0,L|176:296,1,48.7500001859665,8|2,0:0|0:0,0:0:0:0:
95,269,140714,1,8,0:0:0:0:
382,310,140881,5,0,3:0:0:0:
344,288,140964,1,2,0:0:0:0:
301,292,141048,1,0,3:0:0:0:
268,319,141131,1,2,0:0:0:0:
276,330,141214,5,8,0:3:0:0:
255,283,141298,1,2,0:0:0:0:
273,261,141381,5,2,0:0:0:0:
294,214,141464,1,2,0:0:0:0:
283,202,141548,6,0,B|344:208|344:208|372:177|371:127|342:95,2,184.999999294281,0|8|0,1:0|0:0|1:0,0:0:0:0:
212,238,142381,1,2,0:0:0:0:
58,171,142548,5,8,0:0:0:0:
2,304,142714,2,0,P|58:251|135:261,1,160,0|0,3:0|3:0,0:0:0:0:
370,279,143214,5,8,0:0:0:0:
212,238,143381,1,8,0:0:0:0:
304,384,143548,2,0,L|286:241,1,120,0|0,3:0|0:0,0:0:0:0:
288,251,143881,1,8,0:3:0:0:
350,201,144048,1,0,0:0:0:0:
302,45,144214,6,0,B|257:39|248:-7|248:-7|228:35|184:30,2,160,4|8|0,1:2|0:0|1:0,0:0:0:0:
377,17,145048,1,0,0:0:0:0:
512,104,145214,5,8,0:0:0:0:
452,232,145381,2,0,B|373:216|385:290|305:274,1,160,0|0,3:0|3:0,0:0:0:0:
154,98,145881,5,8,0:0:0:0:
13,242,146048,1,8,0:0:0:0:
98,156,146214,5,0,3:0:0:0:
175,175,146381,1,0,3:0:0:0:
303,99,146548,1,8,0:3:0:0:
512,384,146881,5,0,1:0:0:0:
384,308,147048,1,0,3:0:0:0:
317,352,147214,2,0,P|258:340|204:382,1,120,12|0,0:3|0:0,0:0:0:0:
203,383,147548,5,0,1:0:0:0:
120,263,147714,1,0,3:0:0:0:
170,200,147881,2,0,L|187:57,1,120,12|0,0:3|0:0,0:0:0:0:
187,65,148214,5,0,1:0:0:0:
348,0,148381,1,0,3:0:0:0:
107,85,148548,5,12,0:3:0:0:
30,63,148714,1,0,3:0:0:0:
240,238,148881,6,0,B|259:219|259:219|282:233,1,53.7500008201599,0|0,1:0|0:0,0:0:0:0:
399,104,149048,5,0,3:0:0:0:
438,271,149214,1,0,3:0:0:0:
271,310,149381,1,0,3:0:0:0:
512,134,170881,6,0,L|496:6,1,120,4|0,1:2|0:0,0:0:0:0:
494,0,171214,1,8,0:0:0:0:
355,64,171381,2,0,P|393:57|425:80,1,80,2|0,0:0|1:0,0:0:0:0:
205,223,171714,5,2,0:0:0:0:
278,191,171881,2,0,L|289:95,1,80,8|0,0:0|3:0,0:0:0:0:
365,318,172214,5,2,0:0:0:0:
212,235,172381,1,0,3:0:0:0:
221,384,172548,1,8,0:0:0:0:
293,351,172714,1,0,0:0:0:0:
440,281,172881,5,0,3:0:0:0:
512,314,173048,1,0,3:0:0:0:
368,248,173214,1,8,0:0:0:0:
292,159,173381,6,0,P|351:171|405:129,1,120,2|0,0:0|0:0,0:0:0:0:
408,127,173714,2,0,L|398:47,1,80,2|8,0:0|0:0,0:0:0:0:
512,231,174048,2,0,P|480:208|441:214,1,80,2|0,0:0|1:0,0:0:0:0:
357,338,174381,5,2,0:0:0:0:
424,293,174548,2,0,P|455:315|494:309,1,80,8|0,0:0|3:0,0:0:0:0:
492,130,174881,5,2,0:0:0:0:
329,0,175048,2,0,B|250:-16|262:58|182:42,1,160,0|0,3:0|0:0,0:0:0:0:
0,181,175548,5,0,3:0:0:0:
73,197,175714,1,0,3:0:0:0:
211,121,175881,1,8,0:0:0:0:
301,267,176048,6,0,P|298:208|337:165,1,120,2|0,0:0|0:0,0:0:0:0:
351,158,176381,1,2,0:0:0:0:
291,104,176548,1,8,0:0:0:0:
458,53,176714,6,0,P|408:20|351:33,1,120,2|0,0:0|0:0,0:0:0:0:
339,41,177048,1,2,0:0:0:0:
291,104,177214,1,8,0:0:0:0:
123,15,177381,6,0,B|63:3|72:58|12:46,1,120,0|0,3:0|0:0,0:0:0:0:
0,55,177714,1,0,3:0:0:0:
28,129,177881,1,8,0:0:0:0:
150,229,178048,6,0,B|209:217|200:272|260:260,1,120,2|0,0:0|0:0,0:0:0:0:
273,269,178381,1,0,3:0:0:0:
412,353,178548,1,8,0:0:0:0:
337,381,178714,1,2,0:0:0:0:
316,201,178881,5,0,1:0:0:0:
452,237,179048,1,2,0:0:0:0:
512,184,179214,2,0,B|503:107|503:107|506:103|506:103|496:27,1,160,8|0,0:0|1:0,0:0:0:0:
420,0,179714,1,0,0:0:0:0:
262,107,179881,5,8,0:0:0:0:
140,51,180048,2,0,P|198:54|241:15,1,120,0|0,3:0|0:0,0:0:0:0:
248,1,180381,1,0,3:0:0:0:
68,80,180548,5,8,0:0:0:0:
131,248,180714,1,8,0:0:0:0:
55,158,180881,5,0,3:0:0:0:
129,130,181048,1,0,3:0:0:0:
207,277,181214,5,8,0:0:0:0:
329,323,181381,1,8,0:0:0:0:
406,299,181548,6,0,L|390:171,1,120,4|0,1:2|0:0,0:0:0:0:
388,165,181881,1,8,0:0:0:0:
249,229,182048,2,0,P|287:222|319:245,1,80,2|0,0:0|1:0,0:0:0:0:
92,164,182381,5,2,0:0:0:0:
165,196,182548,2,0,L|176:292,1,80,8|0,0:0|3:0,0:0:0:0:
31,218,182881,5,2,0:0:0:0:
160,121,183048,1,0,3:0:0:0:
9,68,183214,1,8,0:0:0:0:
42,140,183381,1,0,0:0:0:0:
174,275,183548,5,0,3:0:0:0:
141,347,183714,1,0,3:0:0:0:
207,203,183881,1,8,0:0:0:0:
120,121,184048,6,0,P|179:133|233:91,1,120,2|0,0:0|0:0,0:0:0:0:
236,89,184381,1,2,0:0:0:0:
375,149,184548,1,8,0:0:0:0:
443,108,184714,1,2,0:0:0:0:
251,13,184881,5,0,1:0:0:0:
329,26,185048,1,2,0:0:0:0:
294,147,185214,5,8,0:0:0:0:
161,193,185381,1,0,3:0:0:0:
214,132,185548,1,2,0:0:0:0:
241,208,185714,1,0,3:0:0:0:
364,263,185881,5,8,0:0:0:0:
320,384,186048,1,8,0:0:0:0:
243,360,186214,6,0,P|211:382|173:375,1,80,0|0,3:0|3:0,0:0:0:0:
0,239,186548,1,8,0:0:0:0:
21,315,186714,1,2,0:0:0:0:
108,227,186881,6,0,B|98:303|98:303|101:307|101:307|92:384,2,160,0|8|0,1:0|0:0|1:0,0:0:0:0:
178,189,187714,1,0,0:0:0:0:
137,24,187881,5,8,0:0:0:0:
63,54,188048,2,0,B|34:27|34:27|0:47,1,80,0|0,3:0|0:0,0:0:0:0:
24,124,188381,1,0,3:0:0:0:
137,24,188548,5,8,0:0:0:0:
89,236,188714,1,8,0:0:0:0:
275,147,188881,5,0,3:0:0:0:
255,69,189048,1,0,3:0:0:0:
127,102,189214,1,8,0:0:0:0:
147,180,189381,1,2,0:0:0:0:
77,290,189548,6,0,B|157:306|145:232|224:248,2,160,0|8|0,1:0|0:0|1:0,0:0:0:0:
18,344,190381,1,0,0:0:0:0:
138,183,190548,5,8,0:0:0:0:
77,130,190714,2,0,L|65:34,1,80,0|0,3:0|0:0,0:0:0:0:
129,0,191048,1,0,3:0:0:0:
61,207,191214,5,8,0:0:0:0:
220,127,191381,1,8,0:0:0:0:
345,214,191548,5,0,3:0:0:0:
268,192,191714,1,0,3:0:0:0:
123,384,191881,6,0,L|178:377,1,55.5000013549805,8|0,0:0|0:0,0:0:0:0:
310,362,192048,2,0,L|254:368,1,55.5000013549805,8|0,0:0|0:0,0:0:0:0:
416,42,196214,6,0,P|382:69|339:62,2,89.9999972534181,0|2|2,1:0|0:0|0:0,0:0:0:0:
503,110,197214,6,0,B|447:108|405:145|414:196|414:196|454:201|471:240,1,200,2|2,0:0|0:0,0:0:0:0:
308,354,198048,2,0,B|284:320|302:285|302:285|401:273,1,172.500003290176,2|2,0:0|0:0,0:0:0:0:
228,131,198881,6,0,P|169:143|115:101,1,120,0|0,3:0|0:0,0:0:0:0:
113,100,199214,1,12,0:3:0:0:
41,133,199381,1,0,3:0:0:0:
290,79,199548,5,8,0:0:0:0:
448,146,199714,1,0,3:0:0:0:
512,0,199881,5,8,0:0:0:0:
365,43,200048,1,0,3:0:0:0:
194,199,200214,6,0,B|174:220|174:220|189:245,1,58.7499991035462,8|0,0:0|0:0,0:0:0:0:
396,256,200381,2,0,B|417:236|417:236|402:211,1,58.7499991035462,8|0,0:0|0:0,0:0:0:0:
213,52,200881,6,0,B|228:27|228:27|207:6,1,58.7499991035462,8|0,0:0|0:0,0:0:0:0:
0,18,201048,2,0,B|-16:42|-16:42|5:63,1,58.7499991035462,8|0,0:0|0:0,0:0:0:0:
476,153,201548,6,0,B|423:158|423:158|399:132|400:89|425:61,1,157.499995193482,4|0,1:2|0:0,0:0:0:0:
434,51,201881,1,8,0:0:0:0:
330,150,202048,1,0,3:0:0:0:
293,158,202131,1,0,3:0:0:0:
263,136,202214,6,0,B|185:120|197:192|118:177,1,157.499995193482,0|0,1:0|0:0,0:0:0:0:
103,170,202548,2,0,P|135:209|126:259,1,104.999996795654,8|0,0:0|0:0,0:0:0:0:
278,261,202881,6,0,P|206:287|180:359,1,157.499995193482,4|0,1:3|0:0,0:0:0:0:
181,376,203214,1,8,0:0:0:0:
212,190,203381,5,2,0:0:0:0:
101,96,203548,1,0,1:0:0:0:
130,22,203714,1,0,3:0:0:0:
292,171,203881,5,8,0:0:0:0:
340,234,204048,1,0,3:0:0:0:
310,256,204131,1,0,3:0:0:0:
273,248,204214,6,0,B|195:232|207:304|128:289,1,157.499995193482,4|0,1:3|0:0,0:0:0:0:
113,282,204548,1,8,0:0:0:0:
43,321,204714,1,2,0:0:0:0:
257,327,204881,5,0,1:0:0:0:
395,384,205048,1,0,3:0:0:0:
510,288,205214,1,8,0:0:0:0:
479,214,205381,1,2,0:0:0:0:
373,130,205548,6,0,B|363:87|408:81|421:42|421:42|425:83|467:100|447:139,1,209.999993591309,4|8,1:3|0:0,0:0:0:0:
399,204,206048,1,0,0:0:0:0:
296,85,206214,5,0,1:0:0:0:
221,110,206381,1,0,3:0:0:0:
191,88,206464,1,0,3:0:0:0:
154,96,206548,1,8,0:0:0:0:
121,266,206714,1,0,3:0:0:0:
84,274,206798,1,0,3:0:0:0:
54,252,206881,6,0,B|93:232|88:192|88:192|78:109,1,157.499995193482,4|0,1:3|0:0,0:0:0:0:
76,96,207214,1,8,0:0:0:0:
151,69,207381,1,2,0:0:0:0:
266,159,207548,5,0,1:0:0:0:
341,186,207714,1,2,0:0:0:0:
512,117,207881,1,8,0:0:0:0:
365,348,208048,6,0,P|292:325|273:252,1,157.499995193482,2|0,0:0|0:0,0:0:0:0:
278,237,208381,2,0,P|239:269|189:260,1,104.999996795654,2|8,0:0|0:0,0:0:0:0:
0,349,208714,1,0,0:0:0:0:
186,347,208881,5,0,1:0:0:0:
20,269,209048,1,0,3:0:0:0:
98,103,209214,1,8,0:0:0:0:
110,181,209381,1,2,0:0:0:0:
242,95,209548,5,4,1:3:0:0:
170,61,209714,1,0,0:0:0:0:
440,217,209881,5,8,0:0:0:0:
512,183,210048,1,0,0:0:0:0:
170,373,210214,5,0,1:0:0:0:
30,309,210381,1,0,3:0:0:0:
64,237,210548,1,8,0:0:0:0:
123,108,210714,6,0,B|96:158|41:172|-8:154|-8:154|29:123|7:73,1,209.999993591309,4|0,3:3|3:0,0:0:0:0:
222,50,211214,2,0,P|171:43|139:3,1,104.999996795654,8|0,0:0|0:0,0:0:0:0:
199,133,211548,5,0,1:0:0:0:
268,173,211714,1,0,3:0:0:0:
272,196,211798,1,0,3:0:0:0:
263,208,211881,5,8,3:2:0:0:
314,223,211964,1,0,3:0:0:0:
373,201,212048,1,0,3:0:0:0:
413,144,212131,1,0,3:0:0:0:
403,133,212214,6,0,B|456:138|456:138|480:112|479:69|454:41,1,157.499995193482,4|0,1:2|0:0,0:0:0:0:
445,31,212548,1,8,0:0:0:0:
281,223,212714,1,0,0:0:0:0:
318,231,212798,1,0,0:0:0:0:
348,209,212881,6,0,B|426:193|414:265|493:250,1,157.499995193482,0|0,1:0|0:0,0:0:0:0:
508,243,213214,2,0,P|476:282|485:332,1,104.999996795654,8|0,0:0|0:0,0:0:0:0:
407,133,213548,6,0,P|381:61|309:35,1,157.499995193482,4|0,1:3|0:0,0:0:0:0:
292,36,213881,1,8,0:0:0:0:
147,0,214048,5,2,0:0:0:0:
36,94,214214,1,0,1:0:0:0:
65,168,214381,1,0,3:0:0:0:
201,266,214548,5,8,0:0:0:0:
153,329,214714,1,0,3:0:0:0:
183,351,214798,1,0,3:0:0:0:
220,343,214881,6,0,B|298:327|286:399|365:384,1,157.499995193482,4|0,1:3|0:0,0:0:0:0:
380,380,215214,1,8,0:0:0:0:
447,337,215381,1,2,0:0:0:0:
512,156,215548,5,0,1:0:0:0:
374,99,215714,1,0,3:0:0:0:
259,195,215881,1,8,0:0:0:0:
290,269,216048,1,2,0:0:0:0:
137,310,216214,6,0,B|127:267|172:261|185:222|185:222|189:263|231:280|211:319,1,209.999993591309,4|8,1:3|0:0,0:0:0:0:
163,384,216714,1,0,0:0:0:0:
290,269,216881,5,0,1:0:0:0:
357,312,217048,1,0,3:0:0:0:
387,290,217131,1,0,3:0:0:0:
424,298,217214,1,8,0:0:0:0:
512,170,217381,2,0,L|496:42,1,104.999996795654,2|4,0:0|1:3,0:0:0:0:
292,0,217714,5,2,0:0:0:0:
429,22,217881,1,8,0:0:0:0:
406,159,218048,1,2,0:0:0:0:
349,214,218214,6,0,B|271:198|283:270|204:255,1,157.499995193482,0|0,1:0|0:0,0:0:0:0:
189,251,218548,1,8,0:0:0:0:
0,361,218714,2,0,P|50:351|89:383,1,104.999996795654,2|4,0:0|1:3,0:0:0:0:
31,148,219048,5,0,0:0:0:0:
99,186,219214,2,0,L|111:290,1,104.999996795654,8|0,0:0|0:0,0:0:0:0:
161,135,219548,5,0,1:0:0:0:
233,167,219714,1,0,3:0:0:0:
256,163,219798,1,0,3:0:0:0:
265,149,219881,5,8,3:2:0:0:
316,133,219964,1,0,3:0:0:0:
375,155,220048,1,0,3:0:0:0:
415,212,220131,1,0,3:0:0:0:
424,202,220214,5,4,1:2:0:0:
512,73,220381,1,2,0:0:0:0:
341,0,220548,5,12,0:3:0:0:
372,73,220714,1,2,0:0:0:0:
272,218,220881,6,0,B|193:233|205:161|127:177,1,157.499995193482,4|0,1:3|0:0,0:0:0:0:
115,169,221214,2,0,L|128:280,1,104.999996795654,12|2,0:3|0:0,0:0:0:0:
289,382,221548,5,4,1:3:0:0:
89,343,221714,1,2,0:0:0:0:
164,107,221881,5,12,0:3:0:0:
242,90,222048,1,2,0:0:0:0:
407,188,222214,6,0,B|434:157|482:148|515:168|515:168|511:207,1,157.499995193482,4|0,1:3|0:0,0:0:0:0:
508,222,222548,2,0,L|494:110,1,104.999996795654,12|2,0:3|0:0,0:0:0:0:
348,284,222881,5,4,1:3:0:0:
420,89,223048,1,2,0:0:0:0:
178,139,223214,5,12,0:3:0:0:
195,217,223381,1,2,0:0:0:0:
55,367,223548,6,0,B|84:389|116:373|116:373|127:282,1,157.499995193482,4|0,1:3|0:0,0:0:0:0:
130,268,223881,2,0,P|79:277|40:244,1,104.999996795654,12|2,0:3|0:0,0:0:0:0:
150,11,224214,5,4,1:3:0:0:
189,211,224381,1,2,0:0:0:0:
368,276,224548,5,12,0:3:0:0:
351,354,224714,1,2,0:0:0:0:
125,164,224881,5,4,1:3:0:0:
290,118,225048,1,2,0:0:0:0:
377,267,225214,5,12,0:3:0:0:
197,200,225381,1,2,0:0:0:0:
461,270,225548,5,4,1:2:0:0:
268,384,225714,1,2,0:0:0:0:
153,312,225881,5,12,0:3:0:0:
75,294,226048,1,2,0:0:0:0:
0,130,226214,6,0,B|79:145|67:73|145:89,1,157.499995193482,4|0,1:3|0:0,0:0:0:0:
157,81,226548,2,0,L|144:192,1,104.999996795654,12|2,0:3|0:0,0:0:0:0:
427,0,226881,5,4,1:3:0:0:
227,39,227048,1,2,0:0:0:0:
302,275,227214,5,12,0:3:0:0:
380,292,227381,1,2,0:0:0:0:
512,154,227548,6,0,B|485:185|437:194|404:174|404:174|408:135,1,157.499995193482,4|0,1:3|0:0,0:0:0:0:
411,120,227881,2,0,L|425:232,1,104.999996795654,12|2,0:3|0:0,0:0:0:0:
265,384,228214,5,4,1:3:0:0:
337,189,228381,1,2,0:0:0:0:
95,239,228548,5,12,0:3:0:0:
112,317,228714,1,2,0:0:0:0:
0,107,228881,5,4,1:3:0:0:
156,185,229048,1,2,0:0:0:0:
224,143,229214,2,0,P|275:152|314:119,1,104.999996795654,12|2,0:3|0:0,0:0:0:0:
512,0,229548,5,4,1:3:0:0:
390,104,229714,1,0,3:0:0:0:
420,126,229798,1,0,3:0:0:0:
457,118,229881,2,0,L|467:34,1,52.4999983978272,8|0,0:0|0:0,0:0:0:0:
268,231,230048,5,0,3:0:0:0:
238,253,230131,1,0,3:0:0:0:
201,245,230214,2,0,L|194:189,1,52.4999983978272,0|0,1:0|3:0,0:0:0:0:
337,322,230381,5,0,3:0:0:0:
342,290,230464,1,0,3:0:0:0:
332,279,230548,5,8,0:0:0:0:
385,255,230631,1,0,3:0:0:0:
451,274,230714,1,0,3:0:0:0:
501,326,230798,1,0,3:0:0:0:
510,317,230881,5,4,1:3:0:0:
438,196,231048,1,2,0:0:0:0:
297,89,231214,5,8,0:0:0:0:
250,255,231381,1,2,0:0:0:0:
46,360,231548,5,4,1:3:0:0:
215,328,231714,1,2,0:0:0:0:
0,223,231881,5,8,0:0:0:0:
137,316,232048,1,2,0:0:0:0:
336,283,232214,5,4,1:3:0:0:
392,112,232381,1,2,0:0:0:0:
185,44,232548,5,8,0:0:0:0:
210,119,232714,1,2,0:0:0:0:
105,230,232881,6,0,B|78:199|30:190|-3:210|-3:210|1:249,1,157.499995193482,4|0,1:3|0:0,0:0:0:0:
4,264,233214,2,0,L|18:152,1,104.999996795654,8|2,0:0|0:0,0:0:0:0:
269,284,233548,5,4,1:3:0:0:
226,112,233714,1,2,0:0:0:0:
413,79,233881,5,8,0:0:0:0:
440,4,234048,1,2,0:0:0:0:
512,249,234214,5,4,1:3:0:0:
265,182,234381,1,2,0:0:0:0:
480,105,234548,5,8,0:0:0:0:
303,254,234714,1,2,0:0:0:0:
171,159,234881,5,4,1:3:0:0:
9,112,235048,1,2,0:0:0:0:
180,25,235214,5,8,0:0:0:0:
255,0,235381,1,2,0:0:0:0:
153,235,235548,5,4,1:3:0:0:
336,277,235714,1,2,0:0:0:0:
137,315,235881,5,8,0:0:0:0:
311,203,236048,1,2,0:0:0:0:
263,135,236214,6,0,L|271:72,1,57.5000010967255,12|0,0:3|0:0,0:0:0:0:
263,135,237548,6,0,L|271:72,1,57.5000010967255,12|0,0:3|0:0,0:0:0:0:
270,78,238881,6,0,L|262:141,1,57.5000010967255,12|0,0:3|0:0,0:0:0:0:
