osu file format v14

[General]
AudioFilename: audio.mp3
AudioLeadIn: 0
PreviewTime: 60853
Countdown: 0
SampleSet: Soft
StackLeniency: 0.7
Mode: 0
LetterboxInBreaks: 0
WidescreenStoryboard: 1

[Editor]
Bookmarks: 2881,24214,45548,61548,82881,85548,106881,128214,149548,170881,192214,196214,201548,220214,236214,238881
DistanceSpacing: 1.03
BeatDivisor: 4
GridSize: 32
TimelineZoom: 2.1

[Metadata]
Title:Itte.
TitleUnicode:言って。
Artist:Yorushika
ArtistUnicode:ヨルシカ
Creator:Xen
Version:Insane
Source:
Tags:say it n-buna nbuna n buna suis 夏草が邪魔をする Natsukusa ga Jama wo Suru jpop j-pop pop japanese xenon- xehn
BeatmapID:2340750
BeatmapSetID:1119169

[Difficulty]
HPDrainRate:5
CircleSize:4
OverallDifficulty:8
ApproachRate:9
SliderMultiplier:1
SliderTickRate:1

[Events]
//Background and Video events
0,0,"bg.jpg",0,0
Video,-925,"yorudone.avi"
//Break Periods
2,149581,170252
2,192248,195585
//Storyboard Layer 0 (Background)
//Storyboard Layer 1 (Fail)
//Storyboard Layer 2 (Pass)
//Storyboard Layer 3 (Foreground)
//Storyboard Layer 4 (Overlay)
//Storyboard Sound Samples

[TimingPoints]
215,333.333333333333,4,2,2,70,1,0
2881,-64.5161290322581,4,2,2,70,0,0
24214,-64.5161290322581,4,2,2,60,0,0
42881,-57.1428571428571,4,2,2,70,0,0
45548,-64.5161290322581,4,2,2,60,0,0
56214,-57.1428571428571,4,2,2,60,0,0
61548,-57.1428571428571,4,2,2,80,0,1
82881,-43.4782608695652,4,2,2,80,0,0
82964,-43.4782608695652,4,2,2,5,0,0
84214,-43.4782608695652,4,2,2,80,0,0
84297,-43.4782608695652,4,2,2,5,0,0
85548,-64.5161290322581,4,2,2,70,0,0
106881,-64.5161290322581,4,2,2,60,0,0
128214,-64.5161290322581,4,2,2,70,0,0
146881,-57.1428571428571,4,2,2,70,0,0
149548,-64.5161290322581,4,2,2,60,0,0
196214,-83.3333333333333,4,2,2,40,0,0
198881,-64.5161290322581,4,2,2,60,0,0
201548,-52.6315789473684,4,2,2,80,0,1
236214,-43.4782608695652,4,2,2,80,0,0
236298,-43.4782608695652,4,2,2,5,0,0
237548,-43.4782608695652,4,2,2,80,0,0
237631,-43.4782608695652,4,2,2,5,0,0
238881,-43.4782608695652,4,2,2,80,0,0
238964,-43.4782608695652,4,2,2,5,0,0

[Colours]
Combo1 : 251,160,103
Combo2 : 114,142,186
Combo3 : 216,60,73
Combo4 : 38,48,117

[HitObjects]
90,42,2881,6,0,P|152:32|214:117,1,155.000001182556,4|8,1:2|0:0,0:0:0:0:
365,32,3381,1,2,0:0:0:0:
300,148,3548,2,0,L|291:68,1,77.5000005912781,0|2,1:0|0:0,0:0:0:0:
377,187,3881,1,8,0:0:0:0:
501,103,4048,6,0,P|470:125|432:124,1,77.5000005912781,0|0,3:0|0:0,0:0:0:0:
343,280,4381,2,0,P|288:229|215:243,1,155.000001182556,0|2,3:0|0:0,0:0:0:0:
86,324,4881,1,0,3:0:0:0:
150,192,5048,1,0,3:0:0:0:
79,339,5214,1,8,0:0:0:0:
353,289,5548,6,0,L|341:193,1,77.5000005912781,0|2,1:0|0:0,0:0:0:0:
370,48,5881,1,8,0:0:0:0:
267,177,6048,2,0,P|324:128|396:147,1,155.000001182556,2|2,0:0|0:0,0:0:0:0:
267,274,6548,2,0,P|236:252|198:253,1,77.5000005912781,8|0,0:0|3:0,0:0:0:0:
48,126,6881,5,2,0:0:0:0:
155,178,7048,1,0,3:0:0:0:
9,200,7214,1,8,0:0:0:0:
134,96,7381,2,0,L|115:249,1,155.000001182556,2|0,0:0|3:0,0:0:0:0:
216,151,7881,2,0,L|227:246,1,77.5000005912781,8|2,0:0|0:0,0:0:0:0:
277,89,8214,6,0,P|351:83|399:140,1,155.000001182556,0|8,1:0|0:0,0:0:0:0:
291,283,8714,1,2,0:0:0:0:
419,242,8881,2,0,P|387:219|349:221,1,77.5000005912781,0|2,1:0|0:0,0:0:0:0:
434,371,9214,1,8,0:0:0:0:
500,220,9381,6,0,L|481:67,1,155.000001182556,0|0,3:0|3:0,0:0:0:0:
305,12,9881,1,8,0:0:0:0:
407,146,10048,1,8,0:0:0:0:
313,27,10214,2,0,P|274:25|243:47,1,77.5000005912781,0|0,3:0|3:0,0:0:0:0:
392,64,10548,1,8,0:0:0:0:
245,173,10881,6,0,P|197:115|122:121,2,155.000001182556,0|8|0,1:0|0:0|1:0,0:0:0:0:
243,46,11714,2,0,P|274:24|312:26,1,77.5000005912781,2|8,0:0|0:0,0:0:0:0:
165,193,12048,6,0,L|145:351,1,155.000001182556,0|0,3:0|3:0,0:0:0:0:
76,215,12548,1,8,0:0:0:0:
245,173,12714,1,8,0:0:0:0:
103,139,12881,1,0,3:0:0:0:
259,177,13048,1,0,3:0:0:0:
76,215,13214,1,12,3:0:0:0:
463,245,13548,6,0,P|415:302|340:296,1,155.000001182556,4|8,1:2|0:0,0:0:0:0:
224,195,14048,1,2,0:0:0:0:
383,224,14214,2,0,L|373:144,1,77.5000005912781,0|2,1:0|0:0,0:0:0:0:
261,270,14548,1,8,0:0:0:0:
159,146,14714,6,0,P|121:144|89:167,1,77.5000005912781,0|0,3:0|0:0,0:0:0:0:
266,66,15048,2,0,P|191:71|143:14,1,155.000001182556,0|2,3:0|0:0,0:0:0:0:
242,156,15548,1,0,3:0:0:0:
330,15,15714,1,0,3:0:0:0:
234,170,15881,1,8,0:0:0:0:
470,349,16214,6,0,L|458:253,1,77.5000005912781,0|2,1:0|0:0,0:0:0:0:
487,108,16548,1,8,0:0:0:0:
384,237,16714,2,0,P|441:188|513:207,1,155.000001182556,2|2,0:0|0:0,0:0:0:0:
405,114,17214,2,0,P|374:92|336:93,1,77.5000005912781,8|0,0:0|3:0,0:0:0:0:
187,41,17548,5,2,0:0:0:0:
278,154,17714,1,0,3:0:0:0:
261,0,17881,1,8,0:0:0:0:
197,126,18048,2,0,L|44:107,1,155.000001182556,8|0,0:0|3:0,0:0:0:0:
157,209,18548,2,0,L|61:221,1,77.5000005912781,8|2,0:0|0:0,0:0:0:0:
152,38,18881,6,0,P|226:32|274:89,1,155.000001182556,0|8,1:0|0:0,0:0:0:0:
313,246,19381,1,2,0:0:0:0:
171,178,19548,2,0,P|170:140|193:110,1,77.5000005912781,0|2,1:0|0:0,0:0:0:0:
341,37,19881,1,8,0:0:0:0:
255,167,20048,6,0,L|274:320,1,155.000001182556,0|0,3:0|3:0,0:0:0:0:
341,180,20548,1,8,0:0:0:0:
193,109,20714,1,8,0:0:0:0:
355,187,20881,2,0,P|386:165|424:167,1,77.5000005912781,0|0,3:0|3:0,0:0:0:0:
347,270,21214,1,8,0:0:0:0:
169,160,21548,6,0,P|121:102|46:108,2,155.000001182556,0|8|0,1:0|0:0|1:0,0:0:0:0:
230,8,22381,2,0,P|191:5|160:27,1,77.5000005912781,2|8,0:0|0:0,0:0:0:0:
96,201,22714,6,0,L|249:181,1,155.000001182556,0|0,3:0|3:0,0:0:0:0:
373,60,23214,1,8,0:0:0:0:
325,232,23381,1,8,0:0:0:0:
368,77,23548,1,0,3:0:0:0:
249,180,23714,1,8,3:0:0:0:
424,142,23881,2,0,P|463:139|494:161,1,77.5000005912781,8|2,3:0|0:0,0:0:0:0:
293,109,24214,6,0,B|267:65|267:65|140:81,2,155.000001182556,4|8|0,1:2|0:0|1:0,0:0:0:0:
260,181,25048,1,2,0:0:0:0:
375,259,25214,1,8,0:0:0:0:
202,243,25381,6,0,P|127:238|80:296,1,155.000001182556,0|0,3:0|3:0,0:0:0:0:
180,384,25881,2,0,P|158:352|162:315,1,77.5000005912781,8|8,0:0|0:0,0:0:0:0:
258,177,26214,1,0,3:0:0:0:
247,308,26381,1,0,3:0:0:0:
182,152,26548,2,0,L|105:142,1,77.5000005912781,8|2,0:0|0:0,0:0:0:0:
236,89,26881,6,0,B|287:82|287:82|327:112|327:112|380:106,2,155.000001182556,0|8|0,1:0|0:0|1:0,0:0:0:0:
263,164,27714,1,2,0:0:0:0:
353,31,27881,1,8,0:0:0:0:
254,178,28048,6,0,L|263:255,1,77.5000005912781,0|0,3:0|0:0,0:0:0:0:
123,346,28381,2,0,P|117:271|175:224,1,155.000001182556,0|8,3:0|0:0,0:0:0:0:
322,312,28881,1,0,3:0:0:0:
195,304,29048,1,0,3:0:0:0:
343,233,29214,2,0,L|352:156,1,77.5000005912781,8|2,0:0|0:0,0:0:0:0:
248,75,29548,6,0,P|322:80|369:22,2,155.000001182556,0|8|0,1:0|0:0|1:0,0:0:0:0:
291,7,30381,1,2,0:0:0:0:
179,120,30548,1,8,0:0:0:0:
352,156,30714,6,0,L|342:232,1,77.5000005912781,0|0,3:0|0:0,0:0:0:0:
173,331,31048,1,0,3:0:0:0:
223,189,31214,1,8,0:0:0:0:
257,327,31381,1,8,0:0:0:0:
148,161,31548,2,0,P|204:112|277:130,1,155.000001182556,0|8,3:0|0:0,0:0:0:0:
160,241,32048,1,2,0:0:0:0:
317,203,32214,6,0,L|298:49,2,155.000001182556,0|8|0,1:0|0:0|1:0,0:0:0:0:
392,173,33048,1,2,0:0:0:0:
227,121,33214,1,8,0:0:0:0:
257,260,33381,6,0,P|185:242|129:291,1,155.000001182556,0|0,3:0|3:0,0:0:0:0:
170,164,33881,1,8,0:0:0:0:
204,320,34048,1,8,0:0:0:0:
166,148,34214,1,0,3:0:0:0:
208,337,34381,1,0,3:0:0:0:
249,166,34548,2,0,P|281:144|318:148,1,77.5000005912781,12|2,0:3|0:0,0:0:0:0:
436,231,34881,6,0,B|392:205|392:205|408:78,2,155.000001182556,4|8|0,1:2|0:0|1:0,0:0:0:0:
478,162,35714,1,2,0:0:0:0:
351,278,35881,1,8,0:0:0:0:
512,327,36048,6,0,P|437:319|388:375,1,155.000001182556,0|0,3:0|3:0,0:0:0:0:
335,197,36548,2,0,P|372:192|404:213,1,77.5000005912781,8|2,0:0|0:0,0:0:0:0:
314,334,36881,1,0,3:0:0:0:
254,182,37048,1,0,3:0:0:0:
320,348,37214,2,0,L|242:338,1,77.5000005912781,8|2,0:0|0:0,0:0:0:0:
79,241,37548,6,0,B|130:234|130:234|170:264|170:264|223:258,2,155.000001182556,0|8|0,1:0|0:0|1:0,0:0:0:0:
104,317,38381,1,2,0:0:0:0:
18,186,38548,1,8,0:0:0:0:
113,331,38714,6,0,P|81:351|43:347,1,77.5000005912781,0|0,3:0|0:0,0:0:0:0:
198,181,39048,2,0,P|273:187|320:129,1,155.000001182556,0|8,3:0|0:0,0:0:0:0:
214,26,39548,1,0,3:0:0:0:
337,50,39714,1,0,3:0:0:0:
173,103,39881,2,0,P|141:82|103:86,1,77.5000005912781,8|2,0:0|0:0,0:0:0:0:
198,181,40214,6,0,L|217:335,2,155.000001182556,0|8|0,1:0|0:0|1:0,0:0:0:0:
123,211,41048,1,2,0:0:0:0:
288,263,41214,1,8,0:0:0:0:
258,124,41381,6,0,P|330:142|386:93,1,155.000001182556,0|0,3:0|3:0,0:0:0:0:
202,63,41881,1,8,0:0:0:0:
232,203,42048,1,8,0:0:0:0:
198,48,42214,1,0,3:0:0:0:
236,218,42381,1,0,3:0:0:0:
144,112,42548,2,0,L|67:102,1,77.5000005912781,8|2,0:0|0:0,0:0:0:0:
166,256,42881,6,0,P|252:244|339:235,1,175.00000166893,4|8,1:3|0:0,0:0:0:0:
249,85,43381,2,0,P|225:122|229:165,1,87.500000834465,4|0,1:3|0:0,0:0:0:0:
116,320,43714,5,0,3:0:0:0:
144,180,43881,1,8,0:0:0:0:
112,339,44048,1,0,0:0:0:0:
63,163,44214,5,4,1:3:0:0:
191,311,44381,1,0,3:0:0:0:
0,347,44548,1,0,3:0:0:0:
144,180,44714,6,0,P|152:92|165:6,1,175.00000166893,4|0,1:3|3:0,0:0:0:0:
69,90,45214,1,8,0:0:0:0:
227,159,45381,1,0,3:0:0:0:
247,160,45464,1,0,3:0:0:0:
262,149,45548,6,0,P|299:146|331:167,1,77.5000005912781,4|2,1:2|0:0,0:0:0:0:
215,313,45881,2,0,L|201:201,1,77.5000005912781,8|2,0:0|0:0,0:0:0:0:
422,103,46214,2,0,L|400:277,1,155.000001182556,0|8,1:0|0:0,0:0:0:0:
511,161,46714,1,0,3:0:0:0:
345,78,46881,5,2,0:0:0:0:
495,153,47048,1,0,3:0:0:0:
333,160,47214,2,0,P|258:153|211:211,1,155.000001182556,8|0,0:0|3:0,0:0:0:0:
63,126,47714,1,0,3:0:0:0:
124,246,47881,2,0,L|135:150,1,77.5000005912781,8|0,0:0|0:0,0:0:0:0:
238,289,48214,6,0,P|208:313|170:314,1,77.5000005912781,0|0,1:0|0:0,0:0:0:0:
45,216,48548,2,0,L|33:120,1,77.5000005912781,8|0,0:0|0:0,0:0:0:0:
185,19,48881,1,0,1:0:0:0:
124,168,49048,1,0,0:0:0:0:
8,64,49214,1,8,0:0:0:0:
171,100,49381,6,0,L|149:274,1,155.000001182556,0|0,3:0|3:0,0:0:0:0:
218,384,49881,1,8,0:0:0:0:
83,304,50048,1,8,0:0:0:0:
236,227,50214,2,0,P|274:228|303:252,1,77.5000005912781,0|0,3:0|3:0,0:0:0:0:
160,185,50548,1,8,0:0:0:0:
462,50,50881,6,0,P|425:47|393:68,1,77.5000005912781,0|2,1:0|0:0,0:0:0:0:
494,201,51214,2,0,L|508:89,1,77.5000005912781,8|2,0:0|0:0,0:0:0:0:
302,4,51548,2,0,L|324:178,1,155.000001182556,0|8,1:0|0:0,0:0:0:0:
392,68,52048,1,0,3:0:0:0:
226,35,52214,5,2,0:0:0:0:
408,70,52381,1,0,3:0:0:0:
230,117,52548,2,0,B|224:170|224:170|254:210|254:210|247:261,1,155.000001182556,8|0,0:0|3:0,0:0:0:0:
416,368,53048,1,0,3:0:0:0:
329,264,53214,2,0,L|337:340,1,77.5000005912781,8|0,0:0|0:0,0:0:0:0:
168,232,53548,6,0,P|129:233|100:257,1,77.5000005912781,0|0,1:0|0:0,0:0:0:0:
310,143,53881,2,0,P|348:144|377:168,1,77.5000005912781,8|0,0:0|0:0,0:0:0:0:
499,131,54214,1,0,1:0:0:0:
405,246,54381,1,2,0:0:0:0:
511,118,54548,2,0,L|502:40,1,77.5000005912781,8|0,0:0|3:0,0:0:0:0:
405,246,54881,5,2,0:0:0:0:
344,140,55048,1,0,3:0:0:0:
229,262,55214,1,8,0:0:0:0:
278,83,55381,1,8,0:0:0:0:
153,228,55548,2,0,P|123:203|85:202,1,77.5000005912781,0|0,3:0|3:0,0:0:0:0:
224,364,55881,2,0,P|253:339|291:338,1,77.5000005912781,12|0,0:3|0:0,0:0:0:0:
239,175,56214,6,0,L|228:261,1,87.500000834465,4|0,1:3|0:0,0:0:0:0:
42,350,56548,2,0,L|31:263,1,87.500000834465,8|0,0:0|0:0,0:0:0:0:
264,335,56881,2,0,P|200:279|118:300,1,175.00000166893,4|8,1:3|0:0,0:0:0:0:
0,185,57381,1,0,3:0:0:0:
174,198,57548,6,0,P|206:169|249:168,1,87.500000834465,6|0,0:3|3:0,0:0:0:0:
386,64,57881,1,8,0:0:0:0:
215,88,58048,1,8,0:0:0:0:
368,66,58214,1,4,3:3:0:0:
233,86,58381,1,0,3:0:0:0:
324,227,58548,2,0,L|334:140,1,87.500000834465,8|0,0:3|0:0,0:0:0:0:
174,197,58881,6,0,P|206:169|249:168,1,87.500000834465,4|0,1:2|0:0,0:0:0:0:
84,302,59214,1,8,0:0:0:0:
119,134,59381,1,8,0:0:0:0:
164,279,59548,5,8,0:0:0:0:
37,115,59714,1,8,0:0:0:0:
84,302,59881,1,8,0:0:0:0:
174,197,60048,1,8,0:0:0:0:
3,278,60214,5,8,1:2:0:0:
153,225,61548,6,0,B|241:202|226:291|313:269,1,175.00000166893,4|8,1:2|0:0,0:0:0:0:
431,93,62048,1,0,0:0:0:0:
293,188,62214,1,0,1:0:0:0:
464,239,62381,1,0,3:0:0:0:
347,126,62548,2,0,L|357:39,1,87.500000834465,8|0,0:0|0:0,0:0:0:0:
196,102,62881,6,0,P|209:188|216:275,1,175.00000166893,0|8,1:0|0:0,0:0:0:0:
371,248,63381,2,0,P|339:220|296:220,1,87.500000834465,2|0,0:0|1:0,0:0:0:0:
183,352,63714,1,0,3:0:0:0:
126,210,63881,2,0,L|116:296,1,87.500000834465,8|0,0:0|0:0,0:0:0:0:
194,109,64214,6,0,P|141:174|57:166,1,175.00000166893,0|8,1:0|0:0,0:0:0:0:
152,39,64714,1,2,0:0:0:0:
260,174,64881,2,0,P|302:173|335:201,1,87.500000834465,0|0,1:0|3:0,0:0:0:0:
400,352,65214,1,8,0:0:0:0:
417,192,65381,1,2,0:0:0:0:
301,284,65548,6,0,P|388:276|474:263,1,175.00000166893,0|8,1:0|0:0,0:0:0:0:
335,201,66048,1,0,0:0:0:0:
242,343,66214,1,0,1:0:0:0:
344,187,66381,1,0,3:0:0:0:
408,356,66548,2,0,L|321:366,1,87.500000834465,8|0,0:0|0:0,0:0:0:0:
166,220,66881,6,0,P|165:177|193:144,1,87.500000834465,0|0,1:0|0:0,0:0:0:0:
334,105,67214,2,0,B|247:127|262:38|174:61,1,175.00000166893,8|0,0:0|1:0,0:0:0:0:
16,109,67714,1,0,3:0:0:0:
122,0,67881,1,8,0:0:0:0:
61,173,68048,6,0,P|53:85|40:0,1,175.00000166893,2|2,0:0|0:0,0:0:0:0:
210,108,68548,2,0,P|177:79|134:80,1,87.500000834465,8|0,0:0|0:0,0:0:0:0:
272,171,68881,1,0,1:0:0:0:
239,21,69048,1,0,3:0:0:0:
276,189,69214,1,8,0:0:0:0:
318,35,69381,6,0,B|406:12|391:101|478:79,1,175.00000166893,2|0,0:0|0:0,0:0:0:0:
368,190,69881,2,0,P|339:158|340:116,1,87.500000834465,8|0,0:0|0:0,0:0:0:0:
242,5,70214,1,0,1:0:0:0:
402,60,70381,1,0,3:0:0:0:
227,0,70548,1,8,0:0:0:0:
458,122,70714,6,0,P|444:208|436:295,1,175.00000166893,4|0,3:3|3:0,0:0:0:0:
343,157,71214,2,0,L|353:243,1,87.500000834465,8|0,0:0|0:0,0:0:0:0:
512,336,71548,1,0,1:0:0:0:
355,374,71714,1,0,3:0:0:0:
335,375,71798,1,0,3:0:0:0:
320,364,71881,2,0,L|327:300,3,43.7500004172325,8|0|0|0,3:2|3:0|3:0|3:0,0:0:0:0:
319,306,72214,6,0,B|231:283|246:372|159:350,1,175.00000166893,4|8,1:2|0:0,0:0:0:0:
42,175,72714,1,0,0:0:0:0:
180,270,72881,1,0,1:0:0:0:
9,321,73048,1,0,3:0:0:0:
126,208,73214,2,0,L|116:121,1,87.500000834465,8|0,0:0|0:0,0:0:0:0:
310,115,73548,6,0,P|257:50|173:58,1,175.00000166893,0|8,1:0|0:0,0:0:0:0:
206,223,74048,2,0,P|238:194|281:195,1,87.500000834465,2|0,0:0|1:0,0:0:0:0:
420,320,74381,1,0,3:0:0:0:
364,181,74548,2,0,L|354:267,1,87.500000834465,8|0,0:0|0:0,0:0:0:0:
432,134,74881,6,0,P|348:142|295:76,1,175.00000166893,0|8,1:0|0:0,0:0:0:0:
140,1,75381,1,2,0:0:0:0:
209,110,75548,2,0,L|219:24,1,87.500000834465,0|0,1:0|3:0,0:0:0:0:
71,118,75881,1,8,0:0:0:0:
258,178,76048,1,2,0:0:0:0:
49,196,76214,6,0,P|40:108|27:22,1,175.00000166893,0|8,1:0|0:0,0:0:0:0:
129,146,76714,1,0,0:0:0:0:
0,266,76881,1,0,1:0:0:0:
140,135,77048,1,0,3:0:0:0:
146,333,77214,2,0,P|103:340|67:318,1,87.500000834465,8|0,0:0|0:0,0:0:0:0:
194,198,77548,5,4,1:3:0:0:
227,380,77714,1,2,0:0:0:0:
178,202,77881,1,8,0:0:0:0:
211,384,78048,1,2,0:0:0:0:
245,158,78214,6,0,P|281:180|323:172,1,87.500000834465,4|2,1:3|0:0,0:0:0:0:
343,14,78548,2,0,P|306:-8|264:0,1,87.500000834465,8|2,0:0|0:0,0:0:0:0:
219,253,78881,5,4,1:3:0:0:
186,53,79048,1,2,0:0:0:0:
235,249,79214,1,8,0:0:0:0:
202,49,79381,1,2,0:0:0:0:
160,213,79548,6,0,P|123:190|81:198,1,87.500000834465,4|2,1:3|0:0,0:0:0:0:
62,357,79881,2,0,P|98:379|140:371,1,87.500000834465,8|2,0:0|0:0,0:0:0:0:
213,149,80214,6,0,B|300:171|285:82|373:105,1,175.00000166893,4|8,1:3|0:0,0:0:0:0:
512,201,80714,1,2,0:0:0:0:
337,263,80881,2,0,P|328:221|350:184,1,87.500000834465,4|2,1:3|0:0,0:0:0:0:
500,283,81214,1,8,0:0:0:0:
336,346,81381,1,2,0:0:0:0:
508,297,81548,5,4,1:3:0:0:
337,263,81714,1,2,0:0:0:0:
464,132,81881,2,0,L|475:219,1,87.500000834465,12|0,0:0|0:0,0:0:0:0:
512,65,82214,1,0,1:0:0:0:
388,188,82381,1,0,3:0:0:0:
368,189,82464,1,0,3:0:0:0:
353,178,82548,2,0,L|361:115,3,43.7500004172325,8|0|0|0,3:2|3:0|3:0|3:0,0:0:0:0:
351,125,82881,6,0,L|341:45,1,57.5000010967255,12|0,0:3|0:0,0:0:0:0:
351,125,84214,6,0,L|341:45,1,57.5000010967255,12|0,0:3|0:0,0:0:0:0:
36,206,85548,6,0,P|98:196|160:281,1,155.000001182556,4|8,1:2|0:0,0:0:0:0:
311,196,86048,1,2,0:0:0:0:
246,312,86214,2,0,L|237:232,1,77.5000005912781,0|2,1:0|0:0,0:0:0:0:
412,309,86548,1,8,0:0:0:0:
321,384,86714,6,0,L|330:304,1,77.5000005912781,0|0,3:0|0:0,0:0:0:0:
446,177,87048,2,0,P|391:228|318:214,1,155.000001182556,0|2,3:0|0:0,0:0:0:0:
189,133,87548,1,0,3:0:0:0:
253,265,87714,1,0,3:0:0:0:
182,118,87881,1,8,0:0:0:0:
470,19,88214,6,0,L|458:115,1,77.5000005912781,0|2,1:0|0:0,0:0:0:0:
487,259,88548,1,8,0:0:0:0:
384,130,88714,2,0,P|441:179|513:160,1,155.000001182556,2|2,0:0|0:0,0:0:0:0:
445,334,89214,2,0,P|413:311|375:313,1,77.5000005912781,8|0,0:0|3:0,0:0:0:0:
207,306,89548,5,2,0:0:0:0:
314,254,89714,1,0,3:0:0:0:
168,232,89881,1,8,0:0:0:0:
293,336,90048,2,0,L|274:183,1,155.000001182556,2|0,0:0|3:0,0:0:0:0:
374,293,90548,2,0,L|385:198,1,77.5000005912781,8|2,0:0|0:0,0:0:0:0:
201,282,90881,6,0,P|127:288|79:231,1,155.000001182556,0|8,1:0|0:0,0:0:0:0:
204,91,91381,1,2,0:0:0:0:
76,132,91548,2,0,P|108:155|146:153,1,77.5000005912781,0|2,1:0|0:0,0:0:0:0:
61,3,91881,1,8,0:0:0:0:
0,166,92048,6,0,L|19:319,1,155.000001182556,0|0,3:0|3:0,0:0:0:0:
195,374,92548,1,8,0:0:0:0:
93,240,92714,1,8,0:0:0:0:
187,359,92881,2,0,P|226:361|257:339,1,77.5000005912781,0|0,3:0|3:0,0:0:0:0:
108,322,93214,1,8,0:0:0:0:
91,113,93548,6,0,P|139:171|214:165,2,155.000001182556,0|8|0,1:0|0:0|1:0,0:0:0:0:
93,240,94381,2,0,P|62:262|24:260,1,77.5000005912781,2|8,0:0|0:0,0:0:0:0:
262,237,94714,6,0,L|242:79,1,155.000001182556,0|0,3:0|3:0,0:0:0:0:
173,215,95214,1,8,0:0:0:0:
342,257,95381,1,8,0:0:0:0:
200,291,95548,1,0,3:0:0:0:
356,253,95714,1,0,3:0:0:0:
173,215,95881,1,12,3:0:0:0:
281,317,96048,1,0,3:0:0:0:
216,146,96214,6,0,P|154:136|91:222,1,155.000001182556,4|8,1:2|0:0,0:0:0:0:
35,358,96714,1,2,0:0:0:0:
142,272,96881,2,0,L|64:280,1,77.5000005912781,0|2,1:0|0:0,0:0:0:0:
198,333,97214,1,8,0:0:0:0:
94,196,97381,6,0,P|92:157|114:126,1,77.5000005912781,0|0,3:0|0:0,0:0:0:0:
220,39,97714,2,0,P|146:52|91:2,1,155.000001182556,0|2,3:0|0:0,0:0:0:0:
299,20,98214,1,0,3:0:0:0:
194,137,98381,1,0,3:0:0:0:
311,7,98548,1,8,0:0:0:0:
469,309,98881,6,0,L|457:213,1,77.5000005912781,0|2,1:0|0:0,0:0:0:0:
486,69,99214,1,8,0:0:0:0:
383,198,99381,2,0,P|440:149|512:168,1,155.000001182556,2|2,0:0|0:0,0:0:0:0:
383,297,99881,2,0,P|351:274|313:277,1,77.5000005912781,8|0,0:0|3:0,0:0:0:0:
164,154,100214,5,2,0:0:0:0:
271,206,100381,1,0,3:0:0:0:
125,228,100548,1,8,0:0:0:0:
250,124,100714,2,0,L|231:277,1,155.000001182556,8|0,0:0|3:0,0:0:0:0:
392,188,101214,2,0,P|353:185|322:207,1,77.5000005912781,8|2,0:0|0:0,0:0:0:0:
208,54,101548,6,0,P|282:48|330:105,1,155.000001182556,0|8,1:0|0:0,0:0:0:0:
379,272,102048,1,2,0:0:0:0:
411,105,102214,2,0,P|442:83|480:86,1,77.5000005912781,0|2,1:0|0:0,0:0:0:0:
392,188,102548,1,8,0:0:0:0:
349,45,102714,6,0,L|196:64,1,155.000001182556,0|0,3:0|3:0,0:0:0:0:
142,242,103214,1,8,0:0:0:0:
275,138,103381,1,8,0:0:0:0:
156,232,103548,2,0,L|60:220,1,77.5000005912781,0|0,3:0|3:0,0:0:0:0:
236,213,103881,1,8,0:0:0:0:
443,0,104214,6,0,P|395:58|320:52,2,155.000001182556,0|8|0,1:0|0:0|1:0,0:0:0:0:
441,127,105048,2,0,P|472:149|510:147,1,77.5000005912781,2|8,0:0|0:0,0:0:0:0:
340,304,105381,6,0,L|360:146,1,155.000001182556,0|0,3:0|3:0,0:0:0:0:
429,282,105881,1,8,0:0:0:0:
260,324,106048,1,8,0:0:0:0:
402,358,106214,1,0,3:0:0:0:
246,320,106381,1,8,3:0:0:0:
429,282,106548,1,8,3:0:0:0:
321,384,106714,1,8,0:0:0:0:
179,272,106881,6,0,B|135:246|135:246|151:119,2,155.000001182556,4|8|0,1:2|0:0|1:0,0:0:0:0:
251,239,107714,1,2,0:0:0:0:
170,354,107881,1,8,0:0:0:0:
261,225,108048,6,0,P|336:230|383:172,1,155.000001182556,0|0,3:0|3:0,0:0:0:0:
283,84,108548,2,0,P|305:116|301:153,1,77.5000005912781,8|8,0:0|0:0,0:0:0:0:
205,291,108881,1,0,3:0:0:0:
216,160,109048,1,0,3:0:0:0:
281,316,109214,2,0,L|358:326,1,77.5000005912781,8|2,0:0|0:0,0:0:0:0:
512,262,109548,6,0,B|461:269|461:269|421:239|421:239|368:245,2,155.000001182556,0|8|0,1:0|0:0|1:0,0:0:0:0:
485,187,110381,1,2,0:0:0:0:
395,320,110548,1,8,0:0:0:0:
310,187,110714,6,0,P|272:183|241:205,1,77.5000005912781,0|0,3:0|0:0,0:0:0:0:
138,50,111048,2,0,P|213:44|260:102,1,155.000001182556,0|8,3:0|0:0,0:0:0:0:
172,249,111548,1,0,3:0:0:0:
180,122,111714,1,0,3:0:0:0:
245,284,111881,2,0,L|322:293,1,77.5000005912781,8|2,0:0|0:0,0:0:0:0:
172,249,112214,6,0,P|98:244|51:302,2,155.000001182556,0|8|0,1:0|0:0|1:0,0:0:0:0:
129,317,113048,1,2,0:0:0:0:
241,204,113214,1,8,0:0:0:0:
68,168,113381,6,0,L|78:92,1,77.5000005912781,0|0,3:0|0:0,0:0:0:0:
248,0,113714,1,0,3:0:0:0:
198,142,113881,1,8,0:0:0:0:
164,4,114048,1,8,0:0:0:0:
273,170,114214,2,0,P|217:219|144:201,1,155.000001182556,0|8,3:0|0:0,0:0:0:0:
0,310,114714,1,2,0:0:0:0:
64,190,114881,6,0,L|83:344,2,155.000001182556,0|8|0,1:0|0:0|1:0,0:0:0:0:
116,128,115714,1,2,0:0:0:0:
218,228,115881,1,8,0:0:0:0:
328,116,116048,6,0,P|400:98|456:147,1,155.000001182556,0|0,3:0|3:0,0:0:0:0:
415,20,116548,1,8,0:0:0:0:
381,176,116714,1,8,0:0:0:0:
419,4,116881,1,0,3:0:0:0:
377,193,117048,1,0,3:0:0:0:
336,22,117214,2,0,P|304:0|267:4,1,77.5000005912781,12|2,0:3|0:0,0:0:0:0:
175,188,117548,6,0,B|219:162|219:162|203:35,2,155.000001182556,4|8|0,1:2|0:0|1:0,0:0:0:0:
103,155,118381,1,2,0:0:0:0:
184,270,118548,1,8,0:0:0:0:
301,170,118714,6,0,P|376:165|423:223,1,155.000001182556,0|0,3:0|3:0,0:0:0:0:
323,311,119214,2,0,P|345:279|341:242,1,77.5000005912781,8|8,0:0|0:0,0:0:0:0:
245,104,119548,1,0,3:0:0:0:
256,235,119714,1,0,3:0:0:0:
322,78,119881,2,0,L|312:1,1,77.5000005912781,8|2,0:0|0:0,0:0:0:0:
127,132,120214,6,0,B|178:125|178:125|218:155|218:155|271:149,2,155.000001182556,0|8|0,1:0|0:0|1:0,0:0:0:0:
154,207,121048,1,2,0:0:0:0:
244,74,121214,1,8,0:0:0:0:
329,207,121381,6,0,P|366:210|397:188,1,77.5000005912781,0|0,3:0|0:0,0:0:0:0:
501,344,121714,2,0,P|426:350|379:292,1,155.000001182556,0|8,3:0|0:0,0:0:0:0:
467,145,122214,1,0,3:0:0:0:
459,272,122381,1,0,3:0:0:0:
394,110,122548,2,0,L|317:101,1,77.5000005912781,8|2,0:0|0:0,0:0:0:0:
152,228,122881,6,0,P|198:169|273:174,2,155.000001182556,0|8|0,1:0|0:0|1:0,0:0:0:0:
230,242,123714,1,2,0:0:0:0:
168,97,123881,1,8,0:0:0:0:
238,257,124048,6,0,L|228:333,1,77.5000005912781,0|0,3:0|0:0,0:0:0:0:
446,274,124381,2,0,P|389:323|317:305,1,155.000001182556,0|8,3:0|0:0,0:0:0:0:
337,107,124881,1,0,3:0:0:0:
371,245,125048,1,0,3:0:0:0:
234,177,125214,2,0,L|310:187,1,77.5000005912781,8|2,0:0|0:0,0:0:0:0:
194,42,125548,6,0,L|348:23,2,155.000001182556,0|8|0,1:0|0:0|1:0,0:0:0:0:
125,0,126381,1,2,0:0:0:0:
227,119,126548,1,8,0:0:0:0:
24,83,126714,6,0,P|97:73|147:129,1,155.000001182556,0|0,3:0|3:0,0:0:0:0:
78,301,127214,1,8,0:0:0:0:
196,197,127381,1,8,0:0:0:0:
14,252,127548,2,0,L|168:271,1,155.000001182556,0|2,3:0|0:0,0:0:0:0:
393,122,128214,6,0,L|405:20,1,77.5000005912781,4|2,1:2|0:0,0:0:0:0:
476,107,128548,1,8,0:0:0:0:
318,151,128714,2,0,P|374:199|446:181,1,155.000001182556,2|0,0:0|0:0,0:0:0:0:
317,71,129214,1,8,0:0:0:0:
277,235,129381,1,0,3:0:0:0:
393,122,129548,5,2,0:0:0:0:
238,164,129714,2,0,L|84:145,1,155.000001182556,0|8,3:0|0:0,0:0:0:0:
212,57,130214,2,0,L|135:66,1,77.5000005912781,0|0,3:0|3:0,0:0:0:0:
32,213,130548,1,8,0:3:0:0:
54,72,130714,1,2,0:0:0:0:
101,255,130881,6,0,P|173:236|229:285,1,155.000001182556,0|8,1:0|0:0,0:0:0:0:
391,233,131381,1,2,0:0:0:0:
304,344,131548,2,0,L|316:243,1,77.5000005912781,0|2,1:0|0:0,0:0:0:0:
263,159,131881,2,0,L|267:197,2,38.750000295639,8|2|0,0:0|0:0|3:0,0:0:0:0:
388,315,132214,6,0,P|420:293|457:297,1,77.5000005912781,2|0,0:0|3:0,0:0:0:0:
227,384,132548,2,0,L|217:307,1,77.5000005912781,8|8,0:0|0:0,0:0:0:0:
361,189,132881,1,0,3:0:0:0:
305,315,133048,1,0,3:0:0:0:
289,141,133214,1,8,0:3:0:0:
307,333,133381,1,2,0:0:0:0:
142,273,133548,6,0,P|198:224|270:242,2,155.000001182556,4|8|0,1:2|0:0|1:0,0:0:0:0:
0,219,134381,1,2,0:0:0:0:
83,321,134548,1,8,0:0:0:0:
0,384,134714,1,0,3:0:0:0:
81,212,134881,6,0,L|101:54,1,155.000001182556,2|8,0:0|0:0,0:0:0:0:
301,124,135381,2,0,P|244:172|172:154,1,155.000001182556,0|0,0:0|3:0,0:0:0:0:
281,45,135881,1,8,0:3:0:0:
360,193,136048,1,2,0:0:0:0:
351,5,136214,6,0,L|462:19,1,77.5000005912781,0|0,1:0|0:0,0:0:0:0:
512,146,136548,2,0,L|435:155,1,77.5000005912781,8|0,0:0|0:0,0:0:0:0:
495,65,136881,1,0,1:0:0:0:
475,229,137048,1,2,0:0:0:0:
497,48,137214,1,8,0:0:0:0:
360,124,137381,6,0,P|303:75|231:94,1,155.000001182556,0|0,3:0|3:0,0:0:0:0:
108,182,137881,1,8,0:0:0:0:
114,10,138048,2,0,P|151:6|182:28,1,77.5000005912781,8|0,0:0|3:0,0:0:0:0:
56,115,138381,5,0,3:0:0:0:
55,95,138464,1,0,3:0:0:0:
66,80,138548,1,8,0:3:0:0:
216,106,138714,1,0,3:0:0:0:
217,126,138798,1,0,3:0:0:0:
206,141,138881,6,0,P|236:118|274:122,1,77.5000005912781,4|2,1:2|0:0,0:0:0:0:
338,39,139214,2,0,L|342:77,3,38.750000295639,8|2|2|2,0:0|0:0|0:0|0:0,0:0:0:0:
409,123,139548,1,0,1:0:0:0:
406,142,139631,1,2,0:0:0:0:
404,162,139714,1,2,0:0:0:0:
401,181,139798,1,2,0:0:0:0:
399,201,139881,2,0,L|387:296,1,77.5000005912781,8|0,0:0|3:0,0:0:0:0:
246,334,140214,6,0,L|250:372,3,38.750000295639,2|2|0|2,0:0|0:0|3:0|0:0,0:0:0:0:
329,363,140548,2,0,L|324:324,3,38.750000295639,8|2|8|2,0:0|0:0|0:0|0:0,0:0:0:0:
389,277,140881,1,0,3:0:0:0:
392,258,140964,1,2,0:0:0:0:
394,238,141048,1,0,3:0:0:0:
397,219,141131,1,2,0:0:0:0:
399,199,141214,2,0,L|410:103,1,77.5000005912781,8|2,0:3|0:0,0:0:0:0:
235,68,141548,6,0,P|307:86|363:37,2,155.000001182556,0|8|0,1:0|0:0|1:0,0:0:0:0:
321,166,142381,1,2,0:0:0:0:
289,8,142548,1,8,0:0:0:0:
237,162,142714,6,0,L|83:180,1,155.000001182556,0|0,3:0|3:0,0:0:0:0:
0,343,143214,2,0,P|37:339|67:362,1,77.5000005912781,8|8,0:0|0:0,0:0:0:0:
193,275,143548,2,0,L|18:253,1,155.000001182556,0|8,3:0|0:3,0:0:0:0:
149,347,144048,1,0,0:0:0:0:
98,183,144214,6,0,P|79:110|128:54,2,155.000001182556,4|8|0,1:2|0:0|1:0,0:0:0:0:
158,129,145048,1,0,0:0:0:0:
0,110,145214,1,8,0:0:0:0:
172,130,145381,6,0,L|362:153,1,155.000001182556,0|0,3:0|3:0,0:0:0:0:
377,28,145881,1,8,0:0:0:0:
373,215,146048,1,8,0:0:0:0:
305,70,146214,1,0,3:0:0:0:
405,146,146381,1,0,3:0:0:0:
294,245,146548,2,0,P|263:221|226:225,1,77.5000005912781,8|0,0:3|0:0,0:0:0:0:
100,321,146881,5,0,1:0:0:0:
167,169,147048,1,0,3:0:0:0:
7,274,147214,2,0,P|93:287|180:294,1,175.00000166893,12|0,0:3|1:0,0:0:0:0:
89,145,147714,1,0,3:0:0:0:
219,188,147881,2,0,P|176:183|142:209,1,87.500000834465,12|0,0:3|0:0,0:0:0:0:
270,114,148214,5,0,1:0:0:0:
258,261,148381,1,0,3:0:0:0:
272,94,148548,2,0,L|285:-17,1,87.500000834465,12|0,0:3|3:0,0:0:0:0:
346,135,148881,5,0,1:0:0:0:
185,215,149048,1,0,3:0:0:0:
335,315,149214,1,0,3:0:0:0:
206,379,149381,1,0,3:0:0:0:
72,113,170881,6,0,B|123:106|123:106|163:136|163:136|216:130,1,155.000001182556,4|8,1:2|0:0,0:0:0:0:
78,260,171381,2,0,P|74:222|96:191,1,77.5000005912781,2|0,0:0|1:0,0:0:0:0:
190,54,171714,1,2,0:0:0:0:
280,186,171881,2,0,L|375:197,1,77.5000005912781,8|0,0:0|3:0,0:0:0:0:
495,110,172214,5,2,0:0:0:0:
453,265,172381,2,0,L|299:283,1,155.000001182556,0|0,3:0|0:0,0:0:0:0:
234,183,172881,2,0,P|271:179|302:201,1,77.5000005912781,0|0,3:0|3:0,0:0:0:0:
233,336,173214,1,8,0:0:0:0:
150,210,173381,6,0,L|161:114,1,77.5000005912781,2|0,0:0|1:0,0:0:0:0:
309,284,173714,2,0,L|318:360,1,77.5000005912781,2|8,0:0|0:0,0:0:0:0:
163,290,174048,1,2,0:0:0:0:
293,205,174214,1,0,1:0:0:0:
177,281,174381,1,2,0:0:0:0:
161,130,174548,2,0,P|198:126|229:148,1,77.5000005912781,8|0,0:0|3:0,0:0:0:0:
388,109,174881,5,2,0:0:0:0:
263,224,175048,2,0,P|312:168|294:95,1,155.000001182556,0|0,3:0|0:0,0:0:0:0:
392,191,175548,2,0,L|468:200,1,77.5000005912781,0|0,3:0|3:0,0:0:0:0:
388,109,175881,1,8,0:0:0:0:
349,265,176048,6,0,P|276:247|220:296,1,155.000001182556,2|2,0:0|0:0,0:0:0:0:
75,383,176548,1,8,0:0:0:0:
138,267,176714,2,0,L|149:362,1,77.5000005912781,2|0,0:0|1:0,0:0:0:0:
66,227,177048,1,2,0:0:0:0:
220,296,177214,1,8,0:0:0:0:
68,208,177381,6,0,L|87:49,1,155.000001182556,0|0,3:0|3:0,0:0:0:0:
262,11,177881,1,8,0:0:0:0:
229,158,178048,2,0,P|191:161|160:139,1,77.5000005912781,2|0,0:0|3:0,0:0:0:0:
284,89,178381,1,0,3:0:0:0:
237,239,178548,1,8,0:0:0:0:
289,71,178714,1,2,0:0:0:0:
351,223,178881,6,0,P|382:201|419:204,1,77.5000005912781,0|2,1:0|0:0,0:0:0:0:
311,295,179214,2,0,L|332:120,1,155.000001182556,8|0,0:0|1:0,0:0:0:0:
196,9,179714,1,0,0:0:0:0:
247,154,179881,1,8,0:0:0:0:
406,112,180048,6,0,P|350:62|277:80,1,155.000001182556,0|0,3:0|3:0,0:0:0:0:
193,215,180548,1,8,0:0:0:0:
329,141,180714,1,8,0:0:0:0:
201,61,180881,1,0,3:0:0:0:
269,197,181048,1,0,3:0:0:0:
192,45,181214,1,8,0:0:0:0:
279,214,181381,1,8,0:0:0:0:
139,150,181548,6,0,B|132:201|132:201|162:241|162:241|156:294,1,155.000001182556,4|8,1:2|0:0,0:0:0:0:
9,284,182048,2,0,P|40:262|77:266,1,77.5000005912781,2|0,0:0|1:0,0:0:0:0:
209,362,182381,1,2,0:0:0:0:
242,232,182548,1,8,0:0:0:0:
128,371,182714,1,0,3:0:0:0:
132,205,182881,5,2,0:0:0:0:
269,311,183048,2,0,L|423:293,1,155.000001182556,0|0,3:0|0:0,0:0:0:0:
512,192,183548,2,0,P|481:169|443:173,1,77.5000005912781,0|0,3:0|3:0,0:0:0:0:
501,325,183881,1,8,0:0:0:0:
358,221,184048,6,0,L|366:144,1,77.5000005912781,2|0,0:0|1:0,0:0:0:0:
190,77,184381,2,0,L|199:153,1,77.5000005912781,2|8,0:0|0:0,0:0:0:0:
337,68,184714,1,2,0:0:0:0:
218,0,184881,1,0,1:0:0:0:
280,127,185048,1,2,0:0:0:0:
393,9,185214,2,0,P|430:5|461:27,1,77.5000005912781,8|0,0:0|3:0,0:0:0:0:
359,149,185548,5,2,0:0:0:0:
212,79,185714,2,0,P|139:61|83:110,1,155.000001182556,0|8,3:0|0:0,0:0:0:0:
272,199,186214,2,0,L|281:123,1,77.5000005912781,0|0,3:0|3:0,0:0:0:0:
203,247,186548,1,8,0:0:0:0:
374,232,186714,6,0,L|356:78,1,155.000001182556,2|0,0:0|0:0,0:0:0:0:
434,307,187214,2,0,P|377:258|305:276,2,155.000001182556,8|0|8,0:0|1:0|0:0,0:0:0:0:
268,201,188048,6,0,L|277:124,1,77.5000005912781,0|0,3:0|0:0,0:0:0:0:
154,15,188381,1,0,3:0:0:0:
190,143,188548,1,8,0:0:0:0:
318,56,188714,1,8,0:0:0:0:
177,153,188881,2,0,P|146:130|108:134,1,77.5000005912781,0|0,3:0|3:0,0:0:0:0:
224,219,189214,1,8,0:0:0:0:
185,344,189381,6,0,P|242:295|314:313,1,155.000001182556,2|2,0:0|0:0,0:0:0:0:
408,231,189881,2,0,L|389:384,2,155.000001182556,8|0|8,0:0|1:0|0:0,0:0:0:0:
227,193,190714,6,0,P|300:210|356:160,1,155.000001182556,0|0,3:0|3:0,0:0:0:0:
142,58,191214,1,8,0:0:0:0:
278,132,191381,1,8,0:0:0:0:
150,212,191548,1,0,3:0:0:0:
219,75,191714,1,0,3:0:0:0:
141,228,191881,1,8,0:0:0:0:
228,59,192048,1,8,0:0:0:0:
93,87,196214,6,0,P|141:114|182:75,2,119.999996337891,0|2|2,1:0|0:0|0:0,0:0:0:0:
230,191,197214,2,0,B|217:138|287:95|287:95|344:154|319:203,1,239.999992675781,2|2,0:0|0:0,0:0:0:0:
339,281,198048,2,0,P|345:205|411:242,1,179.999994506836,2|2,0:0|0:0,0:0:0:0:
212,51,198881,6,0,P|174:46|141:66,1,77.5000005912781,0|0,3:0|0:0,0:0:0:0:
28,162,199214,1,12,0:3:0:0:
67,32,199381,1,0,3:0:0:0:
102,202,199548,1,8,0:0:0:0:
1,82,199714,1,0,3:0:0:0:
162,146,199881,2,0,P|200:151|233:131,1,77.5000005912781,8|0,0:0|3:0,0:0:0:0:
407,65,200214,5,8,0:0:0:0:
310,174,200381,2,0,L|328:20,1,155.000001182556,8|0,0:0|0:0,0:0:0:0:
139,148,200881,5,8,0:0:0:0:
236,257,201048,2,0,L|217:103,1,155.000001182556,8|0,0:0|0:0,0:0:0:0:
456,99,201548,6,0,B|360:124|376:27|281:51,1,189.999994926453,4|8,1:2|0:0,0:0:0:0:
147,217,202048,1,0,0:0:0:0:
303,133,202214,1,0,1:0:0:0:
143,65,202381,1,0,3:0:0:0:
265,219,202548,2,0,L|359:208,1,94.9999974632264,8|0,0:0|0:0,0:0:0:0:
212,310,202881,6,0,P|226:216|233:121,1,189.999994926453,4|8,1:3|0:0,0:0:0:0:
411,30,203381,2,0,P|376:0|329:0,1,94.9999974632264,2|0,0:0|1:0,0:0:0:0:
436,164,203714,1,0,3:0:0:0:
498,0,203881,2,0,L|487:93,1,94.9999974632264,8|0,0:0|0:0,0:0:0:0:
256,41,204214,6,0,B|162:17|179:114|83:89,1,189.999994926453,4|8,1:3|0:0,0:0:0:0:
0,247,204714,1,2,0:0:0:0:
169,165,204881,2,0,P|214:163|250:194,1,94.9999974632264,0|0,1:0|3:0,0:0:0:0:
309,356,205214,1,8,0:0:0:0:
326,184,205381,1,2,0:0:0:0:
203,282,205548,6,0,P|297:273|391:259,1,189.999994926453,4|8,1:3|0:0,0:0:0:0:
232,197,206048,1,0,0:0:0:0:
157,353,206214,1,0,1:0:0:0:
239,182,206381,1,0,3:0:0:0:
94,296,206548,2,0,L|0:306,1,94.9999974632264,8|0,0:0|0:0,0:0:0:0:
222,101,206881,6,0,P|269:100|305:131,1,94.9999974632264,4|0,1:3|0:0,0:0:0:0:
163,246,207214,1,8,0:0:0:0:
145,68,207381,1,2,0:0:0:0:
165,263,207548,1,0,1:0:0:0:
80,118,207714,1,2,0:0:0:0:
231,214,207881,1,8,0:0:0:0:
64,289,208048,6,0,P|160:298|253:312,1,189.999994926453,2|2,0:0|0:0,0:0:0:0:
436,190,208548,2,0,P|400:158|354:159,1,94.9999974632264,8|0,0:0|0:0,0:0:0:0:
499,251,208881,1,0,1:0:0:0:
455,93,209048,1,0,3:0:0:0:
505,270,209214,1,8,0:0:0:0:
297,220,209381,6,0,B|201:245|217:148|123:172,1,189.999994926453,2|0,0:0|0:0,0:0:0:0:
304,57,209881,2,0,P|273:91|274:138,1,94.9999974632264,8|0,0:0|0:0,0:0:0:0:
275,333,210214,5,0,1:0:0:0:
355,156,210381,1,0,3:0:0:0:
268,348,210548,1,8,0:0:0:0:
448,230,210714,6,0,P|353:238|259:253,1,189.999994926453,4|0,3:3|3:0,0:0:0:0:
285,123,211214,2,0,P|331:122|365:153,1,94.9999974632264,8|0,0:0|0:0,0:0:0:0:
178,245,211548,1,0,1:0:0:0:
215,80,211714,1,0,3:0:0:0:
216,60,211798,1,0,3:0:0:0:
205,45,211881,2,0,L|141:52,3,47.4999987316132,8|0|0|0,3:2|3:0|3:0|3:0,0:0:0:0:
148,38,212214,6,0,P|241:51|336:58,1,189.999994926453,4|8,1:2|0:0,0:0:0:0:
509,4,212714,1,0,0:0:0:0:
341,134,212881,1,0,1:0:0:0:
512,208,213048,1,0,3:0:0:0:
428,0,213214,2,0,L|417:94,1,94.9999974632264,8|0,0:0|0:0,0:0:0:0:
284,198,213548,6,0,B|188:173|204:270|109:246,1,189.999994926453,4|8,1:3|0:0,0:0:0:0:
121,69,214048,2,0,L|133:164,1,94.9999974632264,2|0,0:0|1:0,0:0:0:0:
46,29,214381,1,0,3:0:0:0:
208,120,214548,2,0,P|241:88|288:89,1,94.9999974632264,8|0,0:0|0:0,0:0:0:0:
386,188,214881,6,0,P|373:95|366:0,1,189.999994926453,4|8,1:3|0:0,0:0:0:0:
469,150,215381,1,2,0:0:0:0:
312,230,215548,2,0,P|267:232|231:201,1,94.9999974632264,0|0,1:0|3:0,0:0:0:0:
126,43,215881,1,8,0:0:0:0:
79,216,216048,1,2,0:0:0:0:
216,117,216214,6,0,P|122:126|28:140,1,189.999994926453,4|8,1:3|0:0,0:0:0:0:
159,202,216714,1,0,0:0:0:0:
126,43,216881,1,0,1:0:0:0:
163,220,217048,2,0,L|151:315,1,94.9999974632264,0|8,3:0|0:0,0:0:0:0:
413,229,217381,6,0,B|317:204|334:301|240:277,1,189.999994926453,2|2,0:0|0:0,0:0:0:0:
103,143,217881,1,8,0:0:0:0:
262,195,218048,1,2,0:0:0:0:
161,308,218214,2,0,L|151:214,1,94.9999974632264,0|2,1:0|0:0,0:0:0:0:
241,277,218548,1,8,0:0:0:0:
341,120,218714,6,0,P|326:213|318:308,1,189.999994926453,2|0,0:0|0:0,0:0:0:0:
151,214,219214,2,0,P|116:245|70:245,1,94.9999974632264,8|0,0:0|0:0,0:0:0:0:
83,49,219548,1,0,1:0:0:0:
223,170,219714,1,0,3:0:0:0:
243,171,219798,1,0,3:0:0:0:
258,160,219881,2,0,L|251:96,3,47.4999987316132,8|0|0|0,3:2|3:0|3:0|3:0,0:0:0:0:
261,100,220214,6,0,B|357:74|341:172|436:148,1,189.999994926453,4|12,1:2|0:3,0:0:0:0:
357,27,220714,1,2,0:0:0:0:
286,180,220881,6,0,L|297:275,1,94.9999974632264,4|2,1:3|0:0,0:0:0:0:
96,340,221214,2,0,L|107:244,1,94.9999974632264,12|2,0:3|0:0,0:0:0:0:
278,351,221548,5,4,1:3:0:0:
165,189,221714,1,2,0:0:0:0:
182,384,221881,1,12,0:3:0:0:
289,206,222048,1,2,0:0:0:0:
355,384,222214,6,0,P|389:352|434:353,1,94.9999974632264,4|2,1:3|0:0,0:0:0:0:
227,285,222548,2,0,P|192:253|147:254,1,94.9999974632264,12|2,0:3|0:0,0:0:0:0:
290,111,222881,6,0,P|298:205|314:299,1,189.999994926453,4|12,1:3|0:3,0:0:0:0:
378,176,223381,1,2,0:0:0:0:
227,285,223548,6,0,L|131:273,1,94.9999974632264,4|2,1:3|0:0,0:0:0:0:
384,164,223881,2,0,L|479:152,1,94.9999974632264,12|2,0:3|0:0,0:0:0:0:
239,50,224214,5,4,1:3:0:0:
344,238,224381,1,2,0:0:0:0:
317,25,224548,1,12,0:3:0:0:
211,213,224714,1,2,0:0:0:0:
380,82,224881,6,0,P|426:80|460:111,1,94.9999974632264,4|2,1:3|0:0,0:0:0:0:
225,130,225214,2,0,P|178:128|144:159,1,94.9999974632264,12|2,0:3|0:0,0:0:0:0:
24,247,225548,6,0,P|114:237|175:305,1,189.999994926453,4|12,1:2|0:3,0:0:0:0:
332,384,226048,1,2,0:0:0:0:
260,277,226214,6,0,L|248:372,1,94.9999974632264,4|2,1:3|0:0,0:0:0:0:
24,247,226548,2,0,L|12:151,1,94.9999974632264,12|2,0:3|0:0,0:0:0:0:
217,47,226881,5,4,1:3:0:0:
108,217,227048,1,2,0:0:0:0:
137,16,227214,1,12,0:3:0:0:
191,239,227381,1,2,0:0:0:0:
298,22,227548,6,0,P|332:53|377:52,1,94.9999974632264,4|2,1:3|0:0,0:0:0:0:
170,121,227881,2,0,P|135:152|90:151,1,94.9999974632264,12|2,0:3|0:0,0:0:0:0:
222,57,228214,5,4,1:3:0:0:
363,141,228381,1,2,0:0:0:0:
195,211,228548,1,12,0:3:0:0:
336,65,228714,1,2,0:0:0:0:
115,120,228881,5,4,1:3:0:0:
282,195,229048,1,2,0:0:0:0:
48,168,229214,1,12,0:3:0:0:
219,134,229381,1,2,0:0:0:0:
11,240,229548,5,4,1:3:0:0:
177,314,229714,2,0,L|182:266,2,47.4999987316132,0|0|8,3:0|3:0|0:0,0:0:0:0:
301,276,230048,5,0,3:0:0:0:
281,277,230131,1,0,3:0:0:0:
266,266,230214,2,0,L|258:203,1,47.4999987316132,0|0,1:0|3:0,0:0:0:0:
372,321,230381,1,0,3:0:0:0:
392,322,230464,1,0,3:0:0:0:
407,311,230548,2,0,L|415:248,3,47.4999987316132,8|0|0|0,0:0|3:0|3:0|3:0,0:0:0:0:
425,256,230881,5,4,1:3:0:0:
262,384,231048,1,2,0:0:0:0:
358,204,231214,1,8,0:0:0:0:
461,376,231381,1,2,0:0:0:0:
240,294,231548,6,0,P|285:303|325:280,1,94.9999974632264,4|2,1:3|0:0,0:0:0:0:
299,141,231881,2,0,P|253:131|213:154,1,94.9999974632264,8|2,0:0|0:0,0:0:0:0:
364,209,232214,5,4,1:3:0:0:
397,17,232381,1,2,0:0:0:0:
348,205,232548,1,8,0:0:0:0:
381,13,232714,1,2,0:0:0:0:
213,154,232881,6,0,P|253:131|299:141,1,94.9999974632264,4|2,1:3|0:0,0:0:0:0:
410,261,233214,2,0,L|398:356,1,94.9999974632264,8|2,0:0|0:0,0:0:0:0:
477,211,233548,5,4,1:3:0:0:
318,332,233714,1,2,0:0:0:0:
490,294,233881,1,8,0:0:0:0:
330,249,234048,1,2,0:0:0:0:
501,132,234214,6,0,L|512:36,1,94.9999974632264,4|2,1:3|0:0,0:0:0:0:
259,0,234548,2,0,L|270:95,1,94.9999974632264,8|2,0:0|0:0,0:0:0:0:
330,249,234881,5,4,1:3:0:0:
363,57,235048,1,2,0:0:0:0:
314,245,235214,1,8,0:0:0:0:
347,53,235381,1,2,0:0:0:0:
180,194,235548,6,0,P|221:170|266:180,1,94.9999974632264,4|2,1:3|0:0,0:0:0:0:
294,319,235881,2,0,P|254:342|209:332,1,94.9999974632264,8|2,0:0|0:0,0:0:0:0:
100,172,236214,6,0,L|110:92,1,57.5000010967255,12|0,0:3|0:0,0:0:0:0:
100,172,237548,6,0,L|110:92,1,57.5000010967255,12|0,0:3|0:0,0:0:0:0:
108,114,238881,6,0,L|98:194,1,57.5000010967255,12|0,0:3|0:0,0:0:0:0:
