osu file format v14

[General]
AudioFilename: audio.mp3
AudioLeadIn: 0
PreviewTime: 60853
Countdown: 0
SampleSet: Soft
StackLeniency: 0.7
Mode: 0
LetterboxInBreaks: 0
WidescreenStoryboard: 1

[Editor]
Bookmarks: 2881,24214,45548,61548,82881,85548,106881,128214,149548,170881,192214,196214,201548,220214,236214,238881
DistanceSpacing: 1.18
BeatDivisor: 4
GridSize: 16
TimelineZoom: 2.1

[Metadata]
Title:Itte.
TitleUnicode:言って。
Artist:Yorushika
ArtistUnicode:ヨルシカ
Creator:Xen
Version:Hard
Source:
Tags:say it n-buna nbuna n buna suis 夏草が邪魔をする Natsukusa ga Jama wo Suru jpop j-pop pop japanese xenon- xehn
BeatmapID:2340749
BeatmapSetID:1119169

[Difficulty]
HPDrainRate:4.5
CircleSize:3.8
OverallDifficulty:6.5
ApproachRate:8
SliderMultiplier:1
SliderTickRate:1

[Events]
//Background and Video events
0,0,"bg.jpg",0,0
Video,-925,"yorudone.avi"
//Break Periods
2,149581,170131
2,192248,195464
//Storyboard Layer 0 (Background)
//Storyboard Layer 1 (Fail)
//Storyboard Layer 2 (Pass)
//Storyboard Layer 3 (Foreground)
//Storyboard Layer 4 (Overlay)
//Storyboard Sound Samples

[TimingPoints]
215,333.333333333333,4,2,2,70,1,0
2881,-74.0740740740741,4,2,2,70,0,0
24214,-74.0740740740741,4,2,2,60,0,0
42881,-74.0740740740741,4,2,2,70,0,0
45548,-74.0740740740741,4,2,2,60,0,0
61548,-66.6666666666667,4,2,2,80,0,1
82881,-55.5555555555556,4,2,2,80,0,0
82964,-55.5555555555556,4,2,2,5,0,0
84214,-55.5555555555556,4,2,2,80,0,0
84297,-55.5555555555556,4,2,2,5,0,0
85548,-74.0740740740741,4,2,2,70,0,0
106881,-74.0740740740741,4,2,2,60,0,0
128214,-74.0740740740741,4,2,2,70,0,0
149548,-74.0740740740741,4,2,2,60,0,0
196214,-90.9090909090909,4,2,2,40,0,0
198881,-74.0740740740741,4,2,2,60,0,0
201548,-66.6666666666667,4,2,2,80,0,1
236214,-55.5555555555556,4,2,2,80,0,0
236298,-55.5555555555556,4,2,2,5,0,0
237548,-55.5555555555556,4,2,2,80,0,0
237631,-55.5555555555556,4,2,2,5,0,0
238881,-55.5555555555556,4,2,2,80,0,0
238964,-55.5555555555556,4,2,2,5,0,0

[Colours]
Combo1 : 251,160,103
Combo2 : 114,142,186
Combo3 : 216,60,73
Combo4 : 38,48,117

[HitObjects]
124,42,2881,6,0,B|135:109|78:98|90:166,1,135.000000514984,4|8,1:2|0:0,0:0:0:0:
46,234,3381,1,2,0:0:0:0:
96,297,3548,2,0,L|191:285,1,67.5000002574921,0|2,1:0|0:0,0:0:0:0:
222,234,3881,1,8,0:0:0:0:
283,285,4048,6,0,P|246:230|267:162,2,135.000000514984,0|0|2,3:0|3:0|0:0,0:0:0:0:
325,217,4881,2,0,L|391:208,1,67.5000002574921,0|0,3:0|3:0,0:0:0:0:
456,256,5214,1,8,0:0:0:0:
492,95,5548,6,0,P|450:76|416:90,1,67.5000002574921,0|2,1:0|0:0,0:0:0:0:
367,129,5881,1,8,0:0:0:0:
306,76,6048,2,0,L|147:56,1,135.000000514984,2|2,0:0|0:0,0:0:0:0:
93,44,6548,1,8,0:0:0:0:
55,115,6714,1,0,3:0:0:0:
111,174,6881,6,0,P|128:202|125:235,1,67.5000002574921,2|0,0:0|3:0,0:0:0:0:
77,299,7214,1,8,0:0:0:0:
126,361,7381,2,0,L|259:344,1,135.000000514984,2|0,0:0|3:0,0:0:0:0:
309,281,7881,2,0,L|321:186,1,67.5000002574921,8|2,0:0|0:0,0:0:0:0:
385,172,8214,6,0,P|330:135|262:156,1,135.000000514984,0|8,1:0|0:0,0:0:0:0:
196,113,8714,1,2,0:0:0:0:
135,165,8881,2,0,L|143:231,1,67.5000002574921,0|2,1:0|0:0,0:0:0:0:
80,280,9214,1,8,0:0:0:0:
16,231,9381,6,0,L|35:72,2,135.000000514984,0|0|8,3:0|3:0|0:0,0:0:0:0:
80,280,10214,2,0,P|108:262|141:265,1,67.5000002574921,0|0,3:0|3:0,0:0:0:0:
203,315,10548,1,8,0:0:0:0:
334,214,10881,6,0,P|279:251|211:230,2,135.000000514984,0|8|0,1:0|0:0|1:0,0:0:0:0:
266,172,11714,2,0,L|257:106,1,67.5000002574921,2|8,0:0|0:0,0:0:0:0:
314,46,12048,6,0,B|381:34|370:91|438:79,1,135.000000514984,0|0,3:0|3:0,0:0:0:0:
491,139,12548,1,8,0:0:0:0:
460,212,12714,1,8,0:0:0:0:
506,276,12881,2,0,L|498:343,1,67.5000002574921,0|0,3:0|3:0,0:0:0:0:
429,384,13214,1,12,3:0:0:0:
257,342,13548,6,0,P|320:358|374:321,1,135.000000514984,4|8,1:2|0:0,0:0:0:0:
308,279,14048,1,2,0:0:0:0:
362,221,14214,2,0,L|370:154,1,67.5000002574921,0|2,1:0|0:0,0:0:0:0:
317,93,14548,1,8,0:0:0:0:
249,134,14714,6,0,B|182:145|193:88|125:100,2,135.000000514984,0|0|2,3:0|3:0|0:0,0:0:0:0:
317,93,15548,2,0,P|345:75|378:78,1,67.5000002574921,0|0,3:0|3:0,0:0:0:0:
366,157,15881,1,8,0:0:0:0:
221,225,16214,6,0,P|179:206|145:220,1,67.5000002574921,0|2,1:0|0:0,0:0:0:0:
96,259,16548,1,8,0:0:0:0:
33,209,16714,2,0,L|53:50,1,135.000000514984,2|2,0:0|0:0,0:0:0:0:
118,34,17214,1,8,0:0:0:0:
185,74,17381,1,0,3:0:0:0:
252,30,17548,6,0,P|280:13|313:16,1,67.5000002574921,2|0,0:0|3:0,0:0:0:0:
373,68,17881,1,8,0:0:0:0:
330,135,18048,2,0,L|313:268,1,135.000000514984,8|0,0:0|3:0,0:0:0:0:
374,321,18548,2,0,L|440:313,1,67.5000002574921,8|2,0:0|0:0,0:0:0:0:
504,363,18881,6,0,P|520:299|483:245,1,135.000000514984,0|8,1:0|0:0,0:0:0:0:
507,168,19381,1,2,0:0:0:0:
454,107,19548,2,0,L|462:41,1,67.5000002574921,0|2,1:0|0:0,0:0:0:0:
392,1,19881,1,8,0:0:0:0:
323,42,20048,6,0,B|256:53|267:-4|199:8,2,135.000000514984,0|0|8,3:0|3:0|0:0,0:0:0:0:
392,82,20881,2,0,P|410:110|407:143,1,67.5000002574921,0|0,3:0|3:0,0:0:0:0:
357,205,21214,1,8,0:0:0:0:
280,315,21548,6,0,P|335:351|399:336,2,135.000000514984,0|8|0,1:0|0:0|1:0,0:0:0:0:
348,271,22381,2,0,L|357:204,1,67.5000002574921,2|8,0:0|0:0,0:0:0:0:
300,146,22714,6,0,B|233:134|244:191|175:179,1,135.000000514984,0|0,3:0|3:0,0:0:0:0:
111,229,23214,1,8,0:0:0:0:
44,185,23381,1,8,0:0:0:0:
65,107,23548,1,0,3:0:0:0:
145,104,23714,1,8,3:0:0:0:
175,179,23881,2,0,P|208:176|235:194,1,67.5000002574921,8|2,3:0|0:0,0:0:0:0:
311,219,24214,6,0,B|378:207|367:264|435:252,2,135.000000514984,4|8|0,1:2|0:0|1:0,0:0:0:0:
253,274,25048,1,2,0:0:0:0:
253,274,25214,1,8,0:0:0:0:
300,338,25381,6,0,P|245:301|182:317,1,135.000000514984,0|0,3:0|3:0,0:0:0:0:
118,269,25881,2,0,P|90:287|57:284,1,67.5000002574921,8|8,0:0|0:0,0:0:0:0:
36,207,26214,2,0,P|63:188|96:191,1,67.5000002574921,0|0,3:0|3:0,0:0:0:0:
177,215,26548,1,8,0:0:0:0:
177,215,26714,1,2,0:0:0:0:
233,158,26881,6,0,L|215:16,2,135.000000514984,0|8|0,1:0|0:0|1:0,0:0:0:0:
308,197,27714,1,2,0:0:0:0:
308,197,27881,1,8,0:0:0:0:
370,147,28048,6,0,P|398:165|431:162,1,67.5000002574921,0|0,3:0|0:0,0:0:0:0:
465,89,28381,2,0,P|508:140|498:205,1,135.000000514984,0|8,3:0|0:0,0:0:0:0:
434,249,28881,1,0,3:0:0:0:
434,249,29048,1,0,3:0:0:0:
451,326,29214,2,0,L|374:335,1,67.5000002574921,8|2,0:0|0:0,0:0:0:0:
320,382,29548,6,0,L|186:365,2,135.000000514984,0|8|0,1:0|0:0|1:0,0:0:0:0:
388,337,30381,1,2,0:0:0:0:
388,337,30548,1,8,0:0:0:0:
337,275,30714,6,0,B|349:206|292:217|304:150,1,135.000000514984,0|0,3:0|3:0,0:0:0:0:
356,90,31214,1,8,0:0:0:0:
356,90,31381,1,8,0:0:0:0:
301,31,31548,2,0,L|158:48,1,135.000000514984,0|8,3:0|0:0,0:0:0:0:
117,110,32048,1,2,0:0:0:0:
117,110,32214,6,0,P|66:67|1:76,2,135.000000514984,0|8|0,1:0|0:0|1:0,0:0:0:0:
77,181,33048,1,2,0:0:0:0:
77,181,33214,1,8,0:0:0:0:
126,243,33381,6,0,B|193:255|182:198|251:211,1,135.000000514984,0|0,3:0|3:0,0:0:0:0:
314,268,33881,1,8,0:0:0:0:
314,268,34048,1,8,0:0:0:0:
379,222,34214,2,0,P|376:190|395:162,1,67.5000002574921,0|0,3:0|3:0,0:0:0:0:
472,185,34548,2,0,P|476:218|457:246,1,67.5000002574921,12|2,0:3|0:0,0:0:0:0:
398,299,34881,6,0,B|331:287|342:344|274:332,2,135.000000514984,4|8|0,1:2|0:0|1:0,0:0:0:0:
461,248,35714,1,2,0:0:0:0:
461,248,35881,1,8,0:0:0:0:
405,190,36048,6,0,L|421:55,1,135.000000514984,0|0,3:0|3:0,0:0:0:0:
358,6,36548,2,0,P|325:2|297:22,1,67.5000002574921,8|2,0:0|0:0,0:0:0:0:
221,0,36881,2,0,P|199:25|199:58,1,67.5000002574921,0|0,3:0|3:0,0:0:0:0:
240,132,37214,1,8,0:0:0:0:
240,132,37381,1,2,0:0:0:0:
193,197,37548,6,0,L|51:180,2,135.000000514984,0|8|0,1:0|0:0|1:0,0:0:0:0:
240,267,38381,1,2,0:0:0:0:
240,267,38548,1,8,0:0:0:0:
313,236,38714,6,0,P|309:203|327:175,1,67.5000002574921,0|0,3:0|0:0,0:0:0:0:
406,160,39048,2,0,P|419:224|380:277,1,135.000000514984,0|8,3:0|0:0,0:0:0:0:
312,315,39548,1,0,3:0:0:0:
312,315,39714,1,0,3:0:0:0:
244,272,39881,2,0,L|167:281,1,67.5000002574921,8|2,0:0|0:0,0:0:0:0:
130,214,40214,6,0,B|118:281|175:270|163:338,2,135.000000514984,0|8|0,1:0|0:0|1:0,0:0:0:0:
202,177,41048,1,2,0:0:0:0:
202,177,41214,1,8,0:0:0:0:
174,103,41381,6,0,P|123:61|58:70,1,135.000000514984,0|0,3:0|3:0,0:0:0:0:
105,141,41881,1,8,0:0:0:0:
105,141,42048,1,8,0:0:0:0:
44,192,42214,2,0,L|26:334,1,135.000000514984,0|8,3:0|0:0,0:0:0:0:
87,378,42714,1,2,0:0:0:0:
152,333,42881,6,0,B|197:327|197:327|232:353|232:353|278:348,1,135.000000514984,4|8,1:3|0:0,0:0:0:0:
341,300,43381,2,0,P|361:237|328:180,1,135.000000514984,4|0,1:3|3:0,0:0:0:0:
263,134,43881,2,0,L|274:38,1,67.5000002574921,8|0,0:0|0:0,0:0:0:0:
207,19,44214,5,4,1:3:0:0:
138,59,44381,1,0,3:0:0:0:
67,22,44548,1,0,3:0:0:0:
10,77,44714,2,0,L|26:210,1,135.000000514984,4|0,1:3|3:0,0:0:0:0:
92,255,45214,1,8,0:0:0:0:
154,205,45381,1,0,3:0:0:0:
170,207,45464,1,0,3:0:0:0:
187,209,45548,6,0,P|183:241|201:269,1,67.5000002574921,4|2,1:2|0:0,0:0:0:0:
279,254,45881,2,0,P|282:221|264:193,1,67.5000002574921,8|2,0:0|0:0,0:0:0:0:
305,125,46214,2,0,B|374:112|363:169|430:157,1,135.000000514984,0|8,1:0|0:0,0:0:0:0:
489,211,46714,1,0,3:0:0:0:
450,280,46881,6,0,L|354:291,1,67.5000002574921,2|0,0:0|3:0,0:0:0:0:
331,349,47214,2,0,L|197:332,1,135.000000514984,8|0,0:0|3:0,0:0:0:0:
144,272,47714,1,0,3:0:0:0:
195,211,47881,2,0,P|176:183|180:150,1,67.5000002574921,8|0,0:0|0:0,0:0:0:0:
233,90,48214,6,0,L|299:98,1,67.5000002574921,0|0,1:0|0:0,0:0:0:0:
314,19,48548,2,0,L|247:10,1,67.5000002574921,8|0,0:0|0:0,0:0:0:0:
171,37,48881,1,0,1:0:0:0:
100,0,49048,1,0,0:0:0:0:
42,56,49214,1,8,0:0:0:0:
77,127,49381,6,0,L|57:285,1,135.000000514984,0|0,3:0|3:0,0:0:0:0:
121,312,49881,1,8,0:0:0:0:
194,280,50048,1,8,0:0:0:0:
263,318,50214,2,0,P|290:299|323:303,1,67.5000002574921,0|0,3:0|3:0,0:0:0:0:
312,382,50548,1,8,0:0:0:0:
194,280,50881,6,0,P|161:283|133:265,1,67.5000002574921,0|2,1:0|0:0,0:0:0:0:
152,187,51214,2,0,P|184:183|212:201,1,67.5000002574921,8|2,0:0|0:0,0:0:0:0:
288,176,51548,2,0,L|268:17,1,135.000000514984,0|8,1:0|0:0,0:0:0:0:
340,0,52048,1,0,3:0:0:0:
404,47,52214,6,0,P|436:39|465:54,1,67.5000002574921,2|0,0:0|3:0,0:0:0:0:
480,132,52548,2,0,P|416:148|361:113,1,135.000000514984,8|0,0:0|3:0,0:0:0:0:
324,42,53048,1,0,3:0:0:0:
246,61,53214,2,0,P|216:46|184:53,1,67.5000002574921,8|0,0:0|0:0,0:0:0:0:
125,108,53548,6,0,L|58:99,1,67.5000002574921,0|0,1:0|0:0,0:0:0:0:
46,179,53881,2,0,L|112:187,1,67.5000002574921,8|0,0:0|0:0,0:0:0:0:
187,159,54214,1,0,1:0:0:0:
237,222,54381,1,2,0:0:0:0:
193,289,54548,2,0,P|178:318|185:350,1,67.5000002574921,8|0,0:0|3:0,0:0:0:0:
258,384,54881,5,2,0:0:0:0:
325,341,55048,1,0,3:0:0:0:
391,383,55214,2,0,L|457:374,1,67.5000002574921,8|8,0:0|0:0,0:0:0:0:
496,304,55548,2,0,L|515:145,1,135.000000514984,0|12,3:0|0:3,0:0:0:0:
369,57,56214,6,0,P|398:42|430:49,1,67.5000002574921,4|0,1:3|0:0,0:0:0:0:
439,129,56548,2,0,P|410:144|378:137,1,67.5000002574921,8|0,0:0|0:0,0:0:0:0:
323,195,56881,2,0,P|259:178|203:214,1,135.000000514984,4|8,1:3|0:0,0:0:0:0:
132,250,57381,1,0,3:0:0:0:
74,194,57548,6,0,L|82:127,1,67.5000002574921,6|0,0:3|3:0,0:0:0:0:
143,75,57881,1,8,0:0:0:0:
215,107,58048,1,8,0:0:0:0:
279,60,58214,2,0,P|308:45|340:52,1,67.5000002574921,4|0,3:3|3:0,0:0:0:0:
353,131,58548,2,0,P|324:146|292:139,1,67.5000002574921,8|0,0:3|0:0,0:0:0:0:
227,186,58881,6,0,L|236:265,1,67.5000002574921,4|0,1:2|0:0,0:0:0:0:
305,291,59214,1,8,0:0:0:0:
290,370,59381,1,8,0:0:0:0:
211,379,59548,1,8,0:0:0:0:
176,307,59714,1,8,0:0:0:0:
235,252,59881,2,0,L|227:186,1,67.5000002574921,8|8,0:0|0:0,0:0:0:0:
214,107,60214,5,8,1:2:0:0:
439,156,61548,6,0,B|364:135|376:214|302:193,1,150.000005722046,4|8,1:2|0:0,0:0:0:0:
225,238,62048,1,0,0:0:0:0:
165,173,62214,2,0,P|181:140|171:104,1,75.0000028610231,0|0,1:0|3:0,0:0:0:0:
83,93,62548,2,0,P|66:125|76:161,1,75.0000028610231,8|0,0:0|0:0,0:0:0:0:
7,220,62881,6,0,L|24:368,1,150.000005722046,0|8,1:0|0:0,0:0:0:0:
99,320,63381,2,0,P|134:310|167:327,1,75.0000028610231,2|0,0:0|1:0,0:0:0:0:
242,376,63714,1,0,3:0:0:0:
310,318,63881,2,0,L|298:225,1,75.0000028610231,8|0,0:0|0:0,0:0:0:0:
247,171,64214,6,0,P|308:211|378:192,1,150.000005722046,0|8,1:0|0:0,0:0:0:0:
460,226,64714,1,2,0:0:0:0:
504,148,64881,2,0,L|492:55,1,75.0000028610231,0|0,1:0|3:0,0:0:0:0:
422,21,65214,1,8,0:0:0:0:
350,74,65381,1,2,0:0:0:0:
271,34,65548,6,0,B|196:14|208:90|135:71,1,150.000005722046,0|8,1:0|0:0,0:0:0:0:
68,130,66048,1,0,0:0:0:0:
117,202,66214,1,0,1:0:0:0:
64,273,66381,1,0,3:0:0:0:
118,342,66548,2,0,L|192:333,1,75.0000028610231,8|0,0:0|0:0,0:0:0:0:
246,261,66881,6,0,L|338:272,1,75.0000028610231,0|0,1:0|0:0,0:0:0:0:
368,344,67214,2,0,L|344:159,1,150.000005722046,8|0,0:0|1:0,0:0:0:0:
274,147,67714,1,0,3:0:0:0:
207,208,67881,1,8,0:0:0:0:
137,151,68048,6,0,P|76:191|6:170,1,150.000005722046,2|2,0:0|0:0,0:0:0:0:
26,84,68548,2,0,P|58:67|94:76,1,75.0000028610231,8|0,0:0|0:0,0:0:0:0:
164,20,68881,2,0,L|239:29,1,75.0000028610231,0|0,1:0|3:0,0:0:0:0:
297,95,69214,1,8,0:0:0:0:
243,164,69381,6,0,B|167:144|180:221|107:202,1,150.000005722046,2|0,0:0|0:0,0:0:0:0:
41,263,69881,2,0,L|49:337,1,75.0000028610231,8|0,0:0|0:0,0:0:0:0:
130,377,70214,1,0,1:0:0:0:
198,321,70381,1,0,3:0:0:0:
276,364,70548,1,8,0:0:0:0:
352,320,70714,6,0,L|372:153,1,150.000005722046,4|0,3:3|3:0,0:0:0:0:
283,186,71214,2,0,P|247:175|213:192,1,75.0000028610231,8|0,0:0|0:0,0:0:0:0:
149,253,71548,1,0,1:0:0:0:
76,202,71714,1,0,3:0:0:0:
78,186,71798,1,0,3:0:0:0:
80,169,71881,2,0,L|86:108,3,37.5000014305115,8|0|0|0,3:2|3:0|3:0|3:0,0:0:0:0:
72,114,72214,6,0,B|146:134|134:58|207:77,1,150.000005722046,4|8,1:2|0:0,0:0:0:0:
285,33,72714,1,0,0:0:0:0:
347,95,72881,2,0,P|382:85|415:102,1,75.0000028610231,0|0,1:0|3:0,0:0:0:0:
402,192,73214,2,0,P|367:200|334:182,1,75.0000028610231,8|0,0:0|0:0,0:0:0:0:
248,203,73548,6,0,L|265:352,1,150.000005722046,0|8,1:0|0:0,0:0:0:0:
178,329,74048,2,0,P|145:345|109:336,1,75.0000028610231,2|0,0:0|1:0,0:0:0:0:
46,275,74381,1,0,3:0:0:0:
94,200,74548,2,0,L|84:125,1,75.0000028610231,8|0,0:0|0:0,0:0:0:0:
10,76,74881,6,0,P|71:38|141:57,1,150.000005722046,0|8,1:0|0:0,0:0:0:0:
221,16,75381,1,2,0:0:0:0:
300,58,75548,2,0,P|332:41|368:50,1,75.0000028610231,0|0,1:0|3:0,0:0:0:0:
434,107,75881,1,8,0:0:0:0:
397,189,76048,1,2,0:0:0:0:
458,252,76214,6,0,B|383:273|396:196|320:216,1,150.000005722046,0|8,1:0|0:0,0:0:0:0:
254,157,76714,1,0,0:0:0:0:
190,221,76881,2,0,L|116:230,1,75.0000028610231,0|0,1:0|3:0,0:0:0:0:
128,317,77214,2,0,L|202:308,1,75.0000028610231,8|0,0:0|0:0,0:0:0:0:
276,358,77548,6,0,L|424:377,1,150.000005722046,4|8,1:3|0:0,0:0:0:0:
491,318,78048,1,2,0:0:0:0:
438,246,78214,2,0,P|421:214|431:177,1,75.0000028610231,4|2,1:3|0:0,0:0:0:0:
495,115,78548,2,0,P|504:79|487:47,1,75.0000028610231,8|2,0:0|0:0,0:0:0:0:
407,6,78881,6,0,B|332:-12|344:63|270:43,1,150.000005722046,4|8,1:3|0:0,0:0:0:0:
187,10,79381,1,2,0:0:0:0:
112,58,79548,2,0,P|79:40|45:49,1,75.0000028610231,4|2,1:3|0:0,0:0:0:0:
32,137,79881,2,0,P|64:155|99:145,1,75.0000028610231,8|2,0:0|0:0,0:0:0:0:
182,114,80214,5,4,1:3:0:0:
255,165,80381,1,2,0:0:0:0:
325,111,80548,2,0,P|360:102|392:119,1,75.0000028610231,8|2,0:0|0:0,0:0:0:0:
441,193,80881,2,0,L|431:267,1,75.0000028610231,4|2,1:3|0:0,0:0:0:0:
359,319,81214,1,8,0:0:0:0:
285,270,81381,1,2,0:0:0:0:
211,321,81548,6,0,P|176:331|144:313,1,75.0000028610231,4|2,1:3|0:0,0:0:0:0:
95,240,81881,2,0,L|105:165,1,75.0000028610231,12|0,0:0|0:0,0:0:0:0:
54,91,82214,1,0,1:0:0:0:
113,24,82381,1,0,3:0:0:0:
129,26,82464,1,0,3:0:0:0:
145,28,82548,2,0,L|207:35,3,37.5000014305115,8|0|0|0,3:2|3:0|3:0|3:0,0:0:0:0:
198,44,82881,6,0,L|242:39,1,44.999998626709,12|0,0:3|0:0,0:0:0:0:
198,44,84214,6,0,L|242:39,1,44.999998626709,12|0,0:3|0:0,0:0:0:0:
53,256,85548,6,0,B|122:243|111:300|178:289,1,135.000000514984,4|8,1:2|0:0,0:0:0:0:
241,338,86048,1,2,0:0:0:0:
307,293,86214,2,0,L|319:198,1,67.5000002574921,0|2,1:0|0:0,0:0:0:0:
277,155,86548,1,8,0:0:0:0:
327,91,86714,6,0,P|263:74|209:111,2,135.000000514984,0|0|2,3:0|3:0|0:0,0:0:0:0:
389,140,87548,2,0,L|455:131,1,67.5000002574921,0|0,3:0|3:0,0:0:0:0:
498,63,87881,1,8,0:0:0:0:
512,230,88214,6,0,P|470:211|436:225,1,67.5000002574921,0|2,1:0|0:0,0:0:0:0:
387,263,88548,1,8,0:0:0:0:
312,234,88714,2,0,L|292:75,1,135.000000514984,2|2,0:0|0:0,0:0:0:0:
226,60,89214,1,8,0:0:0:0:
159,104,89381,1,0,3:0:0:0:
93,58,89548,6,0,P|59:54|31:71,1,67.5000002574921,2|0,0:0|3:0,0:0:0:0:
0,145,89881,1,8,0:0:0:0:
47,208,90048,2,0,L|30:341,1,135.000000514984,2|0,0:0|3:0,0:0:0:0:
98,382,90548,2,0,P|140:363|174:377,1,67.5000002574921,8|2,0:0|0:0,0:0:0:0:
214,309,90881,6,0,P|269:346|337:325,1,135.000000514984,0|8,1:0|0:0,0:0:0:0:
283,265,91381,1,2,0:0:0:0:
337,206,91548,2,0,L|329:140,1,67.5000002574921,0|2,1:0|0:0,0:0:0:0:
349,61,91881,1,8,0:0:0:0:
291,5,92048,6,0,B|222:-8|233:49|166:38,2,135.000000514984,0|0|8,3:0|3:0|0:0,0:0:0:0:
349,61,92881,2,0,P|377:43|410:46,1,67.5000002574921,0|0,3:0|3:0,0:0:0:0:
399,125,93214,1,8,0:0:0:0:
512,236,93548,6,0,P|457:199|394:215,2,135.000000514984,0|8|0,1:0|0:0|1:0,0:0:0:0:
444,277,94381,2,0,L|435:343,1,67.5000002574921,2|8,0:0|0:0,0:0:0:0:
364,382,94714,6,0,B|297:394|308:337|240:349,1,135.000000514984,0|0,3:0|3:0,0:0:0:0:
187,289,95214,1,8,0:0:0:0:
115,319,95381,1,8,0:0:0:0:
64,259,95548,1,0,3:0:0:0:
104,192,95714,1,0,3:0:0:0:
181,210,95881,2,0,L|247:201,1,67.5000002574921,12|0,3:0|3:0,0:0:0:0:
311,248,96214,6,0,B|380:235|369:292|436:281,1,135.000000514984,4|8,1:2|0:0,0:0:0:0:
488,220,96714,1,2,0:0:0:0:
443,153,96881,2,0,L|451:86,1,67.5000002574921,0|2,1:0|0:0,0:0:0:0:
391,33,97214,1,8,0:0:0:0:
320,70,97381,6,0,P|256:53|202:90,2,135.000000514984,0|0|2,3:0|3:0|0:0,0:0:0:0:
271,133,98214,2,0,L|280:199,1,67.5000002574921,0|0,3:0|3:0,0:0:0:0:
348,242,98548,1,8,0:0:0:0:
225,344,98881,6,0,P|183:325|149:339,1,67.5000002574921,0|2,1:0|0:0,0:0:0:0:
100,377,99214,1,8,0:0:0:0:
25,348,99381,2,0,L|5:189,1,135.000000514984,2|2,0:0|0:0,0:0:0:0:
67,160,99881,1,8,0:0:0:0:
137,196,100048,1,0,3:0:0:0:
198,144,100214,6,0,P|232:140|260:157,1,67.5000002574921,2|0,0:0|3:0,0:0:0:0:
325,200,100548,1,8,0:0:0:0:
389,153,100714,2,0,L|372:20,1,135.000000514984,8|0,0:0|3:0,0:0:0:0:
295,43,101214,2,0,P|261:40|233:57,1,67.5000002574921,8|2,0:0|0:0,0:0:0:0:
277,124,101548,6,0,P|222:87|154:108,1,135.000000514984,0|8,1:0|0:0,0:0:0:0:
208,168,102048,1,2,0:0:0:0:
154,227,102214,2,0,L|162:293,1,67.5000002574921,0|2,1:0|0:0,0:0:0:0:
102,347,102548,1,8,0:0:0:0:
35,302,102714,6,0,L|51:167,2,135.000000514984,0|0|8,3:0|3:0|0:0,0:0:0:0:
102,347,103548,2,0,P|130:329|163:332,1,67.5000002574921,0|0,3:0|3:0,0:0:0:0:
234,367,103881,1,8,0:0:0:0:
345,253,104214,6,0,P|290:290|227:274,2,135.000000514984,0|8|0,1:0|0:0|1:0,0:0:0:0:
277,212,105048,2,0,L|268:146,1,67.5000002574921,2|8,0:0|0:0,0:0:0:0:
325,89,105381,6,0,B|258:77|269:134|201:122,1,135.000000514984,0|0,3:0|3:0,0:0:0:0:
148,182,105881,1,8,0:0:0:0:
76,152,106048,1,8,0:0:0:0:
25,212,106214,1,0,3:0:0:0:
65,279,106381,1,8,3:0:0:0:
142,261,106548,2,0,L|208:270,1,67.5000002574921,8|8,3:0|0:0,0:0:0:0:
262,210,106881,6,0,B|274:277|217:266|229:335,2,135.000000514984,4|8|0,1:2|0:0|1:0,0:0:0:0:
316,151,107714,1,2,0:0:0:0:
316,151,107881,1,8,0:0:0:0:
270,85,108048,6,0,P|215:48|152:63,1,135.000000514984,0|0,3:0|3:0,0:0:0:0:
85,108,108548,2,0,P|57:90|24:93,1,67.5000002574921,8|8,0:0|0:0,0:0:0:0:
4,170,108881,2,0,P|31:189|64:186,1,67.5000002574921,0|0,3:0|3:0,0:0:0:0:
145,169,109214,1,8,0:0:0:0:
145,169,109381,1,2,0:0:0:0:
211,213,109548,6,0,L|229:355,2,135.000000514984,0|8|0,1:0|0:0|1:0,0:0:0:0:
273,162,110381,1,2,0:0:0:0:
273,162,110548,1,8,0:0:0:0:
340,205,110714,6,0,P|368:223|401:220,1,67.5000002574921,0|0,3:0|0:0,0:0:0:0:
469,263,111048,2,0,P|477:198|435:148,1,135.000000514984,0|8,3:0|0:0,0:0:0:0:
454,73,111548,1,0,3:0:0:0:
454,73,111714,1,0,3:0:0:0:
398,15,111881,2,0,L|330:22,1,67.5000002574921,8|2,0:0|0:0,0:0:0:0:
276,82,112214,6,0,L|142:65,2,135.000000514984,0|8|0,1:0|0:0|1:0,0:0:0:0:
331,146,113048,1,2,0:0:0:0:
331,146,113214,1,8,0:0:0:0:
278,205,113381,6,0,B|266:274|323:263|311:330,1,135.000000514984,0|0,3:0|3:0,0:0:0:0:
251,383,113881,1,8,0:0:0:0:
251,383,114048,1,8,0:0:0:0:
184,338,114214,2,0,L|49:353,1,135.000000514984,0|8,3:0|0:0,0:0:0:0:
0,295,114714,1,2,0:0:0:0:
0,295,114881,6,0,P|-10:229|29:178,2,135.000000514984,0|8|0,1:0|0:0|1:0,0:0:0:0:
70,253,115714,1,2,0:0:0:0:
70,253,115881,1,8,0:0:0:0:
136,297,116048,6,0,B|203:309|192:252|261:265,1,135.000000514984,0|0,3:0|3:0,0:0:0:0:
322,324,116548,1,8,0:0:0:0:
322,324,116714,1,8,0:0:0:0:
389,281,116881,2,0,P|416:299|449:297,1,67.5000002574921,0|0,3:0|3:0,0:0:0:0:
467,217,117214,2,0,P|439:198|406:202,1,67.5000002574921,12|2,0:3|0:0,0:0:0:0:
358,138,117548,6,0,B|291:150|302:93|234:105,2,135.000000514984,4|8|0,1:2|0:0|1:0,0:0:0:0:
426,95,118381,1,2,0:0:0:0:
426,95,118548,1,8,0:0:0:0:
493,137,118714,6,0,L|477:271,1,135.000000514984,0|0,3:0|3:0,0:0:0:0:
414,320,119214,2,0,P|381:323|353:303,1,67.5000002574921,8|8,0:0|0:0,0:0:0:0:
277,326,119548,2,0,P|255:300|255:267,1,67.5000002574921,0|0,3:0|3:0,0:0:0:0:
212,206,119881,1,8,0:0:0:0:
212,206,120048,1,2,0:0:0:0:
264,145,120214,6,0,L|406:162,2,135.000000514984,0|8|0,1:0|0:0|1:0,0:0:0:0:
226,80,121048,1,2,0:0:0:0:
226,80,121214,1,8,0:0:0:0:
168,134,121381,6,0,P|140:115|107:119,1,67.5000002574921,0|0,3:0|0:0,0:0:0:0:
66,50,121714,2,0,P|27:103|40:167,1,135.000000514984,0|8,3:0|0:0,0:0:0:0:
16,245,122214,1,0,3:0:0:0:
16,245,122381,1,0,3:0:0:0:
72,301,122548,2,0,L|149:292,1,67.5000002574921,8|2,0:0|0:0,0:0:0:0:
197,238,122881,6,0,B|209:305|152:294|164:362,2,135.000000514984,0|8|0,1:0|0:0|1:0,0:0:0:0:
145,183,123714,1,2,0:0:0:0:
145,183,123881,1,8,0:0:0:0:
76,139,124048,6,0,P|130:102|194:118,1,135.000000514984,0|0,3:0|3:0,0:0:0:0:
259,70,124548,1,8,0:0:0:0:
259,70,124714,1,8,0:0:0:0:
311,130,124881,2,0,L|296:264,1,135.000000514984,0|8,3:0|0:0,0:0:0:0:
227,304,125381,1,2,0:0:0:0:
227,304,125548,6,0,P|280:342|344:327,2,135.000000514984,0|8|0,1:0|0:0|1:0,0:0:0:0:
162,353,126381,1,2,0:0:0:0:
162,353,126548,1,8,0:0:0:0:
81,361,126714,6,0,B|69:294|126:305|113:236,1,135.000000514984,0|0,3:0|3:0,0:0:0:0:
173,183,127214,1,8,0:0:0:0:
239,226,127381,1,8,0:0:0:0:
305,181,127548,2,0,P|361:213|424:193,1,135.000000514984,0|2,3:0|0:0,0:0:0:0:
290,347,128214,6,0,L|299:281,1,67.5000002574921,4|2,1:2|0:0,0:0:0:0:
239,226,128548,1,8,0:0:0:0:
175,273,128714,2,0,B|106:260|117:317|50:305,1,135.000000514984,2|0,0:0|0:0,0:0:0:0:
3,239,129214,1,8,0:0:0:0:
45,171,129381,1,0,3:0:0:0:
4,101,129548,5,2,0:0:0:0:
62,47,129714,2,0,L|196:62,1,135.000000514984,0|8,3:0|0:0,0:0:0:0:
253,117,130214,2,0,P|280:98|313:101,1,67.5000002574921,0|0,3:0|3:0,0:0:0:0:
373,154,130548,1,8,0:3:0:0:
343,227,130714,1,2,0:0:0:0:
397,285,130881,6,0,B|330:297|341:240|272:253,1,135.000000514984,0|8,1:0|0:0,0:0:0:0:
210,305,131381,1,2,0:0:0:0:
149,252,131548,2,0,L|158:186,1,67.5000002574921,0|2,1:0|0:0,0:0:0:0:
218,133,131881,2,0,L|214:95,2,33.750000128746,8|2|0,0:0|0:0|3:0,0:0:0:0:
289,167,132214,6,0,P|335:120|400:123,1,135.000000514984,2|8,0:0|0:0,0:0:0:0:
364,195,132714,1,8,0:0:0:0:
419,252,132881,2,0,L|410:318,1,67.5000002574921,0|0,3:0|3:0,0:0:0:0:
342,362,133214,1,8,0:3:0:0:
273,320,133381,1,2,0:0:0:0:
209,369,133548,6,0,L|75:384,2,135.000000514984,4|8|0,1:2|0:0|1:0,0:0:0:0:
273,320,134381,1,2,0:0:0:0:
230,252,134548,2,0,P|227:218|245:191,1,67.5000002574921,8|0,0:0|3:0,0:0:0:0:
314,149,134881,6,0,L|180:164,1,135.000000514984,2|8,0:0|0:0,0:0:0:0:
121,218,135381,2,0,P|100:155|133:98,1,135.000000514984,0|0,0:0|3:0,0:0:0:0:
192,44,135881,1,8,0:3:0:0:
265,77,136048,1,2,0:0:0:0:
328,29,136214,6,0,L|394:38,1,67.5000002574921,0|0,1:0|0:0,0:0:0:0:
459,85,136548,2,0,P|477:112|474:145,1,67.5000002574921,8|0,0:0|0:0,0:0:0:0:
421,205,136881,1,0,1:0:0:0:
346,176,137048,1,2,0:0:0:0:
286,228,137214,1,8,0:0:0:0:
221,181,137381,6,0,B|152:168|163:225|96:213,1,135.000000514984,0|0,3:0|3:0,0:0:0:0:
43,273,137881,1,8,0:0:0:0:
92,335,138048,2,0,P|125:332|152:350,1,67.5000002574921,8|0,0:0|3:0,0:0:0:0:
211,296,138381,2,0,L|205:249,2,33.750000128746,0|0|8,3:0|3:0|0:3,0:0:0:0:
279,337,138714,1,0,3:0:0:0:
295,339,138798,1,0,3:0:0:0:
311,340,138881,6,0,L|377:348,1,67.5000002574921,4|2,1:2|0:0,0:0:0:0:
446,306,139214,2,0,L|438:242,3,33.750000128746,8|2|2|2,0:0|0:0|0:0|0:0,0:0:0:0:
426,256,139548,2,0,L|433:192,3,33.750000128746,0|2|2|2,1:0|0:0|0:0|0:0,0:0:0:0:
441,204,139881,2,0,P|413:222|380:219,1,67.5000002574921,8|0,0:0|3:0,0:0:0:0:
323,164,140214,6,0,L|330:100,3,33.750000128746,2|2|0|2,0:0|0:0|3:0|0:0,0:0:0:0:
345,122,140548,2,0,L|337:58,3,33.750000128746,8|2|8|2,0:0|0:0|0:0|0:0,0:0:0:0:
321,76,140881,2,0,L|328:12,3,33.750000128746,0|2|0|2,3:0|0:0|3:0|0:0,0:0:0:0:
336,21,141214,2,0,P|308:39|275:36,1,67.5000002574921,8|2,0:3|0:0,0:0:0:0:
202,3,141548,6,0,L|68:18,2,135.000000514984,0|8|0,1:0|0:0|1:0,0:0:0:0:
262,57,142381,1,2,0:0:0:0:
228,129,142548,1,8,0:0:0:0:
261,200,142714,6,0,P|210:158|145:168,1,135.000000514984,0|0,3:0|3:0,0:0:0:0:
96,231,143214,2,0,L|104:297,1,67.5000002574921,8|8,0:0|0:0,0:0:0:0:
28,325,143548,2,0,L|162:340,1,135.000000514984,0|8,3:0|0:3,0:0:0:0:
232,301,144048,1,0,0:0:0:0:
288,356,144214,6,0,B|355:368|344:311|413:324,2,135.000000514984,4|8|0,1:2|0:0|1:0,0:0:0:0:
235,304,145048,1,0,0:0:0:0:
235,304,145214,1,8,0:0:0:0:
266,230,145381,6,0,L|251:96,1,135.000000514984,0|0,3:0|3:0,0:0:0:0:
174,74,145881,2,0,P|176:40|158:13,1,67.5000002574921,8|8,0:0|0:0,0:0:0:0:
82,32,146214,2,0,P|79:65|97:92,1,67.5000002574921,0|0,3:0|3:0,0:0:0:0:
36,145,146548,2,0,L|28:211,1,67.5000002574921,8|0,0:3|0:0,0:0:0:0:
87,265,146881,5,0,1:0:0:0:
161,236,147048,1,0,3:0:0:0:
217,291,147214,2,0,B|286:278|275:335|342:323,1,135.000000514984,12|0,0:3|1:0,0:0:0:0:
411,363,147714,1,0,3:0:0:0:
467,306,147881,2,0,L|458:238,1,67.5000002574921,12|0,0:3|0:0,0:0:0:0:
400,184,148214,5,0,1:0:0:0:
426,108,148381,1,0,3:0:0:0:
369,51,148548,2,0,P|335:48|308:66,1,67.5000002574921,12|0,0:3|3:0,0:0:0:0:
231,44,148881,1,0,1:0:0:0:
187,111,149048,1,0,3:0:0:0:
235,173,149214,1,0,3:0:0:0:
310,145,149381,1,0,3:0:0:0:
83,134,170881,6,0,B|150:146|139:89|207:101,1,135.000000514984,4|8,1:2|0:0,0:0:0:0:
263,158,171381,2,0,L|251:253,1,67.5000002574921,2|0,0:0|1:0,0:0:0:0:
320,270,171714,1,2,0:0:0:0:
385,224,171881,2,0,L|377:158,1,67.5000002574921,8|0,0:0|3:0,0:0:0:0:
319,102,172214,5,2,0:0:0:0:
263,158,172381,2,0,P|206:125|143:146,1,135.000000514984,0|0,3:0|0:0,0:0:0:0:
198,203,172881,2,0,L|186:298,1,67.5000002574921,0|0,3:0|3:0,0:0:0:0:
249,323,173214,1,8,0:0:0:0:
319,285,173381,6,0,P|351:281|379:300,1,67.5000002574921,2|0,0:0|1:0,0:0:0:0:
423,367,173714,2,0,L|406:233,1,135.000000514984,2|2,0:0|0:0,0:0:0:0:
349,177,174214,1,0,1:0:0:0:
381,104,174381,1,2,0:0:0:0:
319,52,174548,2,0,P|286:48|258:67,1,67.5000002574921,8|0,0:0|3:0,0:0:0:0:
183,41,174881,5,2,0:0:0:0:
128,99,175048,2,0,L|147:257,1,135.000000514984,0|0,3:0|0:0,0:0:0:0:
220,208,175548,2,0,P|252:204|280:223,1,67.5000002574921,0|0,3:0|3:0,0:0:0:0:
324,290,175881,1,8,0:0:0:0:
273,351,176048,6,0,B|206:339|217:396|149:384,1,135.000000514984,2|2,0:0|0:0,0:0:0:0:
82,337,176548,1,8,0:0:0:0:
117,265,176714,2,0,L|108:198,1,67.5000002574921,2|0,0:0|1:0,0:0:0:0:
169,145,177048,1,2,0:0:0:0:
237,184,177214,1,8,0:0:0:0:
304,141,177381,6,0,P|361:110|423:132,1,135.000000514984,0|0,3:0|3:0,0:0:0:0:
367,190,177881,1,8,0:0:0:0:
421,247,178048,2,0,L|409:342,1,67.5000002574921,2|0,0:0|3:0,0:0:0:0:
344,355,178381,1,0,3:0:0:0:
275,314,178548,2,0,P|247:333|214:329,1,67.5000002574921,8|2,0:0|0:0,0:0:0:0:
159,271,178881,6,0,L|92:262,1,67.5000002574921,0|2,1:0|0:0,0:0:0:0:
59,335,179214,2,0,L|42:201,1,135.000000514984,8|0,0:0|1:0,0:0:0:0:
100,146,179714,1,0,0:0:0:0:
173,177,179881,1,8,0:0:0:0:
238,131,180048,6,0,B|305:119|294:176|362:164,1,135.000000514984,0|0,3:0|3:0,0:0:0:0:
430,206,180548,1,8,0:0:0:0:
492,156,180714,1,8,0:0:0:0:
463,81,180881,2,0,L|383:90,1,67.5000002574921,0|0,3:0|3:0,0:0:0:0:
327,48,181214,1,8,0:0:0:0:
266,100,181381,1,8,0:0:0:0:
202,51,181548,6,0,B|135:39|146:96|78:84,1,135.000000514984,4|8,1:2|0:0,0:0:0:0:
21,140,182048,2,0,L|33:235,1,67.5000002574921,2|0,0:0|1:0,0:0:0:0:
98,247,182381,1,2,0:0:0:0:
164,203,182548,2,0,P|196:199|224:218,1,67.5000002574921,8|0,0:0|3:0,0:0:0:0:
295,182,182881,5,2,0:0:0:0:
355,233,183048,2,0,L|336:392,1,135.000000514984,0|0,3:0|0:0,0:0:0:0:
418,362,183548,2,0,P|450:365|478:346,1,67.5000002574921,0|0,3:0|3:0,0:0:0:0:
510,273,183881,1,8,0:0:0:0:
464,207,184048,6,0,L|472:140,1,67.5000002574921,2|0,0:0|1:0,0:0:0:0:
401,102,184381,2,0,L|392:35,1,67.5000002574921,2|8,0:0|0:0,0:0:0:0:
320,1,184714,1,2,0:0:0:0:
253,44,184881,1,0,1:0:0:0:
179,12,185048,1,2,0:0:0:0:
122,68,185214,2,0,P|118:100|137:128,1,67.5000002574921,8|0,0:0|3:0,0:0:0:0:
201,176,185548,5,2,0:0:0:0:
156,241,185714,2,0,P|207:200|272:211,1,135.000000514984,0|8,3:0|0:0,0:0:0:0:
322,273,186214,2,0,L|310:368,1,67.5000002574921,0|0,3:0|3:0,0:0:0:0:
244,380,186548,1,8,0:0:0:0:
184,327,186714,6,0,B|117:315|128:372|60:360,1,135.000000514984,2|0,0:0|0:0,0:0:0:0:
4,301,187214,2,0,L|20:166,2,135.000000514984,8|0|8,0:0|1:0|0:0,0:0:0:0:
58,360,188048,6,0,P|90:363|118:344,1,67.5000002574921,0|0,3:0|0:0,0:0:0:0:
172,286,188381,1,0,3:0:0:0:
237,331,188548,2,0,L|332:343,1,67.5000002574921,8|8,0:0|0:0,0:0:0:0:
372,298,188881,6,0,P|375:265|356:237,1,67.5000002574921,0|0,3:0|3:0,0:0:0:0:
296,185,189214,1,8,0:0:0:0:
337,116,189381,6,0,P|285:156|220:145,1,135.000000514984,2|2,0:0|0:0,0:0:0:0:
193,70,189881,2,0,L|174:229,2,135.000000514984,8|0|8,0:0|1:0|0:0,0:0:0:0:
254,18,190714,6,0,B|187:6|198:63|130:51,1,135.000000514984,0|0,3:0|3:0,0:0:0:0:
63,4,191214,1,8,0:0:0:0:
1,55,191381,1,8,0:0:0:0:
30,129,191548,2,0,L|18:224,1,67.5000002574921,0|0,3:0|3:0,0:0:0:0:
84,245,191881,1,8,0:0:0:0:
155,211,192048,1,8,0:0:0:0:
272,136,196214,6,0,P|309:101|355:126,2,110.000003356934,0|2|2,1:0|0:0|0:0,0:0:0:0:
477,107,197214,2,0,B|411:89|411:89|346:161|407:241,1,220.000006713867,2|2,0:0|0:0,0:0:0:0:
390,308,198048,2,0,P|370:236|314:282,1,165.000005035401,2|2,0:0|0:0,0:0:0:0:
225,187,198881,6,0,L|244:345,2,135.000000514984,0|12|8,3:0|0:3|0:0,0:0:0:0:
152,153,199714,1,0,3:0:0:0:
162,74,199881,1,8,0:0:0:0:
241,58,200048,1,0,3:0:0:0:
279,128,200214,5,8,0:0:0:0:
225,187,200381,2,0,L|241:320,1,135.000000514984,8|0,0:0|0:0,0:0:0:0:
184,376,200881,5,8,0:0:0:0:
126,320,201048,2,0,L|142:186,1,135.000000514984,8|0,0:0|0:0,0:0:0:0:
74,129,201548,6,0,B|148:108|136:187|211:166,1,150.000005722046,4|8,1:2|0:0,0:0:0:0:
288,125,202048,1,0,0:0:0:0:
349,188,202214,2,0,P|384:178|416:195,1,75.0000028610231,0|0,1:0|3:0,0:0:0:0:
406,283,202548,2,0,P|370:292|337:276,1,75.0000028610231,8|0,0:0|0:0,0:0:0:0:
281,345,202881,6,0,L|133:362,1,150.000005722046,4|8,1:3|0:0,0:0:0:0:
57,313,203381,2,0,P|47:278|64:245,1,75.0000028610231,2|0,0:0|1:0,0:0:0:0:
124,180,203714,1,0,3:0:0:0:
58,119,203881,2,0,L|48:44,1,75.0000028610231,8|0,0:0|0:0,0:0:0:0:
136,48,204214,6,0,P|196:8|267:27,1,150.000005722046,4|8,1:3|0:0,0:0:0:0:
212,97,204714,1,2,0:0:0:0:
281,152,204881,2,0,P|317:145|348:164,1,75.0000028610231,0|0,1:0|3:0,0:0:0:0:
410,227,205214,1,8,0:0:0:0:
364,303,205381,1,2,0:0:0:0:
424,367,205548,6,0,B|349:386|361:310|287:330,1,150.000005722046,4|8,1:3|0:0,0:0:0:0:
214,381,206048,1,0,0:0:0:0:
138,331,206214,1,0,1:0:0:0:
162,243,206381,1,0,3:0:0:0:
253,238,206548,2,0,P|269:205|259:170,1,75.0000028610231,8|0,0:0|0:0,0:0:0:0:
183,124,206881,6,0,P|173:88|189:56,1,75.0000028610231,4|0,1:3|0:0,0:0:0:0:
266,11,207214,2,0,L|81:35,1,150.000005722046,8|0,0:0|1:0,0:0:0:0:
59,97,207714,1,2,0:0:0:0:
113,167,207881,1,8,0:0:0:0:
61,238,208048,6,0,P|51:274|68:307,1,75.0000028610231,2|4,0:0|1:3,0:0:0:0:
140,355,208381,2,0,L|325:331,1,150.000005722046,2|0,0:0|0:0,0:0:0:0:
339,262,208881,2,0,P|371:278|407:268,1,75.0000028610231,0|0,1:0|3:0,0:0:0:0:
471,206,209214,1,8,0:0:0:0:
408,142,209381,6,0,B|335:123|348:200|272:180,1,150.000005722046,2|0,0:0|0:0,0:0:0:0:
214,247,209881,2,0,L|140:239,1,75.0000028610231,8|0,0:0|0:0,0:0:0:0:
73,295,210214,1,0,1:0:0:0:
0,246,210381,1,0,3:0:0:0:
24,162,210548,1,8,0:0:0:0:
112,160,210714,6,0,P|173:120|243:141,1,150.000005722046,4|0,3:3|3:0,0:0:0:0:
328,120,211214,2,0,L|316:24,1,75.0000028610231,8|0,0:0|0:0,0:0:0:0:
395,0,211548,1,0,1:0:0:0:
468,49,211714,1,0,3:0:0:0:
466,65,211798,1,0,3:0:0:0:
464,82,211881,2,0,L|458:143,3,37.5000014305115,8|0|0|0,3:2|3:0|3:0|3:0,0:0:0:0:
452,130,212214,6,0,L|470:278,1,150.000005722046,4|8,1:2|0:0,0:0:0:0:
400,333,212714,1,0,0:0:0:0:
327,283,212881,2,0,P|344:250|334:215,1,75.0000028610231,0|0,1:0|3:0,0:0:0:0:
245,205,213214,2,0,P|229:238|238:273,1,75.0000028610231,8|0,0:0|0:0,0:0:0:0:
181,342,213548,6,0,B|108:323|121:400|45:380,1,150.000005722046,4|8,1:3|0:0,0:0:0:0:
0,305,214048,2,0,L|10:230,1,75.0000028610231,2|0,0:0|1:0,0:0:0:0:
78,174,214381,1,0,3:0:0:0:
149,225,214548,2,0,P|185:219|215:240,1,75.0000028610231,8|0,0:0|0:0,0:0:0:0:
282,297,214881,6,0,P|242:237|261:166,1,150.000005722046,4|8,1:3|0:0,0:0:0:0:
226,84,215381,1,2,0:0:0:0:
286,18,215548,2,0,L|361:28,1,75.0000028610231,0|0,1:0|3:0,0:0:0:0:
413,98,215881,1,8,0:0:0:0:
355,165,216048,1,2,0:0:0:0:
419,225,216214,6,0,L|438:373,1,150.000005722046,4|8,1:3|0:0,0:0:0:0:
354,346,216714,1,0,0:0:0:0:
275,384,216881,1,0,1:0:0:0:
199,337,217048,2,0,P|166:354|131:344,1,75.0000028610231,0|8,3:0|0:0,0:0:0:0:
118,255,217381,6,0,P|150:238|186:248,1,75.0000028610231,2|4,0:0|1:3,0:0:0:0:
267,285,217714,1,2,0:0:0:0:
328,220,217881,1,8,0:0:0:0:
285,141,218048,1,2,0:0:0:0:
196,157,218214,2,0,B|120:177|133:100|60:119,1,150.000005722046,0|8,1:0|0:0,0:0:0:0:
18,197,218714,6,0,L|37:48,1,150.000005722046,2|0,0:0|0:0,0:0:0:0:
112,0,219214,2,0,P|147:-9|180:7,1,75.0000028610231,8|0,0:0|0:0,0:0:0:0:
256,54,219548,1,0,1:0:0:0:
213,130,219714,1,0,3:0:0:0:
215,146,219798,1,0,3:0:0:0:
217,163,219881,2,0,L|223:224,3,37.5000014305115,8|0|0|0,3:2|3:0|3:0|3:0,0:0:0:0:
209,217,220214,6,0,B|283:237|271:162|346:180,1,150.000005722046,4|12,1:2|0:3,0:0:0:0:
405,245,220714,1,2,0:0:0:0:
343,308,220881,2,0,L|331:403,1,75.0000028610231,4|2,1:3|0:0,0:0:0:0:
245,371,221214,2,0,L|254:296,1,75.0000028610231,12|2,0:3|0:0,0:0:0:0:
209,217,221548,6,0,B|283:237|271:162|346:180,1,150.000005722046,4|12,1:3|0:3,0:0:0:0:
405,245,222048,1,2,0:0:0:0:
343,308,222214,2,0,L|331:403,1,75.0000028610231,4|2,1:3|0:0,0:0:0:0:
245,371,222548,2,0,L|254:296,1,75.0000028610231,12|2,0:3|0:0,0:0:0:0:
209,217,222881,6,0,L|61:236,1,150.000005722046,4|12,1:3|0:3,0:0:0:0:
6,306,223381,1,2,0:0:0:0:
66,370,223548,2,0,L|161:381,1,75.0000028610231,4|2,1:3|0:0,0:0:0:0:
227,363,223881,2,0,P|251:335|252:298,1,75.0000028610231,12|2,0:3|0:0,0:0:0:0:
209,217,224214,6,0,L|61:236,1,150.000005722046,4|12,1:3|0:3,0:0:0:0:
6,306,224714,1,2,0:0:0:0:
66,370,224881,2,0,L|161:381,1,75.0000028610231,4|2,1:3|0:0,0:0:0:0:
227,363,225214,2,0,P|251:335|252:298,1,75.0000028610231,12|2,0:3|0:0,0:0:0:0:
209,217,225548,6,0,P|264:264|336:253,1,150.000005722046,4|12,1:2|0:3,0:0:0:0:
401,192,226048,1,2,0:0:0:0:
341,126,226214,2,0,P|347:89|330:57,1,75.0000028610231,4|2,1:3|0:0,0:0:0:0:
241,70,226548,2,0,P|234:106|251:138,1,75.0000028610231,12|2,0:3|0:0,0:0:0:0:
209,217,226881,6,0,P|264:264|336:253,1,150.000005722046,4|12,1:3|0:3,0:0:0:0:
401,192,227381,1,2,0:0:0:0:
341,126,227548,2,0,P|347:89|330:57,1,75.0000028610231,4|2,1:3|0:0,0:0:0:0:
241,70,227881,2,0,P|234:106|251:138,1,75.0000028610231,12|2,0:3|0:0,0:0:0:0:
209,217,228214,5,4,1:3:0:0:
122,196,228381,1,2,0:0:0:0:
59,259,228548,2,0,L|68:338,1,75.0000028610231,12|2,0:3|0:0,0:0:0:0:
145,375,228881,2,0,P|181:381|213:364,1,75.0000028610231,4|2,1:3|0:0,0:0:0:0:
276,300,229214,2,0,P|308:282|344:288,1,75.0000028610231,12|2,0:3|0:0,0:0:0:0:
424,334,229548,5,4,1:3:0:0:
475,263,229714,2,0,L|512:267,2,37.5000014305115,0|0|8,3:0|3:0|0:0,0:0:0:0:
432,186,230048,1,0,3:0:0:0:
416,188,230131,1,0,3:0:0:0:
399,190,230214,2,0,L|338:196,3,37.5000014305115,0|0|0|0,1:0|3:0|3:0|3:0,0:0:0:0:
344,180,230548,2,0,L|306:176,3,37.5000014305115,8|0|0|0,0:0|3:0|3:0|3:0,0:0:0:0:
292,192,230881,6,0,B|217:174|229:249|155:229,1,150.000005722046,4|8,1:3|0:0,0:0:0:0:
77,271,231381,1,2,0:0:0:0:
2,222,231548,2,0,P|-4:186|13:154,1,75.0000028610231,4|2,1:3|0:0,0:0:0:0:
77,91,231881,2,0,P|95:59|89:23,1,75.0000028610231,8|2,0:0|0:0,0:0:0:0:
175,42,232214,6,0,L|270:30,1,75.0000028610231,4|2,1:3|0:0,0:0:0:0:
320,86,232548,2,0,L|331:181,1,75.0000028610231,8|2,0:0|0:0,0:0:0:0:
276,231,232881,2,0,L|180:242,1,75.0000028610231,4|2,1:3|0:0,0:0:0:0:
131,187,233214,2,0,L|119:91,1,75.0000028610231,8|2,0:0|0:0,0:0:0:0:
175,42,233548,6,0,B|250:24|238:99|312:79,1,150.000005722046,4|8,1:3|0:0,0:0:0:0:
390,38,234048,1,2,0:0:0:0:
465,87,234214,2,0,P|471:123|454:155,1,75.0000028610231,4|2,1:3|0:0,0:0:0:0:
390,218,234548,2,0,P|372:250|378:286,1,75.0000028610231,8|2,0:0|0:0,0:0:0:0:
292,267,234881,6,0,L|196:278,1,75.0000028610231,4|2,1:3|0:0,0:0:0:0:
147,223,235214,2,0,L|135:127,1,75.0000028610231,8|2,0:0|0:0,0:0:0:0:
191,78,235548,2,0,L|286:66,1,75.0000028610231,4|2,1:3|0:0,0:0:0:0:
336,122,235881,2,0,L|347:217,1,75.0000028610231,8|2,0:0|0:0,0:0:0:0:
420,242,236214,6,0,L|414:289,1,44.999998626709,12|0,0:3|0:0,0:0:0:0:
420,242,237548,6,0,L|414:289,1,44.999998626709,12|0,0:3|0:0,0:0:0:0:
415,286,238881,6,0,L|421:239,1,44.999998626709,12|0,0:3|0:0,0:0:0:0:
