osu file format v14

[General]
AudioFilename: audio.mp3
AudioLeadIn: 0
PreviewTime: 60853
Countdown: 0
SampleSet: Soft
StackLeniency: 0.7
Mode: 0
LetterboxInBreaks: 0
WidescreenStoryboard: 0

[Editor]
Bookmarks: 2881,24214,45548,61548,82881,85548,106881,128214,149548,170881,192214,196214,201548,220214,236214,238881
DistanceSpacing: 0.76
BeatDivisor: 8
GridSize: 16
TimelineZoom: 2.1

[Metadata]
Title:Itte.
TitleUnicode:言って。
Artist:Yorushika
ArtistUnicode:ヨルシカ
Creator:Xen
Version:Expert
Source:
Tags:say it n-buna nbuna n buna suis 夏草が邪魔をする Natsukusa ga Jama wo Suru jpop j-pop pop japanese xenon- xehn
BeatmapID:2337729
BeatmapSetID:1119169

[Difficulty]
HPDrainRate:5.2
CircleSize:3.8
OverallDifficulty:9
ApproachRate:9.2
SliderMultiplier:1
SliderTickRate:1

[Events]
//Background and Video events
0,0,"bg.jpg",0,0
Video,-925,"yorudone.avi"
//Break Periods
2,149581,170311
2,192248,195644
//Storyboard Layer 0 (Background)
//Storyboard Layer 1 (Fail)
//Storyboard Layer 2 (Pass)
//Storyboard Layer 3 (Foreground)
//Storyboard Layer 4 (Overlay)
//Storyboard Sound Samples

[TimingPoints]
215,333.333333333333,4,2,2,70,1,0
2881,-62.5,4,2,2,70,0,0
24214,-62.5,4,2,2,60,0,0
42881,-52.6315789473684,4,2,2,70,0,0
45548,-62.5,4,2,2,60,0,0
56214,-52.6315789473684,4,2,2,60,0,0
61548,-52.6315789473684,4,2,2,80,0,1
78464,-52.6315789473684,4,2,2,5,0,1
78548,-52.6315789473684,4,2,2,80,0,1
79798,-52.6315789473684,4,2,2,5,0,1
79882,-52.6315789473684,4,2,2,80,0,1
82881,-43.4782608695652,4,2,2,80,0,0
82964,-43.4782608695652,4,2,2,5,0,0
84214,-43.4782608695652,4,2,2,80,0,0
84297,-43.4782608695652,4,2,2,5,0,0
85548,-62.5,4,2,2,70,0,0
106881,-62.5,4,2,2,60,0,0
128214,-62.5,4,2,2,70,0,0
146881,-52.6315789473684,4,2,2,70,0,0
149548,-62.5,4,2,2,60,0,0
196214,-83.3333333333333,4,2,2,40,0,0
198881,-62.5,4,2,2,60,0,0
201548,-47.6190476190476,4,2,2,80,0,1
221131,-47.6190476190476,4,2,2,5,0,1
221214,-47.6190476190476,4,2,2,80,0,1
222464,-47.6190476190476,4,2,2,5,0,1
222547,-47.6190476190476,4,2,2,80,0,1
223798,-47.6190476190476,4,2,2,5,0,1
223881,-47.6190476190476,4,2,2,80,0,1
226464,-47.6190476190476,4,2,2,5,0,1
226547,-47.6190476190476,4,2,2,80,0,1
227798,-47.6190476190476,4,2,2,5,0,1
227881,-47.6190476190476,4,2,2,80,0,1
233131,-47.6190476190476,4,2,2,5,0,1
233214,-47.6190476190476,4,2,2,80,0,1
236214,-43.4782608695652,4,2,2,80,0,0
236298,-43.4782608695652,4,2,2,5,0,0
237548,-43.4782608695652,4,2,2,80,0,0
237631,-43.4782608695652,4,2,2,5,0,0
238881,-43.4782608695652,4,2,2,80,0,0
238964,-43.4782608695652,4,2,2,5,0,0

[Colours]
Combo1 : 251,160,103
Combo2 : 114,142,186
Combo3 : 216,60,73
Combo4 : 38,48,117

[HitObjects]
45,137,2881,6,0,B|98:130|98:130|139:161|139:161|193:155,1,160,4|8,1:2|0:0,0:0:0:0:
335,57,3381,1,2,0:0:0:0:
234,229,3548,1,0,1:0:0:0:
374,130,3714,1,2,0:0:0:0:
167,78,3881,1,8,0:0:0:0:
365,144,4048,6,0,P|394:119|449:120,1,80,0|0,3:0|0:0,0:0:0:0:
494,252,4381,2,0,P|464:276|409:275,1,80,0|8,3:0|0:0,0:0:0:0:
287,176,4714,1,2,0:0:0:0:
353,324,4881,1,0,3:0:0:0:
365,144,5048,1,0,3:0:0:0:
292,263,5214,1,8,0:0:0:0:
305,254,5548,5,0,1:0:0:0:
130,132,5714,1,2,0:0:0:0:
116,321,5881,1,8,0:0:0:0:
214,123,6048,2,0,P|172:58|95:54,1,160,2|2,0:0|0:0,0:0:0:0:
9,215,6548,1,8,0:0:0:0:
130,132,6714,1,0,3:0:0:0:
9,303,6881,5,2,0:0:0:0:
187,345,7048,1,0,3:0:0:0:
21,207,7214,1,8,0:0:0:0:
214,123,7381,2,0,L|202:27,1,80,2|0,0:0|3:0,0:0:0:0:
293,149,7714,1,0,3:0:0:0:
128,95,7881,1,8,0:0:0:0:
307,153,8048,1,2,0:0:0:0:
88,167,8214,6,0,P|99:87|107:8,1,160,0|8,1:0|0:0,0:0:0:0:
307,153,8714,1,2,0:0:0:0:
257,9,8881,1,0,1:0:0:0:
176,166,9048,1,2,0:0:0:0:
319,70,9214,1,8,0:0:0:0:
323,253,9381,6,0,P|353:227|392:223,1,80,0|0,3:0|0:0,0:0:0:0:
444,363,9714,2,0,L|456:267,1,80,0|8,3:0|0:0,0:0:0:0:
320,153,10048,1,8,0:0:0:0:
510,216,10214,1,0,3:0:0:0:
367,322,10381,1,0,3:0:0:0:
429,204,10548,1,8,0:0:0:0:
222,76,10881,6,0,B|168:82|168:82|127:51|127:51|74:58,1,160,0|8,1:0|0:0,0:0:0:0:
192,0,11381,1,0,0:0:0:0:
103,134,11548,1,0,1:0:0:0:
281,173,11714,2,0,P|285:133|311:104,1,80,2|8,0:0|0:0,0:0:0:0:
201,243,12048,6,0,P|192:163|182:84,1,160,0|0,3:0|3:0,0:0:0:0:
46,167,12548,1,8,0:0:0:0:
282,198,12714,1,8,0:0:0:0:
115,221,12881,1,0,3:0:0:0:
270,121,13048,1,0,3:0:0:0:
101,100,13214,1,12,3:0:0:0:
374,377,13548,6,0,B|381:324|381:324|350:283|350:283|356:229,1,160,4|8,1:2|0:0,0:0:0:0:
454,95,14048,1,2,0:0:0:0:
282,196,14214,1,0,1:0:0:0:
381,56,14381,1,2,0:0:0:0:
435,255,14548,1,8,0:0:0:0:
289,116,14714,6,0,P|249:119|219:145,1,80,0|0,3:0|0:0,0:0:0:0:
275,276,15048,2,0,P|314:272|344:246,1,80,0|8,3:0|0:0,0:0:0:0:
205,228,15381,1,2,0:0:0:0:
328,355,15548,1,0,3:0:0:0:
282,196,15714,1,0,3:0:0:0:
248,384,15881,1,8,0:0:0:0:
237,374,16214,5,0,1:0:0:0:
115,199,16381,1,2,0:0:0:0:
304,185,16548,1,8,0:0:0:0:
106,284,16714,2,0,P|41:242|37:165,1,160,2|2,0:0|0:0,0:0:0:0:
203,84,17214,1,8,0:0:0:0:
115,199,17381,1,0,3:0:0:0:
39,17,17548,5,2,0:0:0:0:
192,168,17714,1,0,3:0:0:0:
0,91,17881,1,8,0:0:0:0:
178,0,18048,2,0,L|257:9,1,80,8|0,0:0|3:0,0:0:0:0:
355,181,18381,1,0,3:0:0:0:
216,89,18548,1,8,0:0:0:0:
206,256,18714,1,2,0:0:0:0:
402,110,18881,6,0,P|391:190|383:269,1,160,0|8,1:0|0:0,0:0:0:0:
183,124,19381,1,2,0:0:0:0:
231,311,19548,1,0,1:0:0:0:
312,154,19714,1,2,0:0:0:0:
223,326,19881,1,8,0:0:0:0:
251,93,20048,6,0,P|211:97|182:123,1,80,0|0,3:0|0:0,0:0:0:0:
70,26,20381,2,0,L|149:35,1,80,0|8,3:0|0:0,0:0:0:0:
116,177,20714,1,8,0:0:0:0:
227,11,20881,1,0,3:0:0:0:
304,159,21048,1,0,3:0:0:0:
149,35,21214,1,8,0:0:0:0:
278,300,21548,6,0,B|332:294|332:294|373:325|373:325|426:318,1,160,0|8,1:0|0:0,0:0:0:0:
397,242,22048,1,0,0:0:0:0:
308,376,22214,1,0,1:0:0:0:
219,203,22381,2,0,P|214:242|188:271,1,80,2|8,0:0|0:0,0:0:0:0:
271,55,22714,6,0,P|279:133|330:194,1,160,0|0,3:0|3:0,0:0:0:0:
395,0,23214,1,8,0:0:0:0:
192,125,23381,1,8,0:0:0:0:
409,277,23548,1,0,3:0:0:0:
245,240,23714,1,8,3:0:0:0:
401,261,23881,1,8,3:0:0:0:
252,256,24048,1,2,0:0:0:0:
461,201,24214,6,0,P|388:176|325:220,2,160,4|8|0,1:2|0:0|1:0,0:0:0:0:
401,261,25048,1,2,0:0:0:0:
367,97,25214,1,8,0:0:0:0:
405,276,25381,6,0,P|327:264|246:257,1,160,0|0,3:0|3:0,0:0:0:0:
410,379,25881,2,0,P|439:352|478:347,1,80,8|8,0:0|0:0,0:0:0:0:
315,221,26214,1,0,3:0:0:0:
338,344,26381,1,0,3:0:0:0:
247,178,26548,1,8,0:0:0:0:
161,349,26714,1,2,0:0:0:0:
48,251,26881,6,0,P|121:276|184:232,2,160,0|8|0,1:0|0:0|1:0,0:0:0:0:
108,191,27714,1,2,0:0:0:0:
235,311,27881,1,8,0:0:0:0:
182,151,28048,2,0,L|193:55,1,80,0|0,3:0|0:0,0:0:0:0:
323,0,28381,2,0,L|334:95,1,80,0|8,3:0|0:0,0:0:0:0:
148,0,28714,1,8,0:0:0:0:
268,135,28881,5,0,3:0:0:0:
408,31,29048,1,0,3:0:0:0:
254,145,29214,1,8,0:0:0:0:
323,0,29381,1,2,0:0:0:0:
482,61,29548,2,0,P|402:68|323:79,2,160,0|8|0,1:0|0:0|1:0,0:0:0:0:
446,143,30381,1,2,0:0:0:0:
323,0,30548,1,8,0:0:0:0:
231,123,30714,6,0,P|305:104|364:154,1,160,0|0,3:0|3:0,0:0:0:0:
512,272,31214,1,8,0:0:0:0:
446,143,31381,1,8,0:0:0:0:
436,308,31548,1,0,3:0:0:0:
512,185,31714,1,0,3:0:0:0:
364,154,31881,1,8,0:0:0:0:
512,272,32048,1,2,0:0:0:0:
330,376,32214,6,0,P|322:296|311:217,2,160,0|8|0,1:0|0:0|1:0,0:0:0:0:
406,329,33048,1,2,0:0:0:0:
232,235,33214,1,8,0:0:0:0:
389,185,33381,6,0,P|329:135|255:153,1,160,0|0,3:0|3:0,0:0:0:0:
66,20,33881,1,8,0:0:0:0:
245,65,34048,1,8,0:0:0:0:
57,108,34214,1,0,3:0:0:0:
192,0,34381,1,0,3:0:0:0:
109,180,34548,1,12,0:3:0:0:
186,15,34714,1,2,0:0:0:0:
49,240,34881,6,0,P|122:265|185:221,2,160,4|8|0,1:2|0:0|1:0,0:0:0:0:
109,180,35714,1,2,0:0:0:0:
143,344,35881,1,8,0:0:0:0:
105,164,36048,6,0,P|116:84|123:5,1,160,0|0,3:0|3:0,0:0:0:0:
267,79,36548,2,0,P|237:105|198:110,1,80,8|2,0:0|0:0,0:0:0:0:
267,183,36881,1,0,3:0:0:0:
205,28,37048,1,0,3:0:0:0:
343,142,37214,1,8,0:0:0:0:
457,8,37381,1,2,0:0:0:0:
403,202,37548,6,0,P|330:227|267:183,2,160,0|8|0,1:0|0:0|1:0,0:0:0:0:
343,142,38381,1,2,0:0:0:0:
216,262,38548,1,8,0:0:0:0:
299,384,38714,6,0,L|289:304,1,80,0|0,3:0|0:0,0:0:0:0:
460,260,39048,2,0,L|450:339,1,80,0|8,3:0|0:0,0:0:0:0:
323,224,39381,1,8,0:0:0:0:
215,346,39548,1,0,3:0:0:0:
111,206,39714,1,0,3:0:0:0:
225,360,39881,1,8,0:0:0:0:
80,291,40048,1,2,0:0:0:0:
205,112,40214,6,0,P|193:191|186:270,2,160,0|8|0,1:0|0:0|1:0,0:0:0:0:
277,176,41048,1,2,0:0:0:0:
111,243,41214,1,8,0:0:0:0:
261,50,41381,6,0,P|186:31|127:81,1,160,0|0,3:0|3:0,0:0:0:0:
235,249,41881,1,8,0:0:0:0:
205,112,42048,1,8,0:0:0:0:
161,294,42214,1,0,3:0:0:0:
269,172,42381,1,0,3:0:0:0:
148,307,42548,1,8,0:0:0:0:
205,112,42714,1,2,0:0:0:0:
368,258,42881,6,0,P|286:255|230:360,1,189.999994926453,4|8,1:3|0:0,0:0:0:0:
116,178,43381,2,0,P|163:182|200:214,1,94.9999974632264,4|0,1:3|0:0,0:0:0:0:
192,107,43714,5,0,3:0:0:0:
129,262,43881,1,8,0:0:0:0:
199,89,44048,1,0,0:0:0:0:
207,294,44214,5,4,1:3:0:0:
111,97,44381,1,0,3:0:0:0:
214,310,44548,1,0,3:0:0:0:
153,25,44714,6,0,P|140:119|131:213,1,189.999994926453,4|0,1:3|3:0,0:0:0:0:
63,65,45214,1,8,0:0:0:0:
220,156,45381,1,0,3:0:0:0:
235,145,45464,1,0,3:0:0:0:
255,146,45548,6,0,L|243:50,1,80,4|2,1:2|0:0,0:0:0:0:
68,105,45881,2,0,P|38:79|-1:73,1,80,8|2,0:0|0:0,0:0:0:0:
125,297,46214,2,0,P|133:217|144:138,1,160,0|8,1:0|0:0,0:0:0:0:
282,54,46714,1,0,3:0:0:0:
386,175,46881,5,2,0:0:0:0:
226,116,47048,1,0,3:0:0:0:
368,26,47214,2,0,B|361:79|361:79|392:120|392:120|386:174,1,160,8|0,0:0|3:0,0:0:0:0:
463,314,47714,1,0,3:0:0:0:
309,218,47881,2,0,L|299:138,1,80,8|0,0:0|0:0,0:0:0:0:
163,28,48214,6,0,P|123:34|94:60,1,80,0|0,1:0|0:0,0:0:0:0:
210,171,48548,2,0,L|219:91,1,80,8|0,0:0|0:0,0:0:0:0:
155,238,48881,1,0,1:0:0:0:
309,218,49048,1,0,0:0:0:0:
200,354,49214,2,0,P|170:328|131:322,1,80,8|0,0:0|3:0,0:0:0:0:
9,238,49548,5,0,0:0:0:0:
63,379,49714,1,0,3:0:0:0:
60,163,49881,1,8,0:0:0:0:
248,282,50048,1,8,0:0:0:0:
176,91,50214,6,0,P|150:120|144:159,1,80,0|0,3:0|3:0,0:0:0:0:
320,234,50548,2,0,P|345:204|351:165,1,80,8|0,0:0|0:0,0:0:0:0:
508,212,50881,6,0,P|477:186|438:181,1,80,0|2,1:0|0:0,0:0:0:0:
228,353,51214,2,0,P|258:378|297:383,1,80,8|2,0:0|0:0,0:0:0:0:
359,203,51548,2,0,P|370:282|377:361,1,160,0|8,1:0|0:0,0:0:0:0:
454,306,52048,1,0,3:0:0:0:
281,178,52214,5,2,0:0:0:0:
406,71,52381,1,0,3:0:0:0:
268,190,52548,2,0,B|214:184|214:184|173:215|173:215|120:208,1,160,8|0,0:0|3:0,0:0:0:0:
211,51,53048,1,0,3:0:0:0:
238,272,53214,2,0,L|247:351,1,80,8|0,0:0|0:0,0:0:0:0:
141,103,53548,6,0,P|110:128|71:133,1,80,0|0,1:0|0:0,0:0:0:0:
17,264,53881,2,0,L|8:185,1,80,8|0,0:0|0:0,0:0:0:0:
105,363,54214,1,0,1:0:0:0:
202,243,54381,1,2,0:0:0:0:
93,379,54548,2,0,P|64:354|25:348,1,80,8|0,0:0|3:0,0:0:0:0:
117,191,54881,5,2,0:0:0:0:
176,359,55048,1,0,3:0:0:0:
36,172,55214,1,8,0:0:0:0:
273,228,55381,1,8,0:0:0:0:
156,73,55548,6,0,P|161:112|187:143,1,80,0|0,3:0|3:0,0:0:0:0:
362,68,55881,2,0,P|357:29|331:0,1,80,12|0,0:3|0:0,0:0:0:0:
439,169,56214,6,0,P|436:121|461:81,1,94.9999974632264,4|0,1:3|0:0,0:0:0:0:
296,138,56548,2,0,P|338:159|360:201,1,94.9999974632264,8|0,0:0|0:0,0:0:0:0:
426,0,56881,2,0,P|346:51|252:48,1,189.999994926453,4|8,1:3|0:0,0:0:0:0:
108,138,57381,1,0,3:0:0:0:
167,0,57548,6,0,L|178:95,1,94.9999974632264,6|0,0:3|3:0,0:0:0:0:
329,218,57881,1,8,0:0:0:0:
253,48,58048,1,8,0:0:0:0:
110,251,58214,5,4,3:3:0:0:
178,94,58381,1,0,3:0:0:0:
48,195,58548,1,8,0:3:0:0:
165,105,58714,1,0,0:0:0:0:
172,307,58881,6,0,P|219:304|259:329,1,94.9999974632264,4|0,1:2|0:0,0:0:0:0:
429,188,59214,1,8,0:0:0:0:
323,384,59381,1,8,0:0:0:0:
199,168,59548,5,8,0:0:0:0:
422,286,59714,1,8,0:0:0:0:
483,4,59881,1,8,0:0:0:0:
394,206,60048,1,8,0:0:0:0:
130,52,60214,5,8,1:2:0:0:
153,260,61548,6,0,B|247:284|231:189|326:213,1,189.999994926453,4|8,1:2|0:0,0:0:0:0:
501,291,62048,1,0,0:0:0:0:
424,104,62214,1,0,1:0:0:0:
301,291,62381,1,0,3:0:0:0:
349,60,62548,2,0,P|302:67|266:97,1,94.9999974632264,8|0,0:0|0:0,0:0:0:0:
123,186,62881,6,0,P|159:240|205:156,1,189.999994926453,0|8,1:0|0:0,0:0:0:0:
2,227,63381,2,0,P|33:192|41:145,1,94.9999974632264,2|0,0:0|1:0,0:0:0:0:
200,322,63714,1,0,3:0:0:0:
264,93,63881,2,0,P|299:122|346:130,1,94.9999974632264,8|0,0:0|0:0,0:0:0:0:
186,242,64214,6,0,L|197:147,1,94.9999974632264,0|0,1:0|0:0,0:0:0:0:
335,45,64548,1,8,0:0:0:0:
273,200,64714,1,2,0:0:0:0:
85,0,64881,2,0,L|108:188,1,189.999994926453,0|8,1:0|0:0,0:0:0:0:
305,124,65381,1,2,0:0:0:0:
184,243,65548,6,0,P|220:189|266:273,1,189.999994926453,0|8,1:0|0:0,0:0:0:0:
78,363,66048,1,0,0:0:0:0:
135,143,66214,1,0,1:0:0:0:
213,318,66381,1,0,3:0:0:0:
20,256,66548,2,0,P|66:248|102:219,1,94.9999974632264,8|0,0:0|0:0,0:0:0:0:
299,354,66881,6,0,L|286:242,1,94.9999974632264,0|0,1:0|0:0,0:0:0:0:
407,129,67214,2,0,B|312:105|328:200|234:176,1,189.999994926453,8|0,0:0|1:0,0:0:0:0:
53,75,67714,1,0,3:0:0:0:
100,252,67881,1,8,0:0:0:0:
219,97,68048,6,0,P|182:67|136:60,1,94.9999974632264,2|0,0:0|1:0,0:0:0:0:
285,205,68381,1,2,0:0:0:0:
361,9,68548,2,0,L|249:22,1,94.9999974632264,8|0,0:0|0:0,0:0:0:0:
148,142,68881,1,0,1:0:0:0:
307,98,69048,1,0,3:0:0:0:
109,60,69214,1,8,0:0:0:0:
323,101,69381,1,2,0:0:0:0:
118,219,69548,6,0,L|141:31,2,189.999994926453,0|8|0,1:0|0:0|1:0,0:0:0:0:
218,88,70381,1,0,3:0:0:0:
41,163,70548,1,8,0:0:0:0:
201,370,70714,6,0,B|176:329|125:325|83:341|83:341|115:359|120:391,1,189.999994926453,4|0,3:3|3:0,0:0:0:0:
229,180,71214,2,0,P|204:220|204:267,1,94.9999974632264,8|0,0:0|0:0,0:0:0:0:
283,384,71548,1,0,1:0:0:0:
314,162,71714,5,0,3:0:0:0:
301,133,71798,1,0,3:0:0:0:
279,110,71881,1,8,3:2:0:0:
251,96,71964,1,0,3:0:0:0:
219,93,72048,1,0,3:0:0:0:
189,101,72131,1,0,3:0:0:0:
163,120,72214,6,0,B|258:144|242:49|336:73,1,189.999994926453,4|8,1:2|0:0,0:0:0:0:
512,235,72714,1,0,0:0:0:0:
313,155,72881,1,0,1:0:0:0:
512,31,73048,1,0,3:0:0:0:
434,266,73214,2,0,P|399:237|352:229,1,94.9999974632264,8|0,0:0|0:0,0:0:0:0:
221,356,73548,6,0,P|250:280|310:335,1,189.999994926453,0|8,1:0|0:0,0:0:0:0:
404,118,74048,2,0,P|358:122|319:149,1,94.9999974632264,2|0,0:0|1:0,0:0:0:0:
395,341,74381,1,0,3:0:0:0:
248,198,74548,2,0,L|136:184,1,94.9999974632264,8|0,0:0|0:0,0:0:0:0:
66,35,74881,6,0,P|93:72|98:119,1,94.9999974632264,0|0,1:0|0:0,0:0:0:0:
276,0,75214,1,8,0:0:0:0:
349,164,75381,1,2,0:0:0:0:
196,0,75548,2,0,L|170:206,1,189.999994926453,0|8,1:0|0:0,0:0:0:0:
65,309,76048,1,2,0:0:0:0:
234,263,76214,6,0,P|198:209|152:293,1,189.999994926453,0|8,1:0|0:0,0:0:0:0:
340,383,76714,1,0,0:0:0:0:
283,163,76881,1,0,1:0:0:0:
205,338,77048,1,0,3:0:0:0:
398,276,77214,2,0,P|352:268|316:239,1,94.9999974632264,8|0,0:0|0:0,0:0:0:0:
184,127,77548,5,4,1:3:0:0:
285,324,77714,1,2,0:0:0:0:
247,69,77881,1,8,0:0:0:0:
169,283,78048,1,2,0:0:0:0:
167,49,78214,6,0,B|96:31|108:102|37:84,1,142.49999619484,4|0,1:3|0:0,0:0:0:0:
19,83,78548,2,0,P|48:119|56:165,1,94.9999974632264,8|2,0:0|0:0,0:0:0:0:
338,176,78881,5,4,1:3:0:0:
119,222,79048,1,2,0:0:0:0:
286,328,79214,1,8,0:0:0:0:
138,137,79381,1,2,0:0:0:0:
0,371,79548,6,0,B|70:389|58:318|129:336,1,142.49999619484,4|0,1:3|0:0,0:0:0:0:
140,347,79881,2,0,P|176:377|222:385,1,94.9999974632264,8|2,0:0|0:0,0:0:0:0:
347,189,80214,5,4,1:3:0:0:
512,384,80381,1,2,0:0:0:0:
315,269,80548,1,8,0:0:0:0:
512,166,80714,1,2,0:0:0:0:
365,22,80881,5,4,1:3:0:0:
453,228,81048,1,2,0:0:0:0:
227,104,81214,1,8,0:0:0:0:
403,296,81381,1,2,0:0:0:0:
151,282,81548,5,4,1:3:0:0:
369,218,81714,1,2,0:0:0:0:
144,117,81881,2,0,P|119:157|119:204,1,94.9999974632264,12|0,0:0|0:0,0:0:0:0:
310,275,82214,1,0,1:0:0:0:
229,99,82381,5,0,3:0:0:0:
216,70,82464,1,0,3:0:0:0:
194,47,82548,1,8,3:2:0:0:
166,33,82631,1,0,3:0:0:0:
134,30,82714,1,0,3:0:0:0:
104,38,82798,1,0,3:0:0:0:
78,57,82881,6,0,L|69:-22,1,57.5000010967255,12|0,0:3|0:0,0:0:0:0:
78,57,84214,6,0,L|69:-22,1,57.5000010967255,12|0,0:3|0:0,0:0:0:0:
338,180,85548,6,0,B|285:187|285:187|244:156|244:156|190:162,1,160,4|8,1:2|0:0,0:0:0:0:
48,260,86048,1,2,0:0:0:0:
129,99,86214,1,0,1:0:0:0:
219,241,86381,1,2,0:0:0:0:
119,83,86548,1,8,0:0:0:0:
287,191,86714,6,0,P|290:151|314:120,1,80,0|0,3:0|0:0,0:0:0:0:
456,181,87048,2,0,P|452:220|426:250,1,80,0|8,3:0|0:0,0:0:0:0:
297,382,87381,1,2,0:0:0:0:
448,330,87548,1,0,3:0:0:0:
259,307,87714,1,0,3:0:0:0:
383,384,87881,1,8,0:0:0:0:
377,368,88214,5,0,1:0:0:0:
363,179,88381,1,2,0:0:0:0:
188,301,88548,1,8,0:0:0:0:
432,269,88714,2,0,P|352:277|273:287,1,160,2|2,0:0|0:0,0:0:0:0:
116,376,89214,1,8,0:0:0:0:
217,225,89381,1,0,3:0:0:0:
352,384,89548,5,2,0:0:0:0:
297,200,89714,1,0,3:0:0:0:
465,274,89881,1,8,0:0:0:0:
273,352,90048,2,0,L|193:342,1,80,2|0,0:0|3:0,0:0:0:0:
65,219,90381,1,0,3:0:0:0:
119,384,90548,1,8,0:0:0:0:
61,205,90714,1,2,0:0:0:0:
295,260,90881,6,0,B|241:266|241:266|200:235|200:235|147:242,1,160,0|8,1:0|0:0,0:0:0:0:
17,132,91381,1,2,0:0:0:0:
184,155,91548,1,0,1:0:0:0:
0,214,91714,1,2,0:0:0:0:
177,139,91881,1,8,0:0:0:0:
114,319,92048,6,0,P|74:314|45:288,1,80,0|0,3:0|0:0,0:0:0:0:
206,216,92381,2,0,L|196:295,1,80,0|8,3:0|0:0,0:0:0:0:
147,155,92714,1,8,0:0:0:0:
312,84,92881,1,0,3:0:0:0:
156,16,93048,1,0,3:0:0:0:
306,101,93214,1,8,0:0:0:0:
47,277,93548,6,0,B|101:271|101:271|142:302|142:302|195:295,1,160,0|8,1:0|0:0,0:0:0:0:
77,353,94048,1,0,0:0:0:0:
166,219,94214,1,0,1:0:0:0:
261,352,94381,2,0,P|290:326|329:322,1,80,2|8,0:0|0:0,0:0:0:0:
283,87,94714,6,0,P|272:166|264:245,1,160,0|0,3:0|3:0,0:0:0:0:
371,152,95214,1,8,0:0:0:0:
172,199,95381,1,8,0:0:0:0:
356,155,95548,1,0,3:0:0:0:
187,195,95714,1,0,3:0:0:0:
363,71,95881,1,12,3:0:0:0:
194,114,96048,1,0,3:0:0:0:
275,323,96214,6,0,B|282:270|282:270|251:229|251:229|257:175,1,160,4|8,1:2|0:0,0:0:0:0:
355,33,96714,1,2,0:0:0:0:
194,114,96881,1,0,1:0:0:0:
336,204,97048,1,2,0:0:0:0:
178,104,97214,1,8,0:0:0:0:
383,135,97381,6,0,P|414:111|453:108,1,80,0|0,3:0|0:0,0:0:0:0:
512,247,97714,2,0,P|482:272|443:276,1,80,0|8,3:0|0:0,0:0:0:0:
307,384,98048,1,2,0:0:0:0:
364,230,98214,1,0,3:0:0:0:
226,362,98381,1,0,3:0:0:0:
375,220,98548,1,8,0:0:0:0:
29,326,98881,5,0,1:0:0:0:
135,169,99048,1,2,0:0:0:0:
226,362,99214,1,8,0:0:0:0:
44,247,99381,2,0,P|54:167|61:88,1,160,2|2,0:0|0:0,0:0:0:0:
236,31,99881,1,8,0:0:0:0:
135,182,100048,1,0,3:0:0:0:
333,15,100214,5,2,0:0:0:0:
388,199,100381,1,0,3:0:0:0:
220,125,100548,1,8,0:0:0:0:
412,47,100714,2,0,L|492:57,1,80,8|0,0:0|3:0,0:0:0:0:
279,180,101048,1,0,3:0:0:0:
333,15,101214,1,8,0:0:0:0:
275,194,101381,1,2,0:0:0:0:
164,89,101548,6,0,B|218:83|218:83|259:114|259:114|312:107,1,160,0|8,1:0|0:0,0:0:0:0:
442,217,102048,1,2,0:0:0:0:
275,194,102214,1,0,1:0:0:0:
459,137,102381,1,2,0:0:0:0:
290,189,102548,1,8,0:0:0:0:
389,287,102714,6,0,P|349:289|315:269,1,80,0|0,3:0|0:0,0:0:0:0:
237,125,103048,2,0,L|248:29,1,80,0|8,3:0|0:0,0:0:0:0:
290,189,103381,1,8,0:0:0:0:
125,260,103548,1,0,3:0:0:0:
281,328,103714,1,0,3:0:0:0:
131,243,103881,1,8,0:0:0:0:
465,107,104214,6,0,B|411:113|411:113|370:82|370:82|317:89,1,160,0|8,1:0|0:0,0:0:0:0:
346,165,104714,1,0,0:0:0:0:
435,31,104881,1,0,1:0:0:0:
251,32,105048,2,0,P|221:57|182:61,1,80,2|8,0:0|0:0,0:0:0:0:
346,165,105381,6,0,P|356:245|364:324,1,160,0|0,3:0|3:0,0:0:0:0:
430,150,105881,1,8,0:0:0:0:
279,294,106048,1,8,0:0:0:0:
443,137,106214,1,0,3:0:0:0:
278,116,106381,1,8,3:0:0:0:
437,224,106548,1,8,3:0:0:0:
228,184,106714,1,8,0:0:0:0:
403,298,106881,6,0,P|330:272|266:317,2,160,4|8|0,1:2|0:0|1:0,0:0:0:0:
343,358,107714,1,2,0:0:0:0:
309,194,107881,1,8,0:0:0:0:
215,383,108048,6,0,P|227:303|233:224,1,160,0|0,3:0|3:0,0:0:0:0:
72,292,108548,2,0,P|101:319|140:324,1,80,8|8,0:0|0:0,0:0:0:0:
196,151,108881,1,0,3:0:0:0:
317,257,109048,1,0,3:0:0:0:
252,91,109214,1,8,0:0:0:0:
138,241,109381,1,2,0:0:0:0:
40,137,109548,6,0,P|113:162|176:118,2,160,0|8|0,1:0|0:0|1:0,0:0:0:0:
101,77,110381,1,2,0:0:0:0:
227,197,110548,1,8,0:0:0:0:
251,27,110714,6,0,L|171:36,1,80,0|0,3:0|0:0,0:0:0:0:
304,161,111048,2,0,L|383:170,1,80,0|8,3:0|0:0,0:0:0:0:
328,0,111381,1,8,0:0:0:0:
431,103,111548,1,0,3:0:0:0:
261,62,111714,1,0,3:0:0:0:
447,106,111881,1,8,0:0:0:0:
328,0,112048,1,2,0:0:0:0:
184,99,112214,6,0,P|263:87|342:81,2,160,0|8|0,1:0|0:0|1:0,0:0:0:0:
223,11,113048,1,2,0:0:0:0:
335,163,113214,1,8,0:0:0:0:
153,201,113381,6,0,P|227:182|286:232,1,160,0|0,3:0|3:0,0:0:0:0:
481,284,113881,1,8,0:0:0:0:
335,163,114048,1,8,0:0:0:0:
495,295,114214,1,0,3:0:0:0:
330,333,114381,1,0,3:0:0:0:
478,204,114548,1,8,0:0:0:0:
322,157,114714,1,2,0:0:0:0:
418,30,114881,6,0,P|406:109|399:188,2,160,0|8|0,1:0|0:0|1:0,0:0:0:0:
492,92,115714,1,2,0:0:0:0:
322,157,115881,1,8,0:0:0:0:
375,286,116048,6,0,P|315:236|241:254,1,160,0|0,3:0|3:0,0:0:0:0:
52,121,116548,1,8,0:0:0:0:
231,166,116714,1,8,0:0:0:0:
43,209,116881,1,0,3:0:0:0:
178,101,117048,1,0,3:0:0:0:
95,281,117214,1,12,0:3:0:0:
172,116,117381,1,2,0:0:0:0:
20,322,117548,6,0,P|83:365|156:339,2,160,4|8|0,1:2|0:0|1:0,0:0:0:0:
95,281,118381,1,2,0:0:0:0:
228,384,118548,1,8,0:0:0:0:
369,302,118714,6,0,P|357:222|351:143,1,160,0|0,3:0|3:0,0:0:0:0:
512,211,119214,2,0,P|483:238|444:243,1,80,8|8,0:0|0:0,0:0:0:0:
388,70,119548,1,0,3:0:0:0:
267,176,119714,1,0,3:0:0:0:
332,10,119881,1,8,0:0:0:0:
446,160,120048,1,2,0:0:0:0:
207,115,120214,6,0,P|182:188|226:251,2,160,0|8|0,1:0|0:0|1:0,0:0:0:0:
267,176,121048,1,2,0:0:0:0:
147,302,121214,1,8,0:0:0:0:
307,247,121381,6,0,L|387:256,1,80,0|0,3:0|0:0,0:0:0:0:
475,375,121714,2,0,L|396:384,1,80,0|8,3:0|0:0,0:0:0:0:
456,210,122048,1,8,0:0:0:0:
322,327,122214,1,0,3:0:0:0:
468,199,122381,1,0,3:0:0:0:
311,172,122548,1,8,0:0:0:0:
466,293,122714,1,2,0:0:0:0:
270,244,122881,6,0,P|282:165|288:86,2,160,0|8|0,1:0|0:0|1:0,0:0:0:0:
358,205,123714,1,2,0:0:0:0:
206,93,123881,1,8,0:0:0:0:
190,277,124048,6,0,P|248:327|323:308,1,160,0|0,3:0|3:0,0:0:0:0:
453,197,124548,1,8,0:0:0:0:
390,363,124714,1,8,0:0:0:0:
458,180,124881,1,0,3:0:0:0:
479,348,125048,1,0,3:0:0:0:
334,226,125214,1,8,0:0:0:0:
238,367,125381,1,2,0:0:0:0:
113,268,125548,6,0,P|192:280|271:287,2,160,0|8|0,1:0|0:0|1:0,0:0:0:0:
177,198,126381,1,2,0:0:0:0:
238,367,126548,1,8,0:0:0:0:
392,238,126714,6,0,P|332:188|258:206,1,160,0|0,3:0|3:0,0:0:0:0:
73,70,127214,1,8,0:0:0:0:
243,119,127381,1,8,0:0:0:0:
174,245,127548,2,0,P|166:165|154:86,1,160,0|2,3:0|0:0,0:0:0:0:
509,317,128214,5,4,1:2:0:0:
396,186,128381,1,2,0:0:0:0:
340,350,128548,1,8,0:0:0:0:
473,156,128714,2,0,P|415:106|340:125,1,160,2|0,0:0|0:0,0:0:0:0:
423,327,129214,1,8,0:0:0:0:
306,203,129381,1,0,3:0:0:0:
149,335,129548,5,2,0:0:0:0:
354,286,129714,2,0,P|274:278|195:266,1,160,0|8,3:0|0:0,0:0:0:0:
72,85,130214,1,0,3:0:0:0:
242,190,130381,1,0,3:0:0:0:
78,287,130548,1,8,0:3:0:0:
199,119,130714,1,2,0:0:0:0:
313,276,130881,6,0,P|321:196|333:117,1,160,0|8,1:0|0:0,0:0:0:0:
400,252,131381,1,2,0:0:0:0:
241,181,131548,2,0,P|201:183|170:207,1,80,0|2,1:0|0:0,0:0:0:0:
412,117,131881,2,0,L|406:77,2,40,8|2|0,0:0|0:0|3:0,0:0:0:0:
255,102,132214,5,2,0:0:0:0:
317,229,132381,1,0,3:0:0:0:
327,59,132548,1,8,0:0:0:0:
486,162,132714,1,8,0:0:0:0:
314,48,132881,5,0,3:0:0:0:
237,249,133048,1,0,3:0:0:0:
127,76,133214,1,8,0:3:0:0:
352,123,133381,1,2,0:0:0:0:
160,279,133548,6,0,P|218:329|293:310,2,160,4|8|0,1:2|0:0|1:0,0:0:0:0:
37,189,134381,1,2,0:0:0:0:
106,356,134548,1,8,0:0:0:0:
237,249,134714,1,0,3:0:0:0:
381,369,134881,6,0,P|369:289|361:210,1,160,2|8,0:0|0:0,0:0:0:0:
157,296,135381,2,0,P|231:276|290:326,1,160,0|0,0:0|3:0,0:0:0:0:
110,364,135881,1,8,0:3:0:0:
220,193,136048,1,2,0:0:0:0:
75,290,136214,6,0,L|64:194,1,80,0|0,1:0|0:0,0:0:0:0:
229,113,136548,2,0,L|219:192,1,80,8|0,0:0|0:0,0:0:0:0:
27,133,136881,1,0,1:0:0:0:
158,254,137048,1,2,0:0:0:0:
15,121,137214,1,8,0:0:0:0:
220,192,137381,6,0,P|251:167|290:165,1,80,0|0,3:0|0:0,0:0:0:0:
422,308,137714,2,0,L|427:269,2,40,0|0|8,3:0|0:0|0:0,0:0:0:0:
475,113,138048,1,8,0:0:0:0:
355,221,138214,1,0,3:0:0:0:
249,95,138381,5,0,3:0:0:0:
229,96,138464,1,0,3:0:0:0:
214,85,138548,1,8,0:3:0:0:
314,149,138714,1,0,3:0:0:0:
329,138,138798,1,0,3:0:0:0:
349,139,138881,6,0,L|358:59,1,80,4|2,1:2|0:0,0:0:0:0:
275,222,139214,2,0,L|270:261,3,40,8|2|2|2,0:0|0:0|0:0|0:0,0:0:0:0:
187,253,139548,5,0,1:0:0:0:
168,229,139631,1,2,0:0:0:0:
142,214,139714,1,2,0:0:0:0:
113,208,139798,1,2,0:0:0:0:
84,212,139881,2,0,L|89:251,3,40,8|2|0|2,0:0|0:0|3:0|0:0,0:0:0:0:
18,165,140214,6,0,L|23:126,3,40,2|2|0|2,0:0|0:0|3:0|0:0,0:0:0:0:
102,70,140548,2,0,L|107:109,3,40,8|2|8|2,0:0|0:0|0:0|0:0,0:0:0:0:
187,79,140881,5,0,3:0:0:0:
205,55,140964,1,2,0:0:0:0:
231,40,141048,1,0,3:0:0:0:
260,34,141131,1,2,0:0:0:0:
290,38,141214,2,0,L|329:43,1,40,8|2,0:3|0:0,0:0:0:0:
382,104,141381,2,0,L|421:99,1,40,2|2,0:0|0:0,0:0:0:0:
260,194,141548,6,0,P|334:174|392:223,2,160,0|8|0,1:0|0:0|1:0,0:0:0:0:
131,21,142381,1,2,0:0:0:0:
272,98,142548,1,8,0:0:0:0:
173,232,142714,6,0,P|184:152|192:73,1,160,0|0,3:0|3:0,0:0:0:0:
97,207,143214,1,8,0:0:0:0:
272,98,143381,1,8,0:0:0:0:
250,265,143548,2,0,P|191:315|117:295,1,160,0|8,3:0|0:3,0:0:0:0:
11,149,144048,1,0,0:0:0:0:
47,384,144214,6,0,P|38:304|27:225,2,160,4|8|0,1:2|0:0|1:0,0:0:0:0:
123,332,145048,1,0,0:0:0:0:
260,378,145214,1,8,0:0:0:0:
403,261,145381,6,0,P|344:311|270:291,1,160,0|0,3:0|3:0,0:0:0:0:
121,199,145881,1,8,0:0:0:0:
197,326,146048,1,8,0:0:0:0:
163,124,146214,1,0,3:0:0:0:
326,228,146381,1,0,3:0:0:0:
147,114,146548,2,0,L|156:34,1,80,8|0,0:3|0:0,0:0:0:0:
330,147,146881,5,0,1:0:0:0:
179,272,147048,1,0,3:0:0:0:
377,222,147214,2,0,P|363:127|354:33,1,189.999994926453,12|0,0:3|1:0,0:0:0:0:
455,179,147714,1,0,3:0:0:0:
278,85,147881,2,0,P|231:89|194:121,1,94.9999974632264,12|0,0:3|0:0,0:0:0:0:
23,45,148214,5,0,1:0:0:0:
174,198,148381,1,0,3:0:0:0:
207,9,148548,1,12,0:3:0:0:
41,128,148714,1,0,3:0:0:0:
297,220,148881,5,0,1:0:0:0:
128,28,149048,1,0,3:0:0:0:
47,270,149214,1,0,3:0:0:0:
229,163,149381,1,0,3:0:0:0:
65,313,170881,6,0,B|118:320|118:320|159:289|159:289|213:295,1,160,4|8,1:2|0:0,0:0:0:0:
273,178,171381,2,0,P|233:181|203:206,1,80,2|0,0:0|1:0,0:0:0:0:
276,354,171714,1,2,0:0:0:0:
359,203,171881,2,0,L|347:108,1,80,8|0,0:0|3:0,0:0:0:0:
438,236,172214,5,2,0:0:0:0:
261,172,172381,2,0,P|272:92|280:13,1,160,0|0,3:0|0:0,0:0:0:0:
115,85,172881,2,0,P|145:110|184:113,1,80,0|0,3:0|3:0,0:0:0:0:
84,10,173214,1,8,0:0:0:0:
100,180,173381,1,2,0:0:0:0:
225,5,173548,5,0,1:0:0:0:
35,77,173714,1,2,0:0:0:0:
209,11,173881,1,8,0:0:0:0:
178,160,174048,2,0,L|166:65,1,80,2|0,0:0|1:0,0:0:0:0:
251,197,174381,1,2,0:0:0:0:
93,132,174548,2,0,P|53:135|23:160,1,80,8|0,0:0|3:0,0:0:0:0:
257,115,174881,5,2,0:0:0:0:
195,260,175048,2,0,P|269:279|328:229,1,160,0|0,3:0|0:0,0:0:0:0:
382,384,175548,2,0,P|342:380|312:355,1,80,0|0,3:0|3:0,0:0:0:0:
497,255,175881,1,8,0:0:0:0:
405,149,176048,6,0,P|413:228|423:307,1,160,2|2,0:0|0:0,0:0:0:0:
488,171,176548,1,8,0:0:0:0:
335,277,176714,2,0,P|304:251|265:248,1,80,2|0,0:0|1:0,0:0:0:0:
140,356,177048,1,2,0:0:0:0:
195,201,177214,1,8,0:0:0:0:
62,323,177381,6,0,P|120:272|195:292,1,160,0|0,3:0|3:0,0:0:0:0:
347,368,177881,1,8,0:0:0:0:
271,232,178048,2,0,L|281:311,1,80,2|0,0:0|3:0,0:0:0:0:
436,187,178381,1,0,3:0:0:0:
293,154,178548,1,8,0:0:0:0:
456,193,178714,1,2,0:0:0:0:
299,70,178881,6,0,P|259:73|229:98,1,80,0|2,1:0|0:0,0:0:0:0:
132,0,179214,2,0,P|142:79|150:158,1,160,8|0,0:0|1:0,0:0:0:0:
11,266,179714,1,0,0:0:0:0:
67,140,179881,1,8,0:0:0:0:
223,202,180048,6,0,B|277:196|277:196|318:227|318:227|371:220,1,160,0|0,3:0|3:0,0:0:0:0:
512,87,180548,1,8,0:0:0:0:
314,10,180714,1,8,0:0:0:0:
450,190,180881,1,0,3:0:0:0:
466,19,181048,1,0,3:0:0:0:
448,209,181214,1,8,0:0:0:0:
276,82,181381,1,8,0:0:0:0:
374,249,181548,6,0,B|321:242|321:242|280:273|280:273|226:267,1,160,4|8,1:2|0:0,0:0:0:0:
166,384,182048,2,0,P|205:380|235:355,1,80,2|0,0:0|1:0,0:0:0:0:
163,208,182381,1,2,0:0:0:0:
92,337,182548,1,8,0:0:0:0:
173,190,182714,1,0,3:0:0:0:
315,332,182881,5,2,0:0:0:0:
138,265,183048,2,0,P|129:185|119:106,1,160,0|0,3:0|0:0,0:0:0:0:
305,0,183548,2,0,L|294:79,1,80,0|0,3:0|3:0,0:0:0:0:
139,29,183881,1,8,0:0:0:0:
213,187,184048,2,0,P|243:161|282:158,1,80,2|0,0:0|1:0,0:0:0:0:
337,323,184381,5,2,0:0:0:0:
170,257,184548,1,8,0:0:0:0:
353,329,184714,1,2,0:0:0:0:
213,187,184881,1,0,1:0:0:0:
373,141,185048,1,2,0:0:0:0:
249,259,185214,2,0,L|260:354,1,80,8|0,0:0|3:0,0:0:0:0:
169,258,185548,5,2,0:0:0:0:
337,384,185714,2,0,P|345:304|355:225,1,160,0|8,3:0|0:0,0:0:0:0:
493,315,186214,2,0,P|462:340|423:343,1,80,0|0,3:0|3:0,0:0:0:0:
268,258,186548,1,8,0:0:0:0:
151,367,186714,6,0,B|98:374|98:374|57:343|57:343|3:349,1,160,2|0,0:0|0:0,0:0:0:0:
94,155,187214,2,0,P|144:213|124:288,2,160,8|0|8,0:0|1:0|0:0,0:0:0:0:
300,228,188048,6,0,P|269:202|230:199,1,80,0|0,3:0|0:0,0:0:0:0:
308,353,188381,1,0,3:0:0:0:
379,200,188548,1,8,0:0:0:0:
315,338,188714,1,8,0:0:0:0:
451,259,188881,1,0,3:0:0:0:
300,170,189048,1,0,3:0:0:0:
391,371,189214,1,8,0:0:0:0:
459,179,189381,6,0,L|449:99,1,80,2|0,0:0|1:0,0:0:0:0:
295,9,189714,1,2,0:0:0:0:
360,159,189881,2,0,P|368:79|378:0,1,160,8|0,0:0|1:0,0:0:0:0:
454,56,190381,1,0,0:0:0:0:
277,167,190548,1,8,0:0:0:0:
294,19,190714,6,0,B|240:25|240:25|199:-6|199:-6|146:1,1,160,0|0,3:0|3:0,0:0:0:0:
5,134,191214,1,8,0:0:0:0:
203,211,191381,1,8,0:0:0:0:
67,31,191548,1,0,3:0:0:0:
51,202,191714,1,0,3:0:0:0:
69,12,191881,1,8,0:0:0:0:
241,139,192048,1,8,0:0:0:0:
160,28,196214,6,0,P|208:55|249:16,2,119.999996337891,0|2|2,1:0|0:0|0:0,0:0:0:0:
304,210,197214,2,0,B|238:201|224:133|224:133|194:196|128:188,1,239.999992675781,2|2,0:0|0:0,0:0:0:0:
64,242,198048,2,0,P|107:200|126:287,1,179.999994506836,2|2,0:0|0:0,0:0:0:0:
402,151,198881,6,0,P|371:126|332:123,1,80,0|0,3:0|0:0,0:0:0:0:
399,318,199214,1,12,0:3:0:0:
473,199,199381,1,0,3:0:0:0:
311,320,199548,1,8,0:0:0:0:
258,160,199714,1,0,3:0:0:0:
405,332,199881,1,8,0:0:0:0:
475,113,200048,1,0,3:0:0:0:
478,375,200214,5,8,0:0:0:0:
284,241,200381,2,0,P|204:253|125:261,1,160,8|0,0:0|0:0,0:0:0:0:
226,384,200881,5,8,0:0:0:0:
336,171,201048,2,0,P|416:183|495:191,1,160,8|0,0:0|0:0,0:0:0:0:
256,305,201548,6,0,B|151:278|168:383|64:356,1,209.999993591309,4|8,1:2|0:0,0:0:0:0:
0,79,202048,1,0,0:0:0:0:
183,224,202214,1,0,1:0:0:0:
12,89,202381,1,0,3:0:0:0:
94,274,202548,2,0,L|109:146,1,104.999996795654,8|0,0:0|0:0,0:0:0:0:
254,125,202881,6,0,B|190:142|190:142|126:71|186:-7,1,209.999993591309,4|8,1:3|0:0,0:0:0:0:
330,170,203381,2,0,P|368:135|419:126,1,104.999996795654,2|0,0:0|1:0,0:0:0:0:
263,371,203714,1,0,3:0:0:0:
496,255,203881,2,0,P|458:220|407:212,1,104.999996795654,8|0,0:0|0:0,0:0:0:0:
512,44,204214,6,0,L|499:148,1,104.999996795654,4|0,1:3|0:0,0:0:0:0:
317,0,204548,1,8,0:0:0:0:
186,221,204714,1,2,0:0:0:0:
56,39,204881,2,0,B|120:22|120:22|184:93|124:171,1,209.999993591309,0|8,1:0|0:0,0:0:0:0:
317,0,205381,1,2,0:0:0:0:
247,163,205548,6,0,P|273:79|336:140,1,209.999993591309,4|8,1:3|0:0,0:0:0:0:
279,327,206048,1,0,0:0:0:0:
421,116,206214,1,0,1:0:0:0:
512,350,206381,1,0,3:0:0:0:
293,241,206548,2,0,P|241:248|203:283,1,104.999996795654,8|0,0:0|0:0,0:0:0:0:
494,268,206881,6,0,L|507:156,1,104.999996795654,4|0,1:3|0:0,0:0:0:0:
279,327,207214,1,8,0:0:0:0:
203,179,207381,1,2,0:0:0:0:
134,361,207548,1,0,1:0:0:0:
288,146,207714,1,2,0:0:0:0:
215,384,207881,1,8,0:0:0:0:
129,137,208048,6,0,P|167:101|218:94,1,104.999996795654,2|4,0:0|1:3,0:0:0:0:
349,285,208381,2,0,L|453:297,1,104.999996795654,2|8,0:0|0:0,0:0:0:0:
289,178,208714,1,0,0:0:0:0:
374,369,208881,1,0,1:0:0:0:
366,144,209048,1,0,3:0:0:0:
180,301,209214,1,8,0:0:0:0:
419,210,209381,1,2,0:0:0:0:
201,161,209548,6,0,L|226:369,2,209.999993591309,4|8|0,1:3|0:0|1:0,0:0:0:0:
302,22,210381,2,0,P|353:28|391:63,1,104.999996795654,0|8,3:0|0:0,0:0:0:0:
494,283,210714,6,0,B|390:256|407:361|303:335,1,209.999993591309,4|0,3:3|3:0,0:0:0:0:
286,164,211214,2,0,P|321:202|328:253,1,104.999996795654,8|0,0:0|0:0,0:0:0:0:
226,369,211548,1,0,1:0:0:0:
201,146,211714,5,0,3:0:0:0:
214,117,211798,1,0,3:0:0:0:
236,94,211881,1,8,3:2:0:0:
264,80,211964,1,0,3:0:0:0:
296,77,212048,1,0,3:0:0:0:
326,85,212131,1,0,3:0:0:0:
352,104,212214,6,0,B|246:130|264:25|160:51,1,209.999993591309,4|8,1:2|0:0,0:0:0:0:
0,291,212714,1,0,0:0:0:0:
187,132,212881,1,0,1:0:0:0:
12,283,213048,1,0,3:0:0:0:
75,0,213214,2,0,L|87:104,1,104.999996795654,8|0,0:0|0:0,0:0:0:0:
182,288,213548,6,0,B|246:305|246:305|310:234|250:156,1,209.999993591309,4|8,1:3|0:0,0:0:0:0:
444,247,214048,2,0,P|406:282|355:291,1,104.999996795654,2|0,0:0|1:0,0:0:0:0:
228,99,214381,1,0,3:0:0:0:
111,333,214548,2,0,P|59:340|21:375,1,104.999996795654,8|0,0:0|0:0,0:0:0:0:
288,235,214881,6,0,L|301:131,1,104.999996795654,4|0,1:3|0:0,0:0:0:0:
397,332,215214,1,8,0:0:0:0:
217,142,215381,1,2,0:0:0:0:
111,333,215548,2,0,B|175:350|175:350|239:279|179:201,1,209.999993591309,0|8,1:0|0:0,0:0:0:0:
512,317,216048,1,2,0:0:0:0:
283,200,216214,6,0,P|344:262|372:179,1,209.999993591309,4|8,1:3|0:0,0:0:0:0:
197,81,216714,1,0,0:0:0:0:
386,12,216881,1,0,1:0:0:0:
211,166,217048,2,0,P|159:158|121:123,1,104.999996795654,0|8,3:0|0:0,0:0:0:0:
0,257,217381,2,0,P|37:222|88:216,1,104.999996795654,2|4,0:0|1:3,0:0:0:0:
348,188,217714,5,2,0:0:0:0:
197,81,217881,1,8,0:0:0:0:
273,229,218048,1,2,0:0:0:0:
342,47,218214,1,0,1:0:0:0:
188,262,218381,1,2,0:0:0:0:
261,24,218548,1,8,0:0:0:0:
347,271,218714,6,0,P|308:306|257:313,1,104.999996795654,2|4,0:0|1:3,0:0:0:0:
77,203,219048,1,0,0:0:0:0:
169,376,219214,2,0,L|186:233,1,104.999996795654,8|0,0:0|0:0,0:0:0:0:
319,102,219548,1,0,1:0:0:0:
417,217,219714,5,0,3:0:0:0:
394,195,219798,1,0,3:0:0:0:
365,184,219881,1,8,3:2:0:0:
333,183,219964,1,0,3:0:0:0:
304,193,220048,1,0,3:0:0:0:
279,213,220131,1,0,3:0:0:0:
262,241,220214,6,0,P|255:189|220:151,1,104.999996795654,4|2,1:2|0:0,0:0:0:0:
24,270,220548,1,12,0:3:0:0:
220,314,220714,1,2,0:0:0:0:
2,188,220881,6,0,P|80:177|137:125,1,157.499995193482,4|0,1:3|0:0,0:0:0:0:
145,111,221214,2,0,L|129:238,1,104.999996795654,12|2,0:3|0:0,0:0:0:0:
392,26,221548,5,4,1:3:0:0:
217,210,221714,1,2,0:0:0:0:
311,0,221881,1,12,0:3:0:0:
431,249,222048,1,2,0:0:0:0:
159,135,222214,6,0,B|79:114|93:194|13:174,1,157.499995193482,4|0,1:3|0:0,0:0:0:0:
0,168,222548,2,0,P|32:208|41:259,1,104.999996795654,12|2,0:3|0:0,0:0:0:0:
333,383,222881,5,4,1:3:0:0:
124,228,223048,1,2,0:0:0:0:
404,332,223214,1,12,0:3:0:0:
122,384,223381,1,2,0:0:0:0:
320,155,223548,6,0,P|392:161|409:267,1,157.499995193482,4|0,1:3|0:0,0:0:0:0:
420,248,223881,2,0,P|471:259|511:292,1,104.999996795654,12|2,0:3|0:0,0:0:0:0:
171,384,224214,5,4,1:3:0:0:
238,147,224381,1,2,0:0:0:0:
92,348,224548,1,12,0:3:0:0:
314,272,224714,1,2,0:0:0:0:
63,100,224881,5,4,1:3:0:0:
122,267,225048,1,2,0:0:0:0:
320,12,225214,5,12,0:3:0:0:
267,184,225381,1,2,0:0:0:0:
503,0,225548,5,4,1:2:0:0:
228,110,225714,1,2,0:0:0:0:
512,184,225881,1,12,0:3:0:0:
285,48,226048,1,2,0:0:0:0:
175,243,226214,6,0,P|97:254|40:306,1,157.499995193482,4|0,1:3|0:0,0:0:0:0:
32,320,226548,2,0,L|48:193,1,104.999996795654,12|2,0:3|0:0,0:0:0:0:
147,39,226881,5,4,1:3:0:0:
248,287,227048,1,2,0:0:0:0:
331,0,227214,1,12,0:3:0:0:
186,230,227381,1,2,0:0:0:0:
490,27,227548,6,0,P|418:33|401:139,1,157.499995193482,4|0,1:3|0:0,0:0:0:0:
390,121,227881,2,0,P|349:88|298:79,1,104.999996795654,12|2,0:3|0:0,0:0:0:0:
128,306,228214,5,4,1:3:0:0:
376,205,228381,1,2,0:0:0:0:
109,137,228548,1,12,0:3:0:0:
319,267,228714,1,2,0:0:0:0:
0,230,228881,5,4,1:3:0:0:
190,108,229048,1,2,0:0:0:0:
118,354,229214,2,0,P|66:344|26:311,1,104.999996795654,12|2,0:3|0:0,0:0:0:0:
114,75,229548,5,4,1:3:0:0:
189,304,229714,2,0,L|195:252,2,52.4999983978272,0|0|8,3:0|3:0|0:0,0:0:0:0:
332,106,230048,5,0,3:0:0:0:
319,135,230131,1,0,3:0:0:0:
297,158,230214,1,0,1:0:0:0:
269,172,230298,1,0,3:0:0:0:
237,175,230381,1,0,3:0:0:0:
207,167,230464,1,0,3:0:0:0:
181,148,230548,2,0,L|175:200,3,52.4999983978272,8|0|0|0,0:0|3:0|3:0|3:0,0:0:0:0:
225,263,230881,5,4,1:3:0:0:
129,83,231048,1,2,0:0:0:0:
0,301,231214,1,8,0:0:0:0:
211,69,231381,1,2,0:0:0:0:
117,384,231548,5,4,1:3:0:0:
2,215,231714,1,2,0:0:0:0:
201,360,231881,5,8,0:0:0:0:
266,170,232048,1,2,0:0:0:0:
512,342,232214,6,0,P|471:374|420:384,1,104.999996795654,4|2,1:3|0:0,0:0:0:0:
188,132,232548,1,8,0:0:0:0:
283,384,232714,1,2,0:0:0:0:
324,106,232881,6,0,B|404:85|390:165|470:145,1,157.499995193482,4|0,1:3|0:0,0:0:0:0:
483,139,233214,2,0,P|451:179|442:230,1,104.999996795654,8|2,0:0|0:0,0:0:0:0:
251,61,233548,5,4,1:3:0:0:
120,309,233714,1,2,0:0:0:0:
356,215,233881,1,8,0:0:0:0:
170,36,234048,1,2,0:0:0:0:
180,369,234214,5,4,1:3:0:0:
300,152,234381,1,2,0:0:0:0:
111,322,234548,5,8,0:0:0:0:
20,102,234714,1,2,0:0:0:0:
263,384,234881,6,0,P|314:373|354:340,1,104.999996795654,4|2,1:3|0:0,0:0:0:0:
220,43,235214,1,8,0:0:0:0:
111,322,235381,1,2,0:0:0:0:
300,22,235548,5,4,1:3:0:0:
390,263,235714,1,2,0:0:0:0:
228,53,235881,5,8,0:0:0:0:
179,203,236048,1,2,0:0:0:0:
17,57,236214,6,0,L|8:-22,1,57.5000010967255,12|0,0:3|0:0,0:0:0:0:
17,57,237548,6,0,L|8:-22,1,57.5000010967255,12|0,0:3|0:0,0:0:0:0:
10,0,238881,6,0,L|19:79,1,57.5000010967255,12|0,0:3|0:0,0:0:0:0:
