osu file format v14

[General]
AudioFilename: audio.mp3
AudioLeadIn: 0
PreviewTime: 127390
Countdown: 0
SampleSet: Normal
StackLeniency: 0.7
Mode: 1
LetterboxInBreaks: 0
WidescreenStoryboard: 0

[Editor]
Bookmarks: 2891,24224,45558,61558,82891,85558,106891,128224,149558,170891,192224,196224,201558,220224,238891
DistanceSpacing: 1.4
BeatDivisor: 4
GridSize: 32
TimelineZoom: 1.2

[Metadata]
Title:Itte.
TitleUnicode:言って。
Artist:Yorushika
ArtistUnicode:ヨルシカ
Creator:Hivie
Version:Motto.
Source:
Tags:say it n-buna nbuna n buna suis 夏草が邪魔をする Natsukusa ga Jama wo Suru pop rock j-pop j-rock japanese
BeatmapID:2355094
BeatmapSetID:1127175

[Difficulty]
HPDrainRate:5
CircleSize:3
OverallDifficulty:6
ApproachRate:9
SliderMultiplier:1.4
SliderTickRate:1

[Events]
//Background and Video events
0,0,"background.jpg",0,-60
//Break Periods
2,192390,195624
//Storyboard Layer 0 (Background)
//Storyboard Layer 1 (Fail)
//Storyboard Layer 2 (Pass)
//Storyboard Layer 3 (Foreground)
//Storyboard Layer 4 (Overlay)
//Storyboard Sound Samples

[TimingPoints]
225,333.333333333333,4,1,0,30,1,0
225,-142.857142857143,4,1,0,30,0,0
891,-142.857142857143,4,1,0,40,0,0
1308,-142.857142857143,4,1,0,20,0,0
1641,-142.857142857143,4,1,0,40,0,0
2891,333.333333333333,4,1,0,90,1,0
2891,-100,4,1,0,90,0,0
24224,-100,4,1,0,70,0,0
24557,-125,4,1,0,70,0,0
45558,-125,4,1,0,80,0,0
45890,-117.647058823529,4,1,0,80,0,0
61557,-90.9090909090909,4,1,0,100,0,1
82890,-90.9090909090909,4,1,0,100,0,0
84224,-125,4,1,0,80,0,0
85557,-100,4,1,0,90,0,0
106890,-100,4,1,0,70,0,0
107224,-125,4,1,0,70,0,0
128224,-100,4,1,0,80,0,0
149474,-100,4,1,0,30,0,0
149640,-142.857142857143,4,1,0,30,0,0
170807,-111.111111111111,4,1,0,90,0,0
198807,-125,4,1,0,70,0,0
200890,-111.111111111111,4,1,0,80,0,0
201557,-90.9090909090909,4,1,0,100,0,1
236224,-90.9090909090909,4,1,0,80,0,0
237557,-125,4,1,0,80,0,0

[HitObjects]
256,192,225,5,8,0:0:0:0:
256,192,558,1,8,0:0:0:0:
256,192,891,1,0,0:0:0:0:
256,192,1224,1,8,0:0:0:0:
256,192,1391,1,0,0:0:0:0:
256,192,1724,1,8,0:0:0:0:
256,192,2058,1,8,0:0:0:0:
256,192,2891,1,12,0:0:0:0:
256,192,3057,1,0,0:0:0:0:
256,192,3224,1,0,0:0:0:0:
256,192,3390,1,8,0:0:0:0:
256,192,3474,1,0,0:0:0:0:
256,192,3557,1,8,0:0:0:0:
256,192,3724,1,0,0:0:0:0:
256,192,3890,1,0,0:0:0:0:
256,192,4057,1,8,0:0:0:0:
256,192,4390,1,0,0:0:0:0:
256,192,4557,1,8,0:0:0:0:
256,192,4724,1,0,0:0:0:0:
256,192,4890,1,0,0:0:0:0:
256,192,4974,1,0,0:0:0:0:
256,192,5057,1,0,0:0:0:0:
256,192,5224,1,8,0:0:0:0:
256,192,5557,1,8,0:0:0:0:
256,192,5724,1,0,0:0:0:0:
256,192,5890,1,8,0:0:0:0:
256,192,6057,1,8,0:0:0:0:
256,192,6140,1,0,0:0:0:0:
256,192,6224,1,0,0:0:0:0:
256,192,6390,1,8,0:0:0:0:
256,192,6474,1,8,0:0:0:0:
256,192,6557,1,0,0:0:0:0:
256,192,6724,1,8,0:0:0:0:
256,192,6890,1,0,0:0:0:0:
256,192,7057,1,0,0:0:0:0:
256,192,7224,1,0,0:0:0:0:
256,192,7307,1,0,0:0:0:0:
256,192,7390,1,8,0:0:0:0:
256,192,7724,1,0,0:0:0:0:
256,192,7890,1,8,0:0:0:0:
256,192,8057,1,0,0:0:0:0:
256,192,8140,1,0,0:0:0:0:
256,192,8224,1,8,0:0:0:0:
256,192,8390,1,0,0:0:0:0:
256,192,8557,1,8,0:0:0:0:
256,192,8724,1,8,0:0:0:0:
256,192,8807,1,8,0:0:0:0:
256,192,8890,1,0,0:0:0:0:
256,192,9057,1,0,0:0:0:0:
256,192,9224,1,0,0:0:0:0:
256,192,9307,1,0,0:0:0:0:
256,192,9390,1,8,0:0:0:0:
256,192,9724,1,0,0:0:0:0:
256,192,9890,1,8,0:0:0:0:
256,192,10057,1,0,0:0:0:0:
256,192,10140,1,0,0:0:0:0:
256,192,10224,1,0,0:0:0:0:
256,192,10390,1,0,0:0:0:0:
256,192,10557,1,8,0:0:0:0:
256,192,10890,1,0,0:0:0:0:
256,192,11224,1,8,0:0:0:0:
256,192,11557,1,8,0:0:0:0:
256,192,11724,1,0,0:0:0:0:
256,192,11890,1,0,0:0:0:0:
256,192,11974,1,0,0:0:0:0:
256,192,12057,1,8,0:0:0:0:
256,192,12390,1,0,0:0:0:0:
256,192,12557,1,8,0:0:0:0:
256,192,12724,1,8,0:0:0:0:
256,192,12890,1,0,0:0:0:0:
256,192,13057,1,0,0:0:0:0:
256,192,13140,1,0,0:0:0:0:
256,192,13224,1,8,0:0:0:0:
256,192,13557,1,12,0:0:0:0:
256,192,13724,1,0,0:0:0:0:
256,192,13890,1,8,0:0:0:0:
256,192,14057,1,8,0:0:0:0:
256,192,14140,1,8,0:0:0:0:
256,192,14224,1,0,0:0:0:0:
256,192,14390,1,0,0:0:0:0:
256,192,14557,1,0,0:0:0:0:
256,192,14724,1,8,0:0:0:0:
256,192,15057,1,0,0:0:0:0:
256,192,15224,1,8,0:0:0:0:
256,192,15390,1,0,0:0:0:0:
256,192,15557,1,0,0:0:0:0:
256,192,15640,1,0,0:0:0:0:
256,192,15724,1,0,0:0:0:0:
256,192,15890,1,8,0:0:0:0:
256,192,16224,1,8,0:0:0:0:
256,192,16390,1,0,0:0:0:0:
256,192,16557,1,8,0:0:0:0:
256,192,16724,1,8,0:0:0:0:
256,192,16807,1,0,0:0:0:0:
256,192,16890,1,0,0:0:0:0:
256,192,17057,1,8,0:0:0:0:
256,192,17140,1,0,0:0:0:0:
256,192,17224,1,8,0:0:0:0:
256,192,17390,1,8,0:0:0:0:
256,192,17557,1,0,0:0:0:0:
256,192,17724,1,0,0:0:0:0:
256,192,17890,1,0,0:0:0:0:
256,192,17974,1,0,0:0:0:0:
256,192,18057,1,8,0:0:0:0:
256,192,18390,1,0,0:0:0:0:
256,192,18557,1,8,0:0:0:0:
256,192,18724,1,0,0:0:0:0:
256,192,18807,1,0,0:0:0:0:
256,192,18890,1,8,0:0:0:0:
256,192,19057,1,0,0:0:0:0:
256,192,19224,1,8,0:0:0:0:
256,192,19390,1,8,0:0:0:0:
256,192,19474,1,8,0:0:0:0:
256,192,19557,1,0,0:0:0:0:
256,192,19724,1,0,0:0:0:0:
256,192,19890,1,0,0:0:0:0:
256,192,19974,1,0,0:0:0:0:
256,192,20057,1,8,0:0:0:0:
256,192,20390,1,0,0:0:0:0:
256,192,20557,1,8,0:0:0:0:
256,192,20724,1,0,0:0:0:0:
256,192,20807,1,0,0:0:0:0:
256,192,20890,1,0,0:0:0:0:
256,192,21057,1,0,0:0:0:0:
256,192,21224,1,8,0:0:0:0:
256,192,21557,1,0,0:0:0:0:
256,192,21890,1,8,0:0:0:0:
256,192,22224,1,8,0:0:0:0:
256,192,22390,1,0,0:0:0:0:
256,192,22557,1,0,0:0:0:0:
256,192,22640,1,0,0:0:0:0:
256,192,22724,1,8,0:0:0:0:
256,192,23057,1,0,0:0:0:0:
256,192,23224,1,8,0:0:0:0:
256,192,23390,1,8,0:0:0:0:
256,192,23557,1,0,0:0:0:0:
256,192,23724,5,0,0:0:0:0:
256,192,23807,1,0,0:0:0:0:
256,192,23890,1,8,0:0:0:0:
256,192,24057,1,8,0:0:0:0:
256,192,24224,5,4,0:0:0:0:
256,192,24557,1,8,0:0:0:0:
256,192,24890,1,0,0:0:0:0:
256,192,25224,1,8,0:0:0:0:
256,192,25390,1,0,0:0:0:0:
256,192,25724,1,0,0:0:0:0:
256,192,25890,1,8,0:0:0:0:
256,192,26057,1,8,0:0:0:0:
256,192,26224,1,0,0:0:0:0:
256,192,26390,1,0,0:0:0:0:
256,192,26557,1,8,0:0:0:0:
256,192,26640,1,0,0:0:0:0:
256,192,26724,1,8,0:0:0:0:
256,192,26890,1,0,0:0:0:0:
256,192,27224,1,8,0:0:0:0:
256,192,27557,1,0,0:0:0:0:
256,192,27890,1,8,0:0:0:0:
256,192,27974,1,8,0:0:0:0:
256,192,28057,1,0,0:0:0:0:
256,192,28390,1,0,0:0:0:0:
256,192,28557,1,8,0:0:0:0:
256,192,28724,1,8,0:0:0:0:
256,192,28807,1,8,0:0:0:0:
256,192,28890,1,0,0:0:0:0:
256,192,29057,1,0,0:0:0:0:
256,192,29224,1,8,0:0:0:0:
256,192,29307,1,0,0:0:0:0:
256,192,29390,1,0,0:0:0:0:
256,192,29557,1,8,0:0:0:0:
256,192,29890,1,8,0:0:0:0:
256,192,30224,1,0,0:0:0:0:
256,192,30557,1,8,0:0:0:0:
256,192,30640,1,8,0:0:0:0:
256,192,30724,1,0,0:0:0:0:
256,192,31057,1,0,0:0:0:0:
256,192,31224,1,0,0:0:0:0:
256,192,31390,1,8,0:0:0:0:
256,192,31474,1,0,0:0:0:0:
256,192,31557,1,8,0:0:0:0:
256,192,31724,1,0,0:0:0:0:
256,192,31890,1,8,0:0:0:0:
256,192,31974,1,0,0:0:0:0:
256,192,32057,1,0,0:0:0:0:
256,192,32224,1,8,0:0:0:0:
256,192,32557,1,8,0:0:0:0:
256,192,32890,1,0,0:0:0:0:
256,192,33224,1,8,0:0:0:0:
256,192,33390,1,0,0:0:0:0:
256,192,33724,1,0,0:0:0:0:
256,192,33890,1,8,0:0:0:0:
256,192,34057,1,0,0:0:0:0:
256,192,34224,1,0,0:0:0:0:
256,192,34390,1,0,0:0:0:0:
256,192,34557,1,8,0:0:0:0:
256,192,34724,1,8,0:0:0:0:
256,192,34807,1,8,0:0:0:0:
256,192,34890,1,4,0:0:0:0:
256,192,35224,1,8,0:0:0:0:
256,192,35557,1,8,0:0:0:0:
256,192,35890,1,0,0:0:0:0:
256,192,36057,1,8,0:0:0:0:
256,192,36390,1,8,0:0:0:0:
256,192,36557,1,0,0:0:0:0:
256,192,36724,1,8,0:0:0:0:
256,192,36890,1,8,0:0:0:0:
256,192,37057,1,0,0:0:0:0:
256,192,37224,1,8,0:0:0:0:
256,192,37307,1,0,0:0:0:0:
256,192,37390,1,8,0:0:0:0:
256,192,37557,1,0,0:0:0:0:
256,192,37890,1,8,0:0:0:0:
256,192,38224,1,8,0:0:0:0:
256,192,38557,1,8,0:0:0:0:
256,192,38640,1,8,0:0:0:0:
256,192,38724,1,0,0:0:0:0:
256,192,39057,1,0,0:0:0:0:
256,192,39224,1,8,0:0:0:0:
256,192,39390,1,8,0:0:0:0:
256,192,39474,1,8,0:0:0:0:
256,192,39557,1,0,0:0:0:0:
256,192,39724,1,0,0:0:0:0:
256,192,39890,1,8,0:0:0:0:
256,192,39974,1,0,0:0:0:0:
256,192,40057,1,0,0:0:0:0:
256,192,40224,1,8,0:0:0:0:
256,192,40557,1,8,0:0:0:0:
256,192,40890,1,8,0:0:0:0:
256,192,41224,1,8,0:0:0:0:
256,192,41307,1,8,0:0:0:0:
256,192,41390,1,0,0:0:0:0:
256,192,41724,1,8,0:0:0:0:
256,192,41890,1,0,0:0:0:0:
256,192,42057,1,8,0:0:0:0:
256,192,42140,1,0,0:0:0:0:
256,192,42224,1,8,0:0:0:0:
256,192,42390,1,0,0:0:0:0:
256,192,42557,1,8,0:0:0:0:
256,192,42640,1,0,0:0:0:0:
256,192,42724,1,0,0:0:0:0:
256,192,42890,1,12,0:0:0:0:
256,192,43224,1,0,0:0:0:0:
256,192,43390,1,12,0:0:0:0:
256,192,43724,1,0,0:0:0:0:
256,192,43890,1,8,0:0:0:0:
256,192,44057,1,0,0:0:0:0:
256,192,44140,1,0,0:0:0:0:
256,192,44224,1,12,0:0:0:0:
256,192,44390,1,0,0:0:0:0:
256,192,44557,1,0,0:0:0:0:
256,192,44724,1,8,0:0:0:0:
256,192,44807,1,8,0:0:0:0:
256,192,44890,1,0,0:0:0:0:
256,192,45057,1,0,0:0:0:0:
256,192,45224,1,8,0:0:0:0:
256,192,45390,1,8,0:0:0:0:
256,192,45474,1,8,0:0:0:0:
256,192,45557,1,4,0:0:0:0:
256,192,45890,1,8,0:0:0:0:
256,192,46224,1,0,0:0:0:0:
256,192,46390,1,0,0:0:0:0:
256,192,46474,1,0,0:0:0:0:
256,192,46557,1,8,0:0:0:0:
256,192,46724,1,8,0:0:0:0:
256,192,46807,1,0,0:0:0:0:
256,192,46890,1,8,0:0:0:0:
256,192,47057,1,0,0:0:0:0:
256,192,47224,1,8,0:0:0:0:
256,192,47557,1,0,0:0:0:0:
256,192,47724,1,0,0:0:0:0:
256,192,47807,1,8,0:0:0:0:
256,192,47890,1,8,0:0:0:0:
256,192,48057,1,0,0:0:0:0:
256,192,48140,1,0,0:0:0:0:
256,192,48224,1,8,0:0:0:0:
256,192,48390,1,0,0:0:0:0:
256,192,48557,1,8,0:0:0:0:
256,192,48890,1,8,0:0:0:0:
256,192,49057,1,0,0:0:0:0:
256,192,49140,1,8,0:0:0:0:
256,192,49224,1,8,0:0:0:0:
256,192,49390,1,8,0:0:0:0:
256,192,49557,1,0,0:0:0:0:
256,192,49724,1,0,0:0:0:0:
256,192,49890,1,8,0:0:0:0:
256,192,50057,1,0,0:0:0:0:
256,192,50224,1,8,0:0:0:0:
256,192,50307,1,8,0:0:0:0:
256,192,50390,1,0,0:0:0:0:
256,192,50557,1,8,0:0:0:0:
256,192,50640,1,0,0:0:0:0:
256,192,50724,1,0,0:0:0:0:
256,192,50890,1,8,0:0:0:0:
256,192,51224,1,8,0:0:0:0:
256,192,51557,1,0,0:0:0:0:
256,192,51724,1,0,0:0:0:0:
256,192,51807,1,0,0:0:0:0:
256,192,51890,1,8,0:0:0:0:
256,192,52057,1,8,0:0:0:0:
256,192,52140,1,8,0:0:0:0:
256,192,52224,1,0,0:0:0:0:
256,192,52390,1,0,0:0:0:0:
256,192,52557,1,8,0:0:0:0:
256,192,52890,1,0,0:0:0:0:
256,192,53057,1,0,0:0:0:0:
256,192,53140,1,8,0:0:0:0:
256,192,53224,1,8,0:0:0:0:
256,192,53390,1,8,0:0:0:0:
256,192,53474,1,8,0:0:0:0:
256,192,53557,1,0,0:0:0:0:
256,192,53724,1,0,0:0:0:0:
256,192,53890,1,8,0:0:0:0:
256,192,54224,1,8,0:0:0:0:
256,192,54390,1,8,0:0:0:0:
256,192,54474,1,8,0:0:0:0:
256,192,54557,1,0,0:0:0:0:
256,192,54724,1,0,0:0:0:0:
256,192,54890,1,8,0:0:0:0:
256,192,55057,1,0,0:0:0:0:
256,192,55224,1,8,0:0:0:0:
256,192,55390,1,0,0:0:0:0:
256,192,55557,1,8,0:0:0:0:
256,192,55640,1,8,0:0:0:0:
256,192,55724,1,0,0:0:0:0:
256,192,55890,1,8,0:0:0:0:
256,192,55974,1,0,0:0:0:0:
256,192,56057,1,0,0:0:0:0:
256,192,56224,1,12,0:0:0:0:
256,192,56557,1,8,0:0:0:0:
256,192,56890,1,0,0:0:0:0:
256,192,57057,1,8,0:0:0:0:
256,192,57140,1,8,0:0:0:0:
256,192,57224,1,8,0:0:0:0:
256,192,57390,1,0,0:0:0:0:
256,192,57557,1,8,0:0:0:0:
256,192,57640,1,8,0:0:0:0:
256,192,57724,1,0,0:0:0:0:
256,192,57890,1,8,0:0:0:0:
256,192,58057,1,8,0:0:0:0:
256,192,58224,1,0,0:0:0:0:
256,192,58390,1,0,0:0:0:0:
256,192,58557,1,8,0:0:0:0:
256,192,58724,1,0,0:0:0:0:
256,192,58807,1,0,0:0:0:0:
256,192,58890,1,8,0:0:0:0:
256,192,59224,1,8,0:0:0:0:
256,192,59307,1,0,0:0:0:0:
256,192,59390,1,8,0:0:0:0:
256,192,59557,1,8,0:0:0:0:
256,192,59724,1,8,0:0:0:0:
256,192,59890,1,8,0:0:0:0:
256,192,60057,1,0,0:0:0:0:
256,192,60140,1,0,0:0:0:0:
256,192,60224,1,8,0:0:0:0:
256,192,61557,1,12,0:0:0:0:
256,192,61890,1,8,0:0:0:0:
256,192,62057,1,0,0:0:0:0:
256,192,62224,1,8,0:0:0:0:
256,192,62307,1,8,0:0:0:0:
256,192,62390,1,0,0:0:0:0:
256,192,62557,1,8,0:0:0:0:
256,192,62724,1,8,0:0:0:0:
256,192,62890,1,0,0:0:0:0:
256,192,63057,1,0,0:0:0:0:
256,192,63224,1,8,0:0:0:0:
256,192,63307,1,8,0:0:0:0:
256,192,63390,1,0,0:0:0:0:
256,192,63557,1,0,0:0:0:0:
256,192,63724,1,0,0:0:0:0:
256,192,63890,1,8,0:0:0:0:
256,192,63974,1,0,0:0:0:0:
256,192,64057,1,8,0:0:0:0:
256,192,64224,1,0,0:0:0:0:
256,192,64557,1,8,0:0:0:0:
256,192,64724,1,0,0:0:0:0:
256,192,64890,1,8,0:0:0:0:
256,192,64974,1,0,0:0:0:0:
256,192,65057,1,0,0:0:0:0:
256,192,65224,1,8,0:0:0:0:
256,192,65307,1,0,0:0:0:0:
256,192,65390,1,8,0:0:0:0:
256,192,65474,1,8,0:0:0:0:
256,192,65557,1,0,0:0:0:0:
256,192,65890,1,8,0:0:0:0:
256,192,66057,1,0,0:0:0:0:
256,192,66224,1,8,0:0:0:0:
256,192,66307,1,0,0:0:0:0:
256,192,66390,1,0,0:0:0:0:
256,192,66557,1,8,0:0:0:0:
256,192,66724,1,0,0:0:0:0:
256,192,66890,1,8,0:0:0:0:
256,192,66974,1,0,0:0:0:0:
256,192,67057,1,8,0:0:0:0:
256,192,67224,1,0,0:0:0:0:
256,192,67390,1,8,0:0:0:0:
256,192,67557,1,0,0:0:0:0:
256,192,67724,1,0,0:0:0:0:
256,192,67890,1,8,0:0:0:0:
256,192,68057,1,8,0:0:0:0:
256,192,68140,1,8,0:0:0:0:
256,192,68224,1,0,0:0:0:0:
256,192,68390,1,0,0:0:0:0:
256,192,68557,1,8,0:0:0:0:
256,192,68724,1,0,0:0:0:0:
256,192,68890,1,8,0:0:0:0:
256,192,68974,1,0,0:0:0:0:
256,192,69057,1,0,0:0:0:0:
256,192,69224,1,8,0:0:0:0:
256,192,69390,1,8,0:0:0:0:
256,192,69474,1,8,0:0:0:0:
256,192,69557,1,0,0:0:0:0:
256,192,69890,1,8,0:0:0:0:
256,192,70057,1,0,0:0:0:0:
256,192,70224,1,8,0:0:0:0:
256,192,70390,1,0,0:0:0:0:
256,192,70557,1,0,0:0:0:0:
256,192,70640,1,0,0:0:0:0:
256,192,70724,1,12,0:0:0:0:
256,192,71057,1,0,0:0:0:0:
256,192,71224,1,8,0:0:0:0:
256,192,71390,1,0,0:0:0:0:
256,192,71557,1,8,0:0:0:0:
256,192,71724,1,0,0:0:0:0:
256,192,71807,1,0,0:0:0:0:
256,192,71890,1,8,0:0:0:0:
256,192,71974,1,0,0:0:0:0:
256,192,72057,1,0,0:0:0:0:
256,192,72140,1,0,0:0:0:0:
256,192,72224,1,12,0:0:0:0:
256,192,72557,1,8,0:0:0:0:
256,192,72724,1,0,0:0:0:0:
256,192,72890,1,8,0:0:0:0:
256,192,72974,1,8,0:0:0:0:
256,192,73057,1,0,0:0:0:0:
256,192,73224,1,8,0:0:0:0:
256,192,73390,1,8,0:0:0:0:
256,192,73557,1,0,0:0:0:0:
256,192,73724,1,0,0:0:0:0:
256,192,73890,1,8,0:0:0:0:
256,192,73974,1,8,0:0:0:0:
256,192,74057,1,0,0:0:0:0:
256,192,74224,1,0,0:0:0:0:
256,192,74390,1,0,0:0:0:0:
256,192,74557,1,8,0:0:0:0:
256,192,74640,1,0,0:0:0:0:
256,192,74724,1,8,0:0:0:0:
256,192,74890,1,0,0:0:0:0:
256,192,75224,1,8,0:0:0:0:
256,192,75390,1,0,0:0:0:0:
256,192,75557,1,8,0:0:0:0:
256,192,75640,1,0,0:0:0:0:
256,192,75724,1,0,0:0:0:0:
256,192,75890,1,8,0:0:0:0:
256,192,75974,1,0,0:0:0:0:
256,192,76057,1,8,0:0:0:0:
256,192,76140,1,8,0:0:0:0:
256,192,76224,1,0,0:0:0:0:
256,192,76557,1,8,0:0:0:0:
256,192,76724,1,0,0:0:0:0:
256,192,76890,1,8,0:0:0:0:
256,192,76974,1,0,0:0:0:0:
256,192,77057,1,0,0:0:0:0:
256,192,77224,1,8,0:0:0:0:
256,192,77557,1,8,0:0:0:0:
256,192,77724,1,0,0:0:0:0:
256,192,77890,1,8,0:0:0:0:
256,192,78057,1,0,0:0:0:0:
256,192,78224,1,8,0:0:0:0:
256,192,78307,1,0,0:0:0:0:
256,192,78390,1,0,0:0:0:0:
256,192,78557,1,8,0:0:0:0:
256,192,78890,1,8,0:0:0:0:
256,192,79057,1,0,0:0:0:0:
256,192,79224,1,8,0:0:0:0:
256,192,79390,1,8,0:0:0:0:
256,192,79557,1,8,0:0:0:0:
256,192,79640,1,0,0:0:0:0:
256,192,79724,1,0,0:0:0:0:
256,192,79890,1,8,0:0:0:0:
256,192,80224,1,8,0:0:0:0:
256,192,80390,1,0,0:0:0:0:
256,192,80557,1,8,0:0:0:0:
256,192,80724,1,8,0:0:0:0:
256,192,80890,1,0,0:0:0:0:
256,192,81057,1,8,0:0:0:0:
256,192,81224,1,0,0:0:0:0:
256,192,81307,1,0,0:0:0:0:
256,192,81390,1,8,0:0:0:0:
256,192,81724,1,0,0:0:0:0:
256,192,81890,1,8,0:0:0:0:
256,192,82057,1,0,0:0:0:0:
256,192,82224,1,8,0:0:0:0:
256,192,82390,1,0,0:0:0:0:
256,192,82474,1,0,0:0:0:0:
256,192,82557,1,8,0:0:0:0:
256,192,82640,1,0,0:0:0:0:
256,192,82724,1,8,0:0:0:0:
256,192,82807,1,8,0:0:0:0:
256,192,82890,1,4,0:0:0:0:
252,191,84224,1,4,0:0:0:0:
256,192,85557,1,12,0:0:0:0:
256,192,85724,1,0,0:0:0:0:
256,192,85890,1,8,0:0:0:0:
256,192,86057,1,8,0:0:0:0:
256,192,86140,1,0,0:0:0:0:
256,192,86224,1,8,0:0:0:0:
256,192,86390,1,0,0:0:0:0:
256,192,86557,1,0,0:0:0:0:
256,192,86724,1,8,0:0:0:0:
256,192,87057,1,0,0:0:0:0:
256,192,87224,1,8,0:0:0:0:
256,192,87390,1,0,0:0:0:0:
256,192,87557,1,0,0:0:0:0:
256,192,87640,1,0,0:0:0:0:
256,192,87724,1,0,0:0:0:0:
256,192,87890,1,8,0:0:0:0:
256,192,88224,1,8,0:0:0:0:
256,192,88390,1,0,0:0:0:0:
256,192,88557,1,8,0:0:0:0:
256,192,88724,1,8,0:0:0:0:
256,192,88807,1,0,0:0:0:0:
256,192,88890,1,0,0:0:0:0:
256,192,89057,1,8,0:0:0:0:
256,192,89140,1,8,0:0:0:0:
256,192,89224,1,0,0:0:0:0:
256,192,89390,1,8,0:0:0:0:
256,192,89557,1,0,0:0:0:0:
256,192,89724,1,0,0:0:0:0:
256,192,89890,1,0,0:0:0:0:
256,192,89974,1,0,0:0:0:0:
256,192,90057,1,8,0:0:0:0:
256,192,90390,1,0,0:0:0:0:
256,192,90557,1,8,0:0:0:0:
256,192,90724,1,0,0:0:0:0:
256,192,90807,1,0,0:0:0:0:
256,192,90890,1,8,0:0:0:0:
256,192,91057,1,0,0:0:0:0:
256,192,91224,1,8,0:0:0:0:
256,192,91390,1,8,0:0:0:0:
256,192,91474,1,8,0:0:0:0:
256,192,91557,1,0,0:0:0:0:
256,192,91724,1,0,0:0:0:0:
256,192,91890,1,0,0:0:0:0:
256,192,91974,1,0,0:0:0:0:
256,192,92057,1,8,0:0:0:0:
256,192,92390,1,0,0:0:0:0:
256,192,92557,1,8,0:0:0:0:
256,192,92724,1,0,0:0:0:0:
256,192,92807,1,0,0:0:0:0:
256,192,92890,1,0,0:0:0:0:
256,192,93057,1,0,0:0:0:0:
256,192,93224,1,8,0:0:0:0:
256,192,93557,1,0,0:0:0:0:
256,192,93890,1,8,0:0:0:0:
256,192,94224,1,8,0:0:0:0:
256,192,94390,1,0,0:0:0:0:
256,192,94557,1,0,0:0:0:0:
256,192,94640,1,0,0:0:0:0:
256,192,94724,1,8,0:0:0:0:
256,192,95057,1,0,0:0:0:0:
256,192,95224,1,8,0:0:0:0:
256,192,95390,1,8,0:0:0:0:
256,192,95557,1,0,0:0:0:0:
256,192,95724,1,0,0:0:0:0:
256,192,95807,1,0,0:0:0:0:
256,192,95890,1,8,0:0:0:0:
256,192,96057,1,0,0:0:0:0:
256,192,96224,1,12,0:0:0:0:
256,192,96390,1,0,0:0:0:0:
256,192,96557,1,8,0:0:0:0:
256,192,96724,1,8,0:0:0:0:
256,192,96807,1,8,0:0:0:0:
256,192,96890,1,0,0:0:0:0:
256,192,97057,1,0,0:0:0:0:
256,192,97224,1,0,0:0:0:0:
256,192,97390,1,8,0:0:0:0:
256,192,97724,1,0,0:0:0:0:
256,192,97890,1,8,0:0:0:0:
256,192,98057,1,0,0:0:0:0:
256,192,98224,1,0,0:0:0:0:
256,192,98307,1,0,0:0:0:0:
256,192,98390,1,0,0:0:0:0:
256,192,98557,1,8,0:0:0:0:
256,192,98890,1,8,0:0:0:0:
256,192,99057,1,0,0:0:0:0:
256,192,99224,1,8,0:0:0:0:
256,192,99390,1,8,0:0:0:0:
256,192,99474,1,0,0:0:0:0:
256,192,99557,1,0,0:0:0:0:
256,192,99724,1,8,0:0:0:0:
256,192,99807,1,0,0:0:0:0:
256,192,99890,1,8,0:0:0:0:
256,192,100057,1,8,0:0:0:0:
256,192,100224,1,0,0:0:0:0:
256,192,100390,1,0,0:0:0:0:
256,192,100557,1,0,0:0:0:0:
256,192,100640,1,0,0:0:0:0:
256,192,100724,1,8,0:0:0:0:
256,192,101057,1,0,0:0:0:0:
256,192,101224,1,8,0:0:0:0:
256,192,101390,1,0,0:0:0:0:
256,192,101474,1,0,0:0:0:0:
256,192,101557,1,8,0:0:0:0:
256,192,101724,1,0,0:0:0:0:
256,192,101890,1,8,0:0:0:0:
256,192,102057,1,8,0:0:0:0:
256,192,102140,1,8,0:0:0:0:
256,192,102224,1,0,0:0:0:0:
256,192,102390,1,0,0:0:0:0:
256,192,102557,1,0,0:0:0:0:
256,192,102640,1,0,0:0:0:0:
256,192,102724,1,8,0:0:0:0:
256,192,103057,1,0,0:0:0:0:
256,192,103224,1,8,0:0:0:0:
256,192,103390,1,0,0:0:0:0:
256,192,103474,1,0,0:0:0:0:
256,192,103557,1,0,0:0:0:0:
256,192,103724,1,0,0:0:0:0:
256,192,103890,1,8,0:0:0:0:
256,192,104224,1,0,0:0:0:0:
256,192,104557,1,8,0:0:0:0:
256,192,104890,1,8,0:0:0:0:
256,192,105057,1,0,0:0:0:0:
256,192,105224,1,0,0:0:0:0:
256,192,105307,1,0,0:0:0:0:
256,192,105390,1,8,0:0:0:0:
256,192,105724,1,0,0:0:0:0:
256,192,105890,1,8,0:0:0:0:
256,192,106057,1,8,0:0:0:0:
256,192,106224,1,0,0:0:0:0:
256,192,106390,1,0,0:0:0:0:
256,192,106474,1,0,0:0:0:0:
256,192,106557,1,8,0:0:0:0:
256,192,106724,1,8,0:0:0:0:
256,192,106890,1,4,0:0:0:0:
256,192,107224,1,8,0:0:0:0:
256,192,107557,1,8,0:0:0:0:
256,192,107890,1,8,0:0:0:0:
256,192,108057,1,0,0:0:0:0:
256,192,108390,1,0,0:0:0:0:
256,192,108557,1,8,0:0:0:0:
256,192,108724,1,8,0:0:0:0:
256,192,108890,1,0,0:0:0:0:
256,192,109057,1,0,0:0:0:0:
256,192,109224,1,8,0:0:0:0:
256,192,109307,1,0,0:0:0:0:
256,192,109390,1,8,0:0:0:0:
256,192,109557,1,0,0:0:0:0:
256,192,109890,1,8,0:0:0:0:
256,192,110224,1,8,0:0:0:0:
256,192,110557,1,8,0:0:0:0:
256,192,110640,1,8,0:0:0:0:
256,192,110724,1,0,0:0:0:0:
256,192,111057,1,0,0:0:0:0:
256,192,111224,1,8,0:0:0:0:
256,192,111390,1,8,0:0:0:0:
256,192,111474,1,8,0:0:0:0:
256,192,111557,1,0,0:0:0:0:
256,192,111724,1,0,0:0:0:0:
256,192,111890,1,8,0:0:0:0:
256,192,111974,1,0,0:0:0:0:
256,192,112057,1,0,0:0:0:0:
256,192,112224,1,8,0:0:0:0:
256,192,112557,1,8,0:0:0:0:
256,192,112890,1,8,0:0:0:0:
256,192,113224,1,8,0:0:0:0:
256,192,113307,1,8,0:0:0:0:
256,192,113390,1,0,0:0:0:0:
256,192,113724,1,0,0:0:0:0:
256,192,113890,1,0,0:0:0:0:
256,192,114057,1,8,0:0:0:0:
256,192,114140,1,0,0:0:0:0:
256,192,114224,1,8,0:0:0:0:
256,192,114390,1,0,0:0:0:0:
256,192,114557,1,8,0:0:0:0:
256,192,114640,1,0,0:0:0:0:
256,192,114724,1,0,0:0:0:0:
256,192,114890,1,8,0:0:0:0:
256,192,115224,1,8,0:0:0:0:
256,192,115557,1,8,0:0:0:0:
256,192,115890,1,8,0:0:0:0:
256,192,116057,1,0,0:0:0:0:
256,192,116390,1,0,0:0:0:0:
256,192,116557,1,8,0:0:0:0:
256,192,116724,1,0,0:0:0:0:
256,192,116890,1,0,0:0:0:0:
256,192,117057,1,0,0:0:0:0:
256,192,117224,1,8,0:0:0:0:
256,192,117390,1,8,0:0:0:0:
256,192,117474,1,8,0:0:0:0:
256,192,117557,1,4,0:0:0:0:
256,192,117890,1,0,0:0:0:0:
256,192,118224,1,8,0:0:0:0:
256,192,118557,1,0,0:0:0:0:
256,192,118724,1,8,0:0:0:0:
256,192,119057,1,8,0:0:0:0:
256,192,119224,1,0,0:0:0:0:
256,192,119390,1,8,0:0:0:0:
256,192,119557,1,8,0:0:0:0:
256,192,119724,1,0,0:0:0:0:
256,192,119890,1,8,0:0:0:0:
256,192,119974,1,0,0:0:0:0:
256,192,120057,1,8,0:0:0:0:
256,192,120224,1,0,0:0:0:0:
256,192,120557,1,0,0:0:0:0:
256,192,120890,1,8,0:0:0:0:
256,192,121224,1,8,0:0:0:0:
256,192,121307,1,8,0:0:0:0:
256,192,121390,1,0,0:0:0:0:
256,192,121724,1,0,0:0:0:0:
256,192,121890,1,8,0:0:0:0:
256,192,122057,1,8,0:0:0:0:
256,192,122140,1,8,0:0:0:0:
256,192,122224,1,0,0:0:0:0:
256,192,122390,1,0,0:0:0:0:
256,192,122557,1,8,0:0:0:0:
256,192,122640,1,0,0:0:0:0:
256,192,122724,1,0,0:0:0:0:
256,192,122890,1,8,0:0:0:0:
256,192,123224,1,0,0:0:0:0:
256,192,123557,1,8,0:0:0:0:
256,192,123890,1,8,0:0:0:0:
256,192,123974,1,8,0:0:0:0:
256,192,124057,1,0,0:0:0:0:
256,192,124390,1,8,0:0:0:0:
256,192,124557,1,0,0:0:0:0:
256,192,124724,1,8,0:0:0:0:
256,192,124807,1,0,0:0:0:0:
256,192,124890,1,8,0:0:0:0:
256,192,125057,1,0,0:0:0:0:
256,192,125224,1,8,0:0:0:0:
256,192,125307,1,0,0:0:0:0:
256,192,125390,1,0,0:0:0:0:
256,192,125557,1,8,0:0:0:0:
256,192,125890,1,0,0:0:0:0:
256,192,126224,1,8,0:0:0:0:
256,192,126557,1,0,0:0:0:0:
256,192,126724,1,0,0:0:0:0:
256,192,126807,1,0,0:0:0:0:
256,192,126890,1,8,0:0:0:0:
256,192,127057,1,0,0:0:0:0:
256,192,127224,1,8,0:0:0:0:
256,192,127390,1,8,0:0:0:0:
256,192,127474,1,8,0:0:0:0:
256,192,127557,1,4,0:0:0:0:
256,192,128224,1,12,0:0:0:0:
256,192,128390,1,0,0:0:0:0:
256,192,128557,1,0,0:0:0:0:
256,192,128724,1,8,0:0:0:0:
256,192,128807,1,0,0:0:0:0:
256,192,128890,1,0,0:0:0:0:
256,192,129224,1,8,0:0:0:0:
256,192,129390,1,0,0:0:0:0:
256,192,129557,1,8,0:0:0:0:
256,192,129724,1,0,0:0:0:0:
256,192,129807,1,8,0:0:0:0:
256,192,129890,1,8,0:0:0:0:
256,192,130057,1,0,0:0:0:0:
256,192,130224,1,8,0:0:0:0:
256,192,130307,1,8,0:0:0:0:
256,192,130390,1,0,0:0:0:0:
256,192,130557,1,8,0:0:0:0:
256,192,130724,1,0,0:0:0:0:
256,192,130807,1,8,0:0:0:0:
256,192,130890,1,0,0:0:0:0:
256,192,131224,1,8,0:0:0:0:
256,192,131390,1,8,0:0:0:0:
256,192,131557,1,0,0:0:0:0:
256,192,131724,1,0,0:0:0:0:
256,192,131807,1,0,0:0:0:0:
256,192,131890,1,8,0:0:0:0:
256,192,132057,1,0,0:0:0:0:
256,192,132224,1,8,0:0:0:0:
256,192,132390,1,0,0:0:0:0:
256,192,132557,1,8,0:0:0:0:
256,192,132724,1,8,0:0:0:0:
256,192,132890,1,0,0:0:0:0:
256,192,132974,1,8,0:0:0:0:
256,192,133057,1,0,0:0:0:0:
256,192,133224,1,8,0:0:0:0:
256,192,133307,1,8,0:0:0:0:
256,192,133390,1,0,0:0:0:0:
256,192,133474,1,0,0:0:0:0:
256,192,133557,1,12,0:0:0:0:
256,192,133890,1,8,0:0:0:0:
256,192,134057,1,0,0:0:0:0:
256,192,134224,1,8,0:0:0:0:
256,192,134390,1,0,0:0:0:0:
256,192,134557,1,8,0:0:0:0:
256,192,134640,1,8,0:0:0:0:
256,192,134724,1,0,0:0:0:0:
256,192,134890,1,8,0:0:0:0:
256,192,135057,1,0,0:0:0:0:
256,192,135140,1,0,0:0:0:0:
256,192,135224,1,8,0:0:0:0:
256,192,135390,1,8,0:0:0:0:
256,192,135474,1,8,0:0:0:0:
256,192,135557,1,0,0:0:0:0:
256,192,135724,1,0,0:0:0:0:
256,192,135890,1,8,0:0:0:0:
256,192,136224,5,0,0:0:0:0:
256,192,136335,1,8,0:0:0:0:
256,192,136446,1,8,0:0:0:0:
256,192,136557,5,0,0:0:0:0:
256,192,136668,1,8,0:0:0:0:
256,192,136779,1,8,0:0:0:0:
256,192,136890,5,0,0:0:0:0:
256,192,137002,1,8,0:0:0:0:
256,192,137113,1,0,0:0:0:0:
256,192,137224,1,8,0:0:0:0:
256,192,137390,1,0,0:0:0:0:
256,192,137724,1,8,0:0:0:0:
256,192,137807,1,0,0:0:0:0:
256,192,137890,1,0,0:0:0:0:
256,192,138057,1,8,0:0:0:0:
256,192,138224,1,0,0:0:0:0:
256,192,138390,1,8,0:0:0:0:
256,192,138474,1,8,0:0:0:0:
256,192,138557,1,8,0:0:0:0:
256,192,138724,1,8,0:0:0:0:
256,192,138807,1,8,0:0:0:0:
256,192,138890,1,4,0:0:0:0:
256,192,139224,1,12,0:0:0:0:
256,192,139390,1,0,0:0:0:0:
256,192,139557,1,8,0:0:0:0:
256,192,139640,1,8,0:0:0:0:
256,192,139724,1,0,0:0:0:0:
256,192,139890,1,8,0:0:0:0:
256,192,140057,1,0,0:0:0:0:
256,192,140224,1,8,0:0:0:0:
256,192,140307,1,8,0:0:0:0:
256,192,140390,1,0,0:0:0:0:
256,192,140557,1,8,0:0:0:0:
256,192,140724,1,0,0:0:0:0:
256,192,140890,1,8,0:0:0:0:
256,192,140974,1,8,0:0:0:0:
256,192,141057,1,0,0:0:0:0:
256,192,141224,1,8,0:0:0:0:
256,192,141390,1,0,0:0:0:0:
256,192,141474,1,8,0:0:0:0:
256,192,141557,1,0,0:0:0:0:
256,192,141890,1,8,0:0:0:0:
256,192,142224,1,0,0:0:0:0:
256,192,142390,1,0,0:0:0:0:
256,192,142557,1,8,0:0:0:0:
256,192,142640,1,0,0:0:0:0:
256,192,142724,1,0,0:0:0:0:
256,192,143057,1,0,0:0:0:0:
256,192,143224,1,8,0:0:0:0:
256,192,143390,1,8,0:0:0:0:
256,192,143474,1,0,0:0:0:0:
256,192,143557,1,8,0:0:0:0:
256,192,143724,1,8,0:0:0:0:
256,192,143807,1,0,0:0:0:0:
256,192,143890,1,0,0:0:0:0:
256,192,144057,1,0,0:0:0:0:
256,192,144224,1,8,0:0:0:0:
256,192,144557,1,0,0:0:0:0:
256,192,144890,1,8,0:0:0:0:
256,192,145057,1,0,0:0:0:0:
256,192,145224,1,8,0:0:0:0:
256,192,145307,1,0,0:0:0:0:
256,192,145390,1,0,0:0:0:0:
256,192,145724,1,0,0:0:0:0:
256,192,145890,1,8,0:0:0:0:
256,192,146057,1,8,0:0:0:0:
256,192,146224,1,0,0:0:0:0:
256,192,146307,1,8,0:0:0:0:
256,192,146390,1,0,0:0:0:0:
256,192,146557,1,8,0:0:0:0:
256,192,146890,1,0,0:0:0:0:
256,192,147057,1,0,0:0:0:0:
256,192,147224,1,8,0:0:0:0:
256,192,147390,1,8,0:0:0:0:
256,192,147474,1,8,0:0:0:0:
256,192,147557,1,0,0:0:0:0:
256,192,147724,1,0,0:0:0:0:
256,192,147890,1,8,0:0:0:0:
256,192,148224,1,0,0:0:0:0:
256,192,148390,1,0,0:0:0:0:
256,192,148557,1,8,0:0:0:0:
256,192,148724,1,8,0:0:0:0:
256,192,148807,1,0,0:0:0:0:
256,192,148890,1,8,0:0:0:0:
256,192,149057,1,0,0:0:0:0:
256,192,149224,1,8,0:0:0:0:
256,192,149390,1,0,0:0:0:0:
256,192,149557,1,0,0:0:0:0:
256,192,151890,1,8,0:0:0:0:
256,192,152057,1,0,0:0:0:0:
256,192,152224,1,8,0:0:0:0:
256,192,153224,1,8,0:0:0:0:
256,192,153390,1,0,0:0:0:0:
256,192,153724,1,8,0:0:0:0:
256,192,154057,1,8,0:0:0:0:
256,192,154224,1,8,0:0:0:0:
256,192,154557,1,0,0:0:0:0:
256,192,154724,1,0,0:0:0:0:
256,192,154890,1,8,0:0:0:0:
256,192,155890,1,8,0:0:0:0:
256,192,156057,1,0,0:0:0:0:
256,192,156390,1,0,0:0:0:0:
256,192,156557,1,8,0:0:0:0:
256,192,156724,1,0,0:0:0:0:
256,192,156890,1,8,0:0:0:0:
256,192,157224,1,8,0:0:0:0:
256,192,157390,1,0,0:0:0:0:
256,192,157557,1,0,0:0:0:0:
256,192,159890,1,8,0:0:0:0:
256,192,160057,1,0,0:0:0:0:
256,192,160224,1,8,0:0:0:0:
256,192,162557,1,8,0:0:0:0:
256,192,162724,1,0,0:0:0:0:
256,192,162890,1,8,0:0:0:0:
256,192,163890,1,8,0:0:0:0:
256,192,164057,1,0,0:0:0:0:
256,192,164390,1,8,0:0:0:0:
256,192,164724,1,0,0:0:0:0:
256,192,164890,1,0,0:0:0:0:
256,192,165224,1,8,0:0:0:0:
256,192,165390,1,0,0:0:0:0:
256,192,165557,1,8,0:0:0:0:
256,192,166557,1,8,0:0:0:0:
256,192,166724,1,0,0:0:0:0:
256,192,167057,1,8,0:0:0:0:
256,192,167390,1,8,0:0:0:0:
256,192,167557,1,0,0:0:0:0:
256,192,167890,1,8,0:0:0:0:
256,192,168057,1,0,0:0:0:0:
256,192,168224,1,0,0:0:0:0:
256,192,170890,5,12,0:0:0:0:
256,192,171224,1,8,0:0:0:0:
256,192,171390,1,8,0:0:0:0:
256,192,171474,1,0,0:0:0:0:
256,192,171557,1,8,0:0:0:0:
256,192,171724,1,0,0:0:0:0:
256,192,171890,1,8,0:0:0:0:
256,192,171974,1,0,0:0:0:0:
256,192,172057,1,0,0:0:0:0:
256,192,172224,1,8,0:0:0:0:
256,192,172390,1,0,0:0:0:0:
256,192,172557,1,8,0:0:0:0:
256,192,172890,1,8,0:0:0:0:
256,192,173057,1,0,0:0:0:0:
256,192,173224,1,8,0:0:0:0:
256,192,173390,1,0,0:0:0:0:
256,192,173474,1,8,0:0:0:0:
256,192,173557,1,8,0:0:0:0:
256,192,173724,1,0,0:0:0:0:
256,192,173890,1,8,0:0:0:0:
256,192,174057,1,8,0:0:0:0:
256,192,174140,1,0,0:0:0:0:
256,192,174224,1,8,0:0:0:0:
256,192,174390,1,0,0:0:0:0:
256,192,174557,1,8,0:0:0:0:
256,192,174724,1,0,0:0:0:0:
256,192,174807,1,8,0:0:0:0:
256,192,174890,1,8,0:0:0:0:
256,192,175057,1,0,0:0:0:0:
256,192,175224,1,8,0:0:0:0:
256,192,175557,1,8,0:0:0:0:
256,192,175724,1,0,0:0:0:0:
256,192,175890,1,8,0:0:0:0:
256,192,176057,1,0,0:0:0:0:
256,192,176140,1,8,0:0:0:0:
256,192,176224,1,8,0:0:0:0:
256,192,176390,1,0,0:0:0:0:
256,192,176557,1,0,0:0:0:0:
256,192,176724,1,8,0:0:0:0:
256,192,176807,1,0,0:0:0:0:
256,192,176890,1,8,0:0:0:0:
256,192,177057,1,8,0:0:0:0:
256,192,177224,1,8,0:0:0:0:
256,192,177390,1,0,0:0:0:0:
256,192,177474,1,0,0:0:0:0:
256,192,177557,1,8,0:0:0:0:
256,192,177724,1,0,0:0:0:0:
256,192,177890,1,8,0:0:0:0:
256,192,178057,1,0,0:0:0:0:
256,192,178140,1,8,0:0:0:0:
256,192,178224,1,8,0:0:0:0:
256,192,178390,1,0,0:0:0:0:
256,192,178557,1,8,0:0:0:0:
256,192,178724,1,8,0:0:0:0:
256,192,178890,1,0,0:0:0:0:
256,192,179224,1,8,0:0:0:0:
256,192,179557,1,0,0:0:0:0:
256,192,179724,1,0,0:0:0:0:
256,192,179890,1,8,0:0:0:0:
256,192,180057,1,0,0:0:0:0:
256,192,180390,1,0,0:0:0:0:
256,192,180557,1,8,0:0:0:0:
256,192,180724,1,8,0:0:0:0:
256,192,180890,1,0,0:0:0:0:
256,192,181057,1,0,0:0:0:0:
256,192,181224,1,8,0:0:0:0:
256,192,181390,1,0,0:0:0:0:
256,192,181474,1,0,0:0:0:0:
256,192,181557,5,12,0:0:0:0:
256,192,181890,1,8,0:0:0:0:
256,192,182057,1,8,0:0:0:0:
256,192,182140,1,0,0:0:0:0:
256,192,182224,1,8,0:0:0:0:
256,192,182390,1,0,0:0:0:0:
256,192,182557,1,0,0:0:0:0:
256,192,182640,1,0,0:0:0:0:
256,192,182724,1,8,0:0:0:0:
256,192,182890,1,8,0:0:0:0:
256,192,183057,1,0,0:0:0:0:
256,192,183224,1,8,0:0:0:0:
256,192,183557,1,8,0:0:0:0:
256,192,183724,1,0,0:0:0:0:
256,192,183890,1,8,0:0:0:0:
256,192,184057,1,0,0:0:0:0:
256,192,184140,1,8,0:0:0:0:
256,192,184224,1,8,0:0:0:0:
256,192,184390,1,0,0:0:0:0:
256,192,184557,1,8,0:0:0:0:
256,192,184724,1,8,0:0:0:0:
256,192,184807,1,0,0:0:0:0:
256,192,184890,1,8,0:0:0:0:
256,192,185057,1,0,0:0:0:0:
256,192,185224,1,8,0:0:0:0:
256,192,185390,1,0,0:0:0:0:
256,192,185474,1,0,0:0:0:0:
256,192,185557,1,8,0:0:0:0:
256,192,185724,1,0,0:0:0:0:
256,192,185890,1,8,0:0:0:0:
256,192,186057,1,8,0:0:0:0:
256,192,186224,1,0,0:0:0:0:
256,192,186390,1,0,0:0:0:0:
256,192,186557,1,8,0:0:0:0:
256,192,186724,1,8,0:0:0:0:
256,192,186807,1,8,0:0:0:0:
256,192,186890,1,0,0:0:0:0:
256,192,187057,1,0,0:0:0:0:
256,192,187224,1,8,0:0:0:0:
256,192,187557,1,0,0:0:0:0:
256,192,187890,1,8,0:0:0:0:
256,192,188057,1,0,0:0:0:0:
256,192,188140,1,0,0:0:0:0:
256,192,188224,1,8,0:0:0:0:
256,192,188390,1,0,0:0:0:0:
256,192,188557,1,8,0:0:0:0:
256,192,188724,1,8,0:0:0:0:
256,192,188890,1,8,0:0:0:0:
256,192,188974,1,8,0:0:0:0:
256,192,189057,1,0,0:0:0:0:
256,192,189224,1,8,0:0:0:0:
256,192,189390,1,8,0:0:0:0:
256,192,189557,1,0,0:0:0:0:
256,192,189890,1,8,0:0:0:0:
256,192,190224,1,0,0:0:0:0:
256,192,190390,1,0,0:0:0:0:
256,192,190557,1,8,0:0:0:0:
256,192,190724,1,0,0:0:0:0:
256,192,191057,1,0,0:0:0:0:
256,192,191224,1,8,0:0:0:0:
256,192,191390,1,8,0:0:0:0:
256,192,191557,1,0,0:0:0:0:
256,192,191724,1,0,0:0:0:0:
256,192,191890,1,8,0:0:0:0:
256,192,192057,1,8,0:0:0:0:
256,192,196224,5,12,0:0:0:0:
256,192,198890,1,0,0:0:0:0:
256,192,199224,1,12,0:0:0:0:
256,192,199557,1,8,0:0:0:0:
256,192,199724,1,0,0:0:0:0:
256,192,199890,1,0,0:0:0:0:
256,192,200057,1,0,0:0:0:0:
256,192,200224,1,12,0:0:0:0:
256,192,200390,1,12,0:0:0:0:
256,192,200890,1,4,0:0:0:0:
256,192,201057,1,4,0:0:0:0:
256,192,201557,1,12,0:0:0:0:
256,192,201890,1,8,0:0:0:0:
256,192,202057,1,0,0:0:0:0:
256,192,202224,1,8,0:0:0:0:
256,192,202307,1,8,0:0:0:0:
256,192,202390,1,0,0:0:0:0:
256,192,202557,1,8,0:0:0:0:
256,192,202724,1,8,0:0:0:0:
256,192,202890,1,0,0:0:0:0:
256,192,203057,1,0,0:0:0:0:
256,192,203224,1,8,0:0:0:0:
256,192,203307,1,8,0:0:0:0:
256,192,203390,1,0,0:0:0:0:
256,192,203557,1,0,0:0:0:0:
256,192,203724,1,0,0:0:0:0:
256,192,203890,1,8,0:0:0:0:
256,192,203974,1,0,0:0:0:0:
256,192,204057,1,8,0:0:0:0:
256,192,204224,1,0,0:0:0:0:
256,192,204557,1,8,0:0:0:0:
256,192,204724,1,0,0:0:0:0:
256,192,204890,1,8,0:0:0:0:
256,192,204974,1,0,0:0:0:0:
256,192,205057,1,0,0:0:0:0:
256,192,205224,1,8,0:0:0:0:
256,192,205307,1,0,0:0:0:0:
256,192,205390,1,8,0:0:0:0:
256,192,205474,1,8,0:0:0:0:
256,192,205557,1,0,0:0:0:0:
256,192,205890,1,8,0:0:0:0:
256,192,206057,1,0,0:0:0:0:
256,192,206224,1,8,0:0:0:0:
256,192,206307,1,0,0:0:0:0:
256,192,206390,1,0,0:0:0:0:
256,192,206557,1,8,0:0:0:0:
256,192,206724,1,0,0:0:0:0:
256,192,206890,1,8,0:0:0:0:
256,192,206974,1,0,0:0:0:0:
256,192,207057,1,8,0:0:0:0:
256,192,207224,1,8,0:0:0:0:
256,192,207390,1,0,0:0:0:0:
256,192,207557,1,8,0:0:0:0:
256,192,207724,1,0,0:0:0:0:
256,192,207890,1,8,0:0:0:0:
256,192,208057,1,8,0:0:0:0:
256,192,208140,1,8,0:0:0:0:
256,192,208224,1,0,0:0:0:0:
256,192,208390,1,8,0:0:0:0:
256,192,208724,1,0,0:0:0:0:
256,192,208890,1,8,0:0:0:0:
256,192,208974,1,0,0:0:0:0:
256,192,209057,1,0,0:0:0:0:
256,192,209224,1,8,0:0:0:0:
256,192,209390,1,8,0:0:0:0:
256,192,209474,1,8,0:0:0:0:
256,192,209557,1,0,0:0:0:0:
256,192,209890,1,8,0:0:0:0:
256,192,210057,1,0,0:0:0:0:
256,192,210224,1,8,0:0:0:0:
256,192,210390,1,0,0:0:0:0:
256,192,210557,1,0,0:0:0:0:
256,192,210640,1,0,0:0:0:0:
256,192,210724,1,12,0:0:0:0:
256,192,211057,1,0,0:0:0:0:
256,192,211224,1,8,0:0:0:0:
256,192,211390,1,0,0:0:0:0:
256,192,211557,1,8,0:0:0:0:
256,192,211724,1,0,0:0:0:0:
256,192,211807,1,0,0:0:0:0:
256,192,211890,1,8,0:0:0:0:
256,192,211974,1,8,0:0:0:0:
256,192,212057,1,0,0:0:0:0:
256,192,212140,1,0,0:0:0:0:
256,192,212224,1,12,0:0:0:0:
256,192,212557,1,12,0:0:0:0:
256,192,212724,1,0,0:0:0:0:
256,192,212890,1,8,0:0:0:0:
256,192,212974,1,8,0:0:0:0:
256,192,213057,1,0,0:0:0:0:
256,192,213224,1,8,0:0:0:0:
256,192,213390,1,0,0:0:0:0:
256,192,213557,1,8,0:0:0:0:
256,192,213724,1,0,0:0:0:0:
256,192,213890,1,8,0:0:0:0:
256,192,213974,1,8,0:0:0:0:
256,192,214057,1,0,0:0:0:0:
256,192,214224,1,0,0:0:0:0:
256,192,214390,1,0,0:0:0:0:
256,192,214557,1,8,0:0:0:0:
256,192,214640,1,0,0:0:0:0:
256,192,214724,1,8,0:0:0:0:
256,192,214890,1,0,0:0:0:0:
256,192,215224,1,8,0:0:0:0:
256,192,215390,1,0,0:0:0:0:
256,192,215557,1,8,0:0:0:0:
256,192,215640,1,0,0:0:0:0:
256,192,215724,1,0,0:0:0:0:
256,192,215890,1,8,0:0:0:0:
256,192,215974,1,0,0:0:0:0:
256,192,216057,1,8,0:0:0:0:
256,192,216140,1,8,0:0:0:0:
256,192,216224,1,0,0:0:0:0:
256,192,216557,1,8,0:0:0:0:
256,192,216724,1,0,0:0:0:0:
256,192,216890,1,8,0:0:0:0:
256,192,216974,1,0,0:0:0:0:
256,192,217057,1,8,0:0:0:0:
256,192,217224,1,0,0:0:0:0:
256,192,217390,1,0,0:0:0:0:
256,192,217557,1,8,0:0:0:0:
256,192,217724,1,0,0:0:0:0:
256,192,217807,1,0,0:0:0:0:
256,192,217890,1,8,0:0:0:0:
256,192,218057,1,8,0:0:0:0:
256,192,218224,1,0,0:0:0:0:
256,192,218390,1,0,0:0:0:0:
256,192,218557,1,8,0:0:0:0:
256,192,218724,1,8,0:0:0:0:
256,192,218807,1,0,0:0:0:0:
256,192,218890,1,0,0:0:0:0:
256,192,219224,1,8,0:0:0:0:
256,192,219390,1,0,0:0:0:0:
256,192,219557,1,8,0:0:0:0:
256,192,219724,1,0,0:0:0:0:
256,192,219807,1,0,0:0:0:0:
256,192,219890,1,8,0:0:0:0:
256,192,219974,1,0,0:0:0:0:
256,192,220057,1,8,0:0:0:0:
256,192,220140,1,8,0:0:0:0:
256,192,220224,1,4,0:0:0:0:
256,192,220557,1,8,0:0:0:0:
256,192,220724,1,0,0:0:0:0:
256,192,220890,1,8,0:0:0:0:
256,192,220974,1,0,0:0:0:0:
256,192,221057,1,0,0:0:0:0:
256,192,221224,1,8,0:0:0:0:
256,192,221557,1,8,0:0:0:0:
256,192,221724,1,0,0:0:0:0:
256,192,221890,1,8,0:0:0:0:
256,192,222057,1,0,0:0:0:0:
256,192,222224,1,8,0:0:0:0:
256,192,222307,1,0,0:0:0:0:
256,192,222390,1,0,0:0:0:0:
256,192,222557,1,8,0:0:0:0:
256,192,222890,1,8,0:0:0:0:
256,192,223057,1,0,0:0:0:0:
256,192,223224,1,8,0:0:0:0:
256,192,223390,1,8,0:0:0:0:
256,192,223557,1,8,0:0:0:0:
256,192,223640,1,0,0:0:0:0:
256,192,223724,1,0,0:0:0:0:
256,192,223890,1,8,0:0:0:0:
256,192,224224,1,8,0:0:0:0:
256,192,224390,1,0,0:0:0:0:
256,192,224557,1,8,0:0:0:0:
256,192,224724,1,0,0:0:0:0:
256,192,224890,1,8,0:0:0:0:
256,192,224974,1,0,0:0:0:0:
256,192,225057,1,0,0:0:0:0:
256,192,225224,1,8,0:0:0:0:
256,192,225307,1,0,0:0:0:0:
256,192,225390,1,8,0:0:0:0:
256,192,225474,1,8,0:0:0:0:
256,192,225557,1,4,0:0:0:0:
256,192,225890,1,8,0:0:0:0:
256,192,226057,1,0,0:0:0:0:
256,192,226224,1,8,0:0:0:0:
256,192,226307,1,0,0:0:0:0:
256,192,226390,1,0,0:0:0:0:
256,192,226557,1,8,0:0:0:0:
256,192,226890,1,8,0:0:0:0:
256,192,227057,1,0,0:0:0:0:
256,192,227224,1,8,0:0:0:0:
256,192,227390,1,0,0:0:0:0:
256,192,227557,1,8,0:0:0:0:
256,192,227640,1,8,0:0:0:0:
256,192,227724,1,0,0:0:0:0:
256,192,227890,1,8,0:0:0:0:
256,192,228224,1,8,0:0:0:0:
256,192,228390,1,0,0:0:0:0:
256,192,228557,1,8,0:0:0:0:
256,192,228724,1,0,0:0:0:0:
256,192,228890,1,0,0:0:0:0:
256,192,228974,1,0,0:0:0:0:
256,192,229057,1,0,0:0:0:0:
256,192,229224,1,8,0:0:0:0:
256,192,229557,1,8,0:0:0:0:
256,192,229724,1,0,0:0:0:0:
256,192,229807,1,0,0:0:0:0:
256,192,229890,1,8,0:0:0:0:
256,192,230057,1,0,0:0:0:0:
256,192,230140,1,0,0:0:0:0:
256,192,230224,1,8,0:0:0:0:
256,192,230390,1,0,0:0:0:0:
256,192,230474,1,0,0:0:0:0:
256,192,230557,1,8,0:0:0:0:
256,192,230640,1,0,0:0:0:0:
256,192,230724,1,8,0:0:0:0:
256,192,230807,1,8,0:0:0:0:
256,192,230890,1,4,0:0:0:0:
256,192,231224,1,0,0:0:0:0:
256,192,231390,1,0,0:0:0:0:
256,192,231557,1,8,0:0:0:0:
256,192,231640,1,0,0:0:0:0:
256,192,231724,1,0,0:0:0:0:
256,192,231890,1,8,0:0:0:0:
256,192,232224,1,0,0:0:0:0:
256,192,232390,1,0,0:0:0:0:
256,192,232557,1,8,0:0:0:0:
256,192,232724,1,0,0:0:0:0:
256,192,232890,1,8,0:0:0:0:
256,192,232974,1,8,0:0:0:0:
256,192,233057,1,0,0:0:0:0:
256,192,233224,1,8,0:0:0:0:
256,192,233557,1,0,0:0:0:0:
256,192,233724,1,0,0:0:0:0:
256,192,233890,1,8,0:0:0:0:
256,192,234057,1,0,0:0:0:0:
256,192,234224,1,8,0:0:0:0:
256,192,234307,1,8,0:0:0:0:
256,192,234390,1,8,0:0:0:0:
256,192,234557,1,0,0:0:0:0:
256,192,234890,1,0,0:0:0:0:
256,192,235057,1,0,0:0:0:0:
256,192,235224,1,8,0:0:0:0:
256,192,235390,1,0,0:0:0:0:
256,192,235557,1,8,0:0:0:0:
256,192,235640,1,0,0:0:0:0:
256,192,235724,1,0,0:0:0:0:
256,192,235890,1,8,0:0:0:0:
256,192,236224,1,12,0:0:0:0:
256,192,237557,1,4,0:0:0:0:
256,192,238890,1,12,0:0:0:0:
