osu file format v14

[General]
AudioFilename: audio.mp3
AudioLeadIn: 0
PreviewTime: 36385
Countdown: 1
SampleSet: Soft
StackLeniency: 0.7
Mode: 0
LetterboxInBreaks: 0
WidescreenStoryboard: 0

[Editor]
Bookmarks: 443,23032,37149,56914,59738,71032,93620,107738,127502,138796,150091,161385,172679,203738,220679
DistanceSpacing: 1.1
BeatDivisor: 3
GridSize: 16
TimelineZoom: 2.599999

[Metadata]
Title:Hitchcock
TitleUnicode:ヒッチコック
Artist:Yorushika
ArtistUnicode:ヨルシカ
Creator:BAKKALO
Version:Is it selfish if I just want to know you?
Source:
Tags:Makeinu ni Alcohol wa Iranai
BeatmapID:2086540
BeatmapSetID:997535

[Difficulty]
HPDrainRate:6
CircleSize:4
OverallDifficulty:9.2
ApproachRate:9.4
SliderMultiplier:2.2
SliderTickRate:1

[Events]
//Background and Video events
0,0,"1 bKlVmOGRWFqiKYuK_0kCxw.png",0,0
//Break Periods
//Storyboard Layer 0 (Background)
//Storyboard Layer 1 (Fail)
//Storyboard Layer 2 (Pass)
//Storyboard Layer 3 (Foreground)
//Storyboard Layer 4 (Overlay)
//Storyboard Sound Samples

[TimingPoints]
444,352.941176470588,4,2,0,30,1,0
444,-142.857142857143,4,2,0,30,0,0
23032,-100,4,2,0,30,0,0
34326,-83.3333333333333,4,2,0,30,0,0
34914,-142.857142857143,4,2,0,30,0,0
35620,-111.111111111111,4,2,0,30,0,0
36091,-90.9090909090909,4,2,0,30,0,0
36443,-111.111111111111,4,2,0,30,0,0
37149,-76.9230769230769,4,2,0,30,0,1
48443,-76.9230769230769,4,2,0,30,0,1
56914,-142.857142857143,4,2,0,30,0,0
107738,-76.923076923077,4,2,0,30,0,1
127502,-200,4,2,0,30,0,0
172679,-76.9230769230769,4,2,0,30,0,1
203738,-125,4,2,0,30,0,0

[HitObjects]
45,211,444,6,0,L|66:368,1,153.999995300293
125,140,1149,2,0,L|146:297,1,153.999995300293
145,292,1738,1,0,0:0:0:0:
45,211,1855,5,0,0:0:0:0:
45,211,2091,1,0,0:0:0:0:
220,195,2208,2,0,P|268:174|304:126,1,102.666663533529
211,99,2561,1,0,0:0:0:0:
309,281,2796,1,0,0:0:0:0:
309,281,2914,1,0,0:0:0:0:
378,88,3149,1,0,0:0:0:0:
378,88,3267,6,0,P|388:178|447:250,1,153.999995300293
499,0,3973,2,0,P|462:82|477:174,1,153.999995300293
469,313,4679,5,0,0:0:0:0:
469,313,4914,1,0,0:0:0:0:
376,382,5032,2,0,P|312:353|216:369,2,153.999995300293
172,263,5973,1,0,0:0:0:0:
172,263,6091,6,0,P|222:268|271:252,1,102.666663533529
230,361,6443,1,0,0:0:0:0:
365,269,6679,1,0,0:0:0:0:
365,269,6797,2,0,L|361:158,1,102.666663533529
271,251,7149,1,0,0:0:0:0:
361,166,7385,1,0,0:0:0:0:
220,105,7502,5,0,0:0:0:0:
220,105,7738,1,0,0:0:0:0:
387,28,7855,2,0,P|439:50|483:98,1,102.666663533529
472,81,8208,1,0,0:0:0:0:
284,25,8443,1,0,0:0:0:0:
284,25,8561,1,0,0:0:0:0:
147,153,8796,1,0,0:0:0:0:
147,153,8914,6,0,L|312:133,1,153.999995300293
111,41,9620,2,0,P|53:94|30:167,1,153.999995300293
64,318,10326,5,0,0:0:0:0:
64,318,10561,1,0,0:0:0:0:
178,299,10679,2,0,P|147:229|147:153,2,153.999995300293
271,360,11620,1,0,0:0:0:0:
271,360,11738,6,0,L|405:343,1,102.666663533529
475,381,12091,1,0,0:0:0:0:
388,241,12326,1,0,0:0:0:0:
388,241,12444,2,0,L|405:107,1,102.666663533529
355,42,12797,1,0,0:0:0:0:
355,42,13032,1,0,0:0:0:0:
483,100,13149,5,0,0:0:0:0:
483,100,13385,1,0,0:0:0:0:
310,165,13502,2,0,P|265:131|189:124,1,102.666663533529
127,139,13855,1,0,0:0:0:0:
262,14,14090,1,0,0:0:0:0:
262,14,14208,1,0,0:0:0:0:
72,0,14443,1,0,0:0:0:0:
71,0,14561,6,0,P|88:74|72:149,1,153.999995300293
181,126,15267,2,0,P|157:199|107:257,1,153.999995300293
257,257,15973,5,0,0:0:0:0:
257,257,16208,1,0,0:0:0:0:
353,192,16326,2,0,L|342:32,2,153.999995300293
434,381,17385,6,0,L|277:360,1,153.999995300293
505,301,18090,2,0,L|348:280,1,153.999995300293
353,281,18679,1,0,0:0:0:0:
434,381,18796,5,0,0:0:0:0:
434,381,19032,1,0,0:0:0:0:
450,206,19149,2,0,P|471:158|519:122,1,102.666663533529
509,126,19502,1,0,0:0:0:0:
442,293,19738,1,0,0:0:0:0:
442,293,19855,1,0,0:0:0:0:
262,268,20091,1,0,0:0:0:0:
262,268,20208,6,0,L|95:283,1,153.999995300293
257,148,20914,2,0,P|334:172|380:239,1,153.999995300293
108,281,21620,5,0,0:0:0:0:
108,281,21855,1,0,0:0:0:0:
41,188,21973,2,0,P|95:145|124:64,2,153.999995300293
222,5,22855,1,0,0:0:0:0:
222,5,22943,1,0,0:0:0:0:
222,5,23032,6,0,P|228:98|309:206,1,220
419,74,23620,1,0,0:0:0:0:
508,113,23738,2,0,L|356:121,1,146.666666666667
508,113,24091,1,0,0:0:0:0:
299,199,24443,6,0,P|303:278|255:349,1,146.666666666667
181,372,24796,1,0,0:0:0:0:
405,224,25149,1,0,0:0:0:0:
125,293,25385,1,0,0:0:0:0:
214,254,25503,2,0,L|62:246,1,146.666666666667
40,106,25855,6,0,B|93:160|68:246|68:246|81:202|124:178,1,220
191,75,26326,1,0,0:0:0:0:
187,45,26443,1,0,0:0:0:0:
184,15,26561,1,0,0:0:0:0:
308,130,26796,1,0,0:0:0:0:
449,37,26914,1,0,0:0:0:0:
449,37,27267,6,0,B|413:159|489:132|454:266,1,220
364,338,27855,1,0,0:0:0:0:
337,215,27973,1,0,0:0:0:0:
337,215,28208,1,0,0:0:0:0:
260,274,28326,2,0,P|331:241|406:254,1,146.666666666667
216,384,28679,6,0,P|152:290|30:265,1,220
11,171,29149,1,0,0:0:0:0:
39,175,29267,1,0,0:0:0:0:
94,157,29385,1,0,0:0:0:0:
54,261,29620,1,0,0:0:0:0:
40,80,29738,1,0,0:0:0:0:
40,80,30091,6,0,B|124:71|124:71|186:88|186:88|256:81,1,220
396,170,30679,1,0,0:0:0:0:
352,91,30796,2,0,P|353:54|366:20,1,73.3333333333333
482,152,31032,1,0,0:0:0:0:
389,259,31149,2,0,L|243:242,1,146.666666666667
162,384,31502,6,0,P|217:344|303:339,1,146.666666666667
389,259,31855,1,0,0:0:0:0:
387,229,31973,1,0,0:0:0:0:
385,199,32091,1,0,0:0:0:0:
437,117,32208,2,0,B|493:165|493:165|346:148,1,220
230,11,32796,1,0,0:0:0:0:
230,11,32914,5,0,0:0:0:0:
82,138,33149,1,0,0:0:0:0:
128,226,33267,2,0,L|118:80,1,146.666666666667
128,226,33620,1,0,0:0:0:0:
136,359,33855,1,0,0:0:0:0:
33,335,33973,2,0,P|104:322|173:343,1,146.666666666667
303,234,34326,6,0,P|258:239|220:258,1,87.9999973144532
268,368,34561,1,0,0:0:0:0:
322,147,34679,1,0,0:0:0:0:
322,147,34914,6,0,L|332:1,1,102.666663533529
494,81,35267,2,0,P|458:117|399:134,1,102.666663533529
329,44,35620,1,0,0:0:0:0:
277,248,35973,1,0,0:0:0:0:
460,218,36091,1,0,0:0:0:0:
502,372,36326,1,0,0:0:0:0:
220,357,36443,2,0,P|180:277|67:227,1,197.99999395752
286,42,37149,6,0,P|166:115|28:96,2,285.99998690796
191,6,38091,1,0,0:0:0:0:
233,130,38208,2,0,P|309:176|438:172,1,190.66665793864
504,25,38561,6,0,L|511:237,1,190.66665793864
415,94,38914,1,0,0:0:0:0:
415,94,39267,1,0,0:0:0:0:
488,298,39502,1,0,0:0:0:0:
409,353,39620,2,0,P|364:335|317:330,1,95.3333289693199
189,247,39855,1,0,0:0:0:0:
212,376,39973,6,0,B|242:179|242:179|189:247,1,285.99998690796
18,111,40561,1,0,0:0:0:0:
83,33,40679,2,0,P|131:14|197:13,1,95.3333289693199
242,180,40914,1,0,0:0:0:0:
157,130,41032,2,0,P|252:153|370:146,1,190.66665793864
460,255,41385,6,0,B|390:226|322:275|322:275|254:324|151:279,1,285.99998690796
410,365,42091,1,0,0:0:0:0:
453,64,42326,1,0,0:0:0:0:
453,64,42443,2,0,L|460:276,1,190.66665793864
308,357,42796,6,0,P|325:312|357:278,1,95.3333289693199
459,254,43032,1,0,0:0:0:0:
340,99,43149,2,0,P|313:138|305:184,1,95.3333289693199
357,278,43385,1,0,0:0:0:0:
204,380,43502,2,0,P|161:358|130:322,1,95.3333289693199
96,221,43738,1,0,0:0:0:0:
215,147,43855,2,0,P|162:212|50:243,1,190.66665793864
33,31,44208,6,0,L|341:38,2,285.99998690796
346,362,45149,1,0,0:0:0:0:
461,316,45267,6,0,L|270:320,1,190.66665793864
420,211,45620,1,0,0:0:0:0:
420,211,45973,1,0,0:0:0:0:
132,335,46208,1,0,0:0:0:0:
49,207,46326,2,0,P|139:229|215:301,1,190.66665793864
49,207,46679,1,0,0:0:0:0:
263,52,46914,6,0,P|321:158|318:349,1,285.99998690796
305,367,47385,6,0,P|334:273|327:183,1,190.66665793864
276,70,47738,1,0,0:0:0:0:
203,48,47855,1,0,0:0:0:0:
120,71,47973,1,0,0:0:0:0:
70,141,48091,1,0,0:0:0:0:
66,235,48208,1,0,0:0:0:0:
130,318,48326,1,0,0:0:0:0:
233,327,48443,6,0,P|210:209|62:142,2,285.99998690796
