osu file format v14

[General]
AudioFilename: audio.mp3
AudioLeadIn: 0
PreviewTime: 115053
Countdown: 0
SampleSet: Soft
StackLeniency: 0.2
Mode: 0
LetterboxInBreaks: 0
EpilepsyWarning: 1
WidescreenStoryboard: 1

[Editor]
DistanceSpacing: 1.1
BeatDivisor: 4
GridSize: 32
TimelineZoom: 1.8

[Metadata]
Title:Hirutonbi
TitleUnicode:昼鳶
Artist:Yorushika
ArtistUnicode:ヨルシカ
Creator:alevi
Version:renzthegreat's insane
Source:
Tags:burglar japanese jrock j-rock female vocalist suis スイ n-buna ナブナ plagiarism 盗作 third 3rd full album renzthegreat casperisapotato ponbot yuuma3 silent rock silent_rock airiesu mujina
BeatmapID:3479401
BeatmapSetID:1701302

[Difficulty]
HPDrainRate:5
CircleSize:3.5
OverallDifficulty:8
ApproachRate:9
SliderMultiplier:2
SliderTickRate:1

[Events]
//Background and Video events
0,0,"bg.jpg",0,0
//Break Periods
2,75907,76953
2,92522,93799
2,146061,147107
//Storyboard Layer 0 (Background)
//Storyboard Layer 1 (Fail)
//Storyboard Layer 2 (Pass)
//Storyboard Layer 3 (Foreground)
//Storyboard Layer 4 (Overlay)
//Storyboard Sound Samples

[TimingPoints]
15,461.538461538462,4,2,1,40,1,0
15,-133.333333333333,4,2,1,40,0,0
2784,-200,4,2,1,40,0,0
3245,-133.333333333333,4,2,1,40,0,0
6476,-250,4,2,1,40,0,0
7399,-111.111111111111,4,2,1,55,0,0
10630,-100,4,2,1,55,0,0
11091,-111.111111111111,4,2,1,55,0,0
13861,-100,4,2,1,55,0,0
14784,-111.111111111111,4,2,1,55,0,0
18015,-100,4,2,1,55,0,0
18476,-111.111111111111,4,2,1,55,0,0
21245,-100,4,2,1,55,0,0
22168,-133.333333333333,4,2,1,50,0,0
22860,-133.333333333333,4,2,1,50,0,0
23091,-133.333333333333,4,2,1,50,0,0
23437,-133.333333333333,4,2,1,50,0,0
23553,-133.333333333333,4,2,1,50,0,0
24130,-133.333333333333,4,2,1,50,0,0
24245,-133.333333333333,4,2,1,50,0,0
24360,-133.333333333333,4,2,1,50,0,0
24476,-133.333333333333,4,2,1,50,0,0
27822,-133.333333333333,4,2,1,50,0,0
27938,-133.333333333333,4,2,1,50,0,0
28053,-133.333333333333,4,2,1,50,0,0
28168,-133.333333333333,4,2,1,50,0,0
28514,-133.333333333333,4,2,1,50,0,0
28630,-133.333333333333,4,2,1,50,0,0
31514,-133.333333333333,4,2,1,50,0,0
31630,-133.333333333333,4,2,1,50,0,0
31745,-133.333333333333,4,2,1,50,0,0
31861,-133.333333333333,4,2,1,50,0,0
32322,-133.333333333333,4,2,1,50,0,0
32553,-133.333333333333,4,2,1,50,0,0
35206,-133.333333333333,4,2,1,50,0,0
35322,-133.333333333333,4,2,1,50,0,0
35437,-133.333333333333,4,2,1,50,0,0
35553,-133.333333333333,4,2,1,50,0,0
35783,-133.333333333333,4,2,1,50,0,0
36015,-133.333333333333,4,2,1,50,0,0
36938,-111.111111111111,4,2,1,55,0,0
40168,-100,4,2,1,55,0,0
40629,-111.111111111111,4,2,1,55,0,0
43399,-125,4,2,1,55,0,0
44322,-133.333333333333,4,2,1,50,0,0
45130,-133.333333333333,4,2,1,50,0,0
45245,-133.333333333333,4,2,1,50,0,0
46283,-133.333333333333,4,2,1,50,0,0
46399,-133.333333333333,4,2,1,50,0,0
46514,-133.333333333333,4,2,1,50,0,0
46630,-133.333333333333,4,2,1,50,0,0
49976,-133.333333333333,4,2,1,50,0,0
50091,-133.333333333333,4,2,1,50,0,0
50206,-133.333333333333,4,2,1,50,0,0
50322,-133.333333333333,4,2,1,50,0,0
50668,-133.333333333333,4,2,1,50,0,0
50784,-133.333333333333,4,2,1,50,0,0
53668,-133.333333333333,4,2,1,50,0,0
53784,-133.333333333333,4,2,1,50,0,0
53899,-133.333333333333,4,2,1,50,0,0
54015,-133.333333333333,4,2,1,50,0,0
57245,-111.111111111111,4,2,1,55,0,0
59784,-133.333333333333,4,2,1,55,0,0
60015,-133.333333333333,4,2,3,55,0,0
60130,-133.333333333333,4,2,1,55,0,0
60880,-133.333333333333,4,2,1,55,0,0
60938,-90.9090909090909,4,2,1,80,0,1
72476,-83.3333333333333,4,2,1,80,0,1
72938,-76.9230769230769,4,2,1,80,0,1
73399,-71.4285714285714,4,2,1,80,0,1
73861,-66.6666666666667,4,2,1,80,0,1
74322,-71.4285714285714,4,2,1,80,0,1
74553,-76.9230769230769,4,2,1,80,0,1
75015,-83.3333333333333,4,2,1,80,0,1
75707,-400,4,2,1,70,0,0
77553,-111.111111111111,4,2,1,55,0,0
80784,-100,4,2,1,55,0,0
81245,-111.111111111111,4,2,1,55,0,0
84015,-200,4,2,1,55,0,0
84938,-111.111111111111,4,2,1,55,0,0
88168,-100,4,2,1,55,0,0
88630,-111.111111111111,4,2,1,55,0,0
91399,-100,4,2,1,55,0,0
92322,-166.666666666667,4,2,1,45,0,0
94399,-90.9090909090909,4,2,1,65,0,0
95553,-99.9999999999999,4,2,1,65,0,0
95784,-111.111111111111,4,2,1,65,0,0
96015,-133.333333333333,4,2,1,50,0,0
107091,-111.111111111111,4,2,1,55,0,0
113553,-100,4,2,1,55,0,0
114476,-133.333333333333,4,2,1,55,0,0
115168,-133.333333333333,4,2,1,55,0,0
115399,-133.333333333333,4,2,3,55,0,0
115515,-133.333333333333,4,2,1,55,0,0
116207,-133.333333333333,4,2,2,55,0,0
116264,-133.333333333333,4,2,2,55,0,0
116322,-166.666666666667,4,2,2,50,0,0
127399,-222.222222222222,4,2,1,55,0,0
131091,-90.9090909090909,4,2,1,80,0,1
136630,-76.9230769230769,4,2,1,80,0,1
138015,-90.9090909090909,4,2,1,80,0,1
142629,-83.3333333333333,4,2,1,80,0,1
143091,-76.9230769230769,4,2,1,80,0,1
143552,-71.4285714285714,4,2,1,80,0,1
144014,-66.6666666666667,4,2,1,80,0,1
144476,-71.4285714285714,4,2,1,80,0,1
144707,-76.9230769230769,4,2,1,80,0,1
145168,-83.3333333333333,4,2,1,80,0,1
145861,-400,4,2,1,70,0,0
147707,-111.111111111111,4,2,1,55,0,0
150938,-100,4,2,1,55,0,0
151399,-111.111111111111,4,2,1,55,0,0
154168,-100,4,2,1,55,0,0
155091,-111.111111111111,4,2,1,55,0,0
158323,-100,4,2,1,55,0,0
158784,-111.111111111111,4,2,1,55,0,0
160630,-166.666666666667,4,2,1,65,0,0
162015,-166.666666666667,4,2,1,45,0,0

[Colours]
Combo1 : 164,100,240
Combo2 : 230,110,150
Combo3 : 100,200,200
Combo4 : 130,120,255

[HitObjects]
68,0,7399,70,0,P|31:23|27:66,1,89.9999972534181,6|0,3:1|0:0,0:0:0:0:
108,154,7745,2,0,P|99:129|84:121,1,44.999998626709,2|0,3:1|1:0,0:0:0:0:
13,208,7976,1,2,3:1:0:0:
85,354,8207,1,0,3:0:0:0:
89,350,8322,2,0,P|100:303|114:263,1,89.9999972534181,2|0,3:1|0:0,0:0:0:0:
199,231,8668,2,0,P|198:210|184:190,1,44.999998626709,2|0,3:1|1:0,0:0:0:0:
321,341,9015,2,0,P|338:356|361:357,1,44.999998626709,2|0,3:1|0:0,0:0:0:0:
476,384,9245,6,0,P|477:340|442:315,1,89.9999972534181,2|0,3:1|0:0,0:0:0:0:
372,264,9591,2,0,P|386:221|426:209,1,89.9999972534181,2|2,3:1|3:1,0:0:0:0:
508,91,10053,1,0,3:0:0:0:
512,95,10168,2,0,P|511:117|501:137,1,44.999998626709,2|0,3:1|3:0,0:0:0:0:
340,62,10399,6,0,L|347:41,3,22.4999993133545,2|0|0|0,3:1|0:0|3:0|0:0,0:0:0:0:
345,79,10630,2,0,B|282:68|273:14|273:14|256:33|233:33,1,150,2|0,1:1|0:0,0:0:0:0:
118,109,11091,6,0,P|120:65|154:38,1,89.9999972534181,2|0,3:1|0:0,0:0:0:0:
278,135,11438,2,0,P|274:156|258:171,1,44.999998626709,2|0,3:1|1:0,0:0:0:0:
171,180,11668,1,2,3:1:0:0:
30,275,11899,1,2,3:1:0:0:
29,275,12015,2,0,P|69:255|112:243,1,89.9999972534181,2|0,3:1|0:0,0:0:0:0:
239,277,12361,2,0,P|255:292|258:313,1,44.999998626709,2|0,3:1|1:0,0:0:0:0:
64,384,12707,2,0,P|67:363|84:348,1,44.999998626709,2|0,3:1|0:0,0:0:0:0:
172,335,12938,1,2,3:1:0:0:
329,363,13168,69,0,0:0:0:0:
307,384,13284,1,2,3:1:0:0:
392,265,13515,5,0,3:0:0:0:
388,290,13630,1,2,3:1:0:0:
502,378,13861,70,0,B|467:346|485:276|508:304|523:249|497:214,1,150,2|0,3:1|0:0,0:0:0:0:
511,213,14322,2,0,L|475:189,3,33.3333333333333,2|2|2|2,1:1|3:1|3:1|3:0,0:0:0:0:
483,194,14784,6,0,P|462:155|419:146,1,89.9999972534181,4|0,3:1|0:0,0:0:0:0:
363,64,15130,2,0,P|345:78|335:98,1,44.999998626709,2|0,3:1|1:0,0:0:0:0:
344,187,15361,1,2,3:1:0:0:
448,67,15591,1,0,3:0:0:0:
443,62,15707,2,0,P|398:53|358:34,1,89.9999972534181,2|0,3:1|0:0,0:0:0:0:
274,0,16053,2,0,P|256:14|246:34,1,44.999998626709,2|0,3:1|1:0,0:0:0:0:
256,204,16400,2,0,P|254:182|243:163,1,44.999998626709,2|0,3:1|0:0,0:0:0:0:
151,114,16630,70,0,P|107:121|78:155,1,89.9999972534181,2|0,3:1|0:0,0:0:0:0:
5,102,16976,2,0,P|13:58|49:26,1,89.9999972534181,2|2,3:1|3:1,0:0:0:0:
219,41,17438,1,0,3:0:0:0:
222,44,17553,2,0,P|229:66|226:90,1,44.999998626709,2|0,3:1|3:0,0:0:0:0:
134,215,17784,6,0,L|126:188,3,22.4999993133545,2|0|0|0,3:1|0:0|3:0|0:0,0:0:0:0:
149,228,18015,2,0,B|104:250|54:230|54:230|25:242|24:269,1,150,2|0,1:1|0:0,0:0:0:0:
126,384,18476,70,0,P|168:372|187:333,1,89.9999972534181,2|0,3:1|0:0,0:0:0:0:
291,300,18822,2,0,P|291:278|283:257,1,44.999998626709,2|0,3:1|1:0,0:0:0:0:
242,189,19053,1,2,3:1:0:0:
376,278,19284,1,2,3:1:0:0:
380,282,19399,2,0,P|423:274|449:238,1,89.9999972534181,2|0,3:1|0:0,0:0:0:0:
397,167,19745,2,0,P|374:167|353:159,1,44.999998626709,2|0,3:1|1:0,0:0:0:0:
412,0,20091,2,0,P|432:8|445:26,1,44.999998626709,2|0,3:1|0:0,0:0:0:0:
453,108,20322,5,2,3:1:0:0:
324,60,20553,69,0,0:0:0:0:
312,27,20668,1,2,3:1:0:0:
178,77,20899,5,0,3:0:0:0:
191,13,21015,1,2,3:1:0:0:
69,88,21245,70,0,B|83:77|91:66|91:66|91:120|127:145,1,100,2|2,3:1|3:0,0:0:0:0:
87,226,21707,2,0,B|121:206|122:159|122:159|86:134|86:80|86:80|78:91|64:102,1,200,2|4,1:1|3:2,0:0:0:0:
8,302,22399,5,2,0:0:0:0:
8,302,22630,2,0,P|59:307|77:323,1,75.0000028610231,2|0,1:2|0:0,0:0:0:0:
179,384,23091,2,0,P|163:327|207:282,1,112.500004291535,2|0,0:2|0:0,0:0:0:0:
196,283,23553,1,2,1:2:0:0:
266,367,23784,1,2,0:2:0:0:
408,190,24015,2,0,P|390:196|378:210,1,37.5000014305115,2|0,3:2|0:0,0:0:0:0:
299,220,24245,2,0,P|289:236|289:254,1,37.5000014305115,2|0,0:2|0:0,0:0:0:0:
459,383,24476,2,0,P|428:316|360:290,1,150.000005722046,2|0,1:2|3:0,0:0:0:0:
361,291,25168,1,2,0:2:0:0:
480,181,25399,2,0,P|442:177|407:189,1,75.0000028610231,2|2,1:2|0:2,0:0:0:0:
350,109,25861,6,0,P|412:70|430:0,1,150.000005722046,2|2,3:2|1:2,0:0:0:0:
235,27,26553,1,2,0:2:0:0:
270,96,26784,2,0,P|174:120|124:145,1,150.000005722046,2|2,0:2|1:2,0:0:0:0:
128,142,27476,1,2,0:2:0:0:
83,39,27707,70,0,P|71:53|67:71,1,37.5000014305115,2|0,3:2|0:0,0:0:0:0:
152,145,27938,2,0,P|148:127|137:113,1,37.5000014305115,2|0,0:2|0:0,0:0:0:0:
9,129,28168,2,0,P|0:146|0:164,3,37.5000014305115,2|0|2|0,1:2|3:0|0:0|0:0,0:0:0:0:
133,248,28630,2,0,B|129:231|116:219|116:219|95:233|84:249,1,75.0000028610231,0|0,3:0|0:0,0:0:0:0:
65,333,29091,2,0,B|59:274|114:234|114:234|127:246|131:263,1,150.000005722046,0|0,1:0|3:0,0:0:0:0:
156,384,29784,5,2,0:2:0:0:
156,383,30015,2,0,P|180:355|189:319,1,75.0000028610231,2|2,1:2|0:2,0:0:0:0:
333,338,30476,2,0,P|283:282|272:209,1,150.000005722046,2|2,0:2|1:2,0:0:0:0:
354,250,31168,1,2,0:2:0:0:
433,175,31399,2,0,P|414:176|397:184,1,37.5000014305115,2|0,3:2|0:0,0:0:0:0:
425,294,31630,2,0,P|432:276|435:258,1,37.5000014305115,2|0,0:2|0:0,0:0:0:0:
511,154,31861,2,0,P|476:88|409:58,1,150.000005722046,2|0,1:2|0:0,0:0:0:0:
223,35,32553,69,2,3:2:0:0:
289,2,32784,2,0,P|259:25|223:35,1,75.0000028610231,2|2,1:2|0:2,0:0:0:0:
223,34,33245,2,0,B|180:48|192:20|142:20|120:39|144:62|90:75,1,150.000005722046,2|2,3:2|1:2,0:0:0:0:
1,188,33938,1,2,0:2:0:0:
1,188,34168,2,0,P|5:143|34:106,1,75.0000028610231,2|2,0:2|3:2,0:0:0:0:
156,243,34630,2,0,P|148:207|126:172,1,75.0000028610231,2|2,1:2|0:2,0:0:0:0:
0,310,35091,6,0,P|0:291|7:273,1,37.5000014305115,2|0,3:2|0:0,0:0:0:0:
78,329,35322,2,0,P|82:310|91:294,1,37.5000014305115,2|0,0:2|0:0,0:0:0:0:
147,370,35553,2,0,P|154:352|166:338,3,37.5000014305115,2|0|0|0,1:2|3:0|0:0|0:0,0:0:0:0:
327,292,36015,2,0,P|421:311|466:342,1,150.000005722046,0|2,3:0|0:0,0:0:0:0:
463,339,36938,70,0,P|426:316|413:274,1,89.9999972534181,6|0,3:1|0:0,0:0:0:0:
482,137,37284,2,0,P|479:159|466:178,1,44.999998626709,2|0,3:1|1:0,0:0:0:0:
360,203,37515,1,2,3:1:0:0:
258,66,37745,1,0,3:0:0:0:
262,62,37861,2,0,P|303:45|347:33,1,89.9999972534181,2|0,3:1|0:0,0:0:0:0:
471,13,38207,2,0,P|467:35|454:53,1,44.999998626709,2|0,3:1|1:0,0:0:0:0:
297,112,38553,2,0,P|293:89|279:73,1,44.999998626709,2|0,3:1|0:0,0:0:0:0:
226,0,38784,6,0,P|190:26|182:69,1,89.9999972534181,2|0,3:1|0:0,0:0:0:0:
100,98,39130,2,0,P|62:74|51:32,1,89.9999972534181,2|2,3:1|3:1,0:0:0:0:
217,151,39591,1,0,3:0:0:0:
221,155,39707,2,0,P|217:177|203:193,1,44.999998626709,2|0,3:1|3:0,0:0:0:0:
45,260,39938,6,0,L|21:256,3,22.4999993133545,2|0|0|0,3:1|0:0|3:0|0:0,0:0:0:0:
56,247,40169,2,0,B|104:233|104:233|67:271|65:323,1,150,2|0,1:1|0:0,0:0:0:0:
243,380,40630,6,0,P|230:338|193:313,1,89.9999972534181,2|0,3:1|0:0,0:0:0:0:
136,255,40976,2,0,P|116:266|103:284,1,44.999998626709,2|0,3:1|1:0,0:0:0:0:
138,384,41207,1,2,3:1:0:0:
276,258,41438,1,2,3:1:0:0:
280,261,41553,2,0,P|302:300|320:341,1,89.9999972534181,2|0,3:1|0:0,0:0:0:0:
377,209,41900,2,0,P|356:199|334:199,1,44.999998626709,2|0,3:1|1:0,0:0:0:0:
471,356,42245,2,0,P|477:333|487:314,1,44.999998626709,2|0,3:1|0:0,0:0:0:0:
512,235,42476,69,2,3:1:0:0:
325,163,42707,5,0,0:0:0:0:
335,200,42822,1,2,3:1:0:0:
498,59,43053,69,0,3:0:0:0:
460,49,43168,1,2,3:1:0:0:
462,160,43399,6,0,B|427:95|353:84|353:84|333:73,1,160,2|0,3:1|3:0,0:0:0:0:
332,237,44553,5,2,0:2:0:0:
332,237,44784,2,0,P|334:181|388:157,1,112.500004291535,2|0,1:2|0:0,0:0:0:0:
378,149,45245,2,0,P|313:111|286:39,1,150.000005722046,2|2,0:2|1:2,0:0:0:0:
118,46,45938,1,2,0:2:0:0:
184,4,46168,2,0,P|193:23|193:57,1,37.5000014305115,2|0,3:2|0:0,0:0:0:0:
52,89,46399,2,0,P|43:72|40:53,1,37.5000014305115,2|0,0:2|0:0,0:0:0:0:
148,121,46630,2,0,P|94:179|95:253,1,150.000005722046,2|2,1:2|0:0,0:0:0:0:
0,300,47322,1,2,3:2:0:0:
0,300,47553,2,0,P|18:332|50:351,1,75.0000028610231,2|2,1:2|0:2,0:0:0:0:
223,384,48015,69,2,3:2:0:0:
198,309,48245,1,2,0:2:0:0:
147,363,48476,1,2,1:2:0:0:
194,198,48707,1,2,0:2:0:0:
300,317,48938,2,0,P|359:359|431:349,1,150.000005722046,2|2,0:2|1:2,0:0:0:0:
379,191,49630,1,2,0:2:0:0:
512,140,49861,6,0,P|499:153|482:162,1,37.5000014305115,2|0,3:2|0:0,0:0:0:0:
476,239,50091,2,0,P|456:244|424:239,1,37.5000014305115,2|0,0:2|0:0,0:0:0:0:
368,270,50322,2,0,P|349:261|328:237,3,37.5000014305115,2|0|2|0,1:2|3:0|0:0|0:0,0:0:0:0:
267,223,50784,2,0,P|266:149|317:97,1,150.000005722046,0|0,3:0|1:0,0:0:0:0:
461,18,51476,2,0,B|431:29|431:29|431:35|431:35|401:55,1,75.0000028610231,2|0,0:3|3:0,0:0:0:0:
469,1,51938,69,2,0:0:0:0:
420,125,52168,2,0,P|402:92|400:54,1,75.0000028610231,2|2,1:2|0:0,0:0:0:0:
270,96,52630,2,0,P|174:120|124:145,1,150.000005722046,2|2,0:2|1:2,0:0:0:0:
128,142,53322,1,2,0:2:0:0:
83,39,53553,6,0,P|71:53|67:71,1,37.5000014305115,2|0,3:2|0:0,0:0:0:0:
153,146,53784,2,0,P|148:127|137:113,1,37.5000014305115,2|0,0:2|0:0,0:0:0:0:
37,190,54015,1,2,1:2:0:0:
36,191,54130,2,0,P|8:239|8:295,1,112.500004291535,0|0,3:0|3:0,0:0:0:0:
120,372,54707,69,2,0:2:0:0:
171,300,54938,1,2,1:2:0:0:
241,332,55168,1,2,0:2:0:0:
120,372,55399,2,0,B|162:369|203:334|174:306|234:285,1,150.000005722046,2|2,3:2|1:2,0:0:0:0:
324,323,56091,1,2,0:2:0:0:
361,384,56322,2,0,P|337:365|325:317,1,75.0000028610231,2|2,0:2|3:2,0:0:0:0:
403,294,56784,2,0,P|426:261|431:216,1,75.0000028610231,2|2,1:2|0:2,0:0:0:0:
428,102,57245,6,0,B|338:93|375:41|266:33,1,179.999994506836,2|2,3:1|1:1,0:0:0:0:
267,34,57938,69,2,0:2:0:0:
202,90,58168,5,2,3:1:0:0:
323,138,58399,69,2,0:2:0:0:
179,204,58630,5,2,1:1:0:0:
320,298,58861,69,2,0:2:0:0:
256,352,59091,5,2,3:0:0:0:
268,36,59784,69,2,3:1:0:0:
268,35,60015,6,0,P|271:16|280:0,1,37.5000014305115,2|2,3:2|0:1,0:0:0:0:
202,90,60245,70,0,P|194:72|178:59,1,37.5000014305115,2|2,0:1|0:1,0:0:0:0:
323,138,60476,6,0,P|330:121|345:109,1,37.5000014305115,2|2,0:1|0:1,0:0:0:0:
179,204,60707,70,0,P|154:216|126:221,1,56.2500021457673,2|0,0:1|0:0,0:0:0:0:
117,236,60938,22,0,B|97:221|97:221|89:192,1,55.0000016784668,6|0,3:1|0:0,0:0:0:0:
141,31,61168,2,0,B|170:35|170:35|186:54,1,55.0000016784668,2|0,3:2|0:0,0:0:0:0:
2,174,61399,2,0,B|9:145|9:145|27:127,1,55.0000016784668,2|0,1:2|0:0,0:0:0:0:
248,117,61630,1,2,0:1:0:0:
195,188,61745,2,0,P|215:239|226:292,1,110.000003356934,0|0,3:0|0:0,0:0:0:0:
34,384,62091,2,0,B|18:362|18:362|17:332,1,55.0000016784668,2|0,3:2|0:0,0:0:0:0:
123,327,62322,1,2,1:2:0:0:
126,332,62438,1,0,0:0:0:0:
186,265,62553,6,0,B|202:284|202:284|206:314,1,55.0000016784668,2|0,0:2|0:0,0:0:0:0:
329,348,62784,2,0,B|347:328|347:328|354:301,1,55.0000016784668,2|0,3:1|0:0,0:0:0:0:
323,138,63015,2,0,B|349:148|349:148|362:171,1,55.0000016784668,2|0,3:2|0:0,0:0:0:0:
483,343,63245,2,0,B|483:316|483:316|465:294,1,55.0000016784668,2|0,1:2|0:0,0:0:0:0:
313,234,63476,1,2,3:1:0:0:
401,242,63591,2,0,P|451:248|518:273,1,110.000003356934,0|0,3:0|0:0,0:0:0:0:
512,384,63938,2,0,L|461:362,1,55.0000016784668,2|0,3:2|0:0,0:0:0:0:
354,300,64168,2,0,L|299:309,3,55.0000016784668,2|0|0|0,1:2|0:0|3:0|3:0,0:0:0:0:
433,213,64630,6,0,B|444:188|444:188|439:160,1,55.0000016784668,2|0,3:1|0:0,0:0:0:0:
305,0,64861,2,0,B|303:25|303:25|328:47,1,55.0000016784668,2|0,3:2|0:0,0:0:0:0:
509,102,65091,2,0,B|492:84|492:84|463:74,1,55.0000016784668,2|0,1:2|0:0,0:0:0:0:
330,159,65322,1,2,3:1:0:0:
389,103,65438,2,0,P|337:120|286:144,1,110.000003356934,0|0,3:0|0:0,0:0:0:0:
129,228,65784,2,0,B|154:232|154:232|181:225,1,55.0000016784668,2|0,3:2|0:0,0:0:0:0:
148,123,66015,1,2,1:2:0:0:
144,119,66130,1,0,0:0:0:0:
65,31,66245,6,0,B|46:49|46:49|37:75,1,55.0000016784668,2|0,0:2|0:0,0:0:0:0:
177,201,66476,2,0,B|149:208|149:208|124:203,1,55.0000016784668,2|0,3:1|0:0,0:0:0:0:
201,15,66707,2,0,B|222:32|222:32|233:56,1,55.0000016784668,2|0,3:2|0:0,0:0:0:0:
17,65,66938,2,0,B|25:38|25:38|44:20,1,55.0000016784668,2|0,1:2|0:0,0:0:0:0:
181,128,67168,37,2,3:1:0:0:
133,71,67284,2,0,L|148:123,1,55.0000016784668,0|0,1:0|0:0,0:0:0:0:
96,223,67515,5,0,1:0:0:0:
124,204,67631,2,0,L|108:256,1,55.0000016784668,12|0,3:3|0:0,0:0:0:0:
1,301,67861,5,2,1:2:0:0:
34,315,67976,1,0,1:0:0:0:
29,334,68091,2,0,L|50:384,1,55.0000016784668,2|0,1:2|1:0,0:0:0:0:
208,305,68322,6,0,B|198:279|198:279|177:260,1,55.0000016784668,6|0,3:1|0:0,0:0:0:0:
318,313,68553,2,0,B|327:286|327:286|323:258,1,55.0000016784668,2|0,3:2|0:0,0:0:0:0:
400,384,68784,2,0,B|423:369|423:369|438:345,1,55.0000016784668,2|0,1:2|0:0,0:0:0:0:
427,199,69015,1,2,3:1:0:0:
512,226,69130,2,0,P|503:160|475:118,1,110.000003356934,0|0,3:0|0:0,0:0:0:0:
316,9,69476,2,0,B|296:31|296:31|291:55,1,55.0000016784668,2|0,3:2|0:0,0:0:0:0:
427,199,69707,2,0,B|420:173|420:173|401:151,1,55.0000016784668,2|0,1:2|0:0,0:0:0:0:
233,96,69938,38,0,B|255:77|255:77|281:70,1,55.0000016784668,2|0,0:0|0:0,0:0:0:0:
222,268,70168,2,0,B|200:287|200:287|174:294,1,55.0000016784668,2|0,3:1|0:0,0:0:0:0:
323,191,70399,2,0,B|342:213|342:213|349:239,1,55.0000016784668,2|0,3:2|0:0,0:0:0:0:
125,169,70629,2,0,B|106:147|106:147|99:121,1,55.0000016784668,2|0,1:2|0:0,0:0:0:0:
169,3,70861,1,2,3:2:0:0:
81,16,70976,2,0,P|34:43|5:90,1,110.000003356934,2|2,3:2|0:2,0:0:0:0:
34,214,71323,1,2,3:2:0:0:
38,218,71438,1,0,0:0:0:0:
103,178,71553,6,0,L|118:122,1,55.0000016784668,2|0,1:2|3:0,0:0:0:0:
222,268,71784,2,0,L|212:213,1,55.0000016784668,2|0,3:2|1:0,0:0:0:0:
66,368,72015,5,6,3:1:0:0:
62,364,72130,1,0,0:0:0:0:
58,360,72245,2,0,P|30:365|10:382,1,55.0000016784668,0|0,3:0|0:0,0:0:0:0:
75,278,72476,5,2,1:3:0:0:
71,267,72591,1,0,3:0:0:0:
65,260,72707,2,0,P|40:246|10:245,1,59.9999981689454,0|2,3:0|1:2,0:0:0:0:
124,162,72938,5,2,3:3:0:0:
137,153,73053,1,0,0:0:0:0:
142,139,73168,2,0,P|130:105|103:83,1,64.9999970245363,0|0,3:0|3:0,0:0:0:0:
250,98,73399,5,2,1:3:0:0:
277,98,73514,1,0,3:0:0:0:
296,86,73630,2,0,P|302:47|285:10,1,69.9999978637696,0|0,3:0|1:0,0:0:0:0:
386,186,73861,5,2,3:3:0:0:
424,215,73976,1,0,1:0:0:0:
470,218,74091,2,0,P|497:194|512:159,1,75.0000028610231,0|0,3:0|3:0,0:0:0:0:
512,383,74322,6,0,P|477:382|446:365,1,69.9999978637696,2|0,1:3|3:0,0:0:0:0:
311,309,74553,5,2,0:0:0:0:
307,305,74668,1,0,1:0:0:0:
303,301,74784,2,0,L|334:208,1,64.9999970245363,6|0,3:1|3:0,0:0:0:0:
396,199,75015,2,0,L|381:140,1,59.9999981689454,8|0,0:3|1:0,0:0:0:0:
278,29,75245,5,2,1:2:0:0:
266,20,75360,1,0,1:0:0:0:
240,16,75475,1,8,3:3:0:0:
227,7,75591,1,4,3:3:0:0:
222,4,75707,1,6,3:2:0:0:
68,0,77553,6,0,P|31:23|27:66,1,89.9999972534181,6|0,3:1|0:0,0:0:0:0:
108,154,77899,2,0,P|99:129|84:121,1,44.999998626709,2|0,3:1|1:0,0:0:0:0:
13,208,78130,1,2,3:1:0:0:
86,352,78361,1,0,3:0:0:0:
90,356,78476,2,0,L|178:373,1,89.9999972534181,2|0,3:1|0:0,0:0:0:0:
272,330,78822,2,0,P|263:305|248:297,1,44.999998626709,2|0,3:1|1:0,0:0:0:0:
364,185,79168,2,0,P|352:203|355:225,1,44.999998626709,2|0,3:1|0:0,0:0:0:0:
407,299,79399,70,0,P|449:309|488:288,1,89.9999972534181,2|0,3:1|0:0,0:0:0:0:
511,201,79745,2,0,P|484:160|431:154,1,89.9999972534181,2|2,3:1|3:1,0:0:0:0:
479,9,80207,1,0,3:0:0:0:
479,8,80322,2,0,P|461:21|440:31,1,44.999998626709,2|0,3:1|3:0,0:0:0:0:
274,52,80553,6,0,L|251:43,3,22.4999993133545,2|0|0|0,3:1|0:0|3:0|0:0,0:0:0:0:
291,47,80784,2,0,B|270:27|275:-27|357:18|322:108,1,150,2|0,1:1|0:0,0:0:0:0:
213,201,81245,70,0,P|212:157|243:125,1,89.9999972534181,2|0,3:1|0:0,0:0:0:0:
363,184,81591,2,0,P|367:206|355:225,1,44.999998626709,2|0,3:1|1:0,0:0:0:0:
276,265,81822,1,2,3:1:0:0:
119,168,82053,1,2,3:1:0:0:
123,164,82169,2,0,P|137:121|158:81,1,89.9999972534181,2|0,3:1|0:0,0:0:0:0:
55,22,82515,2,0,P|68:4|90:0,1,44.999998626709,2|0,3:1|1:0,0:0:0:0:
123,164,82860,2,0,P|109:146|88:141,1,44.999998626709,2|0,3:1|0:0,0:0:0:0:
0,202,83091,5,2,3:1:0:0:
153,284,83322,69,0,0:0:0:0:
149,248,83438,1,2,3:1:0:0:
12,337,83668,5,0,3:0:0:0:
44,352,83784,1,2,3:1:0:0:
26,181,84015,70,0,P|57:195|78:238,1,75,2|0,3:1|0:0,0:0:0:0:
63,267,84476,2,0,L|56:251,3,16.6666666666667,2|2|2|2,3:1|3:1|3:1|3:1,0:0:0:0:
194,354,84938,6,0,B|255:365|230:376|278:383,1,89.9999972534181,4|0,3:1|0:0,0:0:0:0:
335,256,85284,2,0,P|313:262|297:277,1,44.999998626709,2|0,3:1|1:0,0:0:0:0:
363,363,85515,1,2,3:1:0:0:
500,330,85745,1,0,3:0:0:0:
500,329,85861,2,0,P|502:284|512:240,1,89.9999972534181,2|0,3:1|0:0,0:0:0:0:
499,156,86206,2,0,P|477:162|461:177,1,44.999998626709,2|0,3:1|1:0,0:0:0:0:
343,62,86553,2,0,P|358:78|379:87,1,44.999998626709,2|0,3:1|0:0,0:0:0:0:
467,72,86784,70,0,P|461:29|426:2,1,89.9999972534181,2|0,3:1|0:0,0:0:0:0:
343,62,87130,2,0,P|364:100|351:142,1,89.9999972534181,2|2,3:1|3:1,0:0:0:0:
192,46,87591,1,0,3:0:0:0:
187,41,87707,2,0,P|188:18|201:0,1,44.999998626709,2|0,3:1|3:0,0:0:0:0:
246,191,87938,6,0,L|252:212,3,22.4999993133545,2|0|0|0,3:1|0:0|3:0|0:0,0:0:0:0:
236,178,88168,2,0,B|173:192|140:181|140:181|126:207|101:219,1,150,2|0,1:1|1:0,0:0:0:0:
0,143,88630,70,0,P|10:100|48:80,1,89.9999972534181,2|0,3:1|0:0,0:0:0:0:
104,217,88976,2,0,P|83:212|65:198,1,44.999998626709,2|0,3:1|1:0,0:0:0:0:
130,100,89207,1,2,3:1:0:0:
197,273,89438,1,2,3:1:0:0:
192,277,89553,2,0,P|151:291|112:315,1,89.9999972534181,2|0,3:1|0:0,0:0:0:0:
22,377,89899,2,0,P|8:359|3:337,1,44.999998626709,2|0,3:1|1:0,0:0:0:0:
192,277,90245,2,0,P|178:294|173:316,1,44.999998626709,2|0,3:1|3:0,0:0:0:0:
239,376,90476,5,2,3:1:0:0:
372,294,90707,69,0,0:0:0:0:
336,281,90822,1,2,3:1:0:0:
394,133,91053,5,0,3:0:0:0:
331,154,91168,1,2,3:1:0:0:
390,22,91399,2,0,B|381:37|382:57|382:57|364:59|342:73|342:73|332:58|319:49,1,100,2|2,3:1|3:0,0:0:0:0:
234,8,91861,2,0,B|311:-4|343:60|343:60|359:49|373:48|373:48|372:28|380:12,1,200,0|6,1:0|3:2,0:0:0:0:
0,142,94399,22,0,L|51:160,1,55.0000016784668,2|0,1:0|0:0,0:0:0:0:
99,225,94630,5,2,1:0:0:0:
103,221,94745,2,0,L|154:202,1,55.0000016784668,0|0,0:0|3:0,0:0:0:0:
218,114,94976,6,0,L|268:136,1,55.0000016784668,0|0,1:0|0:0,0:0:0:0:
294,249,95207,6,0,L|343:225,1,55.0000016784668,0|2,1:0|0:1,0:0:0:0:
472,122,95438,5,0,1:0:0:0:
455,66,95553,2,0,L|440:113,1,50,2|4,1:0|3:3,0:0:0:0:
358,208,95784,6,0,L|376:249,1,44.999998626709,2|0,3:1|0:0,0:0:0:0:
435,338,96015,38,0,P|382:347|338:314,1,112.500004291535,4|0,3:1|0:0,0:0:0:0:
331,315,96476,2,0,P|348:347|357:384,1,75.0000028610231,2|2,1:2|0:0,0:0:0:0:
172,340,96938,2,0,P|181:266|216:196,1,150.000005722046,2|2,0:2|1:2,0:0:0:0:
110,220,97630,1,2,0:2:0:0:
20,165,97861,6,0,P|35:154|53:150,1,37.5000014305115,2|0,3:2|0:0,0:0:0:0:
27,35,98091,2,0,P|37:50|41:68,1,37.5000014305115,2|0,0:2|0:0,0:0:0:0:
157,29,98322,2,0,P|141:39|123:43,3,37.5000014305115,2|0|2|0,1:2|0:0|0:0|0:0,0:0:0:0:
205,110,98784,2,0,P|253:115|278:132,1,75.0000028610231,2|0,0:0|3:0,0:0:0:0:
340,177,99245,2,0,B|286:177|274:153|259:119|203:127,1,150.000005722046,0|0,1:0|3:0,0:0:0:0:
339,68,99938,69,2,0:2:0:0:
338,68,100168,2,0,P|359:38|361:1,1,75.0000028610231,2|2,1:2|0:2,0:0:0:0:
512,121,100630,2,0,P|478:93|461:27,1,112.500004291535,2|0,0:2|0:0,0:0:0:0:
453,26,101091,2,0,P|435:59|432:96,1,75.0000028610231,2|2,1:2|0:2,0:0:0:0:
442,236,101553,1,2,3:2:0:0:
510,296,101784,1,2,0:2:0:0:
442,236,102014,2,0,P|410:170|339:158,1,150.000005722046,2|0,1:2|0:0,0:0:0:0:
378,301,102707,6,0,P|304:313|236:345,1,150.000005722046,2|2,3:2|0:2,0:0:0:0:
90,384,103399,2,0,P|133:374|163:338,1,75.0000028610231,2|2,3:2|0:2,0:0:0:0:
56,302,103861,2,0,P|84:278|121:272,1,75.0000028610231,2|2,1:2|0:2,0:0:0:0:
71,189,104322,2,0,P|17:154|2:66,1,150.000005722046,2|2,0:2|1:2,0:0:0:0:
52,0,105015,1,2,0:2:0:0:
168,67,105245,70,0,P|184:83|196:106,1,37.5000014305115,2|0,3:2|0:0,0:0:0:0:
255,35,105476,2,0,P|263:51|265:70,1,37.5000014305115,2|0,0:2|0:0,0:0:0:0:
358,49,105707,2,0,P|355:67|344:82,3,37.5000014305115,2|0|0|0,1:2|3:0|0:0|1:0,0:0:0:0:
511,74,106168,2,0,P|500:146|441:189,1,150.000005722046,2|0,3:2|1:0,0:0:0:0:
439,189,107091,6,0,P|395:183|362:154,1,89.9999972534181,6|0,3:1|0:0,0:0:0:0:
352,0,107438,2,0,P|373:7|391:20,1,44.999998626709,2|0,3:1|1:0,0:0:0:0:
425,100,107668,1,2,3:1:0:0:
289,193,107899,1,0,3:0:0:0:
285,197,108014,2,0,P|241:207|200:226,1,89.9999972534181,2|0,3:1|0:0,0:0:0:0:
134,98,108361,2,0,P|155:102|172:117,1,44.999998626709,2|0,3:1|1:0,0:0:0:0:
0,34,108707,2,0,P|6:12|24:0,1,44.999998626709,2|0,3:1|0:0,0:0:0:0:
109,19,108938,70,0,P|129:59|111:99,1,89.9999972534181,2|0,3:1|0:0,0:0:0:0:
10,161,109284,2,0,P|53:166|80:201,1,89.9999972534181,2|2,3:1|3:1,0:0:0:0:
24,363,109745,1,0,3:0:0:0:
20,359,109861,2,0,P|25:337|40:321,1,44.999998626709,2|0,3:1|3:0,0:0:0:0:
213,202,110091,6,0,L|244:187,3,22.4999993133545,2|0|0|0,3:2|0:0|3:0|0:0,0:0:0:0:
219,228,110322,2,0,P|241:235|260:247,1,44.999998626709,2|4,1:0|3:3,0:0:0:0:
191,320,110553,2,0,P|213:318|235:323,1,44.999998626709,2|0,3:2|0:0,0:0:0:0:
415,377,110784,70,0,P|409:355|393:339,1,44.999998626709,2|0,3:2|0:0,0:0:0:0:
451,359,111015,2,0,P|445:337|429:321,1,44.999998626709,2|2,0:0|3:1,0:0:0:0:
374,237,111245,6,0,P|381:216|398:201,1,44.999998626709,2|2,1:2|3:1,0:0:0:0:
345,216,111476,2,0,P|352:195|369:180,1,44.999998626709,2|2,0:0|3:1,0:0:0:0:
433,116,111707,70,0,P|423:95|405:82,1,44.999998626709,2|0,3:1|0:0,0:0:0:0:
452,103,111938,2,0,P|442:82|424:69,1,44.999998626709,2|0,0:0|3:0,0:0:0:0:
311,21,112168,2,0,P|266:24|226:44,1,89.9999972534181,2|2,1:2|3:1,0:0:0:0:
210,177,112515,5,2,1:2:0:0:
214,174,112630,2,0,P|227:156|234:135,1,44.999998626709,2|0,3:1|0:0,0:0:0:0:
226,44,112861,2,0,P|208:30|186:24,1,44.999998626709,2|2,0:0|3:1,0:0:0:0:
94,39,113091,2,0,P|80:56|74:78,3,44.999998626709,2|0|2|0,1:2|3:0|3:1|0:0,0:0:0:0:
86,196,113553,2,0,B|105:202|124:197|124:197|127:235|157:258|157:258|142:277|139:297,1,150,2|0,3:1|0:0,0:0:0:0:
156,327,114015,2,0,L|169:370,3,33.3333333333333,2|2|2|2,1:0|3:1|3:1|0:1,0:0:0:0:
156,327,114476,69,4,3:1:0:0:
256,191,114822,5,2,0:1:0:0:
244,36,115168,69,2,3:1:0:0:
244,35,115399,6,0,P|241:16|232:0,1,37.5000014305115,2|2,3:2|0:1,0:0:0:0:
310,90,115629,70,0,P|318:72|334:59,1,37.5000014305115,2|2,0:1|0:1,0:0:0:0:
189,138,115860,6,0,P|182:121|167:109,1,37.5000014305115,2|2,0:1|0:1,0:0:0:0:
333,204,116091,70,0,P|358:216|386:221,1,56.2500021457673,2|0,0:1|1:0,0:0:0:0:
403,237,116322,6,0,P|436:237|488:214,1,89.9999972534181,2|0,3:2|0:2,0:0:0:0:
491,210,116784,1,2,1:2:0:0:
494,79,117015,2,0,P|483:68|469:62,1,29.9999990844727,2|0,3:2|1:0,0:0:0:0:
325,188,117476,1,2,3:2:0:0:
324,188,117707,2,0,P|296:197|274:217,1,59.9999981689454,2|2,1:2|0:0,0:0:0:0:
238,360,118168,70,0,P|194:348|176:338,1,59.9999981689454,2|2,3:2|3:2,0:0:0:0:
89,366,118630,2,0,P|79:337|79:307,1,59.9999981689454,2|2,1:2|3:2,0:0:0:0:
0,313,118976,2,0,P|10:269|35:232,1,89.9999972534181,0|2,1:0|3:2,0:0:0:0:
35,232,119553,1,2,1:2:0:0:
102,185,119784,1,0,1:0:0:0:
62,116,120015,6,0,P|38:60|34:1,1,119.999996337891,2|2,3:2|1:2,0:0:0:0:
166,94,120707,2,0,P|178:79|188:62,1,29.9999990844727,2|0,3:2|1:0,0:0:0:0:
226,210,121168,1,2,3:2:0:0:
226,209,121399,2,0,P|255:211|283:222,1,59.9999981689454,2|2,1:2|1:2,0:0:0:0:
359,343,121861,69,2,3:2:0:0:
345,266,122091,1,2,3:2:0:0:
496,241,122322,1,2,1:2:0:0:
510,318,122553,2,0,L|495:353,1,29.9999990844727,2|0,3:2|1:0,0:0:0:0:
408,177,122899,2,0,L|412:206,1,29.9999990844727,0|0,1:0|3:0,0:0:0:0:
512,64,123245,2,0,L|502:92,3,29.9999990844727,0|0|0|0,1:0|1:0|1:0|1:0,0:0:0:0:
450,0,123707,6,0,P|401:43|368:46,1,89.9999972534181,6|0,3:2|2:0,0:0:0:0:
374,42,124168,1,2,1:3:0:0:
255,150,124399,2,0,P|246:134|217:121,1,29.9999990844727,2|0,3:2|1:0,0:0:0:0:
126,66,124861,1,2,3:2:0:0:
126,66,125091,2,0,P|97:70|70:83,1,59.9999981689454,2|2,1:3|0:0,0:0:0:0:
0,192,125553,70,0,P|29:198|55:212,1,59.9999981689454,2|2,3:3|3:2,0:0:0:0:
144,139,126015,2,0,P|167:157|180:183,1,59.9999981689454,2|2,1:3|3:2,0:0:0:0:
254,150,126361,2,0,P|262:195|252:239,1,89.9999972534181,0|0,1:0|3:0,0:0:0:0:
375,263,126938,1,2,1:2:0:0:
256,384,127168,5,2,1:2:0:0:
242,360,127284,1,0,1:0:0:0:
263,379,127399,1,2,3:3:0:0:
259,0,131091,6,0,B|237:15|237:15|233:44,1,55.0000016784668,4|0,3:1|0:0,0:0:0:0:
370,197,131323,2,0,B|369:168|369:168|353:149,1,55.0000016784668,2|0,3:2|0:0,0:0:0:0:
154,77,131553,2,0,B|169:106|169:106|209:125,1,55.0000016784668,2|0,1:2|0:0,0:0:0:0:
341,59,131784,1,2,0:1:0:0:
270,116,131899,2,0,P|323:106|371:79,1,110.000003356934,0|0,3:0|0:0,0:0:0:0:
499,2,132245,2,0,B|468:4|468:4|451:21,1,55.0000016784668,2|0,3:2|0:0,0:0:0:0:
508,110,132476,1,2,1:2:0:0:
512,114,132591,1,0,0:0:0:0:
448,178,132707,2,0,B|466:199|466:199|492:204,1,55.0000016784668,2|0,0:0|0:0,0:0:0:0:
506,284,132938,6,0,B|480:293|480:293|463:315,1,55.0000016784668,2|0,3:1|0:0,0:0:0:0:
354,384,133168,2,0,B|370:365|370:365|376:336,1,55.0000016784668,2|0,3:2|0:0,0:0:0:0:
248,205,133399,2,0,B|231:223|231:223|226:253,1,55.0000016784668,2|0,1:2|0:0,0:0:0:0:
395,251,133630,1,2,3:1:0:0:
310,272,133745,2,0,P|255:290|206:329,1,110.000003356934,0|0,3:0|0:0,0:0:0:0:
149,384,134091,2,0,L|91:368,1,55.0000016784668,2|0,3:2|0:0,0:0:0:0:
53,291,134322,2,0,L|0:305,3,55.0000016784668,2|0|0|0,1:2|0:0|3:0|3:0,0:0:0:0:
156,211,134784,6,0,B|173:189|173:189|176:161,1,55.0000016784668,2|0,3:1|0:0,0:0:0:0:
108,24,135015,2,0,B|85:6|85:6|59:0,1,55.0000016784668,2|0,3:2|0:0,0:0:0:0:
40,181,135245,2,0,B|68:172|68:172|86:153,1,55.0000016784668,2|0,1:2|0:0,0:0:0:0:
207,35,135476,1,2,3:1:0:0:
140,95,135591,2,0,P|195:92|251:69,1,110.000003356934,0|0,3:0|0:0,0:0:0:0:
348,42,135938,2,0,B|328:64|328:64|324:89,1,55.0000016784668,2|0,3:2|0:0,0:0:0:0:
380,172,136168,2,0,P|356:136|293:117,1,110.000003356934,2|2,1:2|0:0,0:0:0:0:
376,259,136515,5,0,0:0:0:0:
376,259,136630,2,0,B|407:263|407:263|410:270|410:270|434:277,1,64.9999970245363,2|0,3:1|0:0,0:0:0:0:
232,326,136861,38,0,B|225:359|225:359|218:361|218:361|212:385,1,64.9999970245363,2|0,3:2|0:0,0:0:0:0:
156,173,137091,6,0,B|122:166|122:166|120:159|120:159|96:153,1,64.9999970245363,2|0,1:2|0:0,0:0:0:0:
294,118,137322,6,0,B|310:66|310:66|401:48|401:48|438:79,1,194.999991073609,4|2,3:1|3:2,0:0:0:0:
512,265,137784,1,0,3:0:0:0:
508,269,137899,1,0,0:0:0:0:
504,273,138015,2,0,B|477:262|477:262|463:240,1,55.0000016784668,2|0,1:2|1:0,0:0:0:0:
362,94,138245,2,0,B|336:109|336:109|323:130,1,55.0000016784668,2|0,3:0|3:0,0:0:0:0:
270,220,138476,6,0,B|266:197|266:197|240:178,1,55.0000016784668,6|0,3:1|0:0,0:0:0:0:
94,304,138707,2,0,B|97:277|97:277|115:257,1,55.0000016784668,2|0,3:2|0:0,0:0:0:0:
208,383,138938,2,0,B|185:367|185:367|173:342,1,55.0000016784668,2|0,1:2|0:0,0:0:0:0:
159,183,139168,1,2,3:1:0:0:
197,264,139284,2,0,P|150:235|112:195,1,110.000003356934,0|0,3:0|0:0,0:0:0:0:
23,41,139630,2,0,B|56:39|56:39|75:49,1,55.0000016784668,2|0,3:2|0:0,0:0:0:0:
8,175,139861,2,0,B|13:148|13:148|33:128,1,55.0000016784668,2|0,1:2|0:0,0:0:0:0:
164,58,140091,38,0,B|193:61|193:61|214:74,1,55.0000016784668,2|0,0:0|0:0,0:0:0:0:
344,147,140322,2,0,B|319:159|319:159|293:163,1,55.0000016784668,2|0,3:1|0:0,0:0:0:0:
147,242,140553,2,0,B|171:258|171:258|197:264,1,55.0000016784668,2|0,3:2|0:0,0:0:0:0:
325,283,140784,2,0,B|299:289|299:289|275:305,1,55.0000016784668,2|0,1:2|0:0,0:0:0:0:
135,384,141015,1,2,3:1:0:0:
204,342,141130,2,0,P|233:296|236:239,1,110.000003356934,2|2,3:2|0:2,0:0:0:0:
177,75,141476,1,2,3:2:0:0:
181,79,141591,1,0,0:0:0:0:
258,122,141707,6,0,L|276:182,1,55.0000016784668,2|0,1:2|3:0,0:0:0:0:
343,231,141938,2,0,L|324:282,1,55.0000016784668,2|0,3:2|1:0,0:0:0:0:
446,368,142168,5,6,3:1:0:0:
450,364,142283,1,0,0:0:0:0:
454,360,142398,2,0,P|482:365|502:382,1,55.0000016784668,0|0,3:0|3:0,0:0:0:0:
437,278,142629,5,2,1:3:0:0:
441,267,142744,1,0,3:0:0:0:
447,260,142860,2,0,P|472:246|502:245,1,59.9999981689454,2|2,0:2|1:2,0:0:0:0:
388,162,143091,5,2,3:3:0:0:
375,153,143206,1,0,0:0:0:0:
370,139,143321,2,0,P|382:105|409:83,1,64.9999970245363,0|0,3:0|3:0,0:0:0:0:
262,98,143552,5,2,1:3:0:0:
235,98,143667,1,0,3:0:0:0:
216,86,143783,2,0,P|210:47|227:10,1,69.9999978637696,0|0,3:0|1:0,0:0:0:0:
126,186,144014,5,2,3:3:0:0:
88,215,144129,1,0,3:0:0:0:
42,218,144244,2,0,P|15:194|0:159,1,75.0000028610231,0|0,3:0|3:0,0:0:0:0:
0,375,144476,6,0,P|34:377|65:362,1,69.9999978637696,2|0,1:3|3:0,0:0:0:0:
232,310,144707,5,2,0:2:0:0:
236,306,144822,1,0,1:0:0:0:
240,302,144938,2,0,L|209:209,1,64.9999970245363,6|0,3:1|3:0,0:0:0:0:
142,219,145169,2,0,L|156:160,1,59.9999981689454,2|0,1:2|1:0,0:0:0:0:
232,26,145399,5,2,3:2:0:0:
244,17,145514,1,8,3:3:0:0:
270,13,145629,1,4,3:3:0:0:
283,4,145745,1,4,3:3:0:0:
289,2,145861,1,6,3:2:0:0:
68,0,147707,6,0,P|31:23|27:66,1,89.9999972534181,6|0,3:1|0:0,0:0:0:0:
108,154,148053,2,0,P|99:129|84:121,1,44.999998626709,2|0,3:1|1:0,0:0:0:0:
13,208,148284,1,2,3:1:0:0:
65,342,148515,1,0,3:0:0:0:
68,346,148630,2,0,P|111:333|155:324,1,89.9999972534181,2|0,3:1|0:0,0:0:0:0:
253,280,148976,2,0,P|244:255|229:247,1,44.999998626709,2|0,3:1|1:0,0:0:0:0:
368,364,149322,2,0,P|383:348|384:325,1,44.999998626709,2|0,3:1|0:0,0:0:0:0:
368,239,149553,70,0,P|412:239|447:267,1,89.9999972534181,2|0,3:1|0:0,0:0:0:0:
512,205,149899,2,0,P|499:163|458:133,1,89.9999972534181,2|2,3:1|3:1,0:0:0:0:
382,15,150361,1,0,3:0:0:0:
381,14,150476,2,0,P|383:37|374:57,1,44.999998626709,2|0,3:1|3:0,0:0:0:0:
222,40,150707,6,0,L|214:10,3,22.4999993133545,2|0|0|0,3:1|0:0|3:0|0:0,0:0:0:0:
216,59,150938,2,0,B|195:55|187:41|187:41|139:85|172:145,1,150,2|0,1:1|1:0,0:0:0:0:
292,213,151399,70,0,P|290:168|259:137,1,89.9999972534181,2|0,3:1|0:0,0:0:0:0:
115,218,151745,2,0,P|116:240|126:260,1,44.999998626709,2|0,3:1|1:0,0:0:0:0:
206,220,151976,1,2,3:1:0:0:
89,84,152207,1,2,3:1:0:0:
85,88,152322,2,0,P|58:124|41:166,1,89.9999972534181,2|0,3:1|0:0,0:0:0:0:
0,245,152669,2,0,P|1:267|11:287,1,44.999998626709,2|0,3:1|1:0,0:0:0:0:
122,384,153015,2,0,P|123:361|133:341,1,44.999998626709,2|0,3:1|0:0,0:0:0:0:
213,298,153245,5,2,3:1:0:0:
340,384,153476,69,0,0:0:0:0:
327,345,153591,1,2,3:1:0:0:
428,250,153822,5,0,3:0:0:0:
396,256,153938,1,2,3:1:0:0:
329,169,154168,6,0,B|349:141|390:134|385:159|440:148|453:106,1,150,2|0,3:1|0:0,0:0:0:0:
479,113,154630,2,0,L|493:82,3,33.3333333333333,2|2|2|2,1:1|3:1|3:1|3:0,0:0:0:0:
494,83,155091,70,0,P|498:35|468:-3,1,89.9999972534181,4|0,3:1|0:0,0:0:0:0:
320,97,155438,2,0,P|331:116|350:130,1,44.999998626709,2|0,3:1|1:0,0:0:0:0:
436,156,155668,1,2,3:1:0:0:
351,7,155899,1,0,3:0:0:0:
346,10,156015,2,0,P|301:14|258:29,1,89.9999972534181,2|0,3:1|0:0,0:0:0:0:
170,62,156360,2,0,P|181:81|199:94,1,44.999998626709,2|0,3:1|1:0,0:0:0:0:
141,232,156707,2,0,P|163:227|182:216,1,44.999998626709,2|0,3:1|0:0,0:0:0:0:
119,148,156938,6,0,P|80:170|59:209,1,89.9999972534181,2|0,3:1|0:0,0:0:0:0:
78,296,157284,2,0,P|112:323|129:364,1,89.9999972534181,2|2,3:1|3:1,0:0:0:0:
270,384,157745,1,0,3:0:0:0:
274,380,157861,2,0,P|272:356|261:336,1,44.999998626709,2|0,3:1|3:0,0:0:0:0:
314,203,158091,6,0,L|321:181,3,22.4999993133545,2|0|0|0,3:1|0:0|3:0|0:0,0:0:0:0:
307,220,158323,2,0,B|287:223|274:241|274:241|331:245|368:290,1,150,2|0,1:1|1:0,0:0:0:0:
424,382,158784,6,0,P|405:344|410:294,1,89.9999972534181,2|0,3:1|0:0,0:0:0:0:
491,197,159130,2,0,P|504:214|509:245,1,44.999998626709,2|0,3:1|1:0,0:0:0:0:
491,324,159361,1,2,3:1:0:0:
404,210,159591,1,2,3:1:0:0:
400,206,159707,2,0,P|402:161|413:117,1,89.9999972534181,2|0,3:1|0:0,0:0:0:0:
332,84,160053,2,0,P|337:62|350:44,1,44.999998626709,2|0,3:1|1:0,0:0:0:0:
181,3,160399,2,0,P|210:19|229:46,1,67.4999979400635,6|0,3:2|0:0,0:0:0:0:
233,49,160630,70,0,P|192:68|172:107,1,89.9999972534181,2|2,3:1|0:1,0:0:0:0:
104,191,161322,1,2,0:1:0:0:
104,191,161553,2,0,P|128:244|181:271,1,119.999996337891,2|2,3:2|0:0,0:0:0:0:
