osu file format v14

[General]
AudioFilename: audio.mp3
AudioLeadIn: 0
PreviewTime: 115053
Countdown: 0
SampleSet: Soft
StackLeniency: 0.7
Mode: 0
LetterboxInBreaks: 0
EpilepsyWarning: 1
WidescreenStoryboard: 1

[Editor]
DistanceSpacing: 1.2
BeatDivisor: 4
GridSize: 8
TimelineZoom: 2.799999

[Metadata]
Title:Hirutonbi
TitleUnicode:昼鳶
Artist:Yorushika
ArtistUnicode:ヨルシカ
Creator:alevi
Version:ponbot's light insane
Source:
Tags:burglar japanese jrock j-rock female vocalist suis スイ n-buna ナブナ plagiarism 盗作 third 3rd full album renzthegreat casperisapotato ponbot yuuma3 silent rock silent_rock airiesu mujina
BeatmapID:3479955
BeatmapSetID:1701302

[Difficulty]
HPDrainRate:4.5
CircleSize:3.8
OverallDifficulty:7
ApproachRate:8.8
SliderMultiplier:1.5
SliderTickRate:1

[Events]
//Background and Video events
0,0,"bg.jpg",0,0
//Break Periods
2,116322,123078
//Storyboard Layer 0 (Background)
//Storyboard Layer 1 (Fail)
//Storyboard Layer 2 (Pass)
//Storyboard Layer 3 (Foreground)
//Storyboard Layer 4 (Overlay)
//Storyboard Sound Samples

[TimingPoints]
15,461.538461538462,4,2,1,40,1,0
7399,-71.4285714285714,4,2,1,55,0,0
22168,-83.3333333333333,4,2,1,50,0,0
23898,-83.3333333333333,4,2,1,50,0,0
24015,-83.3333333333333,4,2,1,50,0,0
26207,-83.3333333333333,4,2,1,50,0,0
26322,-83.3333333333333,4,2,1,50,0,0
27591,-83.3333333333333,4,2,1,50,0,0
27707,-83.3333333333333,4,2,1,50,0,0
28514,-83.3333333333333,4,2,1,50,0,0
28630,-83.3333333333333,4,2,1,50,0,0
28860,-83.3333333333333,4,2,1,50,0,0
29091,-83.3333333333333,4,2,1,50,0,0
30361,-83.3333333333333,4,2,1,50,0,0
30476,-83.3333333333333,4,2,1,50,0,0
31283,-83.3333333333333,4,2,1,50,0,0
31399,-83.3333333333333,4,2,1,50,0,0
32322,-83.3333333333333,4,2,1,50,0,0
32553,-83.3333333333333,4,2,1,50,0,0
33475,-83.3333333333333,4,2,1,50,0,0
33707,-83.3333333333333,4,2,1,50,0,0
33822,-83.3333333333333,4,2,1,50,0,0
34168,-83.3333333333333,4,2,1,50,0,0
35784,-83.3333333333333,4,2,1,50,0,0
36015,-83.3333333333333,4,2,1,50,0,0
36938,-71.4285714285714,4,2,1,55,0,0
44322,-83.3333333333333,4,2,1,50,0,0
44668,-83.3333333333333,4,2,1,50,0,0
44784,-83.3333333333333,4,2,1,50,0,0
46976,-83.3333333333333,4,2,1,50,0,0
47091,-83.3333333333333,4,2,1,50,0,0
47898,-83.3333333333333,4,2,1,50,0,0
48015,-83.3333333333333,4,2,1,50,0,0
49745,-83.3333333333333,4,2,1,50,0,0
49861,-83.3333333333333,4,2,1,50,0,0
53437,-83.3333333333333,4,2,1,50,0,0
53553,-83.3333333333333,4,2,1,50,0,0
55745,-83.3333333333333,4,2,1,50,0,0
55861,-83.3333333333333,4,2,1,50,0,0
57129,-83.3333333333333,4,2,1,50,0,0
57245,-83.3333333333333,4,2,1,55,0,0
59784,-83.3333333333333,4,2,1,55,0,0
60015,-83.3333333333333,4,2,3,55,0,0
60130,-83.3333333333333,4,2,1,55,0,0
60822,-83.3333333333333,4,2,1,55,0,0
60938,-55.5555555555556,4,2,1,80,0,1
75707,-100,4,2,1,70,0,0
75822,-100,4,2,1,70,0,0
77553,-71.4285714285714,4,2,1,55,0,0
92322,-100,4,2,1,45,0,0
92438,-100,4,2,1,45,0,0
94399,-90.9090909090909,4,2,1,65,0,0
95438,-90.9090909090909,4,2,1,65,0,0
96015,-83.3333333333333,4,2,1,50,0,0
107091,-71.4285714285714,4,2,1,55,0,0
114476,-83.3333333333333,4,2,1,55,0,0
115168,-83.3333333333333,4,2,1,55,0,0
115399,-83.3333333333333,4,2,3,55,0,0
115515,-83.3333333333333,4,2,1,55,0,0
116207,-83.3333333333333,4,2,2,55,0,0
116322,-100,4,2,2,50,0,0
123707,-100,4,2,2,50,0,0
124745,-100,4,2,2,50,0,0
124861,-100,4,2,2,50,0,0
126591,-100,4,2,2,50,0,0
126707,-100,4,2,2,50,0,0
127399,-100,4,2,1,55,0,0
130168,-100,4,2,1,55,0,0
131091,-55.5555555555556,4,2,1,80,0,1
145861,-100,4,2,1,70,0,0
145976,-100,4,2,1,70,0,0
147707,-71.4285714285714,4,2,1,55,0,0
160630,-83.3333333333333,4,2,1,65,0,0
160976,-83.3333333333333,4,2,1,65,0,0
162015,-83.3333333333333,4,2,1,45,0,0

[Colours]
Combo1 : 164,100,240
Combo2 : 230,110,150
Combo3 : 100,200,200
Combo4 : 130,120,255

[HitObjects]
73,284,15,6,0,B|112:279|112:279|139:300|139:300|178:295,1,112.5,2|2,3:2|3:1,0:0:0:0:
177,295,591,1,2,3:1:0:0:
270,338,823,1,2,3:1:0:0:
270,338,938,2,0,P|282:279|297:225,1,112.5,2|2,3:2|3:1,0:0:0:0:
394,210,1515,1,2,3:1:0:0:
394,210,1630,1,2,3:1:0:0:
391,112,1861,6,0,B|349:74|349:74|292:80,1,112.5,2|2,3:2|3:1,0:0:0:0:
293,79,2438,1,2,3:1:0:0:
207,112,2668,1,2,3:1:0:0:
207,112,2784,2,0,L|183:159,2,37.5,2|0|0,3:2|0:0|0:0,0:0:0:0:
156,28,3245,2,0,P|86:20|40:16,1,112.5,2|0,3:1|0:0,0:0:0:0:
5,49,3707,6,0,P|-10:102|10:157,1,112.5,2|2,3:2|3:1,0:0:0:0:
8,154,4284,1,2,3:1:0:0:
105,147,4515,1,2,3:1:0:0:
105,147,4630,2,0,B|92:266,1,112.5,2|2,3:2|3:1,0:0:0:0:
84,359,5207,1,2,3:1:0:0:
84,359,5322,1,2,3:1:0:0:
180,345,5553,6,0,P|224:312|241:259,1,112.5,2|2,3:2|3:1,0:0:0:0:
200,177,6130,1,2,3:1:0:0:
200,177,6245,1,2,3:1:0:0:
272,111,6476,2,0,B|341:144|341:144|412:125,1,150,2|0,3:2|0:0,0:0:0:0:
430,122,7399,6,0,L|415:287,1,157.499995193482,6|2,3:1|3:1,0:0:0:0:
415,278,7976,1,2,3:1:0:0:
342,354,8207,1,0,3:0:0:0:
342,354,8322,2,0,B|286:342|286:342|241:358|241:358|161:343,1,157.499995193482,2|2,3:1|3:1,0:0:0:0:
138,335,8784,2,0,L|87:352,2,52.4999983978272,0|0|2,1:0|3:0|3:1,0:0:0:0:
184,240,9245,6,0,B|98:217|147:171|50:149,1,157.499995193482,2|2,3:1|3:1,0:0:0:0:
59,151,9822,1,2,3:1:0:0:
144,88,10053,1,0,3:0:0:0:
144,88,10168,2,0,L|154:29,3,52.4999983978272,2|0|2|0,3:1|3:0|3:1|3:0,0:0:0:0:
196,6,10630,2,0,P|266:17|300:96,1,157.499995193482,2|0,1:1|0:0,0:0:0:0:
350,106,11091,6,0,P|313:183|296:257,1,157.499995193482,2|2,3:1|3:1,0:0:0:0:
296,252,11668,1,2,3:1:0:0:
369,335,11899,1,2,3:1:0:0:
369,335,12015,2,0,P|435:336|475:236,1,157.499995193482,2|2,3:1|3:1,0:0:0:0:
462,215,12476,2,0,L|407:205,2,52.4999983978272,0|0|2,1:0|3:0|3:1,0:0:0:0:
511,121,12938,6,0,P|454:93|368:37,1,157.499995193482,2|2,3:1|3:1,0:0:0:0:
324,26,13399,2,0,L|309:96,1,52.4999983978272,0|0,1:0|3:0,0:0:0:0:
270,108,13630,1,2,3:1:0:0:
167,84,13861,6,0,P|172:139|184:193,1,104.999996795654,2|0,3:1|3:0,0:0:0:0:
290,236,14322,2,0,L|332:226,2,34.9999989318848,2|2|2,1:1|3:1|3:1,0:0:0:0:
273,240,14553,1,2,3:0:0:0:
221,332,14784,6,0,P|145:347|74:317,1,157.499995193482,4|2,3:1|3:1,0:0:0:0:
74,317,15361,1,2,3:1:0:0:
35,219,15591,1,0,3:0:0:0:
35,219,15707,2,0,B|129:171|129:171|158:188|196:177,1,157.499995193482,2|2,3:1|3:1,0:0:0:0:
169,104,16168,2,0,B|163:76|163:76|181:56,2,52.4999983978272,0|0|2,1:0|3:0|3:1,0:0:0:0:
291,36,16630,6,0,B|319:114|270:114|299:189,1,157.499995193482,2|2,3:1|3:1,0:0:0:0:
299,190,17207,1,2,3:1:0:0:
399,153,17438,1,0,3:0:0:0:
399,153,17553,2,0,B|421:165|421:165|454:155,3,52.4999983978272,2|0|2|0,3:1|3:0|3:1|3:0,0:0:0:0:
496,138,18015,2,0,L|474:296,1,157.499995193482,2|0,1:1|0:0,0:0:0:0:
438,331,18476,6,0,B|404:338|364:313|364:313|280:325,1,157.499995193482,2|2,3:1|3:1,0:0:0:0:
285,324,19053,1,2,3:1:0:0:
194,374,19284,1,2,3:1:0:0:
194,374,19399,2,0,B|157:299|213:299|183:222,1,157.499995193482,2|2,3:1|3:1,0:0:0:0:
114,181,19861,2,0,P|99:201|103:227,2,52.4999983978272,0|0|2,1:0|3:0|3:1,0:0:0:0:
46,123,20322,6,0,P|119:147|191:121,1,157.499995193482,2|2,3:1|3:1,0:0:0:0:
240,140,20784,2,0,L|247:67,1,52.4999983978272,0|0,1:0|3:0,0:0:0:0:
251,35,21015,1,2,3:1:0:0:
379,107,21245,6,0,B|394:119|414:101|402:77|382:83|382:83|324:101,2,104.999996795654,2|2|2,3:1|3:0|1:1,0:0:0:0:
387,48,22168,6,0,P|375:91|366:135,1,89.9999972534181,4|2,3:2|0:0,0:0:0:0:
451,172,22630,1,2,1:2:0:0:
373,281,23091,6,0,P|415:292|445:256,1,89.9999972534181,2|0,0:2|3:0,0:0:0:0:
335,252,23553,1,2,1:2:0:0:
335,252,23668,2,0,P|371:280|406:325,1,89.9999972534181,0|0,3:0|0:0,0:0:0:0:
366,358,24015,5,2,3:2:0:0:
259,376,24245,1,2,0:2:0:0:
204,282,24476,2,0,B|127:265|127:265|113:275|113:275|20:256,1,179.999994506836,2|0,1:2|3:0,0:0:0:0:
132,294,25168,1,2,0:2:0:0:
212,221,25399,1,2,1:2:0:0:
140,147,25630,1,2,0:2:0:0:
140,147,25861,6,0,P|77:143|-2:108,1,134.999995880127,2|0,3:2|0:0,0:0:0:0:
10,116,26322,1,2,1:2:0:0:
110,74,26553,1,2,0:2:0:0:
206,28,26784,2,0,B|193:23|189:7|189:7|202:69,1,89.9999972534181,2|0,0:2|3:0,0:0:0:0:
319,130,27245,1,2,1:2:0:0:
319,130,27361,2,0,B|270:121|270:121|256:141|231:147,1,89.9999972534181,0|0,3:0|0:0,0:0:0:0:
192,220,27707,6,0,B|227:252|227:252|268:246,1,89.9999972534181,2|2,3:2|0:2,0:0:0:0:
361,235,28168,1,2,1:2:0:0:
361,235,28284,2,0,P|348:278|337:337,1,89.9999972534181,0|0,3:0|0:0,0:0:0:0:
370,354,28630,2,0,B|412:347|412:347|447:379,2,89.9999972534181,0|0|0,3:0|0:0|1:0,0:0:0:0:
511,241,29553,6,0,P|522:200|497:164,1,89.9999972534181,0|2,3:0|0:2,0:0:0:0:
477,76,30015,2,0,L|448:186,1,89.9999972534181,2|2,1:2|0:2,0:0:0:0:
448,185,30361,1,0,0:0:0:0:
441,206,30476,1,2,0:2:0:0:
355,232,30707,1,0,3:0:0:0:
324,152,30938,1,2,1:2:0:0:
324,152,31053,2,0,L|206:152,1,89.9999972534181,0|0,3:0|0:0,0:0:0:0:
188,153,31399,6,0,P|159:136|190:78,1,89.9999972534181,2|2,3:2|0:2,0:0:0:0:
167,86,31861,2,0,L|142:279,1,179.999994506836,2|0,1:2|0:0,0:0:0:0:
110,348,32553,1,2,3:2:0:0:
198,329,32784,1,2,1:2:0:0:
286,310,33015,1,2,0:2:0:0:
372,286,33245,6,0,P|408:308|445:286,1,89.9999972534181,2|0,3:2|0:0,0:0:0:0:
345,197,33707,1,2,1:2:0:0:
344,197,33822,2,0,P|300:207|255:207,1,89.9999972534181
255,207,34168,6,0,B|231:166|231:166|247:109,1,89.9999972534181,2|2,0:2|3:2,0:0:0:0:
265,37,34630,1,2,1:2:0:0:
372,44,34861,1,2,0:2:0:0:
479,55,35091,6,0,P|496:88|479:141,1,89.9999972534181,2|2,3:2|0:2,0:0:0:0:
374,150,35553,2,0,L|371:204,1,44.999998626709,2|0,1:2|3:0,0:0:0:0:
369,249,35784,1,0,0:0:0:0:
512,280,36015,2,0,B|456:265|434:305|434:305|410:345|350:329,1,179.999994506836,0|2,3:0|0:0,0:0:0:0:
264,376,36938,6,0,L|244:219,1,157.499995193482,6|2,3:1|3:1,0:0:0:0:
244,219,37515,1,2,3:1:0:0:
162,325,37745,1,0,3:0:0:0:
162,325,37861,2,0,B|138:307|87:307|87:307|138:307|162:286,1,157.499995193482,2|2,3:1|3:1,0:0:0:0:
166,206,38322,1,0,1:0:0:0:
163,190,38438,1,0,3:0:0:0:
160,174,38553,1,2,3:1:0:0:
42,154,38784,6,0,P|119:144|176:91,1,157.499995193482,2|2,3:1|3:1,0:0:0:0:
176,91,39361,1,2,3:1:0:0:
256,208,39591,1,0,3:0:0:0:
256,208,39707,2,0,B|269:186|269:186|256:161,3,52.4999983978272,2|0|2|0,3:1|3:0|3:1|3:0,0:0:0:0:
301,187,40168,6,0,L|461:187,1,157.499995193482,2|0,1:1|0:0,0:0:0:0:
501,155,40630,6,0,B|526:78|526:78|481:17,1,157.499995193482,2|2,3:1|3:1,0:0:0:0:
480,16,41207,1,2,3:1:0:0:
396,77,41438,1,2,3:1:0:0:
396,77,41553,2,0,B|287:68|287:68|266:89|237:88,1,157.499995193482,2|2,3:1|3:1,0:0:0:0:
232,10,42015,2,0,P|221:-5|229:12,2,52.4999983978272,0|0|2,1:0|3:0|3:1,0:0:0:0:
112,120,42476,6,0,B|126:99|122:70|122:70|136:181,1,157.499995193482,2|2,3:1|3:1,0:0:0:0:
165,254,42938,1,0,1:0:0:0:
150,260,43053,1,0,3:0:0:0:
134,260,43168,1,2,3:1:0:0:
59,278,43399,2,0,P|110:288|159:306,2,104.999996795654,2|2|0,3:1|3:0|3:0,0:0:0:0:
235,377,44322,6,0,P|255:321|327:303,1,134.999995880127,4|0,3:2|0:0,0:0:0:0:
322,301,44784,1,2,1:2:0:0:
443,194,45245,2,0,P|438:225|447:196,1,89.9999972534181,2|0,0:2|3:0,0:0:0:0:
495,254,45707,1,2,1:2:0:0:
495,254,45822,2,0,P|441:213|376:195,1,134.999995880127,0|2,3:0|3:2,0:0:0:0:
253,133,46399,5,2,0:2:0:0:
277,206,46630,2,0,L|298:72,1,134.999995880127,2|0,1:2|0:0,0:0:0:0:
298,72,47091,1,2,0:0:0:0:
398,49,47322,5,2,3:2:0:0:
204,63,47553,1,2,1:2:0:0:
204,63,47668,2,0,P|175:29|131:26,1,89.9999972534181,0|0,3:0|0:0,0:0:0:0:
131,26,48015,6,0,L|115:131,1,89.9999972534181,2|2,3:2|0:2,0:0:0:0:
52,177,48476,1,2,1:2:0:0:
63,266,48707,1,2,0:2:0:0:
146,300,48938,6,0,L|218:239,1,89.9999972534181,2|0,0:2|3:0,0:0:0:0:
279,311,49399,1,2,1:2:0:0:
279,311,49515,2,0,L|210:369,1,89.9999972534181,0|0,3:0|0:0,0:0:0:0:
412,322,49861,6,0,L|412:210,1,89.9999972534181,2|2,3:2|0:2,0:0:0:0:
354,175,50322,1,2,1:2:0:0:
343,183,50438,1,0,3:0:0:0:
338,195,50553,1,2,0:0:0:0:
279,132,50784,6,0,L|129:19,1,179.999994506836,0|0,3:0|1:0,0:0:0:0:
135,23,51707,2,0,P|173:3|211:24,1,89.9999972534181,0|2,3:0|0:0,0:0:0:0:
173,104,52168,1,2,1:2:0:0:
135,185,52399,1,2,0:0:0:0:
94,265,52630,6,0,P|111:305|154:317,1,89.9999972534181,2|0,0:2|3:0,0:0:0:0:
241,351,53091,1,2,1:2:0:0:
241,351,53207,2,0,L|242:225,1,89.9999972534181,0|0,3:0|0:0,0:0:0:0:
272,227,53553,6,0,B|314:210|314:210|355:227,1,89.9999972534181,2|2,3:2|0:2,0:0:0:0:
455,315,54015,1,2,1:2:0:0:
455,315,54130,2,0,B|393:340|393:340|330:315,1,134.999995880127,0|0,3:0|3:0,0:0:0:0:
272,227,54707,1,2,0:2:0:0:
220,300,54937,1,2,1:2:0:0:
167,226,55168,1,2,0:2:0:0:
119,302,55399,6,0,P|88:341|6:307,1,134.999995880127,2|0,3:2|0:0,0:0:0:0:
0,328,55861,2,0,L|1:230,1,89.9999972534181,2|2,1:2|0:2,0:0:0:0:
84,175,56322,5,2,0:2:0:0:
24,107,56553,1,2,3:2:0:0:
96,52,56784,1,2,1:2:0:0:
96,52,56899,2,0,L|195:46,1,89.9999972534181,0|0,3:0|0:0,0:0:0:0:
342,93,57245,6,0,L|357:4,1,89.9999972534181,2|0,3:1|0:0,0:0:0:0:
238,119,57707,2,0,L|185:45,1,89.9999972534181,2|2,1:1|0:2,0:0:0:0:
182,210,58168,2,0,L|92:195,1,89.9999972534181,2|2,3:1|0:2,0:0:0:0:
206,313,58630,1,2,1:1:0:0:
206,313,58745,1,0,3:0:0:0:
206,313,58861,1,2,0:2:0:0:
295,368,59091,6,0,L|313:316,1,44.999998626709,2|0,3:0|0:0,0:0:0:0:
387,346,59553,2,0,L|405:294,1,44.999998626709,2|0,0:1|0:0,0:0:0:0:
401,303,59784,1,2,3:1:0:0:
479,324,60015,2,0,L|497:272,1,44.999998626709,2|2,3:2|0:1,0:0:0:0:
487,269,60245,5,2,0:1:0:0:
481,256,60361,1,2,0:1:0:0:
475,243,60476,2,0,L|457:191,1,44.999998626709,2|2,0:1|0:1,0:0:0:0:
370,213,60707,2,0,L|352:161,1,44.999998626709,2|0,0:1|0:0,0:0:0:0:
265,183,60938,6,0,B|207:217|207:217|139:202,1,134.999995880127,6|2,3:1|3:2,0:0:0:0:
140,202,61284,1,0,0:0:0:0:
107,277,61399,2,0,L|89:143,1,134.999995880127,2|2,1:2|0:1,0:0:0:0:
179,41,61745,2,0,B|262:52|220:78|303:90,1,134.999995880127,0|0,3:0|0:0,0:0:0:0:
419,85,62091,6,0,B|430:92|451:92|451:92|430:92|419:99,1,67.4999979400635,2|0,3:2|0:0,0:0:0:0:
377,188,62322,2,0,B|380:201|394:215|394:215|380:201|366:198,1,67.4999979400635,2|0,1:2|0:0,0:0:0:0:
274,231,62553,2,0,B|266:242|266:263|266:263|266:242|259:231,1,67.4999979400635,2|0,0:2|0:0,0:0:0:0:
168,171,62784,6,0,L|142:308,1,134.999995880127,2|2,3:1|3:2,0:0:0:0:
142,303,63130,1,0,0:0:0:0:
64,365,63245,2,0,P|4:339|0:275,1,134.999995880127,2|2,1:2|3:1,0:0:0:0:
126,204,63591,2,0,L|263:230,1,134.999995880127,0|0,3:0|0:0,0:0:0:0:
403,255,63938,1,2,3:2:0:0:
353,360,64168,2,0,P|360:259|335:161,1,202.499993820191,2|0,1:2|3:0,0:0:0:0:
488,127,64630,6,0,B|481:110|485:90|485:90|463:198,1,134.999995880127,2|2,3:1|3:2,0:0:0:0:
465,185,64976,1,0,0:0:0:0:
388,64,65091,2,0,B|330:53|330:53|314:63|314:63|251:52,1,134.999995880127,2|2,1:2|3:1,0:0:0:0:
147,11,65438,2,0,P|171:73|182:140,1,134.999995880127,0|0,3:0|0:0,0:0:0:0:
108,219,65784,6,0,B|77:232|77:232|110:231,1,67.4999979400635,2|0,3:2|0:0,0:0:0:0:
175,311,66015,2,0,B|162:342|162:342|186:318,1,67.4999979400635,2|0,1:2|0:0,0:0:0:0:
287,328,66245,2,0,B|300:358|300:358|299:325,1,67.4999979400635,2|0,0:2|0:0,0:0:0:0:
362,245,66476,6,0,L|447:359,1,134.999995880127,2|2,3:1|3:2,0:0:0:0:
480,257,66822,1,0,0:0:0:0:
480,257,66938,2,0,P|496:221|487:170,1,67.4999979400635,2|0,1:2|0:0,0:0:0:0:
480,114,67168,1,2,3:1:0:0:
400,100,67284,2,0,P|334:96|290:47,1,134.999995880127,0|0,1:0|1:0,0:0:0:0:
213,9,67630,6,0,B|191:37|205:72|205:72|191:37|154:36,1,134.999995880127,12|2,3:3|1:2,0:0:0:0:
51,38,67976,1,0,1:0:0:0:
48,52,68091,1,2,1:2:0:0:
62,48,68207,1,0,1:0:0:0:
36,158,68322,6,0,B|2:216|2:216|58:179,1,134.999995880127,6|2,3:1|3:2,0:0:0:0:
158,176,68668,1,0,0:0:0:0:
158,176,68784,2,0,P|198:228|266:243,1,134.999995880127,2|2,1:2|3:1,0:0:0:0:
208,152,69130,2,0,P|199:217|236:275,1,134.999995880127,0|0,3:0|0:0,0:0:0:0:
285,368,69476,2,0,L|146:346,2,134.999995880127,2|2|2,3:2|1:2|0:0,0:0:0:0:
371,301,70053,5,0,0:0:0:0:
371,301,70168,2,0,P|432:286|441:223,1,134.999995880127,2|2,3:1|3:2,0:0:0:0:
442,123,70515,1,0,0:0:0:0:
442,123,70630,2,0,L|510:123,1,67.4999979400635,2|0,1:2|0:0,0:0:0:0:
445,11,70861,1,2,3:2:0:0:
375,51,70976,2,0,P|313:65|304:128,1,134.999995880127,2|2,3:2|0:2,0:0:0:0:
265,216,71322,1,2,3:2:0:0:
166,128,71553,6,0,L|153:194,1,67.4999979400635,2|0,1:2|3:0,0:0:0:0:
174,193,71784,2,0,L|149:129,1,67.4999979400635,2|0,3:2|1:0,0:0:0:0:
58,100,72015,6,0,P|32:160|58:220,1,134.999995880127,6|0,3:1|3:0,0:0:0:0:
42,317,72361,1,0,0:0:0:0:
42,317,72476,2,0,P|112:300|192:295,1,134.999995880127,2|0,1:3|3:0,0:0:0:0:
263,253,72823,1,2,1:2:0:0:
263,253,72938,2,0,P|333:270|413:275,1,134.999995880127,2|0,3:3|3:0,0:0:0:0:
489,310,73284,1,0,3:0:0:0:
489,310,73399,2,0,P|514:249|488:189,1,134.999995880127,2|0,1:3|3:0,0:0:0:0:
405,140,73745,5,0,1:0:0:0:
405,140,73861,2,0,L|395:276,2,134.999995880127,2|0|2,3:3|3:0|1:3,0:0:0:0:
346,72,74438,1,0,3:0:0:0:
334,88,74553,1,2,0:0:0:0:
322,104,74668,1,0,1:0:0:0:
264,34,74784,6,0,P|192:29|131:66,1,134.999995880127,6|8,3:1|0:3,0:0:0:0:
47,65,75130,1,0,1:0:0:0:
47,65,75245,2,0,L|66:129,1,67.4999979400635,2|0,1:2|1:0,0:0:0:0:
164,158,75476,2,0,L|183:222,1,67.4999979400635,8|4,3:3|3:3,0:0:0:0:
48,270,75707,1,6,3:2:0:0:
82,262,77553,6,0,B|65:180|114:195|95:108,1,157.499995193482,6|2,3:1|3:1,0:0:0:0:
95,108,78130,1,2,3:1:0:0:
176,32,78361,1,0,3:0:0:0:
176,32,78476,2,0,B|289:57|289:57|337:32,1,157.499995193482,2|2,3:1|3:1,0:0:0:0:
416,48,78938,2,0,L|467:21,2,52.4999983978272,0|0|2,1:0|3:0|3:1,0:0:0:0:
319,143,79399,6,0,B|409:167|356:207|449:227,1,157.499995193482,2|2,3:1|3:1,0:0:0:0:
446,226,79976,1,2,3:1:0:0:
368,328,80207,1,0,3:0:0:0:
368,328,80322,2,0,L|422:314,3,52.4999983978272,2|0|2|0,3:1|3:0|3:1|3:0,0:0:0:0:
309,379,80784,2,0,P|239:368|213:288,1,157.499995193482,2|0,1:1|0:0,0:0:0:0:
175,283,81245,6,0,P|219:240|222:143,1,157.499995193482,2|2,3:1|3:1,0:0:0:0:
224,148,81822,1,2,3:1:0:0:
104,32,82053,1,2,3:1:0:0:
104,32,82169,2,0,P|40:43|58:121,1,157.499995193482,2|2,3:1|3:1,0:0:0:0:
48,160,82630,2,0,L|106:145,2,52.4999983978272,0|0|2,1:0|3:0|3:1,0:0:0:0:
0,272,83092,6,0,P|75:269|117:331,1,157.499995193482,2|2,3:1|3:1,0:0:0:0:
152,360,83553,2,0,L|166:283,1,52.4999983978272,0|0,1:0|3:0,0:0:0:0:
231,264,83784,1,2,3:1:0:0:
389,300,84015,6,0,P|347:329|299:311,1,104.999996795654,2|0,3:1|3:0,0:0:0:0:
226,255,84476,2,0,L|234:207,2,34.9999989318848,2|2|2,3:1|3:1|3:1,0:0:0:0:
231,264,84707,1,2,3:1:0:0:
357,161,84938,6,0,B|343:69|399:113|383:12,1,157.499995193482,4|2,3:1|3:1,0:0:0:0:
382,11,85515,1,2,3:1:0:0:
474,228,85745,1,0,3:0:0:0:
474,228,85861,2,0,B|428:211|428:211|389:262|330:243,1,157.499995193482,2|2,3:1|3:1,0:0:0:0:
319,261,86322,2,0,B|311:288|311:288|327:313,2,52.4999983978272,0|0|2,1:0|3:0|3:1,0:0:0:0:
217,336,86784,6,0,B|189:258|238:258|209:183,1,157.499995193482,2|2,3:1|3:1,0:0:0:0:
208,182,87361,1,2,3:1:0:0:
111,229,87592,1,0,3:0:0:0:
111,229,87707,2,0,B|85:217|85:217|56:227,3,52.4999983978272,2|0|2|0,3:1|3:0|3:1|3:0,0:0:0:0:
25,238,88169,2,0,L|47:80,1,157.499995193482,2|0,1:1|1:0,0:0:0:0:
0,8,88630,6,0,B|65:48|65:48|141:19,1,157.499995193482,2|2,3:1|3:1,0:0:0:0:
140,19,89207,1,2,3:1:0:0:
256,80,89438,1,2,3:1:0:0:
256,80,89553,2,0,B|219:155|275:155|245:232,1,157.499995193482,2|2,3:1|3:1,0:0:0:0:
227,236,90015,2,0,L|236:303,2,52.4999983978272,0|0|2,1:0|3:0|3:1,0:0:0:0:
380,369,90476,6,0,P|452:342|433:269,1,157.499995193482,2|2,3:1|3:1,0:0:0:0:
442,233,90938,2,0,L|372:258,1,52.4999983978272,0|0,1:0|3:0,0:0:0:0:
315,276,91169,1,2,3:1:0:0:
188,319,91399,6,0,B|203:369|203:369|216:317,2,104.999996795654,2|2|0,3:1|3:0|1:0,0:0:0:0:
208,149,92322,6,0,B|168:127|112:136|97:231|169:261|248:231|256:186|268:134|376:117|425:198|410:242|342:276|307:230,1,450,6|4,3:2|0:2,0:0:0:0:
310,233,94284,5,0,1:0:0:0:
310,233,94399,1,2,1:0:0:0:
341,71,94630,1,2,1:0:0:0:
190,133,94861,1,0,3:0:0:0:
190,133,94976,2,0,L|184:215,1,82.5000025177003,0|0,1:0|1:0,0:0:0:0:
84,276,95322,2,0,P|104:280|124:286,1,41.2500012588501,2|0,0:1|1:0,0:0:0:0:
235,300,95553,1,2,1:0:0:0:
232,319,95668,1,4,3:3:0:0:
224,338,95784,1,2,3:1:0:0:
249,326,96015,6,0,P|315:315|382:307,1,134.999995880127,4|0,3:1|0:0,0:0:0:0:
382,306,96476,1,2,1:2:0:0:
342,206,96707,1,2,0:0:0:0:
433,148,96938,2,0,P|487:120|449:54,1,134.999995880127,2|0,0:2|0:0,0:0:0:0:
475,48,97399,2,0,L|372:64,1,89.9999972534181,2|2,1:2|0:2,0:0:0:0:
253,12,97861,5,2,3:2:0:0:
299,109,98091,1,2,0:2:0:0:
198,149,98322,2,0,L|182:258,1,89.9999972534181,2|2,1:2|0:0,0:0:0:0:
217,283,98784,6,0,B|106:266|155:326|43:310,1,179.999994506836,2|0,0:0|1:0,0:0:0:0:
0,213,99707,6,0,P|65:229|129:249,1,134.999995880127,0|0,3:0|0:0,0:0:0:0:
129,249,100168,1,2,1:2:0:0:
189,340,100399,1,2,0:2:0:0:
290,302,100630,2,0,B|355:261|313:238|390:199,1,134.999995880127,2|0,0:2|0:0,0:0:0:0:
470,202,101091,1,2,1:2:0:0:
470,202,101207,2,0,L|449:328,1,89.9999972534181,0|0,3:0|0:0,0:0:0:0:
403,362,101553,6,0,P|349:376|292:388,1,89.9999972534181,2|2,3:2|0:2,0:0:0:0:
216,252,102015,2,0,P|193:189|135:155,1,134.999995880127,2|0,1:2|0:0,0:0:0:0:
136,155,102476,1,0,0:0:0:0:
56,227,102707,1,2,3:2:0:0:
3,138,102938,1,0,1:0:0:0:
3,138,103053,2,0,P|19:71|33:19,1,89.9999972534181,0|0,3:0|1:0,0:0:0:0:
104,8,103399,6,0,P|141:32|161:71,1,89.9999972534181,2|2,3:2|0:2,0:0:0:0:
107,130,103861,2,0,P|163:93|229:72,1,134.999995880127,2|0,1:2|0:0,0:0:0:0:
227,72,104322,1,2,0:2:0:0:
302,149,104553,1,0,3:0:0:0:
405,111,104784,1,2,1:2:0:0:
405,111,104899,2,0,L|421:7,1,89.9999972534181,0|0,3:0|1:0,0:0:0:0:
510,33,105245,6,0,L|485:191,1,134.999995880127,2|0,3:2|0:0,0:0:0:0:
417,221,105707,1,2,1:2:0:0:
417,221,105822,2,0,P|372:257|320:249,1,89.9999972534181,0|0,3:0|1:0,0:0:0:0:
242,313,106168,2,0,B|257:318|261:336|261:336|248:278,2,89.9999972534181,2|2|0,3:2|0:3|1:0,0:0:0:0:
332,374,107091,6,0,P|256:353|178:359,1,157.499995193482,6|2,3:1|3:1,0:0:0:0:
178,358,107668,1,2,3:1:0:0:
88,314,107899,1,0,3:0:0:0:
88,314,108015,2,0,B|70:245|70:245|50:234|50:234|33:164,1,157.499995193482,2|2,3:1|3:1,0:0:0:0:
19,121,108476,2,0,L|-23:93,2,52.4999983978272,0|0|2,1:0|3:0|3:1,0:0:0:0:
96,49,108938,6,0,P|169:66|198:137,1,157.499995193482,2|2,3:1|3:1,0:0:0:0:
197,137,109515,1,2,3:1:0:0:
285,204,109745,1,0,3:0:0:0:
285,204,109861,2,0,L|352:192,3,52.4999983978272,2|0|2|0,3:1|3:0|3:2|3:0,0:0:0:0:
388,184,110322,2,0,P|421:145|426:94,1,104.999996795654,2|2,1:0|3:2,0:0:0:0:
302,47,110784,6,0,L|284:203,1,157.499995193482,2|2,3:2|3:1,0:0:0:0:
283,203,111361,1,2,3:1:0:0:
362,280,111591,1,2,3:1:0:0:
362,280,111707,2,0,B|277:320|333:344|249:384,1,157.499995193482,2|0,3:1|3:0,0:0:0:0:
197,378,112168,2,0,L|129:369,2,52.4999983978272,2|0|2,1:2|3:0|3:1,0:0:0:0:
168,276,112630,6,0,P|93:258|56:191,1,157.499995193482,2|2,3:1|3:1,0:0:0:0:
4,182,113091,2,0,L|18:115,1,52.4999983978272,2|0,1:2|3:0,0:0:0:0:
26,79,113322,1,2,3:1:0:0:
118,29,113553,6,0,P|169:36|206:78,1,104.999996795654,2|2,3:1|3:0,0:0:0:0:
268,168,114015,2,0,L|245:210,2,34.9999989318848,2|2|2,1:0|3:1|3:1,0:0:0:0:
276,151,114245,1,2,0:1:0:0:
347,96,114476,6,0,L|489:78,1,134.999995880127,4|2,3:1|0:1,0:0:0:0:
463,170,115053,1,0,3:0:0:0:
463,170,115168,1,2,3:1:0:0:
444,258,115399,6,0,L|453:309,1,44.999998626709,2|2,3:2|0:1,0:0:0:0:
359,340,115630,2,0,L|352:296,1,44.999998626709,2|2,0:1|0:1,0:0:0:0:
260,334,115861,2,0,L|269:385,2,44.999998626709,2|2|2,0:1|0:1|0:1,0:0:0:0:
339,323,123707,6,0,L|352:249,2,75,6|2|2,3:2|3:2|1:3,0:0:0:0:
249,265,124399,1,2,3:2:0:0:
249,265,124515,2,0,P|214:255|171:253,1,75,0|0,1:0|0:0,0:0:0:0:
215,279,124861,2,0,P|197:247|168:215,2,75,2|2|2,3:2|1:3|0:0,0:0:0:0:
70,178,125553,6,0,P|49:193|73:181,1,75,2|2,3:3|3:2,0:0:0:0:
57,229,126015,2,0,P|61:191|64:154,1,75,2|2,1:3|3:2,0:0:0:0:
153,138,126361,2,0,P|157:100|160:63,1,75,0|0,1:0|0:0,0:0:0:0:
159,63,126707,1,0,3:0:0:0:
257,35,126938,1,2,1:2:0:0:
319,108,127168,2,0,P|336:117|352:108,2,37.5,2|0|2,1:2|1:0|3:3,0:0:0:0:
371,68,131091,6,0,P|351:144|337:206,1,134.999995880127,4|2,3:1|3:2,0:0:0:0:
338,198,131438,1,0,0:0:0:0:
410,260,131553,2,0,P|348:232|282:228,1,134.999995880127,2|2,1:2|0:1,0:0:0:0:
203,175,131899,2,0,P|188:228|226:298,1,134.999995880127,0|0,3:0|0:0,0:0:0:0:
176,373,132245,6,0,B|157:370|146:385|146:385|157:370|150:352,1,67.4999979400635,2|0,3:2|0:0,0:0:0:0:
73,299,132476,2,0,B|61:284|43:287|43:287|61:284|69:266,1,67.4999979400635,2|0,1:2|0:0,0:0:0:0:
52,174,132707,2,0,B|54:155|39:144|39:144|54:155|72:148,1,67.4999979400635,2|0,0:0|0:0,0:0:0:0:
124,70,132938,6,0,P|185:42|251:53,1,134.999995880127,2|2,3:1|3:2,0:0:0:0:
251,53,133284,1,0,0:0:0:0:
112,18,133399,2,0,P|174:41|212:95,1,134.999995880127,2|2,1:2|3:1,0:0:0:0:
354,132,133745,2,0,L|310:268,1,134.999995880127,0|0,3:0|0:0,0:0:0:0:
198,351,134091,1,2,3:2:0:0:
198,351,134322,6,0,P|294:370|377:317,1,202.499993820191,2|0,1:2|3:0,0:0:0:0:
452,166,134784,2,0,B|476:191|512:191|512:191|476:191|452:215,1,134.999995880127,2|2,3:1|3:2,0:0:0:0:
362,192,135130,1,0,0:0:0:0:
362,192,135245,2,0,L|228:192,1,134.999995880127,2|2,1:2|3:1,0:0:0:0:
160,253,135591,2,0,P|136:191|160:129,1,134.999995880127,0|0,3:0|0:0,0:0:0:0:
207,40,135938,6,0,B|209:15|209:15|218:57,1,67.4999979400635,2|0,3:2|0:0,0:0:0:0:
332,63,136168,2,0,B|351:46|351:46|327:82,1,67.4999979400635,2|0,1:2|0:0,0:0:0:0:
404,167,136399,2,0,B|429:169|429:169|386:178,1,67.4999979400635,2|0,0:0|0:0,0:0:0:0:
381,291,136630,6,0,B|327:278|327:278|302:291|302:291|251:280,1,134.999995880127,2|2,3:1|3:2,0:0:0:0:
251,280,136976,1,0,0:0:0:0:
160,305,137091,2,0,P|156:271|166:239,1,67.4999979400635,2|0,1:2|0:0,0:0:0:0:
253,173,137322,6,0,B|294:155|318:175|318:175|288:184|259:153,1,134.999995880127,4|0,3:1|0:0,0:0:0:0:
205,75,137668,1,2,3:2:0:0:
205,75,137784,1,0,3:0:0:0:
70,160,138015,2,0,L|157:130,1,67.4999979400635,2|0,1:2|1:0,0:0:0:0:
305,73,138245,2,0,L|392:43,1,67.4999979400635,2|0,3:0|3:0,0:0:0:0:
131,12,138476,6,0,P|111:75|132:137,1,134.999995880127,6|2,3:1|3:2,0:0:0:0:
235,167,138822,1,0,0:0:0:0:
235,167,138938,2,0,L|202:314,1,134.999995880127,2|2,1:2|3:1,0:0:0:0:
234,298,139284,2,0,L|204:166,1,134.999995880127,0|0,3:0|0:0,0:0:0:0:
137,234,139630,6,0,P|114:234|137:236,1,67.4999979400635,2|0,3:2|0:0,0:0:0:0:
310,207,139861,2,0,P|328:233|310:259,1,67.4999979400635,2|0,1:2|0:0,0:0:0:0:
483,232,140091,2,0,P|506:232|483:230,1,67.4999979400635,2|0,0:0|0:0,0:0:0:0:
406,304,140322,6,0,L|406:169,1,134.999995880127,2|2,3:1|3:2,0:0:0:0:
406,169,140668,1,0,0:0:0:0:
330,34,140784,6,0,P|326:57|332:34,1,67.4999979400635,2|0,1:2|0:0,0:0:0:0:
432,59,141015,2,0,P|331:44|230:47,1,202.499993820191,2|2,3:1|0:2,0:0:0:0:
230,46,141476,1,2,3:2:0:0:
456,43,141707,6,0,L|370:61,1,67.4999979400635,2|0,1:2|3:0,0:0:0:0:
273,50,141938,2,0,L|207:64,1,67.4999979400635,2|0,3:2|1:0,0:0:0:0:
90,57,142168,6,0,P|27:43|-9:95,1,134.999995880127,6|0,3:1|3:0,0:0:0:0:
124,145,142515,1,0,3:0:0:0:
124,145,142630,2,0,P|108:221|100:293,1,134.999995880127,2|2,1:3|0:2,0:0:0:0:
39,349,142975,1,2,1:2:0:0:
39,349,143091,2,0,P|94:312|160:320,1,134.999995880127,2|0,3:3|3:0,0:0:0:0:
239,384,143438,1,0,3:0:0:0:
239,384,143553,2,0,P|247:317|261:251,1,134.999995880127,2|0,1:3|3:0,0:0:0:0:
355,222,143899,5,0,1:0:0:0:
355,221,144015,2,0,P|386:276|448:265,2,134.999995880127,2|0|2,3:3|3:0|1:3,0:0:0:0:
341,133,144591,1,0,3:0:0:0:
321,139,144706,1,2,0:2:0:0:
301,146,144822,1,0,1:0:0:0:
293,60,144938,6,0,P|344:17|411:17,1,134.999995880127,6|2,3:1|1:2,0:0:0:0:
484,86,145284,1,0,1:0:0:0:
484,86,145399,2,0,L|465:150,1,67.4999979400635,2|8,3:2|3:3,0:0:0:0:
367,179,145630,2,0,L|348:243,1,67.4999979400635,4|4,3:3|3:3,0:0:0:0:
483,291,145861,1,6,3:2:0:0:
315,356,147707,6,0,L|329:199,1,157.499995193482,6|2,3:1|3:1,0:0:0:0:
329,199,148284,1,2,3:1:0:0:
413,135,148515,1,0,3:0:0:0:
413,135,148630,2,0,B|323:115|365:81|276:64,1,157.499995193482,2|2,3:1|3:1,0:0:0:0:
224,60,149091,2,0,L|205:11,2,52.4999983978272,0|0|2,1:0|3:0|3:1,0:0:0:0:
177,154,149553,6,0,L|9:193,1,157.499995193482,2|2,3:1|3:1,0:0:0:0:
23,189,150130,1,2,3:1:0:0:
4,295,150361,1,0,3:0:0:0:
4,295,150476,2,0,L|41:349,3,52.4999983978272,2|0|2|0,3:1|3:0|3:1|3:0,0:0:0:0:
65,379,150938,2,0,P|105:315|181:308,1,157.499995193482,2|0,1:1|1:0,0:0:0:0:
200,260,151399,6,0,P|268:298|346:304,1,157.499995193482,2|2,3:1|3:1,0:0:0:0:
346,304,151976,1,2,3:1:0:0:
443,355,152207,1,2,3:1:0:0:
443,355,152322,2,0,B|492:293|492:293|472:217,1,157.499995193482,2|2,3:1|3:1,0:0:0:0:
457,166,152784,2,0,L|504:135,2,52.4999983978272,0|0|2,1:0|3:0|3:1,0:0:0:0:
371,105,153245,6,0,P|330:170|340:247,1,157.499995193482,2|2,3:1|3:1,0:0:0:0:
318,294,153707,2,0,L|241:282,1,52.4999983978272,0|0,1:0|3:0,0:0:0:0:
220,312,153938,1,2,3:1:0:0:
116,330,154168,6,0,P|109:278|99:227,1,104.999996795654,2|0,3:1|3:0,0:0:0:0:
21,142,154630,2,0,L|-18:134,2,34.9999989318848,2|2|2,1:1|3:1|3:1,0:0:0:0:
42,148,154861,1,2,3:0:0:0:
90,54,155091,6,0,P|161:80|176:153,1,157.499995193482,4|2,3:1|3:1,0:0:0:0:
176,153,155668,1,2,3:1:0:0:
275,201,155899,1,0,3:0:0:0:
275,201,156015,2,0,B|343:127|343:127|316:112|308:80,1,157.499995193482,2|2,3:1|3:1,0:0:0:0:
390,58,156476,2,0,B|386:31|386:31|403:12,2,52.4999983978272,0|0|2,1:0|3:0|3:1,0:0:0:0:
484,101,156938,6,0,P|500:175|441:220,1,157.499995193482,2|2,3:1|3:1,0:0:0:0:
441,220,157515,1,2,3:1:0:0:
488,319,157745,1,0,3:0:0:0:
488,319,157861,2,0,L|403:304,3,52.4999983978272,2|0|2|0,3:1|3:0|3:1|3:0,0:0:0:0:
393,340,158322,2,0,P|328:295|233:288,1,157.499995193482,2|0,1:1|1:0,0:0:0:0:
221,241,158784,6,0,L|81:315,1,157.499995193482,2|2,3:1|3:1,0:0:0:0:
81,314,159361,1,2,3:1:0:0:
3,251,159591,1,2,3:1:0:0:
3,251,159707,2,0,P|-12:179|68:162,1,157.499995193482,2|2,3:1|3:1,0:0:0:0:
87,114,160168,2,0,L|105:176,2,52.4999983978272,0|0|6,1:0|3:0|3:2,0:0:0:0:
177,117,160630,6,0,P|236:140|277:92,1,134.999995880127,2|2,3:1|0:1,0:0:0:0:
358,50,161207,1,0,3:2:0:0:
358,50,161322,2,0,L|371:93,1,44.999998626709,2|0,0:1|0:0,0:0:0:0:
412,110,161553,6,0,B|429:212|353:171|370:276,1,179.999994506836,2|2,3:2|0:0,0:0:0:0:
