osu file format v14

[General]
AudioFilename: audio.mp3
AudioLeadIn: 0
PreviewTime:115053
Countdown: 0
SampleSet: Soft
StackLeniency: 0.7
Mode: 0
LetterboxInBreaks: 0
WidescreenStoryboard: 1
EpilepsyWarning: 1

[Editor]
Bookmarks:127515,127630,127745,127861,127976,128091,128207,128322,128438,128553,128668,128784,128899,129015,129130,129245,129361,129476,129591,129707,129822,129938,130053,130168,130284,130399,130515,130630,130745,130861,130976
DistanceSpacing: 0.9
BeatDivisor: 4
GridSize: 32
TimelineZoom: 1.3

[Metadata]
Title:Hirutonbi
TitleUnicode:昼鳶
Artist:Yorushika
ArtistUnicode:ヨルシカ
Creator:alevi
Version:normal
Source:
Tags:burglar japanese jrock j-rock female vocalist suis スイ n-buna ナブナ plagiarism 盗作 third 3rd full album renzthegreat casperisapotato ponbot yuuma3 silent rock silent_rock airiesu mujina
BeatmapID:3476282
BeatmapSetID:1701302

[Difficulty]
HPDrainRate:3.5
CircleSize:3.2
OverallDifficulty:4
ApproachRate:5
SliderMultiplier:1.3
SliderTickRate:1

[Events]
//Background and Video events
0,0,"bg.jpg",0,0
//Break Periods
2,116522,126199
//Storyboard Layer 0 (Background)
//Storyboard Layer 1 (Fail)
//Storyboard Layer 2 (Pass)
//Storyboard Layer 3 (Foreground)
//Storyboard Layer 4 (Overlay)
//Storyboard Sound Samples

[TimingPoints]
15,461.538461538462,4,2,1,40,1,0
15,-111.111111111111,4,2,1,40,0,0
7399,-111.111111111111,4,2,1,55,0,0
22168,-111.111111111111,4,2,1,50,0,0
35784,-111.111111111111,4,2,1,50,0,0
36015,-111.111111111111,4,2,1,50,0,0
36938,-111.111111111111,4,2,1,55,0,0
44322,-111.111111111111,4,2,1,50,0,0
57245,-111.111111111111,4,2,1,55,0,0
59784,-111.111111111111,4,2,1,55,0,0
60015,-111.111111111111,4,2,3,55,0,0
60130,-111.111111111111,4,2,1,55,0,0
60938,-99.9999999999999,4,2,1,80,0,1
72476,-99.9999999999999,4,2,1,80,0,1
72938,-99.9999999999999,4,2,1,80,0,1
73399,-99.9999999999999,4,2,1,80,0,1
75707,-111.111111111111,4,2,1,70,0,0
77553,-111.111111111111,4,2,1,55,0,0
92322,-111.111111111111,4,2,1,45,0,0
94399,-111.111111111111,4,2,1,65,0,0
96015,-111.111111111111,4,2,1,50,0,0
107091,-111.111111111111,4,2,1,55,0,0
114476,-111.111111111111,4,2,1,55,0,0
115168,-111.111111111111,4,2,1,55,0,0
115399,-111.111111111111,4,2,3,55,0,0
115515,-111.111111111111,4,2,1,55,0,0
116207,-111.111111111111,4,2,2,55,0,0
116322,-111.111111111111,4,2,2,50,0,0
127399,-111.111111111111,4,2,1,55,0,0
131091,-100,4,2,1,80,0,1
142168,-100,4,2,1,80,0,1
145861,-111.111111111111,4,2,1,70,0,0
147707,-111.111111111111,4,2,1,55,0,0
160630,-111.111111111111,4,2,1,65,0,0
162015,-111.111111111111,4,2,1,45,0,0

[Colours]
Combo1 : 164,100,240
Combo2 : 230,110,150
Combo3 : 100,200,200
Combo4 : 130,120,255

[HitObjects]
479,195,7399,6,0,P|418:180|348:156,1,116.999996429443,6|0,3:1|1:0,0:0:0:0:
297,83,8322,2,0,P|241:101|184:114,1,116.999996429443,2|0,3:1|1:0,0:0:0:0:
165,164,9015,1,2,3:1:0:0:
165,164,9245,2,0,P|178:208|192:288,1,116.999996429443,2|0,3:1|1:0,0:0:0:0:
271,345,10168,2,0,P|281:316|294:287,2,58.4999982147217,2|2|2,3:1|3:1|1:1,0:0:0:0:
190,277,11091,6,0,P|133:294|65:325,1,116.999996429443,2|0,3:1|1:0,0:0:0:0:
13,234,12015,2,0,P|38:197|36:125,1,116.999996429443,2|0,3:1|1:0,0:0:0:0:
132,81,12938,2,0,P|175:119|236:129,1,116.999996429443,2|0,3:1|1:0,0:0:0:0:
308,56,13861,2,0,P|302:26|292:-6,2,58.4999982147217,2|0|2,3:1|3:0|1:1,0:0:0:0:
393,117,14784,6,0,P|377:163|363:231,1,116.999996429443,4|0,3:1|1:0,0:0:0:0:
407,325,15707,2,0,P|368:289|296:293,1,116.999996429443,2|0,3:1|1:0,0:0:0:0:
274,329,16399,1,2,3:1:0:0:
274,329,16630,2,0,P|212:315|155:293,1,116.999996429443,2|0,3:1|1:0,0:0:0:0:
86,222,17553,2,0,P|64:235|28:248,2,58.4999982147217,2|2|2,3:1|3:1|1:1,0:0:0:0:
153,141,18476,6,0,P|190:179|260:177,1,116.999996429443,2|0,3:1|1:0,0:0:0:0:
331,112,19399,2,0,P|382:134|391:198,1,116.999996429443,2|0,3:1|1:0,0:0:0:0:
354,223,20091,1,2,3:1:0:0:
354,223,20322,2,0,P|340:263|327:341,1,116.999996429443,2|0,3:1|1:0,0:0:0:0:
231,379,21245,2,0,P|221:344|208:310,2,58.4999982147217,2|2|2,3:1|3:0|1:1,0:0:0:0:
128,356,22168,6,0,P|91:343|10:321,1,116.999996429443,4|2,3:2|1:2,0:0:0:0:
67,230,23091,2,0,P|95:221|128:204,1,58.4999982147217,2|0,0:2|3:0,0:0:0:0:
149,163,23553,1,2,1:2:0:0:
237,105,24015,2,0,P|267:124|299:129,2,58.4999982147217,2|2|2,3:2|0:2|1:2,0:0:0:0:
91,58,25168,1,2,0:2:0:0:
91,58,25399,2,0,P|76:83|73:114,1,58.4999982147217,2|2,1:2|0:2,0:0:0:0:
110,148,25861,6,0,P|123:188|134:274,1,116.999996429443,2|2,3:2|1:2,0:0:0:0:
188,352,26784,2,0,P|220:325|295:321,1,116.999996429443,2|2,0:2|1:2,0:0:0:0:
336,358,27476,1,2,0:2:0:0:
336,358,27707,2,0,P|369:345|401:336,2,58.4999982147217,2|2|2,3:2|0:2|1:2,0:0:0:0:
276,270,28630,1,0,3:0:0:0:
334,182,29091,1,0,1:0:0:0:
277,93,29553,6,0,P|237:113|162:132,1,116.999996429443,0|2,3:0|1:2,0:0:0:0:
71,175,30476,2,0,P|79:205|84:235,1,58.4999982147217,2|0,0:2|3:0,0:0:0:0:
94,283,30938,1,2,1:2:0:0:
185,335,31399,2,0,P|190:306|197:277,2,58.4999982147217,2|2|2,3:2|0:2|1:2,0:0:0:0:
313,243,32553,1,2,3:2:0:0:
313,243,32784,2,0,P|343:254|375:261,1,58.4999982147217,2|2,1:2|0:2,0:0:0:0:
412,231,33245,6,0,P|396:174|407:114,1,116.999996429443,2|2,3:2|1:2,0:0:0:0:
361,22,34168,2,0,P|329:48|292:55,1,58.4999982147217,2|2,0:2|3:2,0:0:0:0:
260,45,34630,1,2,1:2:0:0:
194,127,35091,2,0,P|142:103|76:87,1,116.999996429443,2|2,3:2|1:2,0:0:0:0:
39,116,35784,1,0,0:0:0:0:
39,116,36015,1,0,3:0:0:0:
151,294,36938,6,0,P|212:279|282:255,1,116.999996429443,6|0,3:1|1:0,0:0:0:0:
325,176,37861,2,0,P|381:192|397:249,1,116.999996429443,2|0,3:1|1:0,0:0:0:0:
380,293,38553,1,2,3:1:0:0:
380,293,38784,2,0,P|420:343|493:334,1,116.999996429443,2|0,3:1|1:0,0:0:0:0:
496,244,39707,2,0,P|504:210|513:184,2,58.4999982147217,2|2|2,3:1|3:1|1:1,0:0:0:0:
400,199,40630,6,0,P|346:175|290:159,1,116.999996429443,2|0,3:1|1:0,0:0:0:0:
199,212,41554,2,0,P|174:175|176:103,1,116.999996429443,2|0,3:1|1:0,0:0:0:0:
243,21,42477,2,0,P|286:59|347:69,1,116.999996429443,2|0,3:1|1:0,0:0:0:0:
435,18,43399,2,0,P|465:6|496:-3,2,58.4999982147217,2|2|0,3:1|3:0|3:0,0:0:0:0:
429,123,44322,6,0,P|448:176|461:245,1,116.999996429443,4|2,3:2|1:2,0:0:0:0:
379,303,45245,2,0,P|351:294|318:277,1,58.4999982147217,2|0,0:2|3:0,0:0:0:0:
285,246,45707,1,2,1:2:0:0:
210,171,46169,2,0,P|182:180|156:193,2,58.4999982147217,2|2|2,3:2|0:2|1:2,0:0:0:0:
327,65,47322,1,2,3:2:0:0:
327,65,47553,2,0,P|336:96|342:135,1,58.4999982147217,2|2,1:2|0:2,0:0:0:0:
385,149,48015,6,0,P|372:189|361:275,1,116.999996429443,2|2,3:2|1:2,0:0:0:0:
405,358,48938,2,0,P|373:331|298:327,1,116.999996429443,2|2,0:2|1:2,0:0:0:0:
267,367,49630,1,2,0:2:0:0:
267,367,49861,2,0,P|234:354|202:345,2,58.4999982147217,2|2|2,3:2|0:2|1:2,0:0:0:0:
241,264,50784,1,0,3:0:0:0:
137,284,51245,1,0,1:0:0:0:
70,202,51707,6,0,P|82:140|97:80,1,116.999996429443,0|2,3:0|1:2,0:0:0:0:
170,13,52630,2,0,P|195:30|229:38,1,58.4999982147217,2|0,0:2|3:0,0:0:0:0:
274,35,53092,1,2,1:2:0:0:
345,112,53553,2,0,P|338:141|330:180,2,58.4999982147217,2|2|2,3:2|0:2|1:2,0:0:0:0:
469,14,54707,1,2,0:2:0:0:
469,14,54938,2,0,P|476:43|484:82,1,58.4999982147217,2|2,1:2|0:2,0:0:0:0:
510,115,55399,6,0,P|496:158|485:230,1,116.999996429443,2|2,3:2|1:2,0:0:0:0:
447,328,56322,2,0,P|416:312|382:307,1,58.4999982147217,2|2,0:2|3:2,0:0:0:0:
351,274,56784,2,0,P|325:288|297:294,1,58.4999982147217,2|2,1:2|0:2,0:0:0:0:
260,332,57245,2,0,P|200:293|209:247,1,116.999996429443,2|2,3:1|1:1,0:0:0:0:
227,210,57938,1,2,0:2:0:0:
227,210,58169,1,2,3:1:0:0:
299,133,58630,2,0,P|325:144|369:151,2,58.4999982147217,2|2|2,1:1|0:2|3:0,0:0:0:0:
45,0,60938,6,0,P|55:36|61:77,1,65,6|2,3:1|3:2,0:0:0:0:
107,96,61399,1,2,1:2:0:0:
107,96,61630,2,0,P|95:147|80:226,1,130,2|2,0:1|3:2,0:0:0:0:
69,280,62322,1,2,1:2:0:0:
181,246,62784,2,0,P|209:230|240:220,2,65,2|2|2,3:1|3:2|1:2,0:0:0:0:
206,298,63476,2,0,B|189:294|270:313|329:338,1,130,2|2,3:1|3:2,0:0:0:0:
380,355,64168,1,2,1:2:0:0:
469,279,64630,6,0,P|460:242|449:206,1,65,2|2,3:1|3:2,0:0:0:0:
433,166,65091,1,2,1:2:0:0:
433,166,65322,2,0,P|399:206|325:207,1,130,2|2,3:1|3:2,0:0:0:0:
292,158,66015,1,2,1:2:0:0:
198,87,66476,2,0,P|165:100|136:114,2,65,2|2|2,3:1|3:2|1:2,0:0:0:0:
225,35,67168,2,0,B|304:46|261:80|350:94,1,130,2|12,3:1|3:3,0:0:0:0:
382,130,67861,2,0,P|374:164|368:199,1,65,2|2,1:2|1:2,0:0:0:0:
325,233,68322,6,0,P|289:216|251:206,1,65,6|2,3:1|3:2,0:0:0:0:
211,226,68784,1,2,1:2:0:0:
211,226,69015,2,0,P|178:266|203:344,1,130,2|2,3:1|3:2,0:0:0:0:
248,360,69707,1,2,1:2:0:0:
343,295,70168,2,0,P|332:256|323:228,2,65,2|2|2,3:1|3:2|1:2,0:0:0:0:
386,334,70861,2,0,P|437:305|518:281,1,130,2|2,3:2|3:2,0:0:0:0:
508,224,71553,2,0,P|489:200|483:157,1,65,2|2,1:2|3:2,0:0:0:0:
505,112,72015,5,6,3:1:0:0:
404,52,72476,2,0,P|391:87|376:123,1,65,2|0,1:3|3:0,0:0:0:0:
405,165,72938,2,0,P|376:189|345:212,1,65,2|0,3:3|3:0,0:0:0:0:
362,264,73399,2,0,P|324:270|286:275,1,65,2|0,1:3|3:0,0:0:0:0:
239,282,73861,1,2,3:3:0:0:
179,181,74322,2,0,P|146:191|114:204,1,65,2|2,1:3|0:0,0:0:0:0:
74,162,74784,2,0,P|50:187|29:214,1,65,6|8,3:1|0:3,0:0:0:0:
0,258,75245,1,2,1:2:0:0:
0,258,75476,1,8,3:3:0:0:
0,258,75707,6,0,B|106:242|55:313|170:291,1,175.499994644165,6|0,3:2|0:0,0:0:0:0:
313,239,77091,2,0,P|305:206|296:181,1,58.4999982147217,2|2,0:0|0:0,0:0:0:0:
277,132,77553,6,0,P|216:147|146:171,1,116.999996429443,6|0,3:1|1:0,0:0:0:0:
76,221,78476,2,0,P|46:175|59:108,1,116.999996429443,2|0,3:1|1:0,0:0:0:0:
89,76,79168,1,2,3:1:0:0:
89,76,79399,2,0,B|156:60|109:32|190:17,1,116.999996429443,2|0,3:1|1:0,0:0:0:0:
275,72,80322,2,0,P|266:100|261:129,2,58.4999982147217,2|2|2,3:1|3:1|1:1,0:0:0:0:
358,8,81245,6,0,P|403:50|464:62,1,116.999996429443,2|0,3:1|1:0,0:0:0:0:
511,151,82168,2,0,P|495:198|482:269,1,116.999996429443,2|0,3:1|1:0,0:0:0:0:
406,337,83092,2,0,P|353:316|330:256,1,116.999996429443,2|0,3:1|1:0,0:0:0:0:
354,219,83784,1,2,3:1:0:0:
354,219,84015,1,2,3:1:0:0:
177,334,84938,6,0,P|126:311|57:289,1,116.999996429443,4|0,3:1|1:0,0:0:0:0:
39,190,85861,2,0,P|78:154|150:158,1,116.999996429443,2|0,3:1|1:0,0:0:0:0:
180,194,86553,1,2,3:1:0:0:
180,194,86784,2,0,P|235:214|292:226,1,116.999996429443,2|0,3:1|1:0,0:0:0:0:
382,172,87707,2,0,P|394:134|387:104,2,58.4999982147217,2|2|2,3:1|3:1|1:1,0:0:0:0:
295,111,88630,6,0,P|258:73|188:75,1,116.999996429443,2|0,3:1|1:0,0:0:0:0:
151,166,89553,2,0,B|82:184|128:204|51:225,1,116.999996429443,2|0,3:1|1:0,0:0:0:0:
22,267,90245,1,2,3:1:0:0:
22,267,90476,2,0,P|36:307|49:385,1,116.999996429443,2|0,3:1|1:0,0:0:0:0:
137,324,91399,2,0,P|147:289|160:255,2,58.4999982147217,2|2|0,3:1|3:0|1:0,0:0:0:0:
225,381,92322,5,6,3:2:0:0:
0,113,94399,1,2,1:0:0:0:
0,113,94630,2,0,P|39:127|89:139,1,87.7499973220826,2|0,1:0|1:0,0:0:0:0:
128,109,95207,1,0,1:0:0:0:
194,65,95553,2,0,P|227:75|255:75,1,58.4999982147217,2|2,1:0|3:1,0:0:0:0:
291,41,96015,6,0,P|346:64|338:132,1,116.999996429443,4|2,3:1|1:2,0:0:0:0:
278,193,96938,2,0,P|288:222|295:256,1,58.4999982147217,2|0,0:2|0:0,0:0:0:0:
305,300,97399,1,2,1:2:0:0:
214,354,97861,2,0,P|186:345|157:329,2,58.4999982147217,2|2|2,3:2|0:2|1:2,0:0:0:0:
305,300,98784,2,0,P|352:283|421:261,1,116.999996429443,2|0,0:0|1:0,0:0:0:0:
507,314,99707,6,0,P|524:269|500:208,1,116.999996429443,0|2,3:0|1:2,0:0:0:0:
401,169,100630,2,0,P|376:186|342:194,1,58.4999982147217,2|0,0:2|3:0,0:0:0:0:
300,172,101092,1,2,1:2:0:0:
217,237,101553,2,0,P|224:266|232:305,2,58.4999982147217,2|2|2,3:2|0:2|1:2,0:0:0:0:
118,120,102707,1,2,3:2:0:0:
118,120,102938,2,0,P|125:91|133:52,1,58.4999982147217,0|2,1:0|0:2,0:0:0:0:
169,27,103399,6,0,P|217:66|272:68,1,116.999996429443,2|2,3:2|1:2,0:0:0:0:
363,19,104322,2,0,P|394:3|428:-2,1,58.4999982147217,2|0,0:2|3:0,0:0:0:0:
467,13,104784,1,2,1:2:0:0:
511,108,105245,2,0,P|503:135|496:174,2,58.4999982147217,2|2|2,3:2|0:2|1:2,0:0:0:0:
405,113,106168,2,0,P|374:145|296:152,1,116.999996429443,2|0,3:2|1:0,0:0:0:0:
225,85,107091,6,0,B|176:104|176:104|167:112|167:112|109:136,1,116.999996429443,6|0,3:1|1:0,0:0:0:0:
35,196,108015,2,0,P|54:246|68:320,1,116.999996429443,2|0,3:1|1:0,0:0:0:0:
110,337,108707,1,2,3:1:0:0:
110,337,108938,2,0,P|150:298|218:309,1,116.999996429443,2|0,3:1|1:0,0:0:0:0:
288,370,109861,2,0,P|318:359|347:352,2,58.4999982147217,2|2|2,3:1|3:2|1:0,0:0:0:0:
294,264,110784,6,0,P|303:207|316:139,1,116.999996429443,2|2,3:2|1:2,0:0:0:0:
236,77,111707,2,0,P|205:123|127:130,1,116.999996429443,2|2,3:1|1:2,0:0:0:0:
105,104,112399,1,2,3:1:0:0:
105,104,112630,2,0,P|60:86|32:79,2,58.4999982147217,2|2|2,3:1|0:0|1:2,0:0:0:0:
36,184,113553,2,0,P|27:212|21:240,1,58.4999982147217,2|2,3:1|3:0,0:0:0:0:
29,292,114015,1,2,1:0:0:0:
117,349,114476,5,4,3:1:0:0:
421,58,116322,1,2,3:2:0:0:
256,192,127399,5,2,3:3:0:0:
421,82,131091,6,0,P|390:90|358:103,1,65,4|2,3:1|3:2,0:0:0:0:
327,151,131552,1,2,1:2:0:0:
327,151,131783,2,0,P|347:203|362:276,1,130,2|2,0:1|3:2,0:0:0:0:
340,329,132475,1,2,1:2:0:0:
234,278,132937,2,0,P|220:253|224:209,2,65,2|2|2,3:1|3:2|1:2,0:0:0:0:
191,318,133629,2,0,B|132:343|51:362|52:362,1,130,2|2,3:1|3:2,0:0:0:0:
18,325,134321,1,2,1:2:0:0:
32,208,134784,6,0,P|41:171|52:135,1,65,2|2,3:1|3:2,0:0:0:0:
68,92,135245,1,2,1:2:0:0:
68,92,135476,2,0,P|129:112|180:61,1,130,2|2,3:1|3:2,0:0:0:0:
206,23,136168,1,2,1:2:0:0:
312,71,136630,2,0,P|345:54|392:38,2,65,2|2|2,3:1|3:2|1:2,0:0:0:0:
305,129,137322,2,0,P|318:182|332:266,1,130,4|0,3:1|3:0,0:0:0:0:
371,298,138015,2,0,P|359:332|351:370,1,65,2|2,1:2|3:0,0:0:0:0:
298,381,138476,6,0,P|262:364|224:354,1,65,6|2,3:1|3:2,0:0:0:0:
184,371,138938,1,2,1:2:0:0:
184,371,139168,2,0,P|158:333|184:256,1,130,2|2,3:1|3:2,0:0:0:0:
234,232,139861,1,2,1:2:0:0:
151,148,140322,2,0,P|114:168|82:179,2,65,2|2|2,3:1|3:2|1:2,0:0:0:0:
191,105,141015,2,0,P|219:39|167:-6,1,130,2|2,3:1|3:2,0:0:0:0:
132,22,141707,2,0,P|101:29|70:40,1,65,2|2,1:2|3:2,0:0:0:0:
23,76,142168,5,6,3:1:0:0:
111,152,142630,2,0,P|121:189|132:226,1,65,2|2,1:3|0:2,0:0:0:0:
85,255,143091,2,0,P|112:282|140:309,1,65,2|0,3:3|3:0,0:0:0:0:
118,358,143553,2,0,P|156:368|193:377,1,65,2|0,1:3|3:0,0:0:0:0:
239,380,144015,1,2,3:3:0:0:
323,298,144476,2,0,P|356:288|388:275,1,65,2|2,1:3|0:2,0:0:0:0:
419,230,144938,2,0,P|410:192|402:152,1,65,6|2,3:1|1:2,0:0:0:0:
393,119,145398,1,2,3:2:0:0:
393,119,145629,1,4,3:3:0:0:
393,119,145861,6,0,P|319:60|235:92,1,175.499994644165,6|0,3:2|0:0,0:0:0:0:
318,220,147245,2,0,P|309:254|307:281,1,58.4999982147217,2|2,0:0|0:0,0:0:0:0:
275,320,147707,6,0,P|230:293|159:283,1,116.999996429443,6|0,3:1|1:0,0:0:0:0:
64,307,148630,2,0,P|33:259|42:202,1,116.999996429443,2|0,3:1|1:0,0:0:0:0:
86,172,149322,1,2,3:1:0:0:
86,172,149553,2,0,P|100:124|109:54,1,116.999996429443,2|0,3:1|1:0,0:0:0:0:
206,18,150476,2,0,P|211:47|219:75,2,58.4999982147217,2|2|2,3:1|3:1|1:1,0:0:0:0:
308,40,151399,6,0,P|365:55|406:95,1,116.999996429443,2|0,3:1|1:0,0:0:0:0:
367,192,152322,2,0,P|314:218|258:234,1,116.999996429443,2|0,3:1|1:0,0:0:0:0:
171,174,153245,2,0,P|113:189|99:251,1,116.999996429443,2|0,3:1|1:0,0:0:0:0:
175,307,154168,2,0,P|183:336|188:368,2,58.4999982147217,2|0|2,3:1|3:0|1:1,0:0:0:0:
277,279,155092,6,0,P|289:221|307:166,1,116.999996429443,4|0,3:1|1:0,0:0:0:0:
298,61,156015,2,0,P|259:97|187:93,1,116.999996429443,2|0,3:1|1:0,0:0:0:0:
168,67,156707,1,2,3:1:0:0:
168,67,156938,2,0,P|113:84|56:110,1,116.999996429443,2|0,3:1|1:0,0:0:0:0:
3,198,157861,2,0,P|1:227|12:253,2,58.4999982147217,2|2|2,3:1|3:1|1:1,0:0:0:0:
103,166,158784,6,0,P|155:182|172:241,1,116.999996429443,2|0,3:1|1:0,0:0:0:0:
264,288,159707,2,0,B|333:270|287:250|364:229,1,116.999996429443,2|0,3:1|1:0,0:0:0:0:
405,199,160399,1,6,3:2:0:0:
405,199,160630,2,0,P|398:155|384:105,2,87.7499973220826,2|2|2,3:1|0:1|0:1,0:0:0:0:
453,219,161553,1,2,3:2:0:0:
405,313,162015,5,2,0:0:0:0:
