osu file format v14

[General]
AudioFilename: audio.mp3
AudioLeadIn: 0
PreviewTime: 115053
Countdown: 0
SampleSet: Soft
StackLeniency: 0.7
Mode: 0
LetterboxInBreaks: 0
EpilepsyWarning: 1
WidescreenStoryboard: 1

[Editor]
Bookmarks: 127515,127630,127745,127861,127976,128091,128207,128322,128438,128553,128668,128784,128899,129015,129130,129245,129361,129476,129591,129707,129822,129938,130053,130168,130284,130399,130515,130630,130745,130861,130976
DistanceSpacing: 0.9
BeatDivisor: 4
GridSize: 32
TimelineZoom: 2.1

[Metadata]
Title:Hirutonbi
TitleUnicode:昼鳶
Artist:Yorushika
ArtistUnicode:ヨルシカ
Creator:alevi
Version:nightscape
Source:
Tags:burglar japanese jrock j-rock female vocalist suis スイ n-buna ナブナ plagiarism 盗作 third 3rd full album renzthegreat casperisapotato ponbot yuuma3 silent rock silent_rock airiesu mujina
BeatmapID:3476281
BeatmapSetID:1701302

[Difficulty]
HPDrainRate:5.2
CircleSize:4.1
OverallDifficulty:8.4
ApproachRate:9.4
SliderMultiplier:2.5
SliderTickRate:1

[Events]
//Background and Video events
0,0,"bg.jpg",0,0
//Break Periods
//Storyboard Layer 0 (Background)
//Storyboard Layer 1 (Fail)
//Storyboard Layer 2 (Pass)
//Storyboard Layer 3 (Foreground)
//Storyboard Layer 4 (Overlay)
//Storyboard Sound Samples

[TimingPoints]
15,461.538461538462,4,2,1,40,1,0
15,-166.666666666667,4,2,1,40,0,0
7399,-125,4,2,1,55,0,0
22168,-142.857142857143,4,2,1,50,0,0
22860,-142.857142857143,4,2,1,50,0,0
23091,-142.857142857143,4,2,1,50,0,0
23206,-142.857142857143,4,2,1,50,0,0
23322,-142.857142857143,4,2,1,50,0,0
23437,-142.857142857143,4,2,1,50,0,0
23553,-142.857142857143,4,2,1,50,0,0
23898,-142.857142857143,4,2,1,50,0,0
24015,-142.857142857143,4,2,1,50,0,0
24130,-142.857142857143,4,2,1,50,0,0
24245,-142.857142857143,4,2,1,50,0,0
24360,-142.857142857143,4,2,1,50,0,0
24476,-142.857142857143,4,2,1,50,0,0
24821,-142.857142857143,4,2,1,50,0,0
24938,-142.857142857143,4,2,1,50,0,0
25283,-142.857142857143,4,2,1,50,0,0
25399,-142.857142857143,4,2,1,50,0,0
25514,-142.857142857143,4,2,1,50,0,0
25630,-142.857142857143,4,2,1,50,0,0
25745,-142.857142857143,4,2,1,50,0,0
25861,-142.857142857143,4,2,1,50,0,0
26091,-142.857142857143,4,2,1,50,0,0
26322,-142.857142857143,4,2,1,50,0,0
26437,-142.857142857143,4,2,1,50,0,0
26553,-142.857142857143,4,2,1,50,0,0
26668,-142.857142857143,4,2,1,50,0,0
26784,-142.857142857143,4,2,1,50,0,0
27591,-142.857142857143,4,2,1,50,0,0
27707,-142.857142857143,4,2,1,50,0,0
27822,-142.857142857143,4,2,1,50,0,0
27938,-142.857142857143,4,2,1,50,0,0
28053,-142.857142857143,4,2,1,50,0,0
28168,-142.857142857143,4,2,1,50,0,0
28514,-142.857142857143,4,2,1,50,0,0
28630,-142.857142857143,4,2,1,50,0,0
29437,-142.857142857143,4,2,1,50,0,0
29553,-142.857142857143,4,2,1,50,0,0
30361,-142.857142857143,4,2,1,50,0,0
30476,-142.857142857143,4,2,1,50,0,0
30591,-142.857142857143,4,2,1,50,0,0
30707,-142.857142857143,4,2,1,50,0,0
30822,-142.857142857143,4,2,1,50,0,0
30938,-142.857142857143,4,2,1,50,0,0
31283,-142.857142857143,4,2,1,50,0,0
31399,-142.857142857143,4,2,1,50,0,0
31514,-142.857142857143,4,2,1,50,0,0
31630,-142.857142857143,4,2,1,50,0,0
31745,-142.857142857143,4,2,1,50,0,0
31861,-142.857142857143,4,2,1,50,0,0
32207,-142.857142857143,4,2,1,50,0,0
32553,-142.857142857143,4,2,1,50,0,0
32668,-142.857142857143,4,2,1,50,0,0
32784,-142.857142857143,4,2,1,50,0,0
33129,-142.857142857143,4,2,1,50,0,0
33245,-142.857142857143,4,2,1,50,0,0
33591,-142.857142857143,4,2,1,50,0,0
33707,-142.857142857143,4,2,1,50,0,0
33822,-142.857142857143,4,2,1,50,0,0
33938,-142.857142857143,4,2,1,50,0,0
34053,-142.857142857143,4,2,1,50,0,0
34168,-142.857142857143,4,2,1,50,0,0
34283,-142.857142857143,4,2,1,50,0,0
34399,-142.857142857143,4,2,1,50,0,0
34514,-142.857142857143,4,2,1,50,0,0
34630,-142.857142857143,4,2,1,50,0,0
34975,-142.857142857143,4,2,1,50,0,0
35091,-142.857142857143,4,2,1,50,0,0
35438,-142.857142857143,4,2,1,50,0,0
35553,-142.857142857143,4,2,1,50,0,0
35784,-142.857142857143,4,2,1,50,0,0
36015,-142.857142857143,4,2,1,50,0,0
36938,-125,4,2,1,55,0,0
44322,-142.857142857143,4,2,1,50,0,0
45014,-142.857142857143,4,2,1,50,0,0
45245,-142.857142857143,4,2,1,50,0,0
45360,-142.857142857143,4,2,1,50,0,0
45476,-142.857142857143,4,2,1,50,0,0
45591,-142.857142857143,4,2,1,50,0,0
45707,-142.857142857143,4,2,1,50,0,0
46052,-142.857142857143,4,2,1,50,0,0
46168,-142.857142857143,4,2,1,50,0,0
46283,-142.857142857143,4,2,1,50,0,0
46399,-142.857142857143,4,2,1,50,0,0
46514,-142.857142857143,4,2,1,50,0,0
46630,-142.857142857143,4,2,1,50,0,0
46745,-142.857142857143,4,2,1,50,0,0
47092,-142.857142857143,4,2,1,50,0,0
47437,-142.857142857143,4,2,1,50,0,0
47553,-142.857142857143,4,2,1,50,0,0
47898,-142.857142857143,4,2,1,50,0,0
48015,-142.857142857143,4,2,1,50,0,0
48130,-142.857142857143,4,2,1,50,0,0
48245,-142.857142857143,4,2,1,50,0,0
48360,-142.857142857143,4,2,1,50,0,0
48476,-142.857142857143,4,2,1,50,0,0
48591,-142.857142857143,4,2,1,50,0,0
48706,-142.857142857143,4,2,1,50,0,0
48821,-142.857142857143,4,2,1,50,0,0
48938,-142.857142857143,4,2,1,50,0,0
49745,-142.857142857143,4,2,1,50,0,0
49861,-142.857142857143,4,2,1,50,0,0
49976,-142.857142857143,4,2,1,50,0,0
50091,-142.857142857143,4,2,1,50,0,0
50206,-142.857142857143,4,2,1,50,0,0
50322,-142.857142857143,4,2,1,50,0,0
50668,-142.857142857143,4,2,1,50,0,0
50784,-142.857142857143,4,2,1,50,0,0
51591,-142.857142857143,4,2,1,50,0,0
51707,-142.857142857143,4,2,1,50,0,0
52283,-142.857142857143,4,2,1,50,0,0
52399,-142.857142857143,4,2,1,50,0,0
52514,-142.857142857143,4,2,1,50,0,0
52630,-142.857142857143,4,2,1,50,0,0
52745,-142.857142857143,4,2,1,50,0,0
52861,-142.857142857143,4,2,1,50,0,0
52976,-142.857142857143,4,2,1,50,0,0
53092,-142.857142857143,4,2,1,50,0,0
53437,-142.857142857143,4,2,1,50,0,0
53553,-142.857142857143,4,2,1,50,0,0
53668,-142.857142857143,4,2,1,50,0,0
53784,-142.857142857143,4,2,1,50,0,0
53899,-142.857142857143,4,2,1,50,0,0
54015,-142.857142857143,4,2,1,50,0,0
54360,-142.857142857143,4,2,1,50,0,0
54476,-142.857142857143,4,2,1,50,0,0
54822,-142.857142857143,4,2,1,50,0,0
54938,-142.857142857143,4,2,1,50,0,0
55053,-142.857142857143,4,2,1,50,0,0
55168,-142.857142857143,4,2,1,50,0,0
55283,-142.857142857143,4,2,1,50,0,0
55399,-142.857142857143,4,2,1,50,0,0
55745,-142.857142857143,4,2,1,50,0,0
55861,-142.857142857143,4,2,1,50,0,0
55976,-142.857142857143,4,2,1,50,0,0
56092,-142.857142857143,4,2,1,50,0,0
56207,-142.857142857143,4,2,1,50,0,0
56322,-142.857142857143,4,2,1,50,0,0
56437,-142.857142857143,4,2,1,50,0,0
56553,-142.857142857143,4,2,1,50,0,0
56668,-142.857142857143,4,2,1,50,0,0
56784,-142.857142857143,4,2,1,50,0,0
57129,-142.857142857143,4,2,1,50,0,0
57245,-142.857142857143,4,2,1,55,0,0
59784,-142.857142857143,4,2,1,55,0,0
59899,-142.857142857143,4,2,1,55,0,0
60015,-142.857142857143,4,2,3,55,0,0
60130,-142.857142857143,4,2,1,55,0,0
60822,-142.857142857143,4,2,1,55,0,0
60938,-83.3333333333333,4,2,1,80,0,1
72476,-90.9090909090909,4,2,1,80,0,1
72938,-83.3333333333333,4,2,1,80,0,1
73399,-76.9230769230769,4,2,1,80,0,1
75707,-400,4,2,1,70,0,0
77553,-125,4,2,1,55,0,0
92322,-200,4,2,1,45,0,0
94399,-111.111111111111,4,2,1,65,0,0
96015,-142.857142857143,4,2,1,50,0,0
107091,-125,4,2,1,55,0,0
114476,-166.666666666667,4,2,1,55,0,0
115168,-166.666666666667,4,2,1,55,0,0
115283,-166.666666666667,4,2,1,55,0,0
115399,-166.666666666667,4,2,3,55,0,0
115515,-166.666666666667,4,2,1,55,0,0
116207,-166.666666666667,4,2,2,55,0,0
116322,-333.333333333333,4,2,2,50,0,0
116437,-333.333333333333,4,2,2,50,0,0
116553,-333.333333333333,4,2,2,50,0,0
116668,-333.333333333333,4,2,2,50,0,0
116784,-333.333333333333,4,2,2,50,0,0
116899,-333.333333333333,4,2,2,50,0,0
117015,-333.333333333333,4,2,2,50,0,0
117361,-333.333333333333,4,2,2,50,0,0
117476,-333.333333333333,4,2,2,50,0,0
117591,-333.333333333333,4,2,2,50,0,0
117707,-333.333333333333,4,2,2,50,0,0
117822,-333.333333333333,4,2,2,50,0,0
117938,-333.333333333333,4,2,2,50,0,0
118283,-333.333333333333,4,2,2,50,0,0
118399,-333.333333333333,4,2,2,50,0,0
118514,-333.333333333333,4,2,2,50,0,0
118630,-333.333333333333,4,2,2,50,0,0
118745,-333.333333333333,4,2,2,50,0,0
118861,-333.333333333333,4,2,2,50,0,0
119207,-333.333333333333,4,2,2,50,0,0
119322,-333.333333333333,4,2,2,50,0,0
119437,-333.333333333333,4,2,2,50,0,0
119553,-333.333333333333,4,2,2,50,0,0
119668,-333.333333333333,4,2,2,50,0,0
119784,-333.333333333333,4,2,2,50,0,0
120130,-333.333333333333,4,2,2,50,0,0
120245,-333.333333333333,4,2,2,50,0,0
120360,-333.333333333333,4,2,2,50,0,0
120476,-333.333333333333,4,2,2,50,0,0
120591,-333.333333333333,4,2,2,50,0,0
120707,-333.333333333333,4,2,2,50,0,0
121053,-333.333333333333,4,2,2,50,0,0
121168,-333.333333333333,4,2,2,50,0,0
121283,-333.333333333333,4,2,2,50,0,0
121399,-333.333333333333,4,2,2,50,0,0
121514,-333.333333333333,4,2,2,50,0,0
121630,-333.333333333333,4,2,2,50,0,0
121976,-333.333333333333,4,2,2,50,0,0
122091,-333.333333333333,4,2,2,50,0,0
122206,-333.333333333333,4,2,2,50,0,0
122322,-333.333333333333,4,2,2,50,0,0
122437,-333.333333333333,4,2,2,50,0,0
122553,-333.333333333333,4,2,2,50,0,0
122783,-333.333333333333,4,2,2,50,0,0
122899,-333.333333333333,4,2,2,50,0,0
123130,-333.333333333333,4,2,2,50,0,0
123245,-333.333333333333,4,2,2,50,0,0
123822,-333.333333333333,4,2,2,50,0,0
123938,-333.333333333333,4,2,2,50,0,0
124053,-333.333333333333,4,2,2,50,0,0
124168,-333.333333333333,4,2,2,50,0,0
124283,-333.333333333333,4,2,2,50,0,0
124399,-333.333333333333,4,2,2,50,0,0
124745,-333.333333333333,4,2,2,50,0,0
124861,-333.333333333333,4,2,2,50,0,0
124976,-333.333333333333,4,2,2,50,0,0
125091,-333.333333333333,4,2,2,50,0,0
125206,-333.333333333333,4,2,2,50,0,0
125322,-333.333333333333,4,2,2,50,0,0
125668,-333.333333333333,4,2,2,50,0,0
125784,-333.333333333333,4,2,2,50,0,0
125899,-333.333333333333,4,2,2,50,0,0
126015,-333.333333333333,4,2,2,50,0,0
126130,-333.333333333333,4,2,2,50,0,0
126245,-333.333333333333,4,2,2,50,0,0
126591,-333.333333333333,4,2,2,50,0,0
126707,-333.333333333333,4,2,2,50,0,0
126822,-333.333333333333,4,2,2,50,0,0
126938,-333.333333333333,4,2,2,50,0,0
127053,-333.333333333333,4,2,2,50,0,0
127168,-333.333333333333,4,2,2,50,0,0
127399,-333.333333333333,4,2,1,55,0,0
131091,-83.3333333333333,4,2,1,80,0,1
142168,-90.9090909090909,4,2,1,80,0,1
145861,-333.333333333333,4,2,1,70,0,0
147707,-125,4,2,1,55,0,0
160630,-142.857142857143,4,2,1,65,0,0
162015,-142.857142857143,4,2,1,45,0,0

[Colours]
Combo1 : 164,100,240
Combo2 : 230,110,150
Combo3 : 100,200,200
Combo4 : 130,120,255

[HitObjects]
327,340,15,6,0,P|288:358|295:384,1,74.9999977111817,2|0,3:2|0:0,0:0:0:0:
426,334,361,2,0,P|448:326|475:314,1,37.4999988555909,2|0,3:1|0:0,0:0:0:0:
353,248,591,2,0,P|370:255|387:261,1,37.4999988555909,2|0,3:1|0:0,0:0:0:0:
445,207,822,1,2,3:1:0:0:
344,255,938,6,0,P|299:241|250:228,1,74.9999977111817,2|0,3:2|0:0,0:0:0:0:
232,157,1284,2,0,P|237:136|243:119,1,37.4999988555909,2|0,3:1|0:0,0:0:0:0:
292,65,1515,1,2,3:1:0:0:
158,202,1630,2,0,P|153:181|147:164,1,37.4999988555909,2|0,3:1|0:0,0:0:0:0:
239,163,1861,6,0,P|278:181|271:207,1,74.9999977111817,2|0,3:2|0:0,0:0:0:0:
205,74,2207,2,0,P|187:81|170:87,1,37.4999988555909,2|0,3:1|0:0,0:0:0:0:
147,165,2438,2,0,P|125:157|98:145,1,37.4999988555909,2|0,3:1|0:0,0:0:0:0:
68,89,2668,1,2,3:1:0:0:
0,120,2784,5,2,3:2:0:0:
117,265,3015,2,0,P|114:256|105:237,2,24.9999992370606,2|2|2,0:1|0:1|0:1,0:0:0:0:
61,315,3245,5,2,3:1:0:0:
327,340,3707,6,0,P|288:358|295:384,1,74.9999977111817,2|0,3:2|0:0,0:0:0:0:
426,334,4053,2,0,P|448:326|475:314,1,37.4999988555909,2|0,3:1|0:0,0:0:0:0:
353,248,4283,2,0,P|370:255|387:261,1,37.4999988555909,2|0,3:1|0:0,0:0:0:0:
445,207,4515,1,2,3:1:0:0:
344,255,4631,6,0,P|299:241|250:228,1,74.9999977111817,2|0,3:2|0:0,0:0:0:0:
232,157,4976,2,0,P|237:136|243:119,1,37.4999988555909,2|0,3:1|0:0,0:0:0:0:
292,65,5207,1,2,3:1:0:0:
158,202,5322,2,0,P|153:181|147:164,1,37.4999988555909,2|0,3:1|0:0,0:0:0:0:
239,163,5553,6,0,P|278:181|271:207,1,74.9999977111817,2|0,3:2|0:0,0:0:0:0:
218,80,5899,2,0,P|200:87|183:93,1,37.4999988555909,2|0,3:1|0:0,0:0:0:0:
116,63,6130,1,2,3:1:0:0:
63,112,6245,2,0,P|58:130|53:157,1,37.4999988555909,2|0,3:1|0:0,0:0:0:0:
0,69,6476,6,0,P|15:126|29:226,1,149.999995422363,2|0,3:2|0:0,0:0:0:0:
273,359,7399,6,0,P|322:344|367:325,1,100,6|0,3:1|0:0,0:0:0:0:
232,196,7745,2,0,P|227:177|216:149,1,50,2|0,3:1|1:0,0:0:0:0:
300,241,7976,2,0,P|305:222|316:194,1,50,2|0,3:1|0:0,0:0:0:0:
384,160,8207,1,0,3:0:0:0:
226,207,8322,6,0,P|177:192|132:173,1,100,2|0,3:1|0:0,0:0:0:0:
5,303,8668,2,0,P|24:295|55:279,1,50,2|0,3:1|1:0,0:0:0:0:
63,206,8899,1,0,3:0:0:0:
113,327,9015,2,0,P|120:307|131:274,1,50,2|0,3:1|0:0,0:0:0:0:
88,108,9245,6,0,P|109:145|163:155,1,100,2|0,3:1|0:0,0:0:0:0:
270,61,9591,2,0,P|247:71|223:78,1,50,2|0,3:1|1:0,0:0:0:0:
332,109,9822,2,0,P|344:87|352:63,1,50,2|0,3:1|0:0,0:0:0:0:
409,15,10053,1,0,3:0:0:0:
483,32,10168,2,0,P|489:59|499:84,1,50,2|0,3:1|3:0,0:0:0:0:
436,175,10399,2,0,P|425:172|412:168,1,25,2|2,3:1|0:1,0:0:0:0:
448,185,10515,2,0,P|459:182|472:178,1,25,0|0,3:0|0:0,0:0:0:0:
425,277,10630,5,2,1:1:0:0:
480,337,10745,2,0,P|429:357|382:383,1,100,4|0,3:3|0:0,0:0:0:0:
293,325,11091,6,0,B|282:307|253:295|253:295|284:303|302:296,1,100,2|0,3:1|0:0,0:0:0:0:
177,384,11438,2,0,P|171:360|163:336,1,50,2|0,3:1|1:0,0:0:0:0:
97,269,11668,2,0,P|89:292|83:316,1,50,2|0,3:1|0:0,0:0:0:0:
15,345,11899,1,2,3:1:0:0:
188,209,12015,6,0,P|141:191|133:141,1,100,2|0,3:1|0:0,0:0:0:0:
267,68,12361,2,0,P|294:80|321:86,1,50,2|0,3:1|1:0,0:0:0:0:
366,30,12591,1,0,3:0:0:0:
234,0,12707,2,0,P|207:12|180:18,1,50,2|0,3:1|0:0,0:0:0:0:
321,167,12938,6,0,P|374:152|395:108,1,100,2|0,3:1|0:0,0:0:0:0:
490,203,13284,2,0,P|483:230|479:257,1,50,2|0,3:1|1:0,0:0:0:0:
511,322,13515,1,0,3:0:0:0:
392,255,13630,2,0,P|399:282|403:309,1,50,2|0,3:1|0:0,0:0:0:0:
308,384,13861,6,0,P|284:376|254:367,1,50,2|0,3:1|0:0,0:0:0:0:
189,342,14091,2,0,P|165:334|135:325,1,50,0|0,3:0|0:0,0:0:0:0:
220,185,14322,5,2,1:1:0:0:
251,210,14399,1,2,3:1:0:0:
211,224,14476,1,2,3:1:0:0:
228,205,14553,2,0,P|256:192|289:179,1,50,2|0,3:0|0:0,0:0:0:0:
381,122,14784,6,0,P|331:100|315:50,1,100,4|0,3:1|0:0,0:0:0:0:
161,0,15130,2,0,P|177:14|189:45,1,50,2|0,3:1|1:0,0:0:0:0:
95,103,15361,2,0,P|99:82|119:56,1,50,2|0,3:1|0:0,0:0:0:0:
168,112,15591,1,0,3:0:0:0:
72,195,15707,6,0,P|86:245|95:296,1,100,2|0,3:1|0:0,0:0:0:0:
220,357,16053,2,0,P|248:344|265:326,1,50,2|0,3:1|1:0,0:0:0:0:
286,259,16284,1,0,3:0:0:0:
329,364,16399,2,0,P|339:335|338:310,1,50,2|0,3:1|0:0,0:0:0:0:
437,195,16630,6,0,P|488:212|502:261,1,100,2|0,3:1|0:0,0:0:0:0:
379,132,16976,2,0,P|384:105|396:75,1,50,2|0,3:1|1:0,0:0:0:0:
309,173,17207,2,0,P|304:146|292:116,1,50,2|0,3:1|0:0,0:0:0:0:
231,88,17438,1,0,3:0:0:0:
171,130,17553,2,0,P|155:145|129:157,1,50,2|0,3:1|3:0,0:0:0:0:
66,225,17784,2,0,P|62:214|56:198,1,25,2|2,3:1|0:1,0:0:0:0:
75,234,17899,2,0,P|70:245|66:257,1,25,0|0,3:0|0:0,0:0:0:0:
68,334,18015,5,2,1:1:0:0:
141,313,18130,2,0,P|185:336|241:359,1,100,4|0,3:3|0:0,0:0:0:0:
321,196,18476,6,0,P|300:242|244:265,1,100,2|0,3:1|0:0,0:0:0:0:
383,323,18822,2,0,P|392:294|401:267,1,50,2|0,3:1|1:0,0:0:0:0:
314,378,19053,2,0,P|305:349|296:322,1,50,2|0,3:1|0:0,0:0:0:0:
257,263,19284,1,2,3:1:0:0:
391,332,19399,6,0,P|441:313|481:291,1,100,2|0,3:1|0:0,0:0:0:0:
437,121,19745,2,0,P|424:143|414:171,1,50,2|0,3:1|1:0,0:0:0:0:
472,218,19976,1,0,3:0:0:0:
344,133,20091,2,0,P|335:109|322:88,1,50,2|0,3:1|0:0,0:0:0:0:
447,128,20322,6,0,P|463:73|494:27,1,100,2|0,3:1|0:0,0:0:0:0:
326,0,20668,2,0,P|306:15|282:21,1,50,2|0,3:1|1:0,0:0:0:0:
210,0,20899,1,0,3:0:0:0:
278,93,21015,2,0,P|253:89|232:76,1,50,2|0,3:1|3:0,0:0:0:0:
344,133,21245,6,0,P|339:158|334:184,1,50,2|0,3:1|0:0,0:0:0:0:
310,305,21476,2,0,P|314:280|319:255,1,50,2|0,3:0|0:0,0:0:0:0:
295,382,21707,1,2,1:1:0:0:
117,224,22053,1,0,1:0:0:0:
124,232,22111,1,0,1:0:0:0:
129,223,22168,6,0,P|85:248|46:276,1,87.499997329712,4|2,3:2|0:0,0:0:0:0:
144,131,22630,2,0,P|187:156|231:176,1,87.499997329712,2|0,1:2|0:0,0:0:0:0:
290,143,22976,1,0,0:0:0:0:
351,202,23091,2,0,P|346:229|340:258,1,43.749998664856,2|0,0:2|0:0,0:0:0:0:
365,126,23322,2,0,P|369:104|373:83,1,43.749998664856,0|0,3:0|0:0,0:0:0:0:
502,207,23553,1,2,1:2:0:0:
431,236,23668,2,0,P|381:217|335:193,1,87.499997329712,0|0,3:0|0:0,0:0:0:0:
208,116,24015,6,0,P|189:132|178:155,1,43.749998664856,2|0,3:2|0:0,0:0:0:0:
105,133,24245,2,0,P|102:157|111:181,1,43.749998664856,2|0,0:2|0:0,0:0:0:0:
210,330,24476,1,2,1:2:0:0:
244,265,24591,2,0,P|216:233|166:225,1,87.499997329712,0|0,3:0|0:0,0:0:0:0:
105,265,24938,1,0,3:0:0:0:
95,274,25168,2,0,P|76:267|51:255,1,43.749998664856,2|0,0:2|0:0,0:0:0:0:
95,375,25399,2,0,P|110:362|133:346,1,43.749998664856,2|0,1:2|0:0,0:0:0:0:
8,325,25630,2,0,P|11:344|13:372,1,43.749998664856,2|0,0:2|0:0,0:0:0:0:
183,295,25861,6,0,P|186:248|194:202,1,87.499997329712,2|0,3:2|0:0,0:0:0:0:
109,64,26322,2,0,P|123:79|145:88,1,43.749998664856,2|0,1:2|0:0,0:0:0:0:
112,161,26553,2,0,P|91:169|76:184,1,43.749998664856,2|0,0:2|0:0,0:0:0:0:
12,139,26784,2,0,P|28:98|25:54,1,87.499997329712,2|0,0:2|3:0,0:0:0:0:
202,136,27245,1,2,1:2:0:0:
259,85,27361,2,0,P|303:105|359:119,1,87.499997329712,0|0,3:0|0:0,0:0:0:0:
438,47,27707,6,0,P|423:61|410:84,1,43.749998664856,2|0,3:2|0:0,0:0:0:0:
335,72,27938,2,0,P|334:92|341:117,1,43.749998664856,2|0,0:2|0:0,0:0:0:0:
446,210,28168,1,2,1:2:0:0:
379,183,28284,1,0,3:0:0:0:
335,240,28399,2,0,P|349:255|372:268,1,43.749998664856,2|0,0:0|0:0,0:0:0:0:
501,336,28630,2,0,P|416:357|332:384,1,174.999994659424,0|0,3:0|1:0,0:0:0:0:
127,183,29322,2,0,P|149:173|173:164,1,43.749998664856,2|0,0:3|0:0,0:0:0:0:
86,322,29553,6,0,P|76:276|63:235,1,87.499997329712,0|2,3:0|0:2,0:0:0:0:
259,119,30015,2,0,P|246:160|236:203,1,87.499997329712,2|2,1:2|0:2,0:0:0:0:
281,263,30361,1,0,0:0:0:0:
346,303,30476,6,0,P|363:297|391:287,1,43.749998664856,2|0,0:2|0:0,0:0:0:0:
295,361,30707,2,0,P|274:368|253:375,1,43.749998664856,0|0,3:0|0:0,0:0:0:0:
100,249,30938,1,2,1:2:0:0:
141,310,31053,2,0,P|183:291|201:252,1,87.499997329712,0|0,3:0|0:0,0:0:0:0:
213,87,31399,6,0,P|188:77|170:66,1,43.749998664856,2|0,3:2|0:0,0:0:0:0:
212,180,31630,2,0,P|233:163|251:153,1,43.749998664856,2|0,0:2|0:0,0:0:0:0:
73,120,31861,2,0,P|88:179|100:251,1,131.249995994568,2|0,1:2|0:0,0:0:0:0:
76,320,32322,1,0,0:0:0:0:
68,328,32553,2,0,P|47:321|25:311,1,43.749998664856,2|0,3:2|0:0,0:0:0:0:
176,380,32784,1,2,1:2:0:0:
229,328,32899,2,0,B|281:343|254:351|316:368,1,87.499997329712,0|0,3:0|0:0,0:0:0:0:
401,304,33245,6,0,B|388:231|430:256|408:175,1,131.249995994568,2|0,3:2|0:0,0:0:0:0:
306,92,33707,2,0,P|289:107|266:115,1,43.749998664856,2|0,1:2|0:0,0:0:0:0:
273,187,33938,2,0,P|250:185|228:174,1,43.749998664856,2|0,0:2|0:0,0:0:0:0:
133,48,34168,2,0,P|155:49|177:60,1,43.749998664856,2|0,0:2|0:0,0:0:0:0:
223,4,34399,2,0,P|238:21|245:44,1,43.749998664856,2|0,3:2|0:0,0:0:0:0:
130,193,34630,1,2,1:2:0:0:
192,153,34745,2,0,P|231:174|278:188,1,87.499997329712,0|0,3:0|0:0,0:0:0:0:
389,269,35091,6,0,P|350:284|326:326,1,87.499997329712,2|2,3:2|0:2,0:0:0:0:
288,382,35438,1,0,3:0:0:0:
158,338,35553,2,0,P|173:353|184:372,1,43.749998664856,2|0,1:2|3:0,0:0:0:0:
153,263,35784,2,0,P|131:269|109:283,1,43.749998664856
30,368,36015,5,0,3:0:0:0:
18,381,36476,5,2,0:0:0:0:
258,246,36938,6,0,P|306:228|353:214,1,100,6|0,3:1|0:0,0:0:0:0:
258,115,37284,2,0,P|255:141|245:165,1,50,2|0,3:1|1:0,0:0:0:0:
139,141,37515,2,0,P|162:131|182:116,1,50,2|0,3:1|0:0,0:0:0:0:
186,98,37688,1,0,3:0:0:0:
181,84,37745,1,0,3:0:0:0:
224,21,37861,6,0,P|270:40|322:53,1,100,2|0,3:1|0:0,0:0:0:0:
414,214,38207,2,0,P|409:192|398:165,1,50,2|0,3:1|1:0,0:0:0:0:
337,124,38438,1,0,3:0:0:0:
474,272,38553,2,0,P|486:252|497:226,1,50,2|0,3:1|0:0,0:0:0:0:
336,256,38784,6,0,P|284:268|265:327,1,100,2|0,3:1|0:0,0:0:0:0:
122,366,39130,2,0,P|99:354|72:346,1,50,2|0,3:1|1:0,0:0:0:0:
180,272,39361,2,0,P|181:297|187:325,1,50,2|0,3:1|0:0,0:0:0:0:
236,377,39591,1,0,3:0:0:0:
69,267,39707,2,0,P|90:253|111:234,1,50,2|0,3:1|3:0,0:0:0:0:
160,145,39938,2,0,P|151:141|135:136,1,25,2|2,3:1|0:1,0:0:0:0:
170,154,40053,2,0,P|179:150|195:145,1,25,0|0,3:0|0:0,0:0:0:0:
259,182,40168,5,2,1:1:0:0:
305,116,40284,2,0,P|295:68|281:12,1,100,4|0,3:3|0:0,0:0:0:0:
430,87,40630,6,0,P|417:135|407:184,1,100,2|0,3:1|0:0,0:0:0:0:
275,259,40976,2,0,P|258:272|230:281,1,50,2|0,3:1|1:0,0:0:0:0:
319,377,41207,2,0,P|316:355|322:327,1,50,2|0,3:1|0:0,0:0:0:0:
354,259,41438,1,2,3:1:0:0:
212,361,41553,6,0,P|170:346|149:296,1,100,2|0,3:1|0:0,0:0:0:0:
78,159,41899,2,0,P|49:173|32:194,1,50,2|0,3:1|1:0,0:0:0:0:
99,230,42130,1,0,3:0:0:0:
155,178,42245,2,0,P|157:145|147:120,1,50,2|0,3:1|0:0,0:0:0:0:
240,39,42476,6,0,P|273:74|329:81,1,100,2|0,3:1|0:0,0:0:0:0:
430,30,42822,2,0,P|405:45|390:73,1,50,2|0,3:1|1:0,0:0:0:0:
381,136,43053,1,0,3:0:0:0:
325,33,43168,2,0,P|317:61|327:91,1,50,2|0,3:1|0:0,0:0:0:0:
391,217,43399,6,0,P|415:209|445:198,1,50,2|0,3:1|0:0,0:0:0:0:
321,246,43630,2,0,P|297:254|273:262,1,50,2|0,3:0|0:0,0:0:0:0:
204,291,43861,1,0,3:0:0:0:
219,90,44322,6,0,P|229:47|243:1,1,87.499997329712,4|2,3:2|0:2,0:0:0:0:
127,176,44784,2,0,P|117:133|104:91,1,87.499997329712,2|0,1:2|0:0,0:0:0:0:
39,54,45130,1,0,0:0:0:0:
7,120,45245,2,0,P|12:147|18:176,1,43.749998664856,2|0,0:2|0:0,0:0:0:0:
42,279,45476,2,0,P|38:257|34:236,1,43.749998664856,0|0,3:0|0:0,0:0:0:0:
61,354,45707,1,2,1:2:0:0:
137,335,45822,2,0,P|178:350|217:369,1,87.499997329712,0|0,3:0|0:0,0:0:0:0:
346,283,46168,6,0,P|322:293|301:311,1,43.749998664856,2|0,3:2|0:0,0:0:0:0:
291,184,46399,2,0,P|311:199|337:208,1,43.749998664856,2|0,0:2|0:0,0:0:0:0:
450,140,46630,1,2,1:2:0:0:
405,78,46745,2,0,P|362:94|354:134,1,87.499997329712
414,240,47092,1,2,0:0:0:0:
425,251,47322,2,0,P|444:244|469:232,1,43.749998664856,2|0,3:2|0:0,0:0:0:0:
404,365,47553,1,2,1:2:0:0:
333,328,47668,2,0,P|297:314|249:292,1,87.499997329712,0|0,3:0|0:0,0:0:0:0:
140,209,48015,6,0,P|114:221|100:243,1,43.749998664856,2|0,3:2|0:0,0:0:0:0:
38,199,48245,2,0,P|28:225|33:251,1,43.749998664856,2|0,0:2|0:0,0:0:0:0:
108,384,48476,2,0,P|117:357|112:331,1,43.749998664856,2|0,1:2|0:0,0:0:0:0:
187,318,48706,2,0,P|175:292|153:278,1,43.749998664856,2|0,0:2|0:0,0:0:0:0:
140,209,48938,2,0,P|153:157|162:122,1,87.499997329712,2|0,0:2|3:0,0:0:0:0:
301,186,49399,1,2,1:2:0:0:
360,138,49515,2,0,P|347:86|338:51,1,87.499997329712,0|0,3:0|0:0,0:0:0:0:
220,0,49861,6,0,P|204:17|179:26,1,43.749998664856,2|0,3:2|0:0,0:0:0:0:
170,95,50091,2,0,P|147:89|126:72,1,43.749998664856,2|0,0:2|0:0,0:0:0:0:
38,11,50322,1,2,1:2:0:0:
0,91,50438,1,0,3:0:0:0:
45,153,50553,2,0,P|62:140|83:135,1,43.749998664856,2|0,0:0|0:0,0:0:0:0:
199,180,50784,2,0,B|290:145|223:100|344:68,1,174.999994659424,0|0,3:0|1:0,0:0:0:0:
444,215,51476,2,0,P|450:193|459:169,1,43.749998664856,2|0,0:3|0:0,0:0:0:0:
345,225,51707,6,0,P|357:266|367:309,1,87.499997329712,0|2,3:0|0:0,0:0:0:0:
213,366,52168,2,0,P|235:377|265:381,1,43.749998664856,2|0,1:2|0:0,0:0:0:0:
175,300,52399,2,0,P|153:304|134:314,1,43.749998664856,2|0,0:0|0:0,0:0:0:0:
10,378,52630,2,0,P|16:353|23:328,1,43.749998664856,2|0,0:2|0:0,0:0:0:0:
49,220,52861,2,0,P|43:241|38:262,1,43.749998664856,0|0,3:0|0:0,0:0:0:0:
68,148,53092,1,2,1:2:0:0:
141,171,53207,2,0,P|183:156|233:129,1,87.499997329712,0|0,3:0|0:0,0:0:0:0:
307,276,53553,6,0,P|282:266|264:255,1,43.749998664856,2|0,3:2|0:0,0:0:0:0:
364,177,53784,2,0,P|367:203|367:224,1,43.749998664856,2|0,0:2|0:0,0:0:0:0:
221,136,54015,1,2,1:2:0:0:
276,78,54130,2,0,P|247:40|201:35,1,87.499997329712,0|0,3:0|0:0,0:0:0:0:
112,88,54476,1,0,3:0:0:0:
104,96,54707,2,0,P|83:89|61:79,1,43.749998664856,2|0,0:2|0:0,0:0:0:0:
8,253,54938,2,0,P|27:244|48:237,1,43.749998664856,2|0,1:2|0:0,0:0:0:0:
88,172,55168,2,0,P|105:184|122:199,1,43.749998664856,2|0,0:2|0:0,0:0:0:0:
243,295,55399,6,0,P|302:269|295:195,1,131.249995994568,2|0,3:2|0:0,0:0:0:0:
181,62,55861,2,0,P|198:77|221:85,1,43.749998664856,2|0,1:2|0:0,0:0:0:0:
214,157,56092,2,0,P|237:155|259:144,1,43.749998664856,2|0,0:2|0:0,0:0:0:0:
353,58,56322,2,0,P|371:69|385:90,1,43.749998664856,2|0,0:2|0:0,0:0:0:0:
452,64,56553,2,0,P|456:86|451:109,1,43.749998664856,2|0,3:2|0:0,0:0:0:0:
372,255,56784,1,2,1:2:0:0:
320,195,56899,2,0,P|372:177|412:157,1,87.499997329712,0|0,3:0|0:0,0:0:0:0:
302,322,57245,6,0,P|250:304|210:284,1,87.499997329712,2|0,3:1|0:0,0:0:0:0:
175,225,57591,1,0,3:0:0:0:
54,318,57707,5,2,1:1:0:0:
94,381,57822,2,0,P|146:363|186:343,1,87.499997329712,0|0,3:0|0:0,0:0:0:0:
83,210,58168,6,0,P|42:189|33:145,1,87.499997329712,2|2,3:1|0:2,0:0:0:0:
71,85,58515,1,0,3:0:0:0:
200,57,58630,2,0,P|191:80|185:111,1,43.749998664856,2|0,1:1|3:0,0:0:0:0:
294,143,58861,2,0,P|278:123|254:103,1,43.749998664856,2|0,0:2|0:0,0:0:0:0:
278,270,59091,5,2,3:0:0:0:
284,282,59553,1,2,0:1:0:0:
399,201,59784,6,0,P|404:177|411:154,1,43.749998664856,2|0,3:1|0:0,0:0:0:0:
319,27,60015,1,2,3:2:0:0:
382,71,60130,1,2,0:1:0:0:
312,34,60245,1,2,0:1:0:0:
388,62,60361,1,2,0:1:0:0:
446,18,60476,1,2,0:1:0:0:
482,28,60591,1,2,0:1:0:0:
496,52,60707,2,0,P|492:71|487:95,1,43.749998664856,2|0,0:1|0:0,0:0:0:0:
347,248,60938,6,0,P|308:234|273:223,1,74.9999977111817,6|0,3:1|0:0,0:0:0:0:
134,243,61168,2,0,P|121:270|117:322,1,74.9999977111817,2|0,3:2|0:0,0:0:0:0:
243,77,61399,2,0,P|237:40|228:2,1,74.9999977111817,2|0,1:2|0:0,0:0:0:0:
307,152,61630,1,2,0:1:0:0:
368,109,61745,2,0,P|372:84|388:30,1,74.9999977111817,0|0,3:0|0:0,0:0:0:0:
177,168,61976,1,0,3:0:0:0:
170,163,62034,1,0,3:0:0:0:
165,155,62091,2,0,P|160:121|149:81,1,74.9999977111817,2|0,3:2|0:0,0:0:0:0:
340,269,62322,2,0,P|332:299|323:348,1,74.9999977111817,2|0,1:2|0:0,0:0:0:0:
473,167,62553,2,0,P|456:194|411:204,1,74.9999977111817,2|0,0:2|0:0,0:0:0:0:
180,297,62784,6,0,P|215:311|238:354,1,74.9999977111817,2|0,3:1|0:0,0:0:0:0:
67,186,63015,2,0,P|31:209|-12:223,1,74.9999977111817,2|0,3:2|0:0,0:0:0:0:
195,41,63245,2,0,P|224:58|275:71,1,74.9999977111817,2|0,1:2|0:0,0:0:0:0:
79,0,63476,1,2,3:1:0:0:
21,43,63591,2,0,P|38:89|69:194,1,149.999995422363,0|0,3:0|0:0,0:0:0:0:
180,297,63938,2,0,P|190:260|203:223,1,74.9999977111817,2|0,3:2|0:0,0:0:0:0:
100,378,64168,2,0,P|74:315|-5:297,1,149.999995422363,2|0,1:2|3:0,0:0:0:0:
0,295,64515,1,0,3:0:0:0:
180,297,64630,6,0,P|216:311|266:320,1,74.9999977111817,2|0,3:1|0:0,0:0:0:0:
107,161,64861,2,0,P|73:176|26:184,1,74.9999977111817,2|0,3:2|0:0,0:0:0:0:
238,25,65091,2,0,P|256:55|264:100,1,74.9999977111817,2|0,1:2|0:0,0:0:0:0:
155,221,65322,1,2,3:1:0:0:
107,161,65438,2,0,P|113:131|124:85,1,74.9999977111817,0|0,3:0|0:0,0:0:0:0:
262,272,65668,1,0,0:0:0:0:
327,229,65784,2,0,P|321:199|308:156,1,74.9999977111817,2|0,3:2|0:0,0:0:0:0:
442,9,66015,2,0,P|473:25|513:36,1,74.9999977111817,2|0,1:2|0:0,0:0:0:0:
377,129,66245,2,0,P|346:145|306:156,1,74.9999977111817,2|0,0:2|0:0,0:0:0:0:
447,317,66476,6,0,P|442:275|424:237,1,74.9999977111817,2|0,3:1|0:0,0:0:0:0:
237,96,66707,2,0,P|222:130|219:167,1,74.9999977111817,2|0,3:2|0:0,0:0:0:0:
279,379,66938,2,0,P|312:368|341:326,1,74.9999977111817,2|0,1:2|0:0,0:0:0:0:
297,271,67168,1,2,3:1:0:0:
115,197,67284,6,0,P|124:153|134:113,1,74.9999977111817,0|0,1:0|0:0,0:0:0:0:
169,60,67515,1,0,1:0:0:0:
345,130,67630,2,0,P|338:95|327:47,1,74.9999977111817,12|0,3:3|0:0,0:0:0:0:
376,218,67861,5,2,1:2:0:0:
263,168,67976,1,0,1:0:0:0:
362,211,68091,1,2,1:2:0:0:
276,176,68206,1,0,1:0:0:0:
404,308,68322,6,0,P|424:291|470:271,1,74.9999977111817,6|0,3:1|0:0,0:0:0:0:
288,384,68553,2,0,P|252:372|224:347,1,74.9999977111817,2|0,3:2|0:0,0:0:0:0:
37,184,68784,2,0,P|25:218|23:264,1,74.9999977111817,2|0,1:2|0:0,0:0:0:0:
138,132,69015,1,2,3:1:0:0:
200,82,69130,2,0,P|192:39|181:9,1,74.9999977111817,0|0,3:0|0:0,0:0:0:0:
348,198,69361,1,0,0:0:0:0:
299,136,69476,2,0,P|304:105|318:62,1,74.9999977111817,2|0,3:2|0:0,0:0:0:0:
173,240,69707,2,0,P|147:261|99:275,1,74.9999977111817,2|0,1:2|0:0,0:0:0:0:
294,376,69938,2,0,P|288:342|300:301,1,74.9999977111817,2|0,0:0|0:0,0:0:0:0:
443,143,70168,6,0,P|479:161|525:169,1,74.9999977111817,2|0,3:1|0:0,0:0:0:0:
396,15,70399,2,0,P|360:33|314:41,1,74.9999977111817,2|0,3:2|0:0,0:0:0:0:
121,115,70630,2,0,P|157:123|190:153,1,74.9999977111817,2|0,1:2|0:0,0:0:0:0:
236,203,70861,1,2,3:2:0:0:
123,300,70976,2,0,P|101:267|66:248,1,74.9999977111817,2|0,3:2|0:0,0:0:0:0:
0,274,71207,1,2,0:2:0:0:
192,344,71322,2,0,P|204:308|193:270,1,74.9999977111817,2|0,3:2|0:0,0:0:0:0:
333,125,71552,5,2,1:2:0:0:
306,194,71668,1,0,3:0:0:0:
373,221,71784,1,2,3:2:0:0:
328,114,71899,1,0,1:0:0:0:
446,310,72015,6,0,P|462:243|492:166,1,149.999995422363,6|0,3:1|3:0,0:0:0:0:
388,0,72476,5,2,1:3:0:0:
361,18,72591,1,0,3:0:0:0:
333,8,72707,1,0,3:0:0:0:
296,30,72822,1,2,1:2:0:0:
222,0,72938,6,0,P|197:14|153:29,1,74.9999977111817,2|0,3:3|0:0,0:0:0:0:
45,64,73168,1,0,3:0:0:0:
19,99,73284,1,0,3:0:0:0:
49,165,73399,5,2,1:3:0:0:
86,174,73515,1,0,3:0:0:0:
125,148,73630,1,0,3:0:0:0:
148,105,73745,1,0,1:0:0:0:
220,77,73861,5,2,3:3:0:0:
291,97,73976,1,0,1:0:0:0:
362,114,74091,1,0,3:0:0:0:
434,134,74207,1,0,3:0:0:0:
397,205,74322,5,2,1:3:0:0:
351,218,74437,1,0,3:0:0:0:
306,228,74552,1,2,0:0:0:0:
259,240,74668,1,0,1:0:0:0:
281,320,74784,5,6,3:1:0:0:
298,324,74899,1,0,3:0:0:0:
316,329,75014,1,8,0:3:0:0:
333,334,75130,1,0,1:0:0:0:
485,284,75245,5,2,1:2:0:0:
416,323,75361,1,0,1:0:0:0:
491,293,75476,1,8,3:3:0:0:
418,311,75591,1,4,3:3:0:0:
468,384,75707,6,0,P|452:295|436:192,1,187.5,6|2,3:2|0:0,0:0:0:0:
418,127,77322,1,2,0:0:0:0:
256,192,77553,6,0,P|208:206|162:225,1,100,6|0,3:1|0:0,0:0:0:0:
39,336,77899,2,0,P|29:316|23:287,1,50,2|0,3:1|1:0,0:0:0:0:
114,384,78130,2,0,P|124:364|130:335,1,50,2|0,3:1|0:0,0:0:0:0:
98,268,78361,1,0,3:0:0:0:
4,128,78476,6,0,P|35:162|90:170,1,100,2|0,3:1|0:0,0:0:0:0:
195,61,78822,2,0,P|172:72|149:82,1,50,2|0,3:1|1:0,0:0:0:0:
106,20,79053,1,0,3:0:0:0:
277,65,79168,2,0,P|269:88|260:112,1,50,2|0,3:1|0:0,0:0:0:0:
215,286,79399,6,0,P|248:247|307:242,1,100,2|0,3:1|0:0,0:0:0:0:
420,326,79745,2,0,P|397:336|373:343,1,50,2|0,3:1|1:0,0:0:0:0:
481,374,79976,2,0,P|493:352|501:328,1,50,2|0,3:1|0:0,0:0:0:0:
485,255,80207,1,0,3:0:0:0:
430,202,80322,2,0,P|412:193|382:184,1,50,2|0,3:1|3:0,0:0:0:0:
298,253,80553,2,0,P|294:264|289:281,1,25,2|2,3:1|0:1,0:0:0:0:
307,245,80668,2,0,P|303:233|299:221,1,25,0|0,3:0|0:0,0:0:0:0:
226,208,80784,5,2,1:1:0:0:
173,266,80899,2,0,P|185:317|195:371,1,100,4|0,3:3|0:0,0:0:0:0:
17,236,81245,6,0,P|64:215|88:167,1,100,2|0,3:1|0:0,0:0:0:0:
168,38,81591,2,0,P|183:52|212:65,1,50,2|0,3:1|1:0,0:0:0:0:
206,138,81822,2,0,P|226:137|256:125,1,50,2|0,3:1|0:0,0:0:0:0:
287,59,82053,1,2,3:1:0:0:
154,34,82168,6,0,P|113:58|60:75,1,100,2|0,3:1|0:0,0:0:0:0:
153,207,82515,2,0,P|180:219|207:225,1,50,2|0,3:1|1:0,0:0:0:0:
274,206,82745,1,0,3:0:0:0:
209,300,82861,2,0,P|233:293|255:283,1,50,2|0,3:1|0:0,0:0:0:0:
364,156,83091,6,0,P|392:198|450:209,1,100,2|0,3:1|0:0,0:0:0:0:
468,70,83438,2,0,P|456:97|453:128,1,50,2|0,3:1|1:0,0:0:0:0:
506,175,83669,1,0,3:0:0:0:
452,257,83784,2,0,P|447:232|436:209,1,50,2|0,3:1|1:0,0:0:0:0:
307,93,84015,2,0,P|242:126|146:153,1,150,2|0,3:1|0:0,0:0:0:0:
89,272,84476,5,2,3:1:0:0:
120,247,84553,1,2,3:1:0:0:
80,233,84630,1,2,3:1:0:0:
97,252,84707,2,0,P|125:265|158:278,1,50,2|0,3:1|0:0,0:0:0:0:
300,384,84938,6,0,P|323:346|375:336,1,100,4|0,3:1|0:0,0:0:0:0:
301,225,85284,2,0,P|285:211|273:180,1,50,2|0,3:1|1:0,0:0:0:0:
200,290,85515,2,0,P|220:283|252:288,1,50,2|0,3:1|0:0,0:0:0:0:
321,308,85745,1,0,3:0:0:0:
429,138,85861,6,0,P|388:161|384:221,1,100,2|0,3:1|0:0,0:0:0:0:
414,384,86207,2,0,P|433:360|440:336,1,50,2|0,3:1|1:0,0:0:0:0:
433,266,86438,1,0,3:0:0:0:
512,343,86553,2,0,P|508:312|496:290,1,50,2|0,3:1|0:0,0:0:0:0:
321,308,86784,6,0,P|276:335|210:354,1,100,2|0,3:1|0:0,0:0:0:0:
193,205,87130,2,0,P|198:178|210:148,1,50,2|0,3:1|1:0,0:0:0:0:
113,246,87361,2,0,P|108:219|96:189,1,50,2|0,3:1|0:0,0:0:0:0:
50,143,87592,1,0,3:0:0:0:
86,76,87707,2,0,P|106:86|135:92,1,50,2|0,3:1|3:0,0:0:0:0:
227,53,87938,2,0,P|215:48|195:43,1,25,2|2,3:1|0:1,0:0:0:0:
239,51,88053,2,0,P|248:59|258:67,1,25,0|0,3:0|0:0,0:0:0:0:
329,85,88169,5,2,1:1:0:0:
395,41,88284,2,0,P|444:25|489:2,1,100,4|0,3:3|1:0,0:0:0:0:
354,178,88630,6,0,P|305:162|260:139,1,100,2|0,3:1|0:0,0:0:0:0:
135,200,88976,2,0,P|126:171|117:144,1,50,2|0,3:1|1:0,0:0:0:0:
204,255,89207,2,0,P|213:226|222:199,1,50,2|0,3:1|0:0,0:0:0:0:
261,140,89438,1,2,3:1:0:0:
129,214,89553,6,0,P|85:237|38:255,1,100,2|0,3:1|0:0,0:0:0:0:
203,341,89899,2,0,P|224:352|248:361,1,50,2|0,3:1|1:0,0:0:0:0:
314,323,90130,1,0,3:0:0:0:
286,256,90245,1,2,3:1:0:0:
320,333,90361,1,0,3:0:0:0:
282,245,90476,6,0,P|296:190|311:141,1,100,2|0,3:1|0:0,0:0:0:0:
196,262,90822,2,0,P|189:234|181:210,1,50,2|0,3:1|1:0,0:0:0:0:
135,157,91053,1,0,3:0:0:0:
36,295,91168,2,0,P|43:267|50:243,1,50,2|0,3:1|3:0,0:0:0:0:
133,346,91399,2,0,P|126:318|118:294,1,50,2|0,3:1|0:0,0:0:0:0:
60,113,91630,2,0,P|52:136|46:161,1,50,2|0,3:0|0:0,0:0:0:0:
95,9,91861,5,0,1:0:0:0:
95,9,92322,5,6,3:2:0:0:
152,60,92553,1,2,0:0:0:0:
218,25,92784,1,2,0:0:0:0:
284,57,93015,2,0,P|302:50|331:38,1,31.25
373,99,93245,2,0,P|366:136|359:176,1,62.5,2|0,0:0|0:0,0:0:0:0:
316,221,93591,1,0,0:0:0:0:
309,232,93707,1,4,0:2:0:0:
237,206,93938,1,2,0:0:0:0:
193,266,94168,5,2,0:0:0:0:
181,275,94284,2,0,B|170:271|155:267|156:267,1,15.625,0|0,1:0|0:0,0:0:0:0:
95,296,94399,6,0,P|87:262|76:224,1,56.2499982833863,2|0,1:0|0:0,0:0:0:0:
213,86,94630,2,0,P|205:113|199:140,1,56.2499982833863,2|0,1:0|0:0,0:0:0:0:
237,206,94861,1,0,3:0:0:0:
111,149,94976,6,0,P|80:160|49:172,1,56.2499982833863,0|0,1:0|0:0,0:0:0:0:
181,275,95207,2,0,P|212:286|243:298,1,56.2499982833863,0|2,1:0|0:1,0:0:0:0:
302,257,95438,1,0,1:0:0:0:
389,91,95553,5,2,1:0:0:0:
290,136,95668,1,4,3:3:0:0:
357,193,95784,5,2,3:1:0:0:
426,226,95899,1,0,0:0:0:0:
342,372,96015,6,0,P|301:345|256:340,1,87.499997329712,4|0,3:1|0:0,0:0:0:0:
201,384,96361,1,0,0:0:0:0:
117,267,96476,2,0,P|121:243|132:220,1,43.749998664856,2|0,1:2|0:0,0:0:0:0:
14,278,96707,2,0,P|32:293|47:314,1,43.749998664856,2|0,0:0|0:0,0:0:0:0:
76,159,96938,2,0,P|40:193|-19:197,1,87.499997329712,2|0,0:2|0:0,0:0:0:0:
128,43,97399,2,0,P|163:74|220:84,1,87.499997329712,2|2,1:2|0:2,0:0:0:0:
263,47,97745,1,0,0:0:0:0:
385,130,97861,6,0,P|363:145|353:162,1,43.749998664856,2|0,3:2|0:0,0:0:0:0:
281,138,98091,2,0,P|276:164|281:183,1,43.749998664856,2|0,0:2|0:0,0:0:0:0:
417,294,98322,2,0,P|384:257|339:250,1,87.499997329712,2|2,1:2|0:0,0:0:0:0:
190,335,98784,2,0,P|204:341|235:355,1,43.749998664856,2|0,0:0|0:0,0:0:0:0:
137,273,99015,2,0,P|123:279|92:293,1,43.749998664856,0|0,3:0|0:0,0:0:0:0:
200,168,99245,1,0,1:0:0:0:
129,196,99361,2,0,P|93:163|92:123,1,87.499997329712,0|0,3:0|1:0,0:0:0:0:
200,55,99707,6,0,P|245:74|300:86,1,87.499997329712,0|2,3:0|0:2,0:0:0:0:
114,0,100168,2,0,P|69:19|14:31,1,87.499997329712,2|2,1:2|0:2,0:0:0:0:
0,94,100515,1,0,0:0:0:0:
80,168,100630,2,0,P|86:141|94:117,1,43.749998664856,2|0,0:2|0:0,0:0:0:0:
5,190,100861,2,0,P|11:210|15:232,1,43.749998664856,0|0,3:0|0:0,0:0:0:0:
118,360,101091,1,2,1:2:0:0:
48,331,101207,2,0,P|72:295|120:282,1,87.499997329712,0|0,3:0|0:0,0:0:0:0:
243,334,101553,6,0,P|259:317|268:290,1,43.749998664856,2|0,3:2|0:0,0:0:0:0:
341,300,101784,2,0,P|340:276|327:251,1,43.749998664856,2|0,0:2|0:0,0:0:0:0:
245,122,102015,1,2,1:2:0:0:
315,156,102130,2,0,P|356:141|400:122,1,87.499997329712
439,20,102476,5,0,0:0:0:0:
430,27,102707,2,0,P|409:20|384:8,1,43.749998664856,2|0,3:2|0:0,0:0:0:0:
509,106,102938,1,0,1:0:0:0:
465,171,103053,2,0,P|475:213|483:264,1,87.499997329712,0|0,3:0|1:0,0:0:0:0:
379,352,103399,6,0,P|356:340|340:317,1,43.749998664856,2|0,3:2|0:0,0:0:0:0:
277,352,103630,2,0,P|269:327|274:299,1,43.749998664856,2|0,0:2|0:0,0:0:0:0:
174,214,103861,2,0,P|151:226|135:249,1,43.749998664856,2|0,1:2|0:0,0:0:0:0:
72,214,104092,2,0,P|64:238|69:266,1,43.749998664856,2|0,0:2|0:0,0:0:0:0:
102,329,104322,2,0,P|144:317|196:295,1,87.499997329712,2|0,0:2|3:0,0:0:0:0:
359,155,104784,1,2,1:2:0:0:
296,194,104899,2,0,P|278:172|271:153,1,43.749998664856,0|2,3:0|0:2,0:0:0:0:
279,84,105130,1,0,1:0:0:0:
159,3,105245,6,0,P|117:32|74:42,1,87.499997329712,2|2,3:2|0:2,0:0:0:0:
16,12,105591,1,0,3:0:0:0:
118,113,105707,2,0,P|109:133|105:154,1,43.749998664856,2|0,1:2|3:0,0:0:0:0:
51,208,105938,2,0,P|36:186|29:165,1,43.749998664856,0|0,0:0|1:0,0:0:0:0:
147,233,106168,2,0,P|184:201|230:190,1,87.499997329712,2|2,3:2|0:3,0:0:0:0:
42,351,106630,1,0,1:0:0:0:
367,282,107091,6,0,P|358:229|327:196,1,100,6|0,3:1|0:0,0:0:0:0:
251,64,107438,2,0,P|271:84|295:93,1,50,2|0,3:1|1:0,0:0:0:0:
202,8,107668,2,0,P|179:18|162:36,1,50,2|0,3:1|0:0,0:0:0:0:
162,111,107899,1,0,3:0:0:0:
291,186,108015,6,0,P|344:165|400:150,1,100,2|0,3:1|0:0,0:0:0:0:
476,253,108361,2,0,P|461:273|432:292,1,50,2|0,3:1|1:0,0:0:0:0:
365,304,108591,1,0,3:0:0:0:
467,361,108707,2,0,P|442:364|408:357,1,50,2|0,3:1|0:0,0:0:0:0:
284,272,108937,6,0,P|237:290|225:348,1,100,2|0,3:1|0:0,0:0:0:0:
89,375,109283,2,0,P|66:363|39:355,1,50,2|0,3:1|1:0,0:0:0:0:
104,291,109515,2,0,P|127:279|154:271,1,50,2|0,3:1|0:0,0:0:0:0:
198,212,109744,1,0,3:0:0:0:
79,163,109861,2,0,P|77:188|71:216,1,50,2|0,3:1|3:0,0:0:0:0:
23,101,110091,2,0,P|11:97|-8:90,1,25,2|2,3:2|0:1,0:0:0:0:
33,95,110207,2,0,P|45:91|64:84,1,25,0|0,3:0|0:0,0:0:0:0:
75,13,110322,6,0,P|101:25|128:30,1,50,2|4,1:0|3:3,0:0:0:0:
192,95,110553,2,0,P|166:107|139:112,1,50,2|0,3:2|0:0,0:0:0:0:
253,34,110784,6,0,P|264:51|275:83,1,50,2|0,3:2|0:0,0:0:0:0:
351,78,111015,2,0,P|346:97|331:128,1,50,2|2,0:0|3:1,0:0:0:0:
222,211,111245,2,0,P|226:230|241:261,1,50,2|2,1:2|3:1,0:0:0:0:
183,311,111476,2,0,P|200:322|231:333,1,50,2|2,0:0|3:1,0:0:0:0:
369,379,111707,6,0,P|393:368|426:358,1,50,2|0,3:1|0:0,0:0:0:0:
322,269,111938,2,0,P|319:295|311:328,1,50,2|0,0:0|3:0,0:0:0:0:
443,257,112168,1,2,1:2:0:0:
419,187,112284,1,0,3:0:0:0:
346,162,112399,2,0,P|325:175|296:187,1,50,2|2,3:1|1:2,0:0:0:0:
167,70,112630,6,0,P|126:89|115:151,1,100,2|2,3:1|0:0,0:0:0:0:
207,294,112976,2,0,P|201:270|191:244,1,50,2|2,3:1|1:2,0:0:0:0:
124,209,113207,1,0,3:0:0:0:
276,352,113322,2,0,P|282:328|292:302,1,50,2|0,3:1|0:0,0:0:0:0:
154,357,113553,2,0,P|104:374|49:386,1,100,2|2,3:1|3:0,0:0:0:0:
0,259,114015,5,2,1:0:0:0:
32,238,114091,1,2,3:1:0:0:
31,278,114168,1,2,3:1:0:0:
24,259,114245,2,0,P|46:268|82:278,1,50,2|0,0:1|0:0,0:0:0:0:
124,209,114476,5,4,3:1:0:0:
128,198,114822,2,0,P|123:177|115:153,1,37.4999988555909,2|0,0:1|0:0,0:0:0:0:
142,90,115053,1,0,3:0:0:0:
250,147,115168,2,0,P|255:126|263:102,1,37.4999988555909,2|0,3:1|0:0,0:0:0:0:
329,73,115399,5,2,3:2:0:0:
407,110,115515,1,2,0:1:0:0:
397,32,115630,1,2,0:1:0:0:
336,70,115745,1,2,0:1:0:0:
286,16,115861,5,2,0:1:0:0:
254,38,115976,1,2,0:1:0:0:
235,28,116091,1,2,0:1:0:0:
154,4,116207,2,0,L|135:11,1,18.7499994277954,0|0,1:0|1:0,0:0:0:0:
161,19,116322,6,0,P|164:28|170:47,1,18.7499994277954,2|0,3:2|0:0,0:0:0:0:
96,79,116553,2,0,P|93:88|87:107,1,18.7499994277954,2|0,3:2|0:0,0:0:0:0:
23,16,116784,2,0,P|26:25|32:44,1,18.7499994277954,2|0,1:2|0:0,0:0:0:0:
12,106,117015,1,2,3:2:0:0:
85,208,117130,5,0,1:0:0:0:
95,213,117361,1,0,0:0:0:0:
152,165,117476,2,0,P|149:151|145:139,1,18.7499994277954,2|0,3:2|0:0,0:0:0:0:
85,306,117707,2,0,P|88:292|92:280,1,18.7499994277954,2|0,1:2|0:0,0:0:0:0:
13,246,117938,2,0,P|10:232|6:220,1,18.7499994277954,2|0,0:0|1:0,0:0:0:0:
217,358,118168,6,0,P|214:344|210:332,1,18.7499994277954,2|0,3:2|0:0,0:0:0:0:
284,313,118399,2,0,P|285:303|288:294,1,18.7499994277954,2|0,3:2|0:0,0:0:0:0:
358,372,118630,2,0,P|355:358|351:346,1,18.7499994277954,2|0,1:2|0:0,0:0:0:0:
401,294,118861,1,2,3:2:0:0:
329,185,118976,5,0,1:0:0:0:
320,194,119207,1,0,0:0:0:0:
246,136,119322,2,0,P|248:145|250:154,1,18.7499994277954,2|0,3:2|0:0,0:0:0:0:
303,69,119553,2,0,P|300:78|298:87,1,18.7499994277954,2|0,1:2|0:0,0:0:0:0:
243,16,119784,1,0,1:0:0:0:
243,16,119899,1,0,1:0:0:0:
162,53,120015,6,0,P|164:62|166:71,1,18.7499994277954,2|0,3:2|0:0,0:0:0:0:
93,100,120245,2,0,P|90:109|88:118,1,18.7499994277954,2|0,3:2|0:0,0:0:0:0:
18,40,120476,2,0,P|20:49|22:58,1,18.7499994277954,2|0,1:2|0:0,0:0:0:0:
0,129,120707,1,2,3:2:0:0:
95,214,120822,5,0,1:0:0:0:
87,206,121053,1,0,0:0:0:0:
11,268,121168,2,0,P|15:256|19:243,1,18.7499994277954,2|0,3:2|0:0,0:0:0:0:
118,337,121399,2,0,P|114:325|110:312,1,18.7499994277954,2|0,1:2|0:0,0:0:0:0:
38,373,121630,2,0,P|42:361|46:348,1,18.7499994277954,2|0,1:2|1:0,0:0:0:0:
203,240,121861,6,0,P|212:244|222:250,1,18.7499994277954,2|0,3:2|0:0,0:0:0:0:
287,216,122091,2,0,P|290:225|293:236,1,18.7499994277954,2|0,3:2|0:0,0:0:0:0:
375,331,122322,2,0,P|384:327|394:321,1,18.7499994277954,2|0,1:2|0:0,0:0:0:0:
434,260,122553,1,2,3:2:0:0:
302,364,122668,6,0,P|287:360|271:356,1,18.7499994277954,0|0,1:0|0:0,0:0:0:0:
196,333,122899,1,0,1:0:0:0:
196,333,123015,2,0,P|205:335|214:337,1,18.7499994277954,0|0,3:0|0:0,0:0:0:0:
117,305,123245,5,0,1:0:0:0:
48,279,123361,2,0,P|40:277|32:275,2,9.37499971389771,0|0|0,1:0|1:0|1:0,0:0:0:0:
103,225,123591,1,0,1:0:0:0:
106,216,123707,6,0,P|104:206|100:191,1,18.7499994277954,6|0,3:2|0:0,0:0:0:0:
173,178,123938,2,0,P|175:168|179:153,1,18.7499994277954,2|0,3:2|0:0,0:0:0:0:
247,234,124168,2,0,P|245:224|241:209,1,18.7499994277954,2|0,1:3|0:0,0:0:0:0:
293,160,124399,1,2,3:2:0:0:
366,246,124515,5,0,1:0:0:0:
374,253,124745,1,0,0:0:0:0:
436,210,124861,2,0,P|434:200|430:185,1,18.7499994277954,2|0,3:2|0:0,0:0:0:0:
508,272,125091,2,0,P|510:262|514:247,1,18.7499994277954,2|0,1:3|0:0,0:0:0:0:
444,340,125322,2,0,P|442:330|438:315,1,18.7499994277954,2|0,0:0|1:0,0:0:0:0:
319,307,125553,6,0,P|316:316|314:325,1,18.7499994277954,2|0,3:3|0:0,0:0:0:0:
240,343,125784,2,0,P|242:352|244:361,1,18.7499994277954,2|0,3:2|0:0,0:0:0:0:
171,294,126015,2,0,P|168:303|166:312,1,18.7499994277954,2|0,1:3|0:0,0:0:0:0:
108,355,126245,1,2,3:2:0:0:
194,199,126361,5,0,1:0:0:0:
205,207,126591,1,0,0:0:0:0:
277,146,126707,2,0,P|274:155|272:164,1,18.7499994277954,0|0,3:0|0:0,0:0:0:0:
142,65,126938,2,0,P|144:74|146:83,1,18.7499994277954,2|0,1:2|0:0,0:0:0:0:
211,113,127168,1,2,1:2:0:0:
261,60,127284,1,0,1:0:0:0:
331,85,127399,5,2,3:3:0:0:
201,161,131091,6,0,P|239:146|276:129,1,74.9999977111817,4|0,3:1|0:0,0:0:0:0:
111,275,131322,2,0,P|73:260|36:243,1,74.9999977111817,2|0,3:2|0:0,0:0:0:0:
253,378,131553,2,0,P|270:342|276:308,1,74.9999977111817,2|0,1:2|0:0,0:0:0:0:
125,184,131783,1,2,0:1:0:0:
201,161,131899,2,0,P|193:197|185:237,1,74.9999977111817,0|0,3:0|0:0,0:0:0:0:
76,88,132130,1,0,0:0:0:0:
0,65,132246,2,0,P|8:101|16:141,1,74.9999977111817,2|0,3:2|0:0,0:0:0:0:
111,275,132476,2,0,P|142:260|190:244,1,74.9999977111817,2|0,1:2|0:0,0:0:0:0:
328,120,132707,2,0,P|359:135|407:151,1,74.9999977111817,2|0,0:0|0:0,0:0:0:0:
450,206,132880,1,0,3:0:0:0:
454,215,132938,6,0,P|442:254|432:299,1,74.9999977111817,2|0,3:1|0:0,0:0:0:0:
278,384,133168,2,0,P|269:347|258:311,1,74.9999977111817,2|0,3:2|0:0,0:0:0:0:
139,139,133399,2,0,P|103:160|55:174,1,74.9999977111817,2|0,1:2|0:0,0:0:0:0:
232,12,133629,1,2,3:1:0:0:
284,70,133745,2,0,P|347:106|431:131,1,149.999995422363,0|0,3:0|0:0,0:0:0:0:
210,229,134091,2,0,P|220:192|233:155,1,74.9999977111817,2|0,3:2|0:0,0:0:0:0:
66,49,134322,2,0,P|133:67|135:144,1,149.999995422363,2|0,1:2|3:0,0:0:0:0:
15,243,134668,1,0,3:0:0:0:
213,323,134784,6,0,P|250:308|298:293,1,74.9999977111817,2|0,3:1|0:0,0:0:0:0:
70,381,135015,2,0,P|33:366|-15:351,1,74.9999977111817,2|0,3:2|0:0,0:0:0:0:
75,183,135245,2,0,P|88:219|95:265,1,74.9999977111817,2|0,1:2|0:0,0:0:0:0:
134,317,135475,1,2,3:1:0:0:
271,107,135591,2,0,P|258:143|251:189,1,74.9999977111817,0|0,3:0|0:0,0:0:0:0:
193,225,135821,1,0,0:0:0:0:
132,36,135938,2,0,P|145:72|152:118,1,74.9999977111817,2|0,3:2|0:0,0:0:0:0:
307,247,136168,2,0,P|344:232|383:210,1,74.9999977111817,2|0,1:2|0:0,0:0:0:0:
509,78,136399,2,0,P|472:63|433:41,1,74.9999977111817,2|0,0:0|0:0,0:0:0:0:
508,291,136630,6,0,P|499:250|483:208,1,74.9999977111817,2|0,3:1|0:0,0:0:0:0:
266,383,136861,2,0,P|297:354|325:319,1,74.9999977111817,2|0,3:2|0:0,0:0:0:0:
120,206,137091,2,0,P|160:218|204:225,1,74.9999977111817,2|0,1:2|0:0,0:0:0:0:
351,60,137322,2,0,B|265:83|319:128|239:156,1,149.999995422363,4|0,3:1|0:0,0:0:0:0:
184,110,137668,1,2,3:2:0:0:
365,181,137784,2,0,P|402:203|414:247,1,74.9999977111817,0|0,3:0|0:0,0:0:0:0:
244,297,138015,5,2,1:2:0:0:
318,244,138130,1,0,1:0:0:0:
235,307,138245,2,0,P|197:292|156:281,1,74.9999977111817,2|0,3:0|3:0,0:0:0:0:
4,110,138476,6,0,P|22:138|62:149,1,74.9999977111817,6|0,3:1|0:0,0:0:0:0:
226,0,138707,2,0,P|188:11|152:29,1,74.9999977111817,2|0,3:2|0:0,0:0:0:0:
202,182,138937,2,0,P|196:141|182:107,1,74.9999977111817,2|0,1:2|0:0,0:0:0:0:
112,86,139168,1,2,3:1:0:0:
318,244,139284,2,0,P|324:203|337:169,1,74.9999977111817,0|0,3:0|0:0,0:0:0:0:
403,132,139514,1,0,0:0:0:0:
202,272,139630,2,0,P|166:262|127:241,1,74.9999977111817,2|0,3:2|0:0,0:0:0:0:
304,384,139861,2,0,P|340:374|379:353,1,74.9999977111817,2|0,1:2|0:0,0:0:0:0:
335,171,140091,2,0,P|322:206|317:243,1,74.9999977111817,2|0,0:0|0:0,0:0:0:0:
115,384,140322,6,0,P|108:347|92:313,1,74.9999977111817,2|0,3:1|0:0,0:0:0:0:
0,149,140553,2,0,P|26:174|76:181,1,74.9999977111817,2|0,3:2|0:0,0:0:0:0:
240,19,140784,2,0,P|219:48|209:88,1,74.9999977111817,2|0,1:2|0:0,0:0:0:0:
210,158,141014,1,2,3:1:0:0:
88,50,141129,2,0,P|66:17|31:-2,1,74.9999977111817,2|0,3:2|0:0,0:0:0:0:
18,72,141360,1,2,0:2:0:0:
158,208,141476,2,0,P|189:188|209:157,1,74.9999977111817,2|0,3:2|0:0,0:0:0:0:
72,276,141707,5,2,1:2:0:0:
100,343,141821,1,0,3:0:0:0:
174,328,141937,1,2,3:2:0:0:
62,271,142052,1,0,1:0:0:0:
234,384,142168,6,0,B|313:348|253:325|351:291,1,137.500004196167,6|0,3:1|3:0,0:0:0:0:
385,237,142515,1,0,3:0:0:0:
345,167,142629,5,2,1:3:0:0:
356,127,142744,1,0,3:0:0:0:
324,92,142860,1,2,0:2:0:0:
344,20,142975,1,2,1:2:0:0:
415,0,143091,6,0,P|440:14|481:28,1,68.7500020980836,2|0,3:3|0:0,0:0:0:0:
512,130,143321,1,0,3:0:0:0:
484,155,143437,1,0,3:0:0:0:
459,226,143552,5,2,1:3:0:0:
474,260,143668,1,0,3:0:0:0:
481,302,143783,1,0,3:0:0:0:
459,341,143898,1,0,1:0:0:0:
390,368,144014,5,2,3:3:0:0:
319,348,144129,1,0,3:0:0:0:
248,331,144244,1,0,3:0:0:0:
176,311,144360,1,0,3:0:0:0:
217,238,144475,5,2,1:3:0:0:
264,226,144591,1,0,3:0:0:0:
309,216,144706,1,2,0:2:0:0:
355,203,144821,1,0,1:0:0:0:
321,131,144937,5,6,3:1:0:0:
304,126,145053,1,0,3:0:0:0:
286,121,145168,1,2,1:2:0:0:
269,117,145283,1,0,1:0:0:0:
119,106,145398,5,2,3:2:0:0:
196,156,145514,1,8,3:3:0:0:
123,117,145629,1,4,3:3:0:0:
190,143,145744,1,4,3:3:0:0:
175,48,145861,6,0,B|196:171|93:129|127:262,1,224.999993133545,6|2,3:2|0:0,0:0:0:0:
163,319,147476,1,2,0:0:0:0:
319,208,147707,6,0,P|365:227|413:241,1,100,6|0,3:1|0:0,0:0:0:0:
374,86,148053,2,0,P|363:108|358:132,1,50,2|0,3:1|1:0,0:0:0:0:
496,239,148284,2,0,P|491:214|480:192,1,50,2|0,3:1|0:0,0:0:0:0:
433,135,148515,1,0,3:0:0:0:
311,218,148630,6,0,P|263:204|216:184,1,100,2|0,3:1|0:0,0:0:0:0:
103,96,148976,2,0,P|86:111|74:140,1,50,2|0,3:1|1:0,0:0:0:0:
74,211,149207,1,0,3:0:0:0:
1,125,149322,2,0,P|0:147|11:176,1,50,2|0,3:1|0:0,0:0:0:0:
111,291,149553,6,0,P|150:258|210:258,1,100,2|0,3:1|0:0,0:0:0:0:
357,298,149899,2,0,P|349:325|345:358,1,50,2|0,3:1|1:0,0:0:0:0:
265,211,150130,2,0,P|273:238|277:271,1,50,2|0,3:1|0:0,0:0:0:0:
238,322,150361,1,0,3:0:0:0:
355,211,150476,2,0,P|373:202|403:193,1,50,2|0,3:1|3:0,0:0:0:0:
489,207,150707,2,0,P|495:223|502:241,1,25,2|2,3:1|0:1,0:0:0:0:
482,199,150822,2,0,P|486:187|490:175,1,25,0|0,3:0|0:0,0:0:0:0:
503,105,150938,5,2,1:1:0:0:
444,59,151053,2,0,B|381:72|418:94|352:111,1,100,4|0,3:3|1:0,0:0:0:0:
205,176,151399,6,0,P|251:161|260:102,1,100,2|0,3:1|0:0,0:0:0:0:
133,0,151745,2,0,P|113:12|87:21,1,50,2|0,3:1|1:0,0:0:0:0:
189,102,151976,2,0,P|188:78|193:51,1,50,2|0,3:1|0:0,0:0:0:0:
245,0,152207,1,2,3:1:0:0:
89,116,152322,6,0,P|107:166|118:224,1,100,2|0,3:1|0:0,0:0:0:0:
55,330,152669,2,0,P|30:323|8:313,1,50,2|0,3:1|1:0,0:0:0:0:
0,239,152899,1,0,3:0:0:0:
128,291,153015,2,0,P|152:284|174:274,1,50,2|0,3:1|0:0,0:0:0:0:
290,143,153245,6,0,P|245:172|254:235,1,100,2|0,3:1|0:0,0:0:0:0:
387,315,153591,2,0,P|383:292|371:267,1,50,2|0,3:1|1:0,0:0:0:0:
317,215,153823,1,0,3:0:0:0:
457,259,153938,2,0,P|461:236|473:211,1,50,2|0,3:1|0:0,0:0:0:0:
447,60,154169,2,0,P|402:90|334:112,1,100,2|0,3:1|3:0,0:0:0:0:
171,40,154630,5,2,1:1:0:0:
202,15,154707,1,2,3:1:0:0:
162,1,154784,1,2,3:1:0:0:
179,20,154861,2,0,P|204:36|240:46,1,50,2|0,3:0|0:0,0:0:0:0:
248,165,155091,6,0,P|234:215|227:269,1,100,4|0,3:1|0:0,0:0:0:0:
70,304,155438,2,0,P|61:278|48:254,1,50,2|0,3:1|1:0,0:0:0:0:
165,316,155668,2,0,P|146:336|132:360,1,50,2|0,3:1|0:0,0:0:0:0:
64,381,155899,1,0,3:0:0:0:
227,262,156015,6,0,P|276:281|333:292,1,100,2|0,3:1|0:0,0:0:0:0:
170,168,156361,2,0,P|147:179|116:185,1,50,2|0,3:1|1:0,0:0:0:0:
51,166,156592,1,0,3:0:0:0:
113,262,156707,2,0,P|88:253|62:235,1,50,2|0,3:1|0:0,0:0:0:0:
176,384,156938,6,0,P|205:351|266:343,1,100,2|0,3:1|0:0,0:0:0:0:
368,266,157284,2,0,P|364:238|353:210,1,50,2|0,3:1|1:0,0:0:0:0:
450,323,157515,2,0,P|454:295|465:267,1,50,2|0,3:1|0:0,0:0:0:0:
512,220,157746,1,0,3:0:0:0:
428,115,157861,2,0,P|408:125|379:131,1,50,2|0,3:1|3:0,0:0:0:0:
275,76,158091,2,0,P|297:84|311:89,1,25,2|2,3:1|0:1,0:0:0:0:
267,69,158207,2,0,P|255:73|243:77,1,25,0|0,3:0|0:0,0:0:0:0:
178,111,158323,5,2,1:1:0:0:
100,93,158438,2,0,P|111:148|118:197,1,100,4|0,3:3|1:0,0:0:0:0:
239,324,158784,6,0,P|282:302|284:248,1,100,2|0,3:1|0:0,0:0:0:0:
388,208,159130,2,0,P|414:220|448:225,1,50,2|0,3:1|1:0,0:0:0:0:
336,139,159361,2,0,P|310:151|276:156,1,50,2|0,3:1|0:0,0:0:0:0:
235,102,159591,1,2,3:1:0:0:
371,4,159707,6,0,P|399:49|453:55,1,100,2|0,3:1|0:0,0:0:0:0:
509,169,160053,2,0,P|502:194|497:223,1,50,2|0,3:1|1:0,0:0:0:0:
449,272,160284,1,0,3:0:0:0:
336,139,160399,2,0,P|342:163|347:187,1,50,6|0,3:2|0:0,0:0:0:0:
244,314,160630,6,0,P|191:297|142:275,1,87.499997329712,2|0,3:1|3:2,0:0:0:0:
110,230,160976,2,0,P|95:238|67:247,1,43.749998664856,2|0,0:1|0:0,0:0:0:0:
29,183,161207,1,0,3:2:0:0:
69,117,161322,2,0,P|84:125|112:134,1,43.749998664856,2|0,0:1|0:0,0:0:0:0:
168,83,161553,1,2,3:2:0:0:
256,192,162015,5,2,0:0:0:0:
