osu file format v14

[General]
AudioFilename: audio.ogg
AudioLeadIn: 0
PreviewTime: 49115
Countdown: 0
SampleSet: Normal
StackLeniency: 0.7
Mode: 1
LetterboxInBreaks: 0
WidescreenStoryboard: 1

[Editor]
Bookmarks: 9703,19115,28527,37939,42644,49703,59115,68527,77939,84997,94409,103821,113233,122644,129703,134409,169703,188527,193233,197939,212056,249703
DistanceSpacing: 1.2
BeatDivisor: 4
GridSize: 32
TimelineZoom: 1.2

[Metadata]
Title:Haru
TitleUnicode:晴る
Artist:Yorushika
ArtistUnicode:ヨルシカ
Creator:gaston_2199
Version:Futsuu
Source:葬送のフリーレン
Tags:sunny sousou no frieren beyond journey's journey end japanese pop jpop j-pop rock jrock j-rock anime second 2nd op opening full long ver. version n-buna suis
BeatmapID:4441541
BeatmapSetID:2115101

[Difficulty]
HPDrainRate:7
CircleSize:2
OverallDifficulty:4
ApproachRate:10
SliderMultiplier:1.4
SliderTickRate:1

[Events]
//Background and Video events
0,0,"BG.jpg",0,50
//Break Periods
//Storyboard Layer 0 (Background)
//Storyboard Layer 1 (Fail)
//Storyboard Layer 2 (Pass)
//Storyboard Layer 3 (Foreground)
//Storyboard Layer 4 (Overlay)
//Storyboard Sound Samples

[TimingPoints]
292,294.117647058824,4,1,0,30,1,0
292,-100,4,1,0,30,0,0
9556,-100,4,1,0,70,0,0
47347,-100,4,1,0,80,0,0
49703,-100,4,1,0,90,0,1
52056,-100,4,1,0,90,0,0
54409,-100,4,1,0,90,0,1
84924,-100,4,1,0,40,0,1
84997,-100,4,1,0,40,0,0
89406,-100,4,1,0,70,0,0
132049,-100,4,1,0,80,0,0
134409,-100,4,1,0,90,0,1
136762,-100,4,1,0,80,0,0
138233,-100,4,1,0,90,0,1
169630,-100,4,1,0,25,0,1
169703,-100,4,1,0,25,0,0
188453,-100,4,1,0,50,0,0
206171,-100,4,1,0,70,0,0
207347,-100,4,1,0,80,0,0
208524,-100,4,1,0,90,0,0
209042,-100,4,1,0,40,0,0
209703,294.117647058824,8,1,0,40,1,8
212055,294.117647058824,4,1,0,90,1,1
214407,-100,4,1,0,90,0,0
216907,-100,4,1,0,80,0,0
219040,-100,4,1,0,70,0,0
219849,-100,4,1,0,80,0,0
221760,-100,4,1,0,90,0,1
249702,-100,4,1,0,20,0,0

[HitObjects]
256,192,292,5,0,0:0:0:0:
224,192,586,1,8,0:0:0:0:
224,192,1174,1,8,0:0:0:0:
224,192,1468,1,0,0:0:0:0:
224,192,1762,1,8,0:0:0:0:
224,192,2350,1,0,0:0:0:0:
224,192,2644,1,0,0:0:0:0:
224,192,2939,1,8,0:0:0:0:
224,192,3527,1,0,0:0:0:0:
224,192,3821,1,0,0:0:0:0:
224,192,4115,1,0,0:0:0:0:
224,192,4703,1,0,0:0:0:0:
256,192,4997,1,0,0:0:0:0:
224,192,5292,1,8,0:0:0:0:
224,192,5880,1,8,0:0:0:0:
224,192,6174,1,0,0:0:0:0:
224,192,6468,1,8,0:0:0:0:
224,192,7056,1,0,0:0:0:0:
224,192,7350,1,0,0:0:0:0:
224,192,7644,1,8,0:0:0:0:
224,192,8233,1,0,0:0:0:0:
224,192,8527,1,0,0:0:0:0:
224,192,8821,1,0,0:0:0:0:
224,192,9409,1,8,0:0:0:0:
256,192,9703,1,0,0:0:0:0:
224,192,9997,1,8,0:0:0:0:
224,192,10586,1,8,0:0:0:0:
224,192,10880,1,0,0:0:0:0:
224,192,11174,1,8,0:0:0:0:
224,192,11762,1,8,0:0:0:0:
224,192,11909,1,8,0:0:0:0:
224,192,12056,1,0,0:0:0:0:
224,192,12350,1,8,0:0:0:0:
224,192,12939,1,8,0:0:0:0:
224,192,13233,1,0,0:0:0:0:
224,192,13527,1,8,0:0:0:0:
224,192,13968,1,0,0:0:0:0:
224,192,14115,1,8,0:0:0:0:
256,192,14409,1,0,0:0:0:0:
224,192,14703,1,8,0:0:0:0:
224,192,15292,1,8,0:0:0:0:
224,192,15586,1,0,0:0:0:0:
224,192,15880,1,8,0:0:0:0:
224,192,16468,1,8,0:0:0:0:
256,160,16615,1,8,0:0:0:0:
224,192,16762,1,0,0:0:0:0:
224,192,17056,1,8,0:0:0:0:
224,192,17644,1,8,0:0:0:0:
224,192,17939,1,0,0:0:0:0:
224,192,18233,1,8,0:0:0:0:
224,192,18527,1,0,0:0:0:0:
224,192,18674,1,0,0:0:0:0:
224,192,18821,1,8,0:0:0:0:
256,192,19115,1,0,0:0:0:0:
224,192,19409,1,8,0:0:0:0:
224,192,19997,1,8,0:0:0:0:
224,192,20292,1,0,0:0:0:0:
224,192,20586,1,8,0:0:0:0:
224,192,21174,1,8,0:0:0:0:
224,192,21321,1,8,0:0:0:0:
224,192,21468,1,0,0:0:0:0:
224,192,21762,1,8,0:0:0:0:
224,192,22350,1,8,0:0:0:0:
224,192,22644,1,0,0:0:0:0:
224,192,22939,1,8,0:0:0:0:
224,192,23380,1,0,0:0:0:0:
224,192,23527,1,8,0:0:0:0:
256,192,23821,1,0,0:0:0:0:
224,192,24115,1,8,0:0:0:0:
224,192,24703,1,8,0:0:0:0:
224,192,24997,1,0,0:0:0:0:
224,192,25292,1,8,0:0:0:0:
224,192,25880,1,8,0:0:0:0:
256,160,26027,1,8,0:0:0:0:
224,192,26174,1,0,0:0:0:0:
224,192,26468,1,8,0:0:0:0:
224,192,27056,1,8,0:0:0:0:
224,192,27350,1,0,0:0:0:0:
224,192,27644,1,8,0:0:0:0:
224,192,28086,1,0,0:0:0:0:
224,192,28233,1,8,0:0:0:0:
224,192,28527,1,0,0:0:0:0:
224,192,28821,1,8,0:0:0:0:
224,192,29409,1,8,0:0:0:0:
224,192,29703,1,0,0:0:0:0:
224,192,29997,1,8,0:0:0:0:
224,192,30586,1,8,0:0:0:0:
224,192,30733,1,8,0:0:0:0:
224,192,30880,1,0,0:0:0:0:
224,192,31174,1,8,0:0:0:0:
224,192,31762,1,8,0:0:0:0:
224,192,32056,1,0,0:0:0:0:
224,192,32350,1,8,0:0:0:0:
224,192,32792,1,0,0:0:0:0:
224,192,32939,1,8,0:0:0:0:
256,192,33233,1,0,0:0:0:0:
224,192,33527,1,8,0:0:0:0:
224,192,34115,1,8,0:0:0:0:
224,192,34409,1,0,0:0:0:0:
224,192,34703,1,8,0:0:0:0:
224,192,35292,1,8,0:0:0:0:
256,160,35439,1,8,0:0:0:0:
224,192,35586,1,0,0:0:0:0:
224,192,35880,1,8,0:0:0:0:
224,192,36468,1,8,0:0:0:0:
224,192,36762,1,0,0:0:0:0:
224,192,37056,1,8,0:0:0:0:
224,192,37497,1,0,0:0:0:0:
224,192,37644,1,8,0:0:0:0:
256,192,37939,1,0,0:0:0:0:
224,192,38233,1,8,0:0:0:0:
224,192,38821,1,8,0:0:0:0:
224,192,39115,1,0,0:0:0:0:
224,192,39409,1,8,0:0:0:0:
224,192,39997,1,8,0:0:0:0:
224,192,40144,1,8,0:0:0:0:
224,192,40292,1,0,0:0:0:0:
224,192,40586,1,8,0:0:0:0:
224,192,41174,1,8,0:0:0:0:
224,192,41468,1,0,0:0:0:0:
224,192,41762,1,8,0:0:0:0:
224,192,42203,1,0,0:0:0:0:
224,192,42350,1,8,0:0:0:0:
256,192,42644,1,4,0:0:0:0:
224,192,42939,1,8,0:0:0:0:
224,192,43380,1,0,0:0:0:0:
224,192,43527,1,8,0:0:0:0:
224,160,43674,1,0,0:0:0:0:
224,192,43821,1,0,0:0:0:0:
224,160,44115,1,8,0:0:0:0:
224,192,44556,1,0,0:0:0:0:
224,192,44703,1,8,0:0:0:0:
256,160,44850,1,8,0:0:0:0:
224,192,44997,1,0,0:0:0:0:
224,192,45292,1,8,0:0:0:0:
224,192,45733,1,0,0:0:0:0:
224,192,46174,1,8,0:0:0:0:
224,160,46615,1,8,0:0:0:0:
224,192,47056,1,0,0:0:0:0:
192,96,47203,1,8,0:0:0:0:
256,192,47350,12,0,49115,0:0:0:0:
256,192,49703,5,4,0:0:0:0:
256,192,49997,1,8,0:0:0:0:
256,192,50292,1,0,0:0:0:0:
256,160,50439,1,0,0:0:0:0:
256,192,50586,1,8,0:0:0:0:
224,160,50880,1,0,0:0:0:0:
256,192,51174,1,8,0:0:0:0:
256,192,51468,1,8,0:0:0:0:
256,192,51615,1,0,0:0:0:0:
256,192,51762,1,8,0:0:0:0:
256,192,52056,1,4,0:0:0:0:
256,192,53527,1,12,0:0:0:0:
256,192,53821,1,12,0:0:0:0:
256,192,54115,1,12,0:0:0:0:
256,192,54409,1,4,0:0:0:0:
256,192,54997,1,8,0:0:0:0:
256,192,55144,1,0,0:0:0:0:
256,192,55292,1,8,0:0:0:0:
256,192,55439,1,8,0:0:0:0:
256,192,55586,1,0,0:0:0:0:
256,192,55880,1,8,0:0:0:0:
256,192,56174,1,0,0:0:0:0:
256,192,56321,1,0,0:0:0:0:
256,192,56468,1,8,0:0:0:0:
256,192,56762,1,0,0:0:0:0:
256,192,56909,1,8,0:0:0:0:
256,192,57350,1,8,0:0:0:0:
265,160,57497,1,0,0:0:0:0:
256,160,57792,1,12,0:0:0:0:
256,160,58233,1,8,0:0:0:0:
265,160,58527,1,0,0:0:0:0:
256,160,58674,1,0,0:0:0:0:
256,160,58821,1,8,0:0:0:0:
256,192,59115,1,0,0:0:0:0:
256,192,59409,1,12,0:0:0:0:
256,192,59703,1,0,0:0:0:0:
256,192,59850,1,0,0:0:0:0:
256,192,59997,1,8,0:0:0:0:
224,160,60292,1,0,0:0:0:0:
256,192,60586,1,8,0:0:0:0:
256,192,60880,1,8,0:0:0:0:
256,192,61027,1,0,0:0:0:0:
256,192,61174,1,8,0:0:0:0:
256,192,61321,1,8,0:0:0:0:
256,192,61468,1,0,0:0:0:0:
256,192,61762,1,8,0:0:0:0:
256,192,62056,1,8,0:0:0:0:
256,192,62203,1,0,0:0:0:0:
256,192,62350,1,8,0:0:0:0:
256,192,62939,1,8,0:0:0:0:
256,192,63233,1,0,0:0:0:0:
224,192,63380,1,0,0:0:0:0:
256,192,63527,1,8,0:0:0:0:
256,192,63821,1,4,0:0:0:0:
256,192,64115,1,8,0:0:0:0:
256,192,64409,1,0,0:0:0:0:
256,192,64703,1,8,0:0:0:0:
256,192,64850,1,8,0:0:0:0:
256,192,64997,1,0,0:0:0:0:
256,192,65292,1,8,0:0:0:0:
256,192,65439,1,0,0:0:0:0:
256,192,65586,1,0,0:0:0:0:
256,192,65733,1,0,0:0:0:0:
256,192,65880,1,8,0:0:0:0:
256,192,66174,1,4,0:0:0:0:
256,192,66762,1,0,0:0:0:0:
256,160,67056,1,8,0:0:0:0:
256,160,67203,1,8,0:0:0:0:
256,128,67350,1,0,0:0:0:0:
256,160,67497,1,8,0:0:0:0:
256,160,67644,1,0,0:0:0:0:
265,160,67939,1,0,0:0:0:0:
256,160,68233,1,8,0:0:0:0:
256,160,68380,1,8,0:0:0:0:
256,160,68527,1,0,0:0:0:0:
256,192,68821,1,12,0:0:0:0:
256,192,69115,1,0,0:0:0:0:
256,192,69262,1,0,0:0:0:0:
256,192,69409,1,8,0:0:0:0:
224,160,69703,1,0,0:0:0:0:
256,192,69997,1,8,0:0:0:0:
256,192,70292,1,8,0:0:0:0:
256,192,70439,1,0,0:0:0:0:
256,192,70586,1,8,0:0:0:0:
256,192,70733,1,8,0:0:0:0:
256,192,70880,1,0,0:0:0:0:
256,192,71174,1,8,0:0:0:0:
256,192,71468,1,0,0:0:0:0:
256,192,71615,1,0,0:0:0:0:
256,192,71762,1,8,0:0:0:0:
192,64,72056,1,0,0:0:0:0:
256,192,72350,1,8,0:0:0:0:
224,192,72497,1,0,0:0:0:0:
256,192,72644,1,8,0:0:0:0:
256,192,72939,1,8,0:0:0:0:
256,192,73233,1,4,0:0:0:0:
256,192,73821,1,0,0:0:0:0:
256,192,73968,1,0,0:0:0:0:
256,192,74115,1,8,0:0:0:0:
256,192,74262,1,8,0:0:0:0:
256,192,74409,1,0,0:0:0:0:
256,192,74703,1,8,0:0:0:0:
256,192,74997,1,8,0:0:0:0:
256,192,75144,1,0,0:0:0:0:
256,192,75292,1,8,0:0:0:0:
256,192,75586,1,0,0:0:0:0:
256,192,75733,1,8,0:0:0:0:
256,192,76174,1,8,0:0:0:0:
265,160,76321,1,0,0:0:0:0:
256,160,76615,1,12,0:0:0:0:
256,160,77056,1,8,0:0:0:0:
265,160,77350,1,0,0:0:0:0:
256,160,77497,1,0,0:0:0:0:
256,160,77644,1,8,0:0:0:0:
256,160,77939,1,0,0:0:0:0:
256,192,78233,1,12,0:0:0:0:
256,192,78527,1,8,0:0:0:0:
256,192,78674,1,8,0:0:0:0:
256,192,78821,1,0,0:0:0:0:
224,160,79115,1,0,0:0:0:0:
256,192,79409,1,8,0:0:0:0:
256,192,79703,1,8,0:0:0:0:
256,192,79850,1,0,0:0:0:0:
256,192,79997,1,8,0:0:0:0:
256,192,80292,1,0,0:0:0:0:
256,192,80586,1,8,0:0:0:0:
256,192,80733,1,8,0:0:0:0:
256,192,80880,1,0,0:0:0:0:
256,192,81027,1,0,0:0:0:0:
256,192,81174,1,8,0:0:0:0:
256,192,81762,1,8,0:0:0:0:
256,192,82056,1,8,0:0:0:0:
224,192,82203,1,0,0:0:0:0:
256,192,82350,1,8,0:0:0:0:
256,192,82644,1,4,0:0:0:0:
256,192,82939,1,8,0:0:0:0:
256,192,83233,1,0,0:0:0:0:
256,192,83380,1,0,0:0:0:0:
256,192,83527,1,8,0:0:0:0:
256,192,83821,1,0,0:0:0:0:
256,192,84262,1,8,0:0:0:0:
256,192,84409,1,8,0:0:0:0:
256,192,84556,1,8,0:0:0:0:
256,192,84703,1,8,0:0:0:0:
256,192,84997,1,0,0:1:0:0:
256,192,85292,1,8,0:1:0:0:
256,192,85880,1,8,0:0:0:0:
256,192,86174,1,0,0:0:0:0:
256,192,86468,1,8,0:0:0:0:
256,192,87056,1,0,0:0:0:0:
256,192,87350,1,0,0:0:0:0:
256,192,87644,1,8,0:0:0:0:
256,192,88233,1,0,0:0:0:0:
256,192,88527,1,0,0:0:0:0:
256,192,88821,1,0,0:0:0:0:
256,192,89409,1,8,0:0:0:0:
256,192,89703,1,0,0:0:0:0:
250,197,89997,1,8,0:0:0:0:
256,192,90586,1,8,0:0:0:0:
250,197,90880,1,0,0:0:0:0:
256,192,91174,1,8,0:0:0:0:
256,192,91615,1,0,0:0:0:0:
250,197,91762,1,8,0:0:0:0:
256,192,92056,1,0,0:0:0:0:
256,192,92350,1,8,0:0:0:0:
256,192,92939,1,8,0:0:0:0:
256,192,93233,1,0,0:0:0:0:
250,197,93527,1,8,0:0:0:0:
256,192,93968,1,0,0:0:0:0:
256,192,94115,1,8,0:0:0:0:
256,192,94409,1,4,0:0:0:0:
224,192,94703,1,8,0:0:0:0:
224,192,95292,1,8,0:0:0:0:
224,192,95586,1,0,0:0:0:0:
224,192,95880,1,8,0:0:0:0:
224,192,96468,1,8,0:0:0:0:
224,192,96615,1,8,0:0:0:0:
224,192,96762,1,0,0:0:0:0:
224,192,97056,1,8,0:0:0:0:
224,192,97644,1,8,0:0:0:0:
224,192,97939,1,0,0:0:0:0:
224,192,98233,1,8,0:0:0:0:
224,192,98674,1,0,0:0:0:0:
224,192,98821,1,8,0:0:0:0:
256,192,99115,1,0,0:0:0:0:
224,192,99409,1,8,0:0:0:0:
224,192,99997,1,8,0:0:0:0:
224,192,100292,1,0,0:0:0:0:
224,192,100586,1,8,0:0:0:0:
224,192,101174,1,8,0:0:0:0:
256,160,101321,1,8,0:0:0:0:
224,192,101468,1,0,0:0:0:0:
224,192,101762,1,8,0:0:0:0:
224,192,102350,1,8,0:0:0:0:
224,192,102644,1,0,0:0:0:0:
224,192,102939,1,8,0:0:0:0:
224,192,103233,1,0,0:0:0:0:
224,192,103380,1,0,0:0:0:0:
224,192,103527,1,8,0:0:0:0:
256,192,103821,1,4,0:0:0:0:
224,192,104115,1,8,0:0:0:0:
224,192,104703,1,8,0:0:0:0:
224,192,104997,1,0,0:0:0:0:
224,192,105292,1,8,0:0:0:0:
224,192,105880,1,8,0:0:0:0:
224,192,106027,1,8,0:0:0:0:
224,192,106174,1,0,0:0:0:0:
224,192,106468,1,8,0:0:0:0:
224,192,107056,1,8,0:0:0:0:
224,192,107350,1,0,0:0:0:0:
224,192,107644,1,8,0:0:0:0:
224,192,108086,1,0,0:0:0:0:
224,192,108233,1,8,0:0:0:0:
256,192,108527,1,0,0:0:0:0:
224,192,108821,1,8,0:0:0:0:
224,192,109409,1,8,0:0:0:0:
224,192,109703,1,0,0:0:0:0:
224,192,109997,1,8,0:0:0:0:
224,192,110586,1,8,0:0:0:0:
256,160,110733,1,8,0:0:0:0:
224,192,110880,1,0,0:0:0:0:
224,192,111174,1,8,0:0:0:0:
224,192,111762,1,8,0:0:0:0:
224,192,112056,1,0,0:0:0:0:
224,192,112350,1,8,0:0:0:0:
224,192,112792,1,0,0:0:0:0:
224,192,112939,1,8,0:0:0:0:
224,192,113233,1,4,0:0:0:0:
224,192,113527,1,8,0:0:0:0:
224,160,113968,1,0,0:0:0:0:
224,192,114115,1,8,0:0:0:0:
224,192,114409,1,0,0:0:0:0:
224,192,114703,1,8,0:0:0:0:
224,192,115292,1,8,0:0:0:0:
224,192,115439,1,8,0:0:0:0:
224,192,115586,1,0,0:0:0:0:
224,192,115880,1,8,0:0:0:0:
224,160,116321,1,0,0:0:0:0:
224,192,116468,1,8,0:0:0:0:
224,192,116762,1,0,0:0:0:0:
224,192,117056,1,8,0:0:0:0:
224,160,117350,1,0,0:0:0:0:
224,192,117497,1,0,0:0:0:0:
224,192,117644,1,8,0:0:0:0:
256,192,117939,1,0,0:0:0:0:
224,192,118233,1,8,0:0:0:0:
224,160,118674,1,0,0:0:0:0:
224,192,118821,1,8,0:0:0:0:
224,192,119115,1,0,0:0:0:0:
224,192,119409,1,8,0:0:0:0:
224,192,119997,1,8,0:0:0:0:
256,160,120144,1,8,0:0:0:0:
224,192,120292,1,0,0:0:0:0:
224,192,120586,1,8,0:0:0:0:
224,160,121027,1,0,0:0:0:0:
224,192,121174,1,8,0:0:0:0:
224,192,121468,1,0,0:0:0:0:
224,192,121762,1,8,0:0:0:0:
224,160,122056,1,8,0:0:0:0:
224,192,122203,1,0,0:0:0:0:
224,192,122350,1,8,0:0:0:0:
256,192,122644,1,0,0:0:0:0:
224,192,122939,1,8,0:0:0:0:
224,160,123380,1,0,0:0:0:0:
224,192,123527,1,8,0:0:0:0:
224,192,123821,1,0,0:0:0:0:
224,192,124115,1,8,0:0:0:0:
224,192,124703,1,8,0:0:0:0:
224,192,124850,1,8,0:0:0:0:
224,192,124997,1,0,0:0:0:0:
224,192,125292,1,8,0:0:0:0:
224,160,125733,1,0,0:0:0:0:
224,192,125880,1,8,0:0:0:0:
224,192,126174,1,0,0:0:0:0:
224,192,126468,1,8,0:0:0:0:
224,160,126762,1,0,0:0:0:0:
224,192,126909,1,0,0:0:0:0:
224,192,127056,1,8,0:0:0:0:
256,192,127350,5,4,0:0:0:0:
224,192,127644,5,8,0:0:0:0:
224,192,128086,1,0,0:0:0:0:
224,192,128233,1,8,0:0:0:0:
224,160,128380,1,8,0:0:0:0:
224,192,128527,1,0,0:0:0:0:
224,192,128821,1,8,0:0:0:0:
224,192,129409,1,8,0:0:0:0:
256,160,129556,1,8,0:0:0:0:
224,192,129703,1,0,0:0:0:0:
224,192,129997,1,8,0:0:0:0:
224,192,130439,1,0,0:0:0:0:
224,192,130880,1,8,0:0:0:0:
224,160,131321,1,8,0:0:0:0:
224,192,131762,1,0,0:0:0:0:
192,96,131909,1,8,0:0:0:0:
256,192,132056,12,0,133821,0:0:0:0:
256,192,134409,5,4,0:0:0:0:
256,192,134703,1,8,0:0:0:0:
256,192,134997,1,0,0:0:0:0:
256,192,135144,1,0,0:0:0:0:
256,192,135292,1,8,0:0:0:0:
224,160,135586,1,0,0:0:0:0:
256,192,135880,1,8,0:0:0:0:
256,192,136174,1,8,0:0:0:0:
256,192,136321,1,0,0:0:0:0:
256,192,136468,1,8,0:0:0:0:
256,192,136762,1,4,0:0:0:0:
256,160,137350,1,8,0:0:0:0:
256,160,137497,1,0,0:0:0:0:
256,160,137644,1,0,0:0:0:0:
256,160,137792,1,8,0:0:0:0:
256,192,138233,1,12,0:0:0:0:
256,192,138527,1,4,0:0:0:0:
256,192,138821,1,12,0:0:0:0:
256,192,139115,1,4,0:0:0:0:
256,192,139703,1,8,0:0:0:0:
256,192,139850,1,0,0:0:0:0:
256,192,139997,1,8,0:0:0:0:
256,192,140144,1,8,0:0:0:0:
256,192,140292,1,0,0:0:0:0:
256,192,140586,1,8,0:0:0:0:
256,192,140880,1,8,0:0:0:0:
256,192,141027,1,0,0:0:0:0:
256,192,141174,1,8,0:0:0:0:
256,192,141468,1,0,0:0:0:0:
256,192,141615,1,8,0:0:0:0:
256,192,142056,1,8,0:0:0:0:
265,160,142203,1,0,0:0:0:0:
256,160,142497,1,12,0:0:0:0:
256,160,142939,1,8,0:0:0:0:
265,160,143233,1,0,0:0:0:0:
256,160,143380,1,0,0:0:0:0:
256,160,143527,1,8,0:0:0:0:
256,192,143821,1,0,0:0:0:0:
256,192,144115,1,12,0:0:0:0:
256,192,144409,1,8,0:0:0:0:
256,192,144556,1,0,0:0:0:0:
256,192,144703,1,8,0:0:0:0:
224,160,144997,1,0,0:0:0:0:
256,192,145292,1,8,0:0:0:0:
256,192,145586,1,0,0:0:0:0:
256,192,145733,1,0,0:0:0:0:
256,192,145880,1,8,0:0:0:0:
256,192,146027,1,8,0:0:0:0:
256,192,146174,1,0,0:0:0:0:
256,192,146468,1,8,0:0:0:0:
256,192,146762,1,8,0:0:0:0:
256,192,146909,1,0,0:0:0:0:
256,192,147056,1,8,0:0:0:0:
256,192,147644,1,8,0:0:0:0:
256,192,147939,1,8,0:0:0:0:
224,192,148086,1,0,0:0:0:0:
256,192,148233,1,8,0:0:0:0:
256,192,148527,1,4,0:0:0:0:
256,192,148821,1,8,0:0:0:0:
256,192,149115,1,0,0:0:0:0:
256,192,149409,1,8,0:0:0:0:
256,192,149556,1,8,0:0:0:0:
256,192,149703,1,0,0:0:0:0:
256,192,149997,1,8,0:0:0:0:
256,192,150144,1,8,0:0:0:0:
256,192,150292,1,0,0:0:0:0:
256,192,150439,1,0,0:0:0:0:
256,192,150586,1,8,0:0:0:0:
256,192,150880,1,4,0:0:0:0:
256,192,151468,1,0,0:0:0:0:
265,160,151615,1,0,0:0:0:0:
256,160,151762,1,8,0:0:0:0:
256,128,152056,1,4,0:0:0:0:
256,160,152350,1,0,0:0:0:0:
256,160,152497,1,8,0:0:0:0:
265,160,152644,1,0,0:0:0:0:
256,160,152939,1,8,0:0:0:0:
256,160,153233,1,0,0:0:0:0:
256,192,153527,1,12,0:0:0:0:
256,192,153821,1,8,0:0:0:0:
256,192,153968,1,0,0:0:0:0:
256,192,154115,1,8,0:0:0:0:
224,160,154409,1,0,0:0:0:0:
256,192,154703,1,8,0:0:0:0:
256,192,154997,1,0,0:0:0:0:
256,192,155144,1,0,0:0:0:0:
256,192,155292,1,8,0:0:0:0:
256,192,155439,1,8,0:0:0:0:
256,192,155586,1,0,0:0:0:0:
256,192,155880,1,0,0:0:0:0:
256,192,156174,1,8,0:0:0:0:
256,192,156321,1,0,0:0:0:0:
256,192,156468,1,8,0:0:0:0:
256,192,156762,1,0,0:0:0:0:
256,192,157056,1,8,0:0:0:0:
256,192,157350,1,0,0:0:0:0:
224,192,157497,1,0,0:0:0:0:
256,192,157644,1,8,0:0:0:0:
256,192,157939,1,4,0:0:0:0:
256,192,158527,1,8,0:0:0:0:
256,192,158674,1,0,0:0:0:0:
256,192,158821,1,8,0:0:0:0:
256,192,158968,1,8,0:0:0:0:
256,192,159115,1,0,0:0:0:0:
256,192,159409,1,8,0:0:0:0:
256,192,159703,1,0,0:0:0:0:
256,192,159850,1,0,0:0:0:0:
256,192,159997,1,8,0:0:0:0:
256,192,160292,1,0,0:0:0:0:
256,192,160439,1,8,0:0:0:0:
256,192,160880,1,8,0:0:0:0:
265,160,161027,1,0,0:0:0:0:
256,160,161321,1,12,0:0:0:0:
256,160,161762,1,8,0:0:0:0:
265,160,162056,1,0,0:0:0:0:
256,160,162203,1,0,0:0:0:0:
256,160,162350,1,8,0:0:0:0:
256,160,162644,1,0,0:0:0:0:
256,192,162939,1,12,0:0:0:0:
256,192,163233,1,0,0:0:0:0:
256,192,163527,1,0,0:0:0:0:
256,192,163674,1,8,0:0:0:0:
224,160,163821,1,0,0:0:0:0:
256,192,164115,1,8,0:0:0:0:
256,192,164409,1,0,0:0:0:0:
256,192,164703,1,8,0:0:0:0:
256,192,164850,1,8,0:0:0:0:
256,192,164997,1,0,0:0:0:0:
256,192,165292,1,8,0:0:0:0:
256,192,165439,1,0,0:0:0:0:
256,192,165586,1,0,0:0:0:0:
256,192,165733,1,0,0:0:0:0:
256,192,165880,1,8,0:0:0:0:
256,192,166468,1,8,0:0:0:0:
256,192,166762,1,0,0:0:0:0:
224,192,166909,1,0,0:0:0:0:
256,192,167056,1,8,0:0:0:0:
256,192,167350,1,4,0:0:0:0:
256,192,167644,1,8,0:0:0:0:
256,192,167939,1,8,0:0:0:0:
256,192,168086,1,0,0:0:0:0:
256,192,168233,1,8,0:0:0:0:
256,192,168527,1,0,0:0:0:0:
256,192,168821,1,12,0:0:0:0:
256,192,169703,1,0,0:1:0:0:
256,160,172350,1,8,0:0:0:0:
256,160,172644,1,0,0:0:0:0:
256,160,172939,1,8,0:0:0:0:
256,160,173233,1,0,0:0:0:0:
256,160,173747,1,0,0:0:0:0:
256,160,174409,1,8,0:0:0:0:
224,160,174899,1,8,0:0:0:0:
224,160,175586,1,0,0:0:0:0:
224,160,176076,1,8,0:0:0:0:
224,160,176468,1,0,0:0:0:0:
224,160,176762,1,0,0:0:0:0:
224,160,177644,1,8,0:0:0:0:
224,160,177939,1,8,0:0:0:0:
224,160,178821,1,0,0:0:0:0:
224,128,179409,1,8,0:0:0:0:
224,128,180292,1,0,0:0:0:0:
224,128,180586,1,8,0:0:0:0:
224,128,181468,1,0,0:0:0:0:
224,128,181762,1,8,0:0:0:0:
224,96,182939,1,0,0:0:0:0:
224,96,183233,1,0,0:0:0:0:
221,84,183527,1,8,0:0:0:0:
224,96,183821,1,0,0:0:0:0:
205,58,184115,1,8,0:0:0:0:
224,96,184409,1,0,0:0:0:0:
224,96,184703,1,0,0:0:0:0:
224,96,184997,1,8,0:0:0:0:
224,96,185292,1,8,0:0:0:0:
224,96,185586,1,0,0:0:0:0:
224,96,186076,1,8,0:0:0:0:
224,96,187939,1,8,0:0:0:0:
224,96,188233,1,8,0:0:0:0:
224,96,188527,1,0,0:0:0:0:
224,96,189115,1,8,0:0:0:0:
224,96,189703,1,0,0:0:0:0:
224,96,190292,1,8,0:0:0:0:
224,96,190586,1,8,0:0:0:0:
224,96,190880,1,0,0:0:0:0:
224,96,191174,1,0,0:0:0:0:
224,96,191468,1,8,0:0:0:0:
237,93,191762,1,0,0:0:0:0:
224,96,192056,1,8,0:0:0:0:
224,96,192644,1,0,0:0:0:0:
224,96,192939,1,8,0:0:0:0:
224,96,193233,1,0,0:0:0:0:
224,96,193821,1,8,0:0:0:0:
224,96,194115,1,0,0:0:0:0:
224,96,194409,1,8,0:0:0:0:
224,96,194997,1,8,0:0:0:0:
224,96,195292,1,8,0:0:0:0:
224,96,195586,1,0,0:0:0:0:
224,96,195880,1,8,0:0:0:0:
224,96,196174,1,8,0:0:0:0:
237,93,196468,1,0,0:0:0:0:
224,96,196762,1,0,0:0:0:0:
224,96,197350,1,8,0:0:0:0:
224,96,197644,1,8,0:0:0:0:
224,96,197939,1,0,0:0:0:0:
224,96,198527,1,8,0:0:0:0:
224,96,199115,1,0,0:0:0:0:
224,96,199703,1,8,0:0:0:0:
224,96,199997,1,8,0:0:0:0:
224,96,200292,1,0,0:0:0:0:
224,96,200586,1,0,0:0:0:0:
224,96,200880,1,8,0:0:0:0:
237,93,201174,1,0,0:0:0:0:
224,96,201468,1,8,0:0:0:0:
224,96,202056,1,0,0:0:0:0:
224,96,202350,1,8,0:0:0:0:
224,96,202644,1,0,0:0:0:0:
224,96,203233,1,8,0:0:0:0:
224,96,203527,1,0,0:0:0:0:
224,96,203821,1,8,0:0:0:0:
224,96,204115,1,0,0:0:0:0:
224,96,204409,1,8,0:0:0:0:
224,96,204997,1,0,0:0:0:0:
256,192,206174,12,0,208821,0:0:0:0:
256,192,209115,5,8,0:0:0:0:
256,192,212055,1,4,0:0:0:0:
256,192,212349,1,8,0:0:0:0:
256,192,212643,1,0,0:0:0:0:
256,192,212790,1,0,0:0:0:0:
256,192,212937,1,8,0:0:0:0:
224,160,213231,1,0,0:0:0:0:
256,192,213525,1,8,0:0:0:0:
256,192,213819,1,8,0:0:0:0:
256,192,213966,1,0,0:0:0:0:
256,192,214113,1,8,0:0:0:0:
256,192,214407,1,4,0:0:0:0:
256,192,215878,1,12,0:0:0:0:
256,192,216172,1,12,0:0:0:0:
256,192,216466,1,0,0:0:0:0:
256,128,216613,1,0,0:0:0:0:
256,192,216760,1,12,0:0:0:0:
256,192,217349,1,8,0:0:0:0:
256,192,217496,1,8,0:0:0:0:
256,192,217790,1,8,0:0:0:0:
256,192,217937,1,0,0:0:0:0:
256,192,218672,1,0,0:0:0:0:
256,192,219113,1,8,0:0:0:0:
265,160,219849,1,4,0:0:0:0:
256,160,220143,1,4,0:0:0:0:
256,160,220584,1,12,0:0:0:0:
265,160,220878,1,0,0:0:0:0:
256,160,221025,1,0,0:0:0:0:
256,160,221172,1,8,0:0:0:0:
256,192,221466,1,0,0:0:0:0:
256,192,221760,1,12,0:0:0:0:
256,192,222055,1,0,0:0:0:0:
256,192,222202,1,0,0:0:0:0:
256,192,222349,1,8,0:0:0:0:
224,160,222643,1,0,0:0:0:0:
256,192,222937,1,8,0:0:0:0:
256,192,223231,1,8,0:0:0:0:
256,192,223378,1,0,0:0:0:0:
256,192,223525,1,8,0:0:0:0:
256,192,223672,1,8,0:0:0:0:
256,192,223819,1,0,0:0:0:0:
256,192,224113,1,8,0:0:0:0:
256,192,224407,1,8,0:0:0:0:
256,192,224555,1,0,0:0:0:0:
256,192,224702,1,8,0:0:0:0:
256,192,225290,1,8,0:0:0:0:
256,192,225584,1,0,0:0:0:0:
224,192,225731,1,0,0:0:0:0:
256,192,225878,1,8,0:0:0:0:
256,192,226172,1,4,0:0:0:0:
256,192,226466,1,8,0:0:0:0:
256,192,226760,1,0,0:0:0:0:
256,192,227055,1,8,0:0:0:0:
256,192,227202,1,8,0:0:0:0:
256,192,227349,1,0,0:0:0:0:
256,192,227643,1,8,0:0:0:0:
256,192,227790,1,0,0:0:0:0:
256,192,227937,1,0,0:0:0:0:
256,192,228084,1,0,0:0:0:0:
256,192,228231,1,8,0:0:0:0:
256,192,228525,1,4,0:0:0:0:
256,192,229113,1,0,0:0:0:0:
256,160,229407,1,8,0:0:0:0:
256,160,229555,1,8,0:0:0:0:
256,128,229702,1,0,0:0:0:0:
256,160,229849,1,8,0:0:0:0:
256,160,229996,1,0,0:0:0:0:
265,160,230290,1,0,0:0:0:0:
256,160,230584,1,8,0:0:0:0:
256,160,230731,1,8,0:0:0:0:
256,160,230878,1,0,0:0:0:0:
256,192,231172,1,12,0:0:0:0:
256,192,231466,1,0,0:0:0:0:
256,192,231613,1,0,0:0:0:0:
256,192,231760,1,8,0:0:0:0:
224,160,232055,1,0,0:0:0:0:
256,192,232349,1,8,0:0:0:0:
256,192,232643,1,8,0:0:0:0:
256,192,232790,1,0,0:0:0:0:
256,192,232937,1,8,0:0:0:0:
256,192,233084,1,8,0:0:0:0:
256,192,233231,1,0,0:0:0:0:
256,192,233525,1,8,0:0:0:0:
256,192,233819,1,0,0:0:0:0:
256,192,233966,1,0,0:0:0:0:
256,192,234113,1,8,0:0:0:0:
192,64,234407,1,0,0:0:0:0:
256,192,234702,1,8,0:0:0:0:
224,192,234849,1,0,0:0:0:0:
256,192,234996,1,8,0:0:0:0:
256,192,235290,1,8,0:0:0:0:
256,192,235584,1,4,0:0:0:0:
256,192,236172,1,0,0:0:0:0:
256,192,236319,1,0,0:0:0:0:
256,192,236466,1,8,0:0:0:0:
256,192,236613,1,8,0:0:0:0:
256,192,236760,1,0,0:0:0:0:
256,192,237055,1,8,0:0:0:0:
256,192,237349,1,8,0:0:0:0:
256,192,237496,1,0,0:0:0:0:
256,192,237643,1,8,0:0:0:0:
256,192,237937,1,0,0:0:0:0:
256,192,238084,1,8,0:0:0:0:
256,192,238525,1,8,0:0:0:0:
265,160,238672,1,0,0:0:0:0:
256,160,238966,1,12,0:0:0:0:
256,160,239407,1,8,0:0:0:0:
265,160,239702,1,0,0:0:0:0:
256,160,239849,1,0,0:0:0:0:
256,160,239996,1,8,0:0:0:0:
256,160,240290,1,0,0:0:0:0:
256,192,240584,1,12,0:0:0:0:
256,192,240878,1,8,0:0:0:0:
256,192,241025,1,8,0:0:0:0:
256,192,241172,1,0,0:0:0:0:
224,160,241466,1,0,0:0:0:0:
256,192,241760,1,8,0:0:0:0:
256,192,242055,1,8,0:0:0:0:
256,192,242202,1,0,0:0:0:0:
256,192,242349,1,8,0:0:0:0:
256,192,242643,1,0,0:0:0:0:
256,192,242937,1,8,0:0:0:0:
256,192,243084,1,8,0:0:0:0:
256,192,243231,1,0,0:0:0:0:
256,192,243378,1,0,0:0:0:0:
256,192,243525,1,8,0:0:0:0:
256,192,244113,1,8,0:0:0:0:
256,192,244407,1,8,0:0:0:0:
224,192,244555,1,0,0:0:0:0:
256,192,244702,1,8,0:0:0:0:
256,192,244996,1,4,0:0:0:0:
256,192,245290,1,8,0:0:0:0:
256,192,245584,1,0,0:0:0:0:
256,192,245731,1,0,0:0:0:0:
256,192,245878,1,8,0:0:0:0:
256,192,246172,5,0,0:0:0:0:
256,192,246466,5,8,0:0:0:0:
256,192,246613,1,0,0:0:0:0:
256,192,246760,1,0,0:0:0:0:
256,192,246907,1,0,0:0:0:0:
256,192,247055,1,8,0:0:0:0:
256,192,247349,1,4,0:0:0:0:
256,192,247790,1,8,0:0:0:0:
256,192,247937,1,0,0:0:0:0:
256,160,248231,1,8,0:0:0:0:
256,160,248378,1,8,0:0:0:0:
256,128,248525,1,0,0:0:0:0:
256,160,248819,1,8,0:0:0:0:
265,160,249113,1,8,0:0:0:0:
256,160,249260,1,0,0:0:0:0:
256,160,249407,1,8,0:0:0:0:
