osu file format v14

[General]
AudioFilename: audio.ogg
AudioLeadIn: 0
PreviewTime: 48972
Countdown: 0
SampleSet: Normal
StackLeniency: 0.7
Mode: 1
LetterboxInBreaks: 0
WidescreenStoryboard: 1

[Editor]
Bookmarks: 49707,134413,212060
DistanceSpacing: 0.3
BeatDivisor: 4
GridSize: 32
TimelineZoom: 0.2999998

[Metadata]
Title:Haru
TitleUnicode:晴る
Artist:Yorushika
ArtistUnicode:ヨルシカ
Creator:_gt
Version:Kantan
Source:葬送のフリーレン
Tags:sunny sousou no frieren beyond journey's journeys end at the funeral japanese pop jpop j-pop rock jrock j-rock anime op opening full ver. version n-buna suis
BeatmapID:4441846
BeatmapSetID:2115245

[Difficulty]
HPDrainRate:8
CircleSize:5
OverallDifficulty:3
ApproachRate:5
SliderMultiplier:1.4
SliderTickRate:1

[Events]
//Background and Video events
0,0,"frieren.jpg",0,60
//Break Periods
2,169760,186743
2,205201,209119
//Storyboard Layer 0 (Background)
//Storyboard Layer 1 (Fail)
//Storyboard Layer 2 (Pass)
//Storyboard Layer 3 (Foreground)
//Storyboard Layer 4 (Overlay)
//Storyboard Sound Samples

[TimingPoints]
296,294.117647058824,4,1,0,40,1,0
9119,-100,4,1,0,63,0,0
9413,-100,4,1,0,66,0,0
9707,-100,4,1,0,70,0,0
42648,-100,4,1,0,80,0,0
47501,-100,4,1,0,30,0,0
49119,-100,4,1,0,80,0,0
49707,-100,4,1,0,90,0,1
52060,-100,4,1,0,90,0,0
52207,-100,4,1,0,30,0,0
53531,-100,4,1,0,90,0,0
54413,-100,4,1,0,90,0,1
56766,-100,4,1,0,90,0,0
59119,-100,4,1,0,90,0,1
67207,-100,4,1,0,90,0,0
68531,-100,4,1,0,90,0,1
75590,-100,4,1,0,90,0,0
77943,-100,4,1,0,90,0,1
85001,-100,4,1,0,40,0,0
89119,-100,4,1,0,60,0,0
93825,-100,4,1,0,63,0,0
94119,-100,4,1,0,66,0,0
94413,-100,4,1,0,70,0,0
126766,-100,4,1,0,80,0,0
132207,-100,4,1,0,30,0,0
133825,-100,4,1,0,80,0,0
134413,-100,4,1,0,90,0,1
136766,-100,4,1,0,90,0,0
136913,-100,4,1,0,80,0,0
138237,-100,4,1,0,90,0,0
139119,-100,4,1,0,90,0,1
141472,-100,4,1,0,90,0,0
143825,-100,4,1,0,90,0,1
151913,-100,4,1,0,90,0,0
153237,-100,4,1,0,90,0,1
160296,-100,4,1,0,90,0,0
162648,-100,4,1,0,90,0,1
169707,-100,4,1,0,25,0,0
187943,-100,4,1,0,63,0,0
188237,-100,4,1,0,66,0,0
188531,-100,4,1,0,70,0,0
205148,-100,4,1,0,10,0,0
206766,-100,4,1,0,30,0,0
207354,-100,4,1,0,45,0,0
207943,-100,4,1,0,60,0,0
208531,-100,4,1,0,75,0,0
209266,-100,4,1,0,10,0,0
211472,-100,4,1,0,80,0,0
212060,-100,4,1,0,90,0,1
214413,-100,4,1,0,90,0,0
214560,-100,4,1,0,30,0,0
215884,-100,4,1,0,90,0,0
216766,-100,4,1,0,90,0,1
217943,-100,4,1,0,90,0,0
219119,-100,4,1,0,80,0,0
220590,-100,4,1,0,90,0,0
221472,-100,4,1,0,90,0,1
229560,-100,4,1,0,90,0,0
230884,-100,4,1,0,90,0,1
237943,-100,4,1,0,90,0,0
240296,-100,4,1,0,90,0,1
249634,-100,4,1,0,90,0,0

[HitObjects]
222,227,296,5,0,1:0:0:0:
222,227,590,1,8,1:0:0:0:
222,227,1472,1,0,1:0:0:0:
222,227,1766,1,0,1:0:0:0:
222,227,2648,1,8,1:0:0:0:
222,227,2943,1,0,1:0:0:0:
222,227,3825,1,8,1:0:0:0:
222,227,4119,1,8,1:0:0:0:
222,227,5001,1,0,1:0:0:0:
222,227,5296,1,8,1:0:0:0:
222,227,6178,1,0,1:0:0:0:
222,227,6472,1,0,1:0:0:0:
222,227,7354,1,8,1:0:0:0:
222,227,7648,1,0,1:0:0:0:
222,227,8531,1,8,1:0:0:0:
222,227,8825,1,8,1:0:0:0:
202,194,9119,1,0,1:0:0:0:
202,194,9707,1,8,1:0:0:0:
202,194,10296,1,0,1:0:0:0:
203,146,10884,1,8,1:0:0:0:
203,146,11472,1,0,1:0:0:0:
203,146,11766,1,0,1:0:0:0:
198,150,12354,1,8,1:0:0:0:
198,150,12943,1,0,1:0:0:0:
194,154,13531,1,8,1:0:0:0:
194,154,13825,1,8,1:0:0:0:
194,154,14413,1,0,1:0:0:0:
194,154,15001,1,8,1:0:0:0:
194,154,15590,1,0,1:0:0:0:
194,154,16178,1,8,1:0:0:0:
194,154,16472,1,8,1:0:0:0:
193,154,17648,1,8,1:0:0:0:
267,163,18237,1,0,1:0:0:0:
267,163,18531,1,8,1:0:0:0:
267,163,19119,1,0,1:0:0:0:
267,163,19707,1,8,1:0:0:0:
267,163,20296,1,0,1:0:0:0:
267,163,20884,1,8,1:0:0:0:
267,163,21178,1,8,1:0:0:0:
267,163,22354,1,8,1:0:0:0:
162,190,23531,1,8,1:0:0:0:
149,192,24119,1,8,1:0:0:0:
147,197,24707,1,0,1:0:0:0:
141,203,25296,1,8,1:0:0:0:
144,205,25590,1,0,1:0:0:0:
141,203,25884,1,0,1:0:0:0:
140,209,26472,1,8,1:0:0:0:
140,210,27060,5,8,1:0:0:0:
202,194,27943,5,0,1:0:0:0:
133,190,28237,1,0,1:0:0:0:
202,194,28531,1,8,1:0:0:0:
202,194,29119,1,0,1:0:0:0:
203,146,29707,1,8,1:0:0:0:
203,146,30296,1,0,1:0:0:0:
203,146,30590,1,0,1:0:0:0:
198,150,31178,1,8,1:0:0:0:
198,150,31766,1,0,1:0:0:0:
194,154,32354,1,8,1:0:0:0:
194,154,32648,1,8,1:0:0:0:
194,154,33237,1,0,1:0:0:0:
194,154,33825,1,8,1:0:0:0:
194,154,34413,1,0,1:0:0:0:
194,154,35001,1,8,1:0:0:0:
194,154,35296,1,8,1:0:0:0:
193,154,36472,1,8,1:0:0:0:
267,163,37060,1,0,1:0:0:0:
267,163,37354,1,8,1:0:0:0:
267,163,37943,1,0,1:0:0:0:
267,163,38531,1,8,1:0:0:0:
267,163,39119,1,0,1:0:0:0:
267,163,39707,1,8,1:0:0:0:
267,163,40001,1,8,1:0:0:0:
260,176,41766,1,0,1:0:0:0:
260,176,42060,1,8,1:0:0:0:
210,209,42648,1,0,1:0:0:0:
210,209,42943,1,0,1:0:0:0:
210,209,43531,1,0,1:0:0:0:
210,209,43972,1,8,1:0:0:0:
210,209,44266,1,0,1:0:0:0:
210,209,44707,1,8,1:0:0:0:
202,209,45296,1,8,1:0:0:0:
202,209,45737,1,8,1:0:0:0:
202,209,46178,1,8,1:0:0:0:
202,209,46619,1,8,1:0:0:0:
127,210,47060,1,0,1:0:0:0:
202,209,47354,1,8,1:0:0:0:
191,201,49119,5,0,1:0:0:0:
206,203,49707,1,12,1:0:0:0:
206,203,50296,1,0,1:0:0:0:
206,203,50590,1,0,1:0:0:0:
206,203,50884,1,8,1:0:0:0:
211,206,51472,1,8,1:0:0:0:
211,206,51766,1,0,1:0:0:0:
211,206,52060,1,12,1:0:0:0:
255,179,53531,1,4,1:0:0:0:
255,179,53825,1,4,1:0:0:0:
255,174,54413,1,12,1:0:0:0:
180,185,55001,1,8,1:0:0:0:
227,147,55296,1,0,1:0:0:0:
227,147,55884,1,0,1:0:0:0:
227,147,56178,1,8,1:0:0:0:
227,147,56472,1,0,1:0:0:0:
237,154,56766,1,8,1:0:0:0:
231,151,57796,1,12,1:0:0:0:
228,195,58237,1,8,1:0:0:0:
228,195,58531,1,0,1:0:0:0:
228,195,58825,1,0,1:0:0:0:
236,154,59119,1,12,1:0:0:0:
202,170,59707,1,0,1:0:0:0:
191,176,60001,1,8,1:0:0:0:
187,179,60296,1,0,1:0:0:0:
178,183,60884,1,8,1:0:0:0:
213,109,61472,1,8,1:0:0:0:
213,109,61766,1,0,1:0:0:0:
213,109,62060,1,8,1:0:0:0:
213,109,62354,1,8,1:0:0:0:
213,109,62943,1,0,1:0:0:0:
213,109,63237,1,8,1:0:0:0:
213,109,63531,1,0,1:0:0:0:
213,109,63825,1,12,1:0:0:0:
198,204,64413,1,0,1:0:0:0:
198,204,64707,1,0,1:0:0:0:
150,185,65296,1,8,1:0:0:0:
150,185,65590,1,0,1:0:0:0:
200,197,65884,1,0,0:0:0:0:
299,141,66178,1,12,1:0:0:0:
269,124,67207,1,8,1:0:0:0:
163,205,67648,1,8,1:0:0:0:
163,205,67943,1,0,1:0:0:0:
163,205,68237,1,0,1:0:0:0:
206,203,68531,1,12,1:0:0:0:
206,203,69119,1,0,1:0:0:0:
206,203,69413,1,0,1:0:0:0:
206,203,69707,1,8,1:0:0:0:
211,206,70296,1,8,1:0:0:0:
211,206,70590,1,0,1:0:0:0:
211,206,70884,1,8,1:0:0:0:
110,180,71472,1,0,1:0:0:0:
184,196,71766,1,8,1:0:0:0:
255,179,72354,1,0,1:0:0:0:
255,179,72648,1,0,1:0:0:0:
169,190,72943,1,0,1:0:0:0:
255,174,73237,1,12,1:0:0:0:
180,185,73825,1,8,1:0:0:0:
227,147,74119,1,0,1:0:0:0:
227,147,74707,1,8,1:0:0:0:
227,147,75001,1,8,1:0:0:0:
227,147,75296,1,0,1:0:0:0:
237,154,75590,1,8,1:0:0:0:
231,152,76619,1,12,1:0:0:0:
189,188,77060,1,0,1:0:0:0:
189,188,77354,1,0,1:0:0:0:
189,188,77648,1,0,1:0:0:0:
236,154,77943,1,12,1:0:0:0:
202,170,78531,1,0,1:0:0:0:
191,176,78825,1,8,1:0:0:0:
187,179,79119,1,0,1:0:0:0:
178,183,79707,1,8,1:0:0:0:
213,109,80296,1,8,1:0:0:0:
213,109,80590,1,0,1:0:0:0:
213,109,80884,1,8,1:0:0:0:
213,109,81178,1,8,1:0:0:0:
213,109,81766,1,0,1:0:0:0:
213,109,82060,1,8,1:0:0:0:
213,109,82354,1,0,1:0:0:0:
213,109,82648,1,12,1:0:0:0:
198,204,83237,1,0,1:0:0:0:
198,204,83531,1,0,1:0:0:0:
150,185,84119,1,8,1:0:0:0:
150,185,84413,1,0,1:0:0:0:
237,216,84854,1,0,1:0:0:0:
222,227,86178,1,0,1:0:0:0:
222,227,86472,1,0,1:0:0:0:
222,227,87354,1,8,1:0:0:0:
222,227,87648,1,0,1:0:0:0:
222,227,88531,1,8,1:0:0:0:
222,227,88825,1,8,1:0:0:0:
154,160,89707,1,0,1:0:0:0:
154,160,90001,1,8,1:0:0:0:
222,227,90884,1,0,1:0:0:0:
222,227,91178,1,0,1:0:0:0:
222,227,92060,1,8,1:0:0:0:
222,227,92354,1,0,1:0:0:0:
222,227,93237,1,8,1:0:0:0:
222,227,93531,1,8,1:0:0:0:
111,188,93825,1,0,1:0:0:0:
202,194,94413,1,8,1:0:0:0:
187,189,94707,1,0,1:0:0:0:
202,194,95001,1,8,1:0:0:0:
203,146,95590,1,8,1:0:0:0:
203,146,96178,1,0,1:0:0:0:
203,146,96472,1,0,1:0:0:0:
198,150,97060,1,8,1:0:0:0:
198,150,97648,1,0,1:0:0:0:
194,154,98237,1,8,1:0:0:0:
194,154,98531,1,8,1:0:0:0:
194,154,99119,1,0,1:0:0:0:
194,154,99707,1,8,1:0:0:0:
194,154,100296,1,0,1:0:0:0:
194,154,100884,1,8,1:0:0:0:
194,154,101178,1,8,1:0:0:0:
193,154,102354,1,8,1:0:0:0:
267,163,102943,1,0,1:0:0:0:
267,163,103237,1,8,1:0:0:0:
267,163,103825,1,0,1:0:0:0:
267,163,104413,1,8,1:0:0:0:
267,163,105001,1,0,1:0:0:0:
267,163,105590,1,8,1:0:0:0:
267,163,105884,1,8,1:0:0:0:
267,163,107060,1,8,1:0:0:0:
162,190,108237,1,8,1:0:0:0:
149,192,108825,1,8,1:0:0:0:
147,197,109413,1,0,1:0:0:0:
141,203,110001,1,8,1:0:0:0:
144,205,110296,1,0,1:0:0:0:
141,203,110590,1,0,1:0:0:0:
140,209,111178,1,8,1:0:0:0:
140,210,111766,5,8,1:0:0:0:
202,194,112648,5,0,1:0:0:0:
133,190,112943,1,0,1:0:0:0:
202,194,113237,1,8,1:0:0:0:
127,183,113825,1,0,1:0:0:0:
123,173,114119,1,8,1:0:0:0:
124,175,114413,1,0,1:0:0:0:
123,173,115001,1,8,1:0:0:0:
124,175,115296,1,0,1:0:0:0:
107,174,115884,1,8,1:0:0:0:
107,174,116472,1,0,1:0:0:0:
107,174,117060,1,0,1:0:0:0:
107,174,117354,1,8,1:0:0:0:
107,174,117943,1,0,1:0:0:0:
184,151,118531,1,8,1:0:0:0:
184,151,118825,1,8,1:0:0:0:
184,151,119119,1,0,1:0:0:0:
184,151,119707,1,8,1:0:0:0:
184,151,120001,1,8,1:0:0:0:
167,148,121178,1,8,1:0:0:0:
167,148,121766,1,0,1:0:0:0:
166,155,122060,1,8,1:0:0:0:
157,164,122648,1,0,1:0:0:0:
157,164,123237,1,8,1:0:0:0:
157,164,123531,1,8,1:0:0:0:
157,164,123825,1,0,1:0:0:0:
157,164,124413,1,8,1:0:0:0:
157,164,124707,1,8,1:0:0:0:
141,162,126472,1,8,1:0:0:0:
100,168,126766,1,8,1:0:0:0:
210,209,127354,1,0,1:0:0:0:
210,209,127648,1,0,1:0:0:0:
210,209,128237,1,0,1:0:0:0:
210,209,128678,1,8,1:0:0:0:
210,209,128972,1,0,1:0:0:0:
210,209,129413,1,8,1:0:0:0:
202,209,130001,1,8,1:0:0:0:
202,209,130443,1,8,1:0:0:0:
202,209,130884,1,8,1:0:0:0:
202,209,131325,1,8,1:0:0:0:
127,210,131766,1,0,1:0:0:0:
202,209,132060,1,8,1:0:0:0:
178,139,133825,1,0,1:0:0:0:
206,203,134413,5,12,1:0:0:0:
206,203,135001,1,0,1:0:0:0:
206,203,135296,1,0,1:0:0:0:
206,203,135590,1,8,1:0:0:0:
211,206,136178,1,8,1:0:0:0:
211,206,136472,1,0,1:0:0:0:
211,206,136766,1,8,1:0:0:0:
165,207,137354,1,8,1:0:0:0:
165,207,137796,1,8,1:0:0:0:
255,179,138237,1,4,1:0:0:0:
255,179,138531,1,4,1:0:0:0:
255,174,139119,1,12,1:0:0:0:
180,185,139707,1,8,1:0:0:0:
227,147,140001,1,0,1:0:0:0:
227,147,140590,1,0,1:0:0:0:
227,147,140884,1,8,1:0:0:0:
227,147,141178,1,0,1:0:0:0:
237,154,141472,1,8,1:0:0:0:
231,152,142501,1,12,1:0:0:0:
225,227,142943,1,8,1:0:0:0:
225,227,143237,1,0,1:0:0:0:
225,227,143531,1,0,1:0:0:0:
236,154,143825,1,12,1:0:0:0:
202,170,144413,1,0,1:0:0:0:
191,176,144707,1,8,1:0:0:0:
187,179,145001,1,0,1:0:0:0:
178,183,145590,1,8,1:0:0:0:
213,109,146178,1,8,1:0:0:0:
213,109,146472,1,0,1:0:0:0:
213,109,146766,1,8,1:0:0:0:
213,109,147060,1,8,1:0:0:0:
213,109,147648,1,0,1:0:0:0:
213,109,147943,1,8,1:0:0:0:
213,109,148237,1,0,1:0:0:0:
213,109,148531,1,12,1:0:0:0:
198,204,149119,1,0,1:0:0:0:
198,204,149413,1,0,1:0:0:0:
150,185,150001,1,8,1:0:0:0:
150,185,150296,1,0,1:0:0:0:
225,183,150590,1,0,1:0:0:0:
299,141,150884,1,12,1:0:0:0:
269,124,151913,1,8,1:0:0:0:
163,205,152354,1,8,1:0:0:0:
163,205,152648,1,0,1:0:0:0:
163,205,152943,1,0,1:0:0:0:
206,203,153237,1,12,1:0:0:0:
206,203,153825,1,0,1:0:0:0:
206,203,154119,1,0,1:0:0:0:
206,203,154413,1,8,1:0:0:0:
211,206,155001,1,8,1:0:0:0:
211,206,155296,1,0,1:0:0:0:
211,206,155590,1,8,1:0:0:0:
110,180,156178,1,0,1:0:0:0:
184,196,156472,1,8,1:0:0:0:
255,179,157060,1,0,1:0:0:0:
255,179,157354,1,0,1:0:0:0:
169,190,157648,1,0,1:0:0:0:
255,174,157943,1,12,1:0:0:0:
180,185,158531,1,8,1:0:0:0:
227,147,158825,1,0,1:0:0:0:
227,147,159413,1,8,1:0:0:0:
227,147,159707,1,8,1:0:0:0:
227,147,160001,1,0,1:0:0:0:
237,154,160296,1,8,1:0:0:0:
231,152,161325,1,12,1:0:0:0:
189,188,161766,1,0,1:0:0:0:
189,188,162060,1,0,1:0:0:0:
189,188,162354,1,0,1:0:0:0:
236,154,162648,1,12,1:0:0:0:
202,170,163237,1,0,1:0:0:0:
191,176,163531,1,8,1:0:0:0:
187,179,163825,1,0,1:0:0:0:
178,183,164413,1,8,1:0:0:0:
213,109,165001,1,8,1:0:0:0:
213,109,165296,1,0,1:0:0:0:
213,109,165590,1,8,1:0:0:0:
213,109,165884,1,8,1:0:0:0:
213,109,166472,1,0,1:0:0:0:
213,109,166766,1,8,1:0:0:0:
213,109,167060,1,0,1:0:0:0:
213,109,167354,1,12,1:0:0:0:
198,204,167943,1,0,1:0:0:0:
198,204,168237,1,0,1:0:0:0:
150,185,168825,1,8,1:0:0:0:
150,185,169119,1,0,1:0:0:0:
237,216,169560,1,0,1:0:0:0:
277,176,187943,5,0,1:0:0:0:
264,178,188531,1,8,1:0:0:0:
264,178,189119,1,8,1:0:0:0:
259,182,189707,1,0,1:0:0:0:
259,182,190296,1,0,1:0:0:0:
250,181,190884,1,8,1:0:0:0:
244,181,191472,1,0,1:0:0:0:
209,139,191766,1,0,1:0:0:0:
244,181,192060,1,8,1:0:0:0:
203,139,192648,1,0,1:0:0:0:
203,139,193237,1,8,1:0:0:0:
202,153,194119,1,8,1:0:0:0:
202,153,194413,1,0,1:0:0:0:
191,156,195001,1,8,1:0:0:0:
178,159,195590,1,0,1:0:0:0:
178,159,196178,1,8,1:0:0:0:
124,203,196472,1,8,0:0:0:0:
171,162,196766,1,0,1:0:0:0:
171,162,197354,1,0,1:0:0:0:
171,162,197943,1,8,1:0:0:0:
171,162,198531,1,8,1:0:0:0:
167,166,199119,1,0,1:0:0:0:
167,166,199707,1,8,1:0:0:0:
167,166,200296,1,0,1:0:0:0:
167,166,200884,1,0,1:0:0:0:
277,176,201178,1,0,0:0:0:0:
162,168,201472,1,8,1:0:0:0:
156,169,203531,1,8,1:0:0:0:
156,169,203825,1,0,1:0:0:0:
156,169,204413,1,8,1:0:0:0:
156,169,205001,1,0,1:0:0:0:
133,187,211472,5,0,1:0:0:0:
206,203,212060,5,12,1:0:0:0:
206,203,212648,1,0,1:0:0:0:
206,203,212943,1,0,1:0:0:0:
206,203,213237,1,8,1:0:0:0:
211,206,213825,1,8,1:0:0:0:
211,206,214119,1,0,1:0:0:0:
211,206,214413,1,12,1:0:0:0:
255,179,215884,1,4,1:0:0:0:
255,179,216178,1,4,1:0:0:0:
255,174,216766,1,12,1:0:0:0:
227,147,217354,1,0,1:0:0:0:
80,180,217943,1,0,1:0:0:0:
227,147,218678,1,0,1:0:0:0:
220,186,219119,1,8,1:0:0:0:
231,152,220148,1,8,1:0:0:0:
161,166,220590,1,8,1:0:0:0:
165,179,220884,1,0,1:0:0:0:
165,179,221178,1,0,1:0:0:0:
236,154,221472,1,12,1:0:0:0:
202,170,222060,1,0,1:0:0:0:
191,176,222354,1,8,1:0:0:0:
187,179,222648,1,0,1:0:0:0:
178,183,223237,1,8,1:0:0:0:
213,109,223825,1,8,1:0:0:0:
213,109,224119,1,0,1:0:0:0:
213,109,224413,1,8,1:0:0:0:
213,109,224707,1,8,1:0:0:0:
213,109,225296,1,0,1:0:0:0:
213,109,225590,1,8,1:0:0:0:
213,109,225884,1,0,1:0:0:0:
213,109,226178,1,12,1:0:0:0:
198,204,226766,1,0,1:0:0:0:
198,204,227060,1,0,1:0:0:0:
150,185,227648,1,8,1:0:0:0:
150,185,227943,1,0,1:0:0:0:
225,183,228237,1,0,1:0:0:0:
299,141,228531,1,12,1:0:0:0:
269,124,229560,1,8,1:0:0:0:
163,205,230001,1,8,1:0:0:0:
163,205,230296,1,0,1:0:0:0:
163,205,230590,1,0,1:0:0:0:
206,203,230884,1,12,1:0:0:0:
206,203,231472,1,0,1:0:0:0:
206,203,231766,1,0,1:0:0:0:
206,203,232060,1,8,1:0:0:0:
211,206,232648,1,8,1:0:0:0:
211,206,232943,1,0,1:0:0:0:
211,206,233237,1,8,1:0:0:0:
110,180,233825,1,0,1:0:0:0:
184,196,234119,1,8,1:0:0:0:
255,179,234707,1,0,1:0:0:0:
255,179,235001,1,0,1:0:0:0:
169,190,235296,1,0,1:0:0:0:
255,174,235590,1,12,1:0:0:0:
180,185,236178,1,8,1:0:0:0:
227,147,236472,1,0,1:0:0:0:
227,147,237060,1,8,1:0:0:0:
227,147,237354,1,8,1:0:0:0:
227,147,237648,1,0,1:0:0:0:
237,154,237943,1,8,1:0:0:0:
231,152,238972,1,12,1:0:0:0:
189,188,239413,1,0,1:0:0:0:
189,188,239707,1,0,1:0:0:0:
189,188,240001,1,0,1:0:0:0:
236,154,240296,1,12,1:0:0:0:
202,170,240884,1,0,1:0:0:0:
191,176,241178,1,8,1:0:0:0:
187,179,241472,1,0,1:0:0:0:
178,183,242060,1,8,1:0:0:0:
213,109,242648,1,8,1:0:0:0:
213,109,242943,1,0,1:0:0:0:
213,109,243237,1,8,1:0:0:0:
213,109,243531,1,8,1:0:0:0:
213,109,244119,1,0,1:0:0:0:
213,109,244413,1,8,1:0:0:0:
213,109,244707,1,0,1:0:0:0:
213,109,245001,1,12,1:0:0:0:
198,204,245590,1,0,1:0:0:0:
198,204,245884,1,0,1:0:0:0:
150,185,246472,1,8,1:0:0:0:
150,185,246766,1,0,1:0:0:0:
153,124,247354,1,12,1:0:0:0:
153,124,247796,1,0,1:0:0:0:
153,124,248384,1,8,1:0:0:0:
153,124,248825,1,0,1:0:0:0:
147,125,249119,1,8,1:0:0:0:
147,125,249413,1,8,1:0:0:0:
