osu file format v14

[General]
AudioFilename: audio.ogg
AudioLeadIn: 0
PreviewTime: 48972
Countdown: 0
SampleSet: Normal
StackLeniency: 0.7
Mode: 1
LetterboxInBreaks: 0
WidescreenStoryboard: 0

[Editor]
Bookmarks: 49707,134413,212060
DistanceSpacing: 0.3
BeatDivisor: 4
GridSize: 32
TimelineZoom: 1.7

[Metadata]
Title:Haru
TitleUnicode:晴る
Artist:Yorushika
ArtistUnicode:ヨルシカ
Creator:_gt
Version:Inner Oni
Source:葬送のフリーレン
Tags:sunny sousou no frieren beyond journey's journeys end at the funeral japanese pop jpop j-pop rock jrock j-rock anime op opening full ver. version n-buna suis
BeatmapID:4441845
BeatmapSetID:2115245

[Difficulty]
HPDrainRate:7
CircleSize:5
OverallDifficulty:6
ApproachRate:5
SliderMultiplier:1.4
SliderTickRate:1

[Events]
//Background and Video events
0,0,"frieren.jpg",0,60
//Break Periods
2,169760,171154
2,209319,210272
//Storyboard Layer 0 (Background)
//Storyboard Layer 1 (Fail)
//Storyboard Layer 2 (Pass)
//Storyboard Layer 3 (Foreground)
//Storyboard Layer 4 (Overlay)
//Storyboard Sound Samples

[TimingPoints]
296,294.117647058824,4,1,0,60,1,0
296,-117.647058823529,4,1,0,60,0,0
8825,-117.647058823529,4,1,0,60,0,0
9119,-115.426770919281,4,1,0,63,0,0
9413,-113.248385281244,4,1,0,66,0,0
9707,-111.111111111111,4,1,0,70,0,0
42648,-111.111111111111,4,1,0,80,0,0
45001,-111.111111111111,4,1,0,80,0,0
45148,-110.736437002955,4,1,0,80,0,0
45296,-110.360490429097,4,1,0,80,0,0
45590,-109.617459390208,4,1,0,80,0,0
45737,-109.247821975689,4,1,0,80,0,0
46031,-108.512282269919,4,1,0,80,0,0
46178,-108.146371586667,4,1,0,80,0,0
46472,-107.418247685444,4,1,0,80,0,0
46619,-107.056026160082,4,1,0,80,0,0
46913,-106.335243296326,4,1,0,80,0,0
47060,-105.976673734297,4,1,0,80,0,0
47207,-105.619313292846,4,1,0,80,0,0
47354,-105.263157894737,4,1,0,80,0,0
47501,-105.263157894737,4,1,0,30,0,0
47648,-111.111111111111,4,1,0,30,0,0
48531,-117.647058823529,4,1,0,30,0,0
49119,-125,4,1,0,80,0,0
49707,-100,4,1,0,90,0,1
52060,-100,4,1,0,90,0,0
52207,-100,4,1,0,30,0,0
53237,-111.111111111111,4,1,0,30,0,0
53531,-108.2226384917,4,1,0,90,0,0
53825,-105.409255338946,4,1,0,90,0,0
54119,-102.669009608034,4,1,0,90,0,0
54413,-100,4,1,0,90,0,1
56766,-100,4,1,0,90,0,0
56913,-101.515051194205,4,1,0,90,0,0
57060,-103.053056189621,4,1,0,90,0,0
57207,-104.614362748087,4,1,0,90,0,0
57354,-106.199323900212,4,1,0,90,0,0
57501,-107.8082980252,4,1,0,90,0,0
57796,-100,4,1,0,90,0,0
57943,-109.817948123972,4,1,0,90,0,0
58090,-108.539835571435,4,1,0,90,0,0
58237,-107.276598289514,4,1,0,90,0,0
58531,-104.794059051061,4,1,0,90,0,0
58678,-103.574416865129,4,1,0,90,0,0
58751,-102.974029399283,4,1,0,90,0,0
58825,-102.368969444388,4,1,0,90,0,0
58898,-101.775569568182,4,1,0,90,0,0
58972,-101.177551583535,4,1,0,90,0,0
59046,-100.583047462887,4,1,0,90,0,0
59119,-100,4,1,0,90,0,1
67207,-100,4,1,0,90,0,0
67501,-101.324583394146,4,1,0,90,0,0
67648,-102.666711999972,4,1,0,90,0,0
67796,-104.035930698231,4,1,0,90,0,0
67943,-105.413973360204,4,1,0,90,0,0
68090,-106.810269346443,4,1,0,90,0,0
68237,-108.225060437449,4,1,0,90,0,0
68384,-109.658591616307,4,1,0,90,0,0
68531,-111.111111111111,4,1,0,90,0,1
68825,-100,4,1,0,90,0,1
75590,-100,4,1,0,90,0,0
75736,-101.515051194205,4,1,0,90,0,0
75883,-103.053056189621,4,1,0,90,0,0
76030,-104.614362748087,4,1,0,90,0,0
76177,-106.199323900212,4,1,0,90,0,0
76324,-107.8082980252,4,1,0,90,0,0
76619,-100,4,1,0,90,0,0
76766,-109.817948123972,4,1,0,90,0,0
76913,-108.539835571435,4,1,0,90,0,0
77060,-107.276598289514,4,1,0,90,0,0
77354,-104.794059051061,4,1,0,90,0,0
77501,-103.574416865129,4,1,0,90,0,0
77574,-102.974029399283,4,1,0,90,0,0
77648,-102.368969444388,4,1,0,90,0,0
77721,-101.775569568182,4,1,0,90,0,0
77795,-101.177551583535,4,1,0,90,0,0
77869,-100.583047462887,4,1,0,90,0,0
77943,-100,4,1,0,90,0,1
85001,-117.647058823529,4,1,0,40,0,0
88825,-117.647058823529,4,1,0,40,0,0
89119,-114.332390095006,4,1,0,60,0,0
89193,-113.512901803921,4,1,0,60,0,0
89266,-112.710243099042,4,1,0,60,0,0
89413,-111.111111111111,4,1,0,60,0,0
93825,-111.111111111111,4,1,0,63,0,0
94119,-111.111111111111,4,1,0,66,0,0
94413,-111.111111111111,4,1,0,70,0,0
112354,-111.111111111111,4,1,0,70,0,0
112648,-109.128785701737,4,1,0,70,0,0
112796,-108.144303129376,4,1,0,70,0,0
112943,-107.175264138969,4,1,0,70,0,0
113237,-105.263157894737,4,1,0,70,0,0
126766,-105.263157894737,4,1,0,80,0,0
127648,-111.111111111111,4,1,0,80,0,0
129707,-111.111111111111,4,1,0,80,0,0
129854,-110.736437002955,4,1,0,80,0,0
130002,-110.360490429097,4,1,0,80,0,0
130296,-109.617459390208,4,1,0,80,0,0
130443,-109.247821975689,4,1,0,80,0,0
130737,-108.512282269919,4,1,0,80,0,0
130884,-108.146371586667,4,1,0,80,0,0
131178,-107.418247685444,4,1,0,80,0,0
131325,-107.056026160082,4,1,0,80,0,0
131619,-106.335243296326,4,1,0,80,0,0
131766,-105.976673734297,4,1,0,80,0,0
131913,-105.619313292846,4,1,0,80,0,0
132060,-105.263157894737,4,1,0,80,0,0
132207,-105.263157894737,4,1,0,30,0,0
132354,-111.111111111111,4,1,0,30,0,0
133237,-117.647058823529,4,1,0,30,0,0
133825,-125,4,1,0,80,0,0
134413,-100,4,1,0,90,0,1
136766,-100,4,1,0,90,0,0
136913,-101.324583394146,4,1,0,80,0,0
137060,-102.666711999972,4,1,0,80,0,0
137207,-104.026618218439,4,1,0,80,0,0
137354,-105.404537528853,4,1,0,80,0,0
137501,-106.800708529636,4,1,0,80,0,0
137575,-107.510525695776,4,1,0,80,0,0
137648,-108.21537297965,4,1,0,80,0,0
137796,-109.658591616307,4,1,0,80,0,0
137943,-111.111111111111,4,1,0,80,0,0
138090,-109.657364596222,4,1,0,80,0,0
138237,-108.2226384917,4,1,0,90,0,0
138531,-105.409255338946,4,1,0,90,0,0
138678,-104.030110300672,4,1,0,90,0,0
138751,-103.351948903897,4,1,0,90,0,0
138825,-102.669009608034,4,1,0,90,0,0
138898,-101.999721084163,4,1,0,90,0,0
138972,-101.325717173891,4,1,0,90,0,0
139046,-100.65616701375,4,1,0,90,0,0
139119,-100,4,1,0,90,0,1
141472,-100,4,1,0,90,0,0
141617,-101.515051194205,4,1,0,90,0,0
141764,-103.053056189621,4,1,0,90,0,0
141911,-104.614362748087,4,1,0,90,0,0
142058,-106.199323900212,4,1,0,90,0,0
142205,-107.8082980252,4,1,0,90,0,0
142500,-100,4,1,0,90,0,0
142647,-109.817948123972,4,1,0,90,0,0
142794,-108.539835571435,4,1,0,90,0,0
142941,-107.276598289514,4,1,0,90,0,0
143235,-104.794059051061,4,1,0,90,0,0
143382,-103.574416865129,4,1,0,90,0,0
143455,-102.974029399283,4,1,0,90,0,0
143529,-102.368969444388,4,1,0,90,0,0
143602,-101.775569568182,4,1,0,90,0,0
143676,-101.177551583535,4,1,0,90,0,0
143750,-100.583047462887,4,1,0,90,0,0
143825,-100,4,1,0,90,0,1
152060,-100,4,1,0,90,0,0
152205,-101.324583394146,4,1,0,90,0,0
152352,-102.666711999972,4,1,0,90,0,0
152500,-104.035930698231,4,1,0,90,0,0
152647,-105.413973360204,4,1,0,90,0,0
152794,-106.810269346443,4,1,0,90,0,0
152941,-108.225060437449,4,1,0,90,0,0
153088,-109.658591616307,4,1,0,90,0,0
153237,-111.111111111111,4,1,0,90,0,1
153531,-100,4,1,0,90,0,1
160296,-100,4,1,0,90,0,0
160440,-101.515051194205,4,1,0,90,0,0
160587,-103.053056189621,4,1,0,90,0,0
160734,-104.614362748087,4,1,0,90,0,0
160881,-106.199323900212,4,1,0,90,0,0
161028,-107.8082980252,4,1,0,90,0,0
161323,-100,4,1,0,90,0,0
161470,-109.817948123972,4,1,0,90,0,0
161617,-108.539835571435,4,1,0,90,0,0
161764,-107.276598289514,4,1,0,90,0,0
162058,-104.794059051061,4,1,0,90,0,0
162205,-103.574416865129,4,1,0,90,0,0
162278,-102.974029399283,4,1,0,90,0,0
162352,-102.368969444388,4,1,0,90,0,0
162425,-101.775569568182,4,1,0,90,0,0
162499,-101.177551583535,4,1,0,90,0,0
162573,-100.583047462887,4,1,0,90,0,0
162648,-100,4,1,0,90,0,1
169707,-133.333333333333,4,1,0,25,0,0
172354,-133.333333333333,4,1,0,60,0,0
187354,-133.333333333333,4,1,0,60,0,0
187943,-125.238199073721,4,1,0,63,0,0
188237,-121.383301048286,4,1,0,66,0,0
188335,-120.12488570729,4,1,0,66,0,0
188433,-118.879516717454,4,1,0,66,0,0
188531,-117.64705882353,4,1,0,70,0,0
205148,-117.64705882353,4,1,0,10,0,0
206178,-153.846153846153,4,1,0,20,0,0
206179,-10000,4,1,0,20,0,0
206766,-10000,4,1,0,30,0,0
207354,-133.333333333333,4,1,0,45,0,0
207943,-117.647058823529,4,1,0,60,0,0
208531,-117.647058823529,4,1,0,75,0,0
209266,-153.846153846153,4,1,0,10,0,0
211465,-125,4,1,0,10,0,0
211472,-125,4,1,0,80,0,0
212060,-100,4,1,0,90,0,1
214413,-100,4,1,0,90,0,0
214560,-100,4,1,0,30,0,0
215590,-111.111111111111,4,1,0,30,0,0
215884,-108.2226384917,4,1,0,90,0,0
216178,-105.409255338946,4,1,0,90,0,0
216472,-102.669009608034,4,1,0,90,0,0
216766,-100,4,1,0,90,0,1
217060,-111.111111111111,4,1,0,90,0,1
217943,-111.111111111111,4,1,0,90,0,0
219119,-117.647058823529,4,1,0,80,0,0
220148,-117.647058823529,4,1,0,80,0,0
220296,-115.52908852236,4,1,0,80,0,0
220443,-113.463174078293,4,1,0,80,0,0
220590,-111.434202732669,4,1,0,90,0,0
220884,-107.484458654431,4,1,0,90,0,0
221031,-105.562399902934,4,1,0,90,0,0
221104,-104.620719009552,4,1,0,90,0,0
221178,-103.674711793393,4,1,0,90,0,0
221251,-102.749870227527,4,1,0,90,0,0
221325,-101.820779703061,4,1,0,90,0,0
221398,-100.912476340464,4,1,0,90,0,0
221472,-100,4,1,0,90,0,1
229707,-100,4,1,0,90,0,0
229852,-101.324583394146,4,1,0,90,0,0
229999,-102.666711999972,4,1,0,90,0,0
230147,-104.035930698231,4,1,0,90,0,0
230294,-105.413973360204,4,1,0,90,0,0
230441,-106.810269346443,4,1,0,90,0,0
230588,-108.225060437449,4,1,0,90,0,0
230735,-109.658591616307,4,1,0,90,0,0
230884,-111.111111111111,4,1,0,90,0,1
231178,-100,4,1,0,90,0,1
237943,-100,4,1,0,90,0,0
238089,-101.515051194205,4,1,0,90,0,0
238236,-103.053056189621,4,1,0,90,0,0
238383,-104.614362748087,4,1,0,90,0,0
238530,-106.199323900212,4,1,0,90,0,0
238677,-107.8082980252,4,1,0,90,0,0
238972,-100,4,1,0,90,0,0
239119,-109.817948123972,4,1,0,90,0,0
239266,-108.539835571435,4,1,0,90,0,0
239413,-107.276598289514,4,1,0,90,0,0
239707,-104.794059051061,4,1,0,90,0,0
239854,-103.574416865129,4,1,0,90,0,0
239927,-102.974029399283,4,1,0,90,0,0
240001,-102.368969444388,4,1,0,90,0,0
240074,-101.775569568182,4,1,0,90,0,0
240148,-101.177551583535,4,1,0,90,0,0
240222,-100.583047462887,4,1,0,90,0,0
240296,-100,4,1,0,90,0,1
247648,-105.263157894737,4,1,0,90,0,1
247796,-104.383457834114,4,1,0,90,0,1
247869,-103.952262970507,4,1,0,90,0,1
247943,-103.51697927243,4,1,0,90,0,1
248090,-102.657693278549,4,1,0,90,0,1
248237,-101.805540147551,4,1,0,90,0,1
248384,-100.960460670125,4,1,0,90,0,1
248457,-100.543405774918,4,1,0,90,0,1
248531,-100.122396128449,4,1,0,90,0,1
248604,-99.7088031718786,4,1,0,90,0,1
248678,-99.2912882921139,4,1,0,90,0,1
248825,-98.4670794140774,4,1,0,90,0,1
248898,-98.0603243615171,4,1,0,90,0,1
248972,-97.6497122266496,4,1,0,90,0,1
249119,-96.8391299375155,4,1,0,90,0,1
249266,-96.0352762257879,4,1,0,90,0,1
249413,-95.2380952380953,4,1,0,90,0,1
249634,-95.2380952380953,4,1,0,90,0,0

[HitObjects]
195,203,296,5,0,0:0:0:0:
195,203,590,1,8,0:0:0:0:
197,136,1031,1,0,0:0:0:0:
197,136,1178,1,8,0:0:0:0:
197,136,1325,1,8,0:0:0:0:
195,203,1472,1,0,0:0:0:0:
195,203,1766,1,0,0:0:0:0:
197,136,2207,1,8,0:0:0:0:
197,136,2354,1,0,0:0:0:0:
197,136,2501,1,0,0:0:0:0:
195,203,2648,1,8,0:0:0:0:
195,203,2943,1,0,0:0:0:0:
197,136,3384,1,0,0:0:0:0:
202,132,3531,1,8,0:0:0:0:
202,132,3629,1,0,0:0:0:0:
222,174,3727,1,0,0:0:0:0:
195,203,3825,1,8,0:0:0:0:
195,203,4119,1,8,0:0:0:0:
206,122,4560,1,8,0:0:0:0:
206,165,4707,1,8,0:0:0:0:
187,168,5001,1,0,0:0:0:0:
187,168,5296,1,8,0:0:0:0:
236,163,5737,1,0,0:0:0:0:
236,163,5884,1,8,0:0:0:0:
236,163,6031,1,8,0:0:0:0:
187,168,6178,1,0,0:0:0:0:
187,168,6472,1,0,0:0:0:0:
236,163,6913,1,8,0:0:0:0:
236,163,7060,1,0,0:0:0:0:
236,163,7207,1,0,0:0:0:0:
187,168,7354,1,8,0:0:0:0:
187,168,7648,1,0,0:0:0:0:
236,163,8090,1,0,0:0:0:0:
236,163,8237,1,8,0:0:0:0:
236,163,8335,1,0,0:0:0:0:
210,107,8433,1,0,0:0:0:0:
187,168,8531,1,8,0:0:0:0:
187,168,8825,1,8,0:0:0:0:
242,159,9119,1,0,0:0:0:0:
242,159,9413,1,8,0:0:0:0:
233,132,9707,1,0,0:0:0:0:
233,132,10001,1,8,0:0:0:0:
233,132,10296,1,8,0:0:0:0:
209,223,10443,1,0,0:0:0:0:
233,132,10590,1,0,0:0:0:0:
209,223,10884,1,8,0:0:0:0:
209,223,11178,1,0,0:0:0:0:
204,226,11472,1,8,0:0:0:0:
204,226,11619,1,0,0:0:0:0:
204,226,11766,1,8,0:0:0:0:
204,226,11913,1,8,0:0:0:0:
195,217,12060,1,0,0:0:0:0:
197,219,12354,1,8,0:0:0:0:
195,219,12943,1,8,0:0:0:0:
197,219,13237,1,0,0:0:0:0:
187,220,13531,1,8,0:0:0:0:
187,219,13825,1,0,0:0:0:0:
187,219,13972,1,0,0:0:0:0:
186,219,14119,1,8,0:0:0:0:
165,221,14413,1,0,0:0:0:0:
171,223,14707,1,8,0:0:0:0:
173,223,15001,1,8,0:0:0:0:
173,223,15148,1,0,0:0:0:0:
120,190,15296,1,8,0:0:0:0:
120,190,15590,1,0,0:0:0:0:
120,190,15884,1,8,0:0:0:0:
117,199,16178,1,0,0:0:0:0:
157,130,16325,1,0,0:0:0:0:
97,134,16472,1,8,0:0:0:0:
97,134,16619,1,8,0:0:0:0:
97,134,16766,1,0,0:0:0:0:
108,143,17060,1,8,0:0:0:0:
108,143,17648,1,8,0:0:0:0:
108,143,17943,1,0,0:0:0:0:
108,143,18237,1,8,0:0:0:0:
120,145,18531,1,0,0:0:0:0:
120,145,18678,1,0,0:0:0:0:
118,143,18825,1,8,0:0:0:0:
233,132,19119,1,0,0:0:0:0:
233,132,19413,1,8,0:0:0:0:
233,132,19707,1,0,0:0:0:0:
209,223,19854,1,8,0:0:0:0:
233,132,20001,1,0,0:0:0:0:
209,223,20296,1,8,0:0:0:0:
209,223,20590,1,0,0:0:0:0:
204,226,20884,1,8,0:0:0:0:
204,226,21031,1,0,0:0:0:0:
204,226,21178,1,8,0:0:0:0:
204,226,21325,1,8,0:0:0:0:
195,217,21472,1,0,0:0:0:0:
197,219,21766,1,8,0:0:0:0:
195,219,22354,1,8,0:0:0:0:
197,219,22648,1,0,0:0:0:0:
187,220,22943,1,8,0:0:0:0:
170,195,23384,1,0,0:0:0:0:
170,195,23531,1,8,0:0:0:0:
165,221,23825,1,0,0:0:0:0:
171,223,24119,1,8,0:0:0:0:
173,223,24560,1,0,0:0:0:0:
120,190,24707,1,8,0:0:0:0:
120,190,25001,1,0,0:0:0:0:
120,190,25296,1,8,0:0:0:0:
117,199,25590,1,0,0:0:0:0:
157,130,25737,1,0,0:0:0:0:
97,134,25884,1,8,0:0:0:0:
187,203,26031,1,8,0:0:0:0:
97,134,26178,1,0,0:0:0:0:
108,143,26472,1,8,0:0:0:0:
108,143,27060,1,8,0:0:0:0:
108,143,27354,1,0,0:0:0:0:
108,143,27648,1,8,0:0:0:0:
120,145,27943,1,0,0:0:0:0:
120,145,28090,1,0,0:0:0:0:
118,143,28237,1,8,0:0:0:0:
233,132,28531,1,0,0:0:0:0:
233,132,28825,1,8,0:0:0:0:
233,132,29119,1,0,0:0:0:0:
209,223,29266,1,8,0:0:0:0:
233,132,29413,1,0,0:0:0:0:
209,223,29707,1,8,0:0:0:0:
209,223,30001,1,0,0:0:0:0:
204,226,30296,1,8,0:0:0:0:
204,226,30443,1,0,0:0:0:0:
204,226,30590,1,8,0:0:0:0:
204,226,30737,1,8,0:0:0:0:
195,217,30884,1,0,0:0:0:0:
197,219,31178,1,8,0:0:0:0:
195,219,31766,1,8,0:0:0:0:
197,219,32060,1,0,0:0:0:0:
187,220,32354,1,8,0:0:0:0:
187,219,32648,1,0,0:0:0:0:
187,219,32796,1,0,0:0:0:0:
186,219,32943,1,8,0:0:0:0:
165,221,33237,1,0,0:0:0:0:
171,223,33531,1,8,0:0:0:0:
173,223,33825,1,8,0:0:0:0:
173,223,33972,1,0,0:0:0:0:
120,190,34119,1,8,0:0:0:0:
120,190,34413,1,0,0:0:0:0:
120,190,34707,1,8,0:0:0:0:
117,199,35001,1,0,0:0:0:0:
157,130,35148,1,0,0:0:0:0:
97,134,35296,1,8,0:0:0:0:
97,134,35443,1,8,0:0:0:0:
97,134,35590,1,0,0:0:0:0:
108,143,35884,1,8,0:0:0:0:
108,143,36472,1,8,0:0:0:0:
108,143,36766,1,0,0:0:0:0:
108,143,37060,1,8,0:0:0:0:
120,145,37354,1,0,0:0:0:0:
120,145,37501,1,0,0:0:0:0:
118,143,37648,1,8,0:0:0:0:
233,132,37943,1,0,0:0:0:0:
233,132,38237,1,8,0:0:0:0:
233,132,38531,1,0,0:0:0:0:
209,223,38678,1,8,0:0:0:0:
233,132,38825,1,0,0:0:0:0:
209,223,39119,1,8,0:0:0:0:
209,223,39413,1,0,0:0:0:0:
204,226,39707,1,8,0:0:0:0:
204,226,39854,1,0,0:0:0:0:
204,226,40001,1,8,0:0:0:0:
204,226,40148,1,8,0:0:0:0:
195,217,40296,1,0,0:0:0:0:
197,219,40590,1,8,0:0:0:0:
195,219,41178,1,8,0:0:0:0:
197,219,41472,1,0,0:0:0:0:
187,220,41766,1,8,0:0:0:0:
187,219,42060,1,0,0:0:0:0:
187,219,42207,1,0,0:0:0:0:
186,219,42354,1,8,0:0:0:0:
142,163,42648,5,12,0:0:0:0:
155,152,42943,1,8,0:0:0:0:
157,151,43384,1,0,0:0:0:0:
157,151,43531,1,8,0:0:0:0:
164,145,43678,1,0,0:0:0:0:
163,149,43825,1,0,0:0:0:0:
152,155,43972,1,8,0:0:0:0:
144,146,44119,1,0,0:0:0:0:
151,141,44266,1,8,0:0:0:0:
211,110,44560,1,0,0:0:0:0:
211,110,44707,1,8,0:0:0:0:
198,104,44854,1,8,0:0:0:0:
202,103,45001,1,0,0:0:0:0:
169,176,45148,1,0,0:0:0:0:
169,176,45296,1,8,0:0:0:0:
176,176,45590,1,0,0:0:0:0:
176,176,45737,1,8,0:0:0:0:
131,180,46031,1,0,0:0:0:0:
131,180,46178,1,8,0:0:0:0:
131,180,46472,1,0,0:0:0:0:
131,180,46619,1,8,0:0:0:0:
131,180,46913,1,0,0:0:0:0:
131,180,47060,1,0,0:0:0:0:
131,180,47207,1,0,0:0:0:0:
102,179,47354,5,8,0:0:0:0:
256,192,47648,12,0,48825,0:0:0:0:
253,173,49119,5,0,0:0:0:0:
147,171,49707,5,12,0:0:0:0:
152,172,50001,1,0,0:0:0:0:
167,180,50148,1,8,0:0:0:0:
169,180,50296,1,0,0:0:0:0:
169,180,50369,1,8,0:0:0:0:
169,180,50443,1,0,0:0:0:0:
169,180,50516,1,0,0:0:0:0:
169,180,50590,1,8,0:0:0:0:
169,180,50737,1,0,0:0:0:0:
193,132,50884,1,8,0:0:0:0:
193,132,50957,1,8,0:0:0:0:
193,132,51031,1,8,0:0:0:0:
185,129,51178,1,0,0:0:0:0:
185,129,51325,1,8,0:0:0:0:
193,145,51472,1,0,0:0:0:0:
191,145,51546,1,0,0:0:0:0:
193,145,51619,1,0,0:0:0:0:
195,148,51693,1,0,0:0:0:0:
209,154,51766,1,8,0:0:0:0:
165,205,51913,1,0,0:0:0:0:
220,163,52060,1,12,0:0:0:0:
221,157,53531,1,4,0:0:0:0:
221,157,53825,1,4,0:0:0:0:
221,157,54119,1,4,0:0:0:0:
221,157,54413,1,12,0:0:0:0:
253,152,54707,1,0,0:0:0:0:
253,152,54854,1,8,0:0:0:0:
264,144,55001,1,0,0:0:0:0:
256,148,55075,1,0,0:0:0:0:
189,159,55148,1,8,0:0:0:0:
189,159,55296,1,0,0:0:0:0:
189,159,55369,1,8,0:0:0:0:
189,159,55443,1,0,0:0:0:0:
189,159,55516,1,0,0:0:0:0:
189,159,55590,1,8,0:0:0:0:
189,159,55737,1,0,0:0:0:0:
189,159,55884,1,8,0:0:0:0:
228,138,55957,1,8,0:0:0:0:
189,159,56031,1,8,0:0:0:0:
222,137,56178,1,0,0:0:0:0:
203,136,56251,1,0,0:0:0:0:
205,133,56325,1,8,0:0:0:0:
204,136,56398,1,8,0:0:0:0:
208,132,56472,1,0,0:0:0:0:
184,152,56619,1,8,0:0:0:0:
209,168,56766,1,0,0:0:0:0:
209,168,56913,1,8,0:0:0:0:
209,168,57060,1,0,0:0:0:0:
209,168,57207,1,0,0:0:0:0:
208,163,57354,1,8,0:0:0:0:
211,162,57501,1,0,0:0:0:0:
213,164,57796,1,12,0:0:0:0:
232,185,58090,1,0,0:0:0:0:
232,185,58237,1,8,0:0:0:0:
260,170,58531,1,0,0:0:0:0:
260,170,58678,1,8,0:0:0:0:
260,170,58751,1,8,0:0:0:0:
260,170,58825,1,0,0:0:0:0:
260,170,58898,1,8,0:0:0:0:
260,170,58972,1,0,0:0:0:0:
260,170,59046,1,0,0:0:0:0:
113,199,59119,1,8,0:0:0:0:
152,172,59413,1,12,0:0:0:0:
184,142,59560,1,0,0:0:0:0:
169,180,59707,1,8,0:0:0:0:
169,180,59781,1,0,0:0:0:0:
169,180,59854,1,8,0:0:0:0:
169,180,59928,1,8,0:0:0:0:
169,180,60001,1,0,0:0:0:0:
169,180,60148,1,8,0:0:0:0:
193,132,60296,1,0,0:0:0:0:
193,132,60369,1,0,0:0:0:0:
193,132,60443,1,8,0:0:0:0:
185,129,60590,1,0,0:0:0:0:
185,129,60737,1,8,0:0:0:0:
193,145,60884,1,0,0:0:0:0:
191,145,60957,1,8,0:0:0:0:
193,145,61031,1,0,0:0:0:0:
195,148,61104,1,0,0:0:0:0:
209,154,61178,1,8,0:0:0:0:
218,153,61325,1,0,0:0:0:0:
151,139,61472,1,8,0:0:0:0:
151,139,61546,1,8,0:0:0:0:
151,139,61619,1,0,0:0:0:0:
151,139,61766,1,8,0:0:0:0:
125,135,61913,1,0,0:0:0:0:
147,127,62060,1,8,0:0:0:0:
127,134,62134,1,8,0:0:0:0:
147,127,62207,1,8,0:0:0:0:
147,127,62354,1,0,0:0:0:0:
135,141,62428,1,8,0:0:0:0:
135,141,62501,1,8,0:0:0:0:
135,141,62575,1,8,0:0:0:0:
135,141,62648,1,0,0:0:0:0:
141,130,62796,1,8,0:0:0:0:
213,97,62943,1,0,0:0:0:0:
213,97,63016,1,0,0:0:0:0:
213,97,63090,1,0,0:0:0:0:
165,169,63163,1,0,0:0:0:0:
213,97,63237,1,8,0:0:0:0:
213,97,63384,1,0,0:0:0:0:
214,134,63531,1,8,0:0:0:0:
214,134,63604,1,8,0:0:0:0:
222,95,63678,1,0,0:0:0:0:
273,170,63825,1,12,0:0:0:0:
273,170,64119,1,0,0:0:0:0:
273,170,64266,1,8,0:0:0:0:
273,170,64413,1,0,0:0:0:0:
273,170,64487,1,0,0:0:0:0:
267,152,64560,1,0,0:0:0:0:
268,151,64707,1,8,0:0:0:0:
268,151,64781,1,0,0:0:0:0:
268,151,64854,1,8,0:0:0:0:
268,151,64928,1,8,0:0:0:0:
268,151,65001,1,0,0:0:0:0:
263,145,65148,1,8,0:0:0:0:
266,143,65296,1,0,0:0:0:0:
266,143,65443,1,0,0:0:0:0:
265,143,65590,1,8,0:0:0:0:
265,145,65663,1,8,0:0:0:0:
268,151,65737,1,0,0:0:0:0:
268,151,65810,1,8,0:0:0:0:
268,151,65884,1,8,0:0:0:0:
268,151,65957,1,8,0:0:0:0:
261,148,66031,1,0,0:0:0:0:
238,128,66178,1,12,0:0:0:0:
162,152,66472,1,0,0:0:0:0:
162,152,66619,1,8,0:0:0:0:
255,127,66693,1,8,0:0:0:0:
249,120,66766,1,8,0:0:0:0:
162,152,66913,1,0,0:0:0:0:
157,150,67060,1,0,0:0:0:0:
162,152,67207,1,8,0:0:0:0:
162,152,67501,1,8,0:0:0:0:
162,152,67648,1,0,0:0:0:0:
162,152,67796,1,0,0:0:0:0:
162,152,67943,1,8,0:0:0:0:
157,150,68090,1,8,0:0:0:0:
162,152,68237,1,0,0:0:0:0:
162,152,68384,1,8,0:0:0:0:
113,199,68531,1,0,0:0:0:0:
152,172,68825,1,12,0:0:0:0:
167,180,68972,1,0,0:0:0:0:
169,180,69119,1,8,0:0:0:0:
169,180,69193,1,0,0:0:0:0:
169,180,69266,1,0,0:0:0:0:
169,180,69340,1,0,0:0:0:0:
169,180,69413,1,8,0:0:0:0:
169,180,69560,1,0,0:0:0:0:
193,132,69707,1,8,0:0:0:0:
193,132,69781,1,8,0:0:0:0:
193,132,69854,1,8,0:0:0:0:
185,129,70001,1,0,0:0:0:0:
185,129,70148,1,8,0:0:0:0:
193,145,70296,1,0,0:0:0:0:
191,145,70369,1,0,0:0:0:0:
193,145,70443,1,8,0:0:0:0:
195,148,70516,1,8,0:0:0:0:
209,154,70590,1,0,0:0:0:0:
218,153,70737,1,8,0:0:0:0:
151,139,70884,1,0,0:0:0:0:
151,139,70957,1,0,0:0:0:0:
151,139,71031,1,8,0:0:0:0:
151,139,71178,1,0,0:0:0:0:
125,135,71325,1,0,0:0:0:0:
147,127,71472,1,8,0:0:0:0:
127,134,71546,1,8,0:0:0:0:
147,127,71619,1,0,0:0:0:0:
147,127,71766,1,8,0:0:0:0:
135,141,71840,1,0,0:0:0:0:
135,141,71913,1,8,0:0:0:0:
135,141,71987,1,8,0:0:0:0:
135,141,72060,1,0,0:0:0:0:
141,130,72207,1,8,0:0:0:0:
213,97,72354,1,0,0:0:0:0:
213,97,72428,1,8,0:0:0:0:
213,97,72501,1,0,0:0:0:0:
165,169,72575,1,0,0:0:0:0:
213,97,72648,1,8,0:0:0:0:
213,97,72796,1,0,0:0:0:0:
214,134,72943,1,8,0:0:0:0:
214,134,73016,1,8,0:0:0:0:
222,95,73090,1,0,0:0:0:0:
273,170,73237,1,12,0:0:0:0:
253,152,73531,1,0,0:0:0:0:
253,152,73678,1,0,0:0:0:0:
264,144,73825,1,8,0:0:0:0:
256,148,73898,1,8,0:0:0:0:
189,159,73972,1,0,0:0:0:0:
189,159,74119,1,8,0:0:0:0:
189,159,74193,1,0,0:0:0:0:
189,159,74266,1,8,0:0:0:0:
189,159,74340,1,8,0:0:0:0:
189,159,74413,1,0,0:0:0:0:
189,159,74560,1,8,0:0:0:0:
189,159,74707,1,0,0:0:0:0:
228,138,74781,1,0,0:0:0:0:
189,159,74854,1,8,0:0:0:0:
222,137,75001,1,0,0:0:0:0:
203,136,75075,1,0,0:0:0:0:
205,133,75148,1,8,0:0:0:0:
204,136,75222,1,8,0:0:0:0:
208,132,75296,1,0,0:0:0:0:
184,152,75443,1,8,0:0:0:0:
209,168,75590,1,0,0:0:0:0:
209,168,75737,1,8,0:0:0:0:
209,168,75884,1,0,0:0:0:0:
209,168,76031,1,0,0:0:0:0:
208,163,76178,1,8,0:0:0:0:
211,162,76325,1,0,0:0:0:0:
213,164,76619,1,12,0:0:0:0:
232,185,76913,1,0,0:0:0:0:
232,185,77060,1,8,0:0:0:0:
260,170,77354,1,0,0:0:0:0:
260,170,77501,1,8,0:0:0:0:
260,170,77575,1,0,0:0:0:0:
260,170,77648,1,8,0:0:0:0:
260,170,77722,1,8,0:0:0:0:
260,170,77796,1,0,0:0:0:0:
260,170,77869,1,8,0:0:0:0:
113,199,77943,1,0,0:0:0:0:
152,172,78237,1,12,0:0:0:0:
167,180,78384,1,0,0:0:0:0:
169,180,78531,1,8,0:0:0:0:
169,180,78604,1,8,0:0:0:0:
169,180,78678,1,8,0:0:0:0:
169,180,78751,1,8,0:0:0:0:
169,180,78825,1,0,0:0:0:0:
169,180,78972,1,8,0:0:0:0:
193,132,79119,1,0,0:0:0:0:
193,132,79193,1,0,0:0:0:0:
193,132,79266,1,8,0:0:0:0:
185,129,79413,1,0,0:0:0:0:
185,129,79560,1,0,0:0:0:0:
193,145,79707,1,8,0:0:0:0:
191,145,79781,1,8,0:0:0:0:
193,145,79854,1,0,0:0:0:0:
195,148,79928,1,0,0:0:0:0:
209,154,80001,1,8,0:0:0:0:
218,153,80148,1,0,0:0:0:0:
151,139,80296,1,8,0:0:0:0:
151,139,80369,1,8,0:0:0:0:
151,139,80443,1,8,0:0:0:0:
151,139,80590,1,0,0:0:0:0:
125,135,80737,1,8,0:0:0:0:
147,127,80884,1,0,0:0:0:0:
127,134,80957,1,0,0:0:0:0:
147,127,81031,1,8,0:0:0:0:
147,127,81178,1,0,0:0:0:0:
135,141,81251,1,8,0:0:0:0:
135,141,81325,1,8,0:0:0:0:
135,141,81398,1,8,0:0:0:0:
135,141,81472,1,0,0:0:0:0:
141,130,81619,1,8,0:0:0:0:
213,97,81766,1,0,0:0:0:0:
213,97,81840,1,8,0:0:0:0:
213,97,81913,1,0,0:0:0:0:
165,169,81987,1,0,0:0:0:0:
213,97,82060,1,8,0:0:0:0:
213,97,82207,1,0,0:0:0:0:
214,134,82354,1,8,0:0:0:0:
214,134,82428,1,8,0:0:0:0:
222,95,82501,1,0,0:0:0:0:
273,170,82648,1,12,0:0:0:0:
273,170,82943,1,0,0:0:0:0:
273,170,83090,1,8,0:0:0:0:
273,170,83237,1,0,0:0:0:0:
273,170,83310,1,0,0:0:0:0:
267,152,83384,1,8,0:0:0:0:
268,151,83531,1,0,0:0:0:0:
193,134,83604,1,0,0:0:0:0:
204,108,83678,1,0,0:0:0:0:
268,151,83751,1,0,0:0:0:0:
268,151,83825,1,8,0:0:0:0:
263,145,83972,1,0,0:0:0:0:
238,85,84119,1,8,0:0:0:0:
233,97,84266,1,0,0:0:0:0:
233,97,84340,1,0,0:0:0:0:
214,106,84413,1,8,0:0:0:0:
215,105,84560,1,8,0:0:0:0:
221,105,84707,1,8,0:0:0:0:
176,85,84854,1,8,0:0:0:0:
197,136,85737,1,0,0:0:0:0:
197,136,85884,1,8,0:0:0:0:
197,136,86031,1,8,0:0:0:0:
195,203,86178,1,0,0:0:0:0:
195,203,86472,1,0,0:0:0:0:
197,136,86913,1,8,0:0:0:0:
197,136,87060,1,0,0:0:0:0:
197,136,87207,1,0,0:0:0:0:
195,203,87354,1,8,0:0:0:0:
195,203,87649,1,0,0:0:0:0:
197,136,88090,5,0,0:0:0:0:
202,132,88237,1,8,0:0:0:0:
202,132,88335,1,0,0:0:0:0:
55,152,88433,1,0,0:0:0:0:
195,203,88531,1,8,0:0:0:0:
195,203,88825,1,8,0:0:0:0:
193,102,89119,5,8,0:0:0:0:
193,102,89193,1,8,0:0:0:0:
206,122,89266,1,8,0:0:0:0:
202,165,89413,1,8,0:0:0:0:
216,122,89707,1,0,0:0:0:0:
238,127,90001,1,8,0:0:0:0:
216,122,90443,1,0,0:0:0:0:
243,128,90590,1,8,0:0:0:0:
209,105,90737,1,8,0:0:0:0:
153,159,90884,1,0,0:0:0:0:
243,128,91178,1,8,0:0:0:0:
251,97,91619,1,0,0:0:0:0:
243,128,91766,1,8,0:0:0:0:
176,145,91913,1,0,0:0:0:0:
243,128,92060,1,0,0:0:0:0:
243,128,92354,1,8,0:0:0:0:
227,121,92796,1,8,0:0:0:0:
243,128,92943,1,8,0:0:0:0:
227,120,93041,1,0,0:0:0:0:
81,145,93139,1,0,0:0:0:0:
81,145,93237,1,8,0:0:0:0:
243,128,93531,1,8,0:0:0:0:
243,128,93825,1,0,0:0:0:0:
224,105,93972,1,8,0:0:0:0:
243,128,94119,1,0,0:0:0:0:
233,132,94413,1,0,0:0:0:0:
233,132,94707,1,8,0:0:0:0:
233,132,95001,1,8,0:0:0:0:
236,199,95075,1,8,0:0:0:0:
209,223,95148,1,0,0:0:0:0:
236,199,95296,1,8,0:0:0:0:
236,199,95443,1,0,0:0:0:0:
209,223,95590,1,8,0:0:0:0:
209,223,95884,1,0,0:0:0:0:
204,226,96178,1,8,0:0:0:0:
204,226,96325,1,0,0:0:0:0:
204,226,96472,1,8,0:0:0:0:
204,226,96619,1,8,0:0:0:0:
195,217,96766,1,0,0:0:0:0:
197,219,97060,1,8,0:0:0:0:
195,219,97648,1,8,0:0:0:0:
197,219,97943,1,0,0:0:0:0:
187,220,98237,1,8,0:0:0:0:
187,219,98531,1,0,0:0:0:0:
187,219,98678,1,0,0:0:0:0:
186,219,98825,1,8,0:0:0:0:
165,221,99119,1,0,0:0:0:0:
171,223,99413,1,8,0:0:0:0:
173,223,99707,1,0,0:0:0:0:
173,223,99854,1,0,0:0:0:0:
120,190,100001,1,8,0:0:0:0:
120,190,100296,1,0,0:0:0:0:
120,190,100590,1,8,0:0:0:0:
117,199,100884,1,0,0:0:0:0:
157,130,101031,1,0,0:0:0:0:
97,134,101178,1,8,0:0:0:0:
97,134,101325,1,8,0:0:0:0:
97,134,101472,1,0,0:0:0:0:
108,143,101766,1,8,0:0:0:0:
108,143,102354,1,8,0:0:0:0:
108,143,102648,1,0,0:0:0:0:
108,143,102943,1,8,0:0:0:0:
120,145,103237,1,0,0:0:0:0:
120,145,103384,1,0,0:0:0:0:
118,143,103531,1,8,0:0:0:0:
233,132,103825,1,8,0:0:0:0:
233,132,104119,1,8,0:0:0:0:
233,132,104413,1,0,0:0:0:0:
209,223,104560,1,8,0:0:0:0:
233,132,104707,1,0,0:0:0:0:
209,223,105001,1,8,0:0:0:0:
209,223,105296,1,0,0:0:0:0:
204,226,105590,1,8,0:0:0:0:
204,226,105737,1,0,0:0:0:0:
204,226,105884,1,8,0:0:0:0:
204,226,106031,1,8,0:0:0:0:
195,217,106178,1,0,0:0:0:0:
197,219,106472,1,8,0:0:0:0:
195,219,107060,1,8,0:0:0:0:
197,219,107354,1,0,0:0:0:0:
187,220,107648,1,8,0:0:0:0:
170,195,108090,1,0,0:0:0:0:
170,195,108237,1,8,0:0:0:0:
165,221,108531,1,0,0:0:0:0:
171,223,108825,1,8,0:0:0:0:
173,223,109266,1,0,0:0:0:0:
120,190,109413,1,8,0:0:0:0:
120,190,109707,1,0,0:0:0:0:
120,190,110001,1,8,0:0:0:0:
117,199,110296,1,0,0:0:0:0:
157,130,110443,1,0,0:0:0:0:
97,134,110590,1,8,0:0:0:0:
187,203,110737,1,8,0:0:0:0:
97,134,110884,1,0,0:0:0:0:
108,143,111178,1,8,0:0:0:0:
108,143,111766,1,8,0:0:0:0:
108,143,112060,1,0,0:0:0:0:
108,143,112354,1,8,0:0:0:0:
120,145,112648,1,0,0:0:0:0:
120,145,112796,1,0,0:0:0:0:
118,143,112943,1,8,0:0:0:0:
233,132,113237,1,8,0:0:0:0:
224,198,113531,1,8,0:0:0:0:
209,203,113825,1,0,0:0:0:0:
174,207,113898,1,0,0:0:0:0:
211,204,113972,1,8,0:0:0:0:
213,199,114119,1,0,0:0:0:0:
213,199,114266,1,8,0:0:0:0:
213,199,114413,1,0,0:0:0:0:
174,207,114707,1,8,0:0:0:0:
158,212,115001,1,8,0:0:0:0:
149,211,115075,1,8,0:0:0:0:
155,212,115148,1,0,0:0:0:0:
149,211,115296,1,8,0:0:0:0:
149,211,115443,1,8,0:0:0:0:
160,212,115590,1,0,0:0:0:0:
158,212,115884,1,8,0:0:0:0:
147,216,116178,1,8,0:0:0:0:
145,216,116325,1,0,0:0:0:0:
138,199,116472,1,8,0:0:0:0:
207,158,116546,1,8,0:0:0:0:
144,219,116619,1,8,0:0:0:0:
207,158,116766,1,0,0:0:0:0:
199,142,117060,1,8,0:0:0:0:
207,158,117354,1,0,0:0:0:0:
209,144,117501,1,0,0:0:0:0:
208,144,117648,1,8,0:0:0:0:
142,172,117943,1,0,0:0:0:0:
142,172,118237,1,8,0:0:0:0:
142,172,118531,1,0,0:0:0:0:
142,172,118604,1,0,0:0:0:0:
145,168,118678,1,0,0:0:0:0:
144,165,118825,1,8,0:0:0:0:
144,165,118972,1,8,0:0:0:0:
214,176,119119,1,0,0:0:0:0:
220,207,119413,1,8,0:0:0:0:
220,207,119707,1,8,0:0:0:0:
220,207,119781,1,8,0:0:0:0:
220,207,119854,1,0,0:0:0:0:
220,207,120001,1,8,0:0:0:0:
220,207,120148,1,8,0:0:0:0:
220,207,120296,1,0,0:0:0:0:
220,207,120590,1,8,0:0:0:0:
268,172,120884,1,8,0:0:0:0:
215,205,121031,1,0,0:0:0:0:
220,207,121178,1,8,0:0:0:0:
268,172,121251,1,8,0:0:0:0:
268,172,121325,1,8,0:0:0:0:
268,172,121472,1,0,0:0:0:0:
268,172,121766,1,8,0:0:0:0:
295,196,122060,1,0,0:0:0:0:
295,196,122207,1,0,0:0:0:0:
295,196,122354,1,8,0:0:0:0:
233,132,122648,1,0,0:0:0:0:
224,198,122943,1,8,0:0:0:0:
209,203,123237,1,0,0:0:0:0:
174,207,123310,1,0,0:0:0:0:
211,204,123384,1,8,0:0:0:0:
213,199,123531,1,0,0:0:0:0:
213,199,123678,1,8,0:0:0:0:
213,199,123825,1,0,0:0:0:0:
174,207,124119,1,8,0:0:0:0:
158,212,124413,1,8,0:0:0:0:
149,211,124487,1,8,0:0:0:0:
155,212,124560,1,0,0:0:0:0:
149,211,124707,1,8,0:0:0:0:
149,211,124854,1,8,0:0:0:0:
160,212,125001,1,0,0:0:0:0:
158,212,125296,1,8,0:0:0:0:
147,216,125590,1,8,0:0:0:0:
145,216,125737,1,0,0:0:0:0:
138,199,125884,1,8,0:0:0:0:
207,158,125957,1,8,0:0:0:0:
144,219,126031,1,8,0:0:0:0:
207,158,126178,1,0,0:0:0:0:
199,142,126472,1,8,0:0:0:0:
207,158,126766,1,0,0:0:0:0:
209,144,126913,1,0,0:0:0:0:
208,144,127060,1,8,0:0:0:0:
142,172,127354,1,12,0:0:0:0:
155,152,127648,1,8,0:0:0:0:
157,151,128090,1,0,0:0:0:0:
157,151,128237,1,8,0:0:0:0:
164,145,128384,1,0,0:0:0:0:
163,149,128531,1,0,0:0:0:0:
152,155,128678,1,8,0:0:0:0:
144,146,128825,1,0,0:0:0:0:
149,155,128972,1,8,0:0:0:0:
211,110,129266,1,0,0:0:0:0:
211,110,129413,1,8,0:0:0:0:
198,104,129560,1,8,0:0:0:0:
202,103,129707,1,0,0:0:0:0:
169,176,129854,1,0,0:0:0:0:
169,176,130001,1,8,0:0:0:0:
176,176,130296,1,0,0:0:0:0:
176,176,130443,1,8,0:0:0:0:
131,180,130737,1,0,0:0:0:0:
131,180,130884,1,8,0:0:0:0:
131,180,131178,1,0,0:0:0:0:
131,180,131325,1,8,0:0:0:0:
131,180,131619,1,0,0:0:0:0:
131,180,131766,1,0,0:0:0:0:
131,180,131913,1,0,0:0:0:0:
102,179,132060,5,8,0:0:0:0:
256,192,132354,12,0,133531,0:0:0:0:
100,185,133825,5,0,0:0:0:0:
147,171,134413,5,12,0:0:0:0:
152,172,134707,1,0,0:0:0:0:
167,180,134854,1,8,0:0:0:0:
169,180,135001,1,0,0:0:0:0:
169,180,135075,1,8,0:0:0:0:
169,180,135148,1,0,0:0:0:0:
169,180,135222,1,0,0:0:0:0:
169,180,135296,1,8,0:0:0:0:
169,180,135443,1,0,0:0:0:0:
193,132,135590,1,8,0:0:0:0:
193,132,135663,1,8,0:0:0:0:
193,132,135737,1,8,0:0:0:0:
185,129,135884,1,0,0:0:0:0:
185,129,136031,1,8,0:0:0:0:
193,145,136178,1,0,0:0:0:0:
191,145,136251,1,0,0:0:0:0:
193,145,136325,1,8,0:0:0:0:
195,148,136398,1,8,0:0:0:0:
209,154,136472,1,0,0:0:0:0:
218,153,136619,1,8,0:0:0:0:
220,163,136766,1,0,0:0:0:0:
221,187,136913,1,8,0:0:0:0:
221,188,137060,1,0,0:0:0:0:
222,188,137207,1,0,0:0:0:0:
224,188,137354,1,8,0:0:0:0:
221,187,137501,1,0,0:0:0:0:
201,182,137575,1,0,0:0:0:0:
221,187,137648,1,0,0:0:0:0:
201,182,137796,1,8,0:0:0:0:
201,185,138090,1,0,0:0:0:0:
221,157,138237,1,8,0:0:0:0:
228,183,138531,1,8,0:0:0:0:
173,108,138678,1,0,0:0:0:0:
173,108,138751,1,0,0:0:0:0:
173,108,138825,1,8,0:0:0:0:
173,108,138898,1,8,0:0:0:0:
173,108,138972,1,0,0:0:0:0:
164,105,139046,1,0,0:0:0:0:
173,108,139119,1,8,0:0:0:0:
253,152,139413,1,12,0:0:0:0:
253,152,139560,1,0,0:0:0:0:
264,144,139707,1,8,0:0:0:0:
256,148,139781,1,8,0:0:0:0:
189,159,139854,1,0,0:0:0:0:
189,159,140001,1,8,0:0:0:0:
189,159,140075,1,8,0:0:0:0:
189,159,140148,1,8,0:0:0:0:
189,159,140222,1,8,0:0:0:0:
189,159,140296,1,0,0:0:0:0:
189,159,140443,1,8,0:0:0:0:
189,159,140590,1,0,0:0:0:0:
228,138,140663,1,0,0:0:0:0:
189,159,140737,1,0,0:0:0:0:
222,137,140884,1,8,0:0:0:0:
203,136,140957,1,0,0:0:0:0:
205,133,141031,1,8,0:0:0:0:
204,136,141104,1,8,0:0:0:0:
208,132,141178,1,0,0:0:0:0:
184,152,141325,1,8,0:0:0:0:
209,168,141472,1,0,0:0:0:0:
209,168,141619,1,8,0:0:0:0:
209,168,141766,1,0,0:0:0:0:
209,168,141913,1,0,0:0:0:0:
208,163,142060,1,8,0:0:0:0:
211,162,142207,1,0,0:0:0:0:
213,164,142501,1,12,0:0:0:0:
232,185,142796,1,0,0:0:0:0:
232,185,142943,1,8,0:0:0:0:
260,170,143237,1,0,0:0:0:0:
260,170,143384,1,8,0:0:0:0:
260,170,143457,1,8,0:0:0:0:
260,170,143531,1,0,0:0:0:0:
260,170,143604,1,8,0:0:0:0:
260,170,143678,1,0,0:0:0:0:
260,170,143751,1,0,0:0:0:0:
113,199,143825,1,8,0:0:0:0:
152,172,144119,1,12,0:0:0:0:
167,180,144266,1,0,0:0:0:0:
169,180,144413,1,8,0:0:0:0:
169,180,144487,1,8,0:0:0:0:
169,180,144560,1,0,0:0:0:0:
169,180,144634,1,0,0:0:0:0:
169,180,144707,1,8,0:0:0:0:
169,180,144854,1,0,0:0:0:0:
193,132,145001,1,8,0:0:0:0:
193,132,145075,1,8,0:0:0:0:
193,132,145148,1,0,0:0:0:0:
185,129,145296,1,8,0:0:0:0:
185,129,145443,1,8,0:0:0:0:
193,145,145590,1,0,0:0:0:0:
191,145,145663,1,0,0:0:0:0:
193,145,145737,1,8,0:0:0:0:
195,148,145810,1,8,0:0:0:0:
209,154,145884,1,0,0:0:0:0:
218,153,146031,1,8,0:0:0:0:
151,139,146178,1,0,0:0:0:0:
151,139,146251,1,0,0:0:0:0:
151,139,146325,1,0,0:0:0:0:
151,139,146472,1,8,0:0:0:0:
125,135,146619,1,0,0:0:0:0:
147,127,146766,1,8,0:0:0:0:
127,134,146840,1,8,0:0:0:0:
147,127,146913,1,0,0:0:0:0:
147,127,147060,1,8,0:0:0:0:
135,141,147134,1,0,0:0:0:0:
135,141,147207,1,8,0:0:0:0:
135,141,147281,1,8,0:0:0:0:
135,141,147354,1,0,0:0:0:0:
141,130,147501,1,8,0:0:0:0:
213,97,147648,1,0,0:0:0:0:
213,97,147722,1,0,0:0:0:0:
213,97,147796,1,0,0:0:0:0:
165,169,147869,1,0,0:0:0:0:
213,97,147943,1,8,0:0:0:0:
213,97,148090,1,0,0:0:0:0:
214,134,148237,1,8,0:0:0:0:
214,134,148310,1,8,0:0:0:0:
222,95,148384,1,0,0:0:0:0:
273,170,148531,1,12,0:0:0:0:
273,170,148825,1,0,0:0:0:0:
273,170,148972,1,8,0:0:0:0:
273,170,149119,1,0,0:0:0:0:
273,170,149193,1,0,0:0:0:0:
267,152,149266,1,8,0:0:0:0:
268,151,149413,1,0,0:0:0:0:
268,151,149487,1,8,0:0:0:0:
268,151,149560,1,0,0:0:0:0:
268,151,149634,1,0,0:0:0:0:
268,151,149707,1,8,0:0:0:0:
263,145,149854,1,0,0:0:0:0:
266,143,150001,1,8,0:0:0:0:
266,143,150148,1,8,0:0:0:0:
265,143,150296,1,0,0:0:0:0:
265,145,150369,1,0,0:0:0:0:
268,151,150443,1,8,0:0:0:0:
268,151,150516,1,0,0:0:0:0:
226,210,150590,1,8,0:0:0:0:
268,151,150663,1,8,0:0:0:0:
261,148,150737,1,0,0:0:0:0:
238,128,150884,1,12,0:0:0:0:
162,152,151178,1,8,0:0:0:0:
282,126,151325,1,0,0:0:0:0:
282,126,151398,1,0,0:0:0:0:
282,126,151472,1,0,0:0:0:0:
282,126,151619,1,8,0:0:0:0:
277,133,151766,1,0,0:0:0:0:
162,152,151913,1,0,0:0:0:0:
187,69,152060,1,12,0:0:0:0:
162,152,152207,1,0,0:0:0:0:
162,152,152354,1,8,0:0:0:0:
162,152,152501,1,8,0:0:0:0:
162,152,152648,1,0,0:0:0:0:
157,150,152796,1,8,0:0:0:0:
162,152,152943,1,0,0:0:0:0:
162,152,153090,1,0,0:0:0:0:
113,199,153237,1,8,0:0:0:0:
151,171,153531,1,12,0:0:0:0:
167,180,153678,1,0,0:0:0:0:
169,180,153825,1,8,0:0:0:0:
169,180,153898,1,0,0:0:0:0:
169,180,153972,1,8,0:0:0:0:
169,180,154046,1,8,0:0:0:0:
169,180,154119,1,0,0:0:0:0:
169,180,154266,1,8,0:0:0:0:
193,132,154413,1,0,0:0:0:0:
193,132,154487,1,0,0:0:0:0:
193,132,154560,1,0,0:0:0:0:
185,129,154707,1,8,0:0:0:0:
185,129,154854,1,0,0:0:0:0:
193,145,155001,1,8,0:0:0:0:
191,145,155075,1,0,0:0:0:0:
193,145,155148,1,8,0:0:0:0:
195,148,155222,1,8,0:0:0:0:
209,154,155296,1,0,0:0:0:0:
218,153,155443,1,8,0:0:0:0:
151,139,155590,1,0,0:0:0:0:
151,139,155663,1,0,0:0:0:0:
151,139,155737,1,8,0:0:0:0:
151,139,155884,1,0,0:0:0:0:
125,135,156031,1,0,0:0:0:0:
147,127,156178,1,8,0:0:0:0:
127,134,156251,1,8,0:0:0:0:
147,127,156325,1,0,0:0:0:0:
147,127,156472,1,8,0:0:0:0:
135,141,156546,1,8,0:0:0:0:
135,141,156619,1,8,0:0:0:0:
135,141,156693,1,8,0:0:0:0:
135,141,156766,1,0,0:0:0:0:
141,130,156913,1,8,0:0:0:0:
213,97,157060,1,0,0:0:0:0:
213,97,157134,1,8,0:0:0:0:
213,97,157207,1,0,0:0:0:0:
165,169,157281,1,0,0:0:0:0:
213,97,157354,1,8,0:0:0:0:
213,97,157501,1,0,0:0:0:0:
214,134,157648,1,8,0:0:0:0:
214,134,157722,1,8,0:0:0:0:
222,95,157796,1,0,0:0:0:0:
273,170,157943,1,12,0:0:0:0:
253,152,158237,1,0,0:0:0:0:
253,152,158384,1,8,0:0:0:0:
264,144,158531,1,0,0:0:0:0:
256,148,158604,1,0,0:0:0:0:
189,159,158678,1,0,0:0:0:0:
189,159,158825,1,8,0:0:0:0:
189,159,158898,1,0,0:0:0:0:
189,159,158972,1,8,0:0:0:0:
189,159,159046,1,8,0:0:0:0:
189,159,159119,1,0,0:0:0:0:
189,159,159266,1,8,0:0:0:0:
189,159,159413,1,0,0:0:0:0:
228,138,159487,1,0,0:0:0:0:
189,159,159560,1,8,0:0:0:0:
222,137,159707,1,0,0:0:0:0:
203,136,159781,1,8,0:0:0:0:
205,133,159854,1,8,0:0:0:0:
204,136,159928,1,8,0:0:0:0:
208,132,160001,1,0,0:0:0:0:
209,168,160148,1,8,0:0:0:0:
184,152,160296,1,0,0:0:0:0:
209,168,160443,1,8,0:0:0:0:
209,168,160590,1,0,0:0:0:0:
209,168,160737,1,0,0:0:0:0:
208,163,160884,1,8,0:0:0:0:
211,162,161031,1,0,0:0:0:0:
213,164,161325,1,12,0:0:0:0:
232,185,161619,1,0,0:0:0:0:
232,185,161766,1,8,0:0:0:0:
260,170,162060,1,0,0:0:0:0:
260,170,162207,1,8,0:0:0:0:
260,170,162281,1,8,0:0:0:0:
260,170,162354,1,0,0:0:0:0:
260,170,162428,1,8,0:0:0:0:
260,170,162501,1,8,0:0:0:0:
260,170,162575,1,8,0:0:0:0:
113,199,162648,1,0,0:0:0:0:
152,172,162943,1,12,0:0:0:0:
167,180,163090,1,0,0:0:0:0:
169,180,163237,1,8,0:0:0:0:
169,180,163310,1,0,0:0:0:0:
169,180,163384,1,8,0:0:0:0:
169,180,163457,1,8,0:0:0:0:
169,180,163531,1,0,0:0:0:0:
169,180,163678,1,8,0:0:0:0:
193,132,163825,1,0,0:0:0:0:
193,132,163898,1,0,0:0:0:0:
193,132,163972,1,8,0:0:0:0:
185,129,164119,1,0,0:0:0:0:
185,129,164266,1,0,0:0:0:0:
193,145,164413,1,8,0:0:0:0:
191,145,164487,1,8,0:0:0:0:
193,145,164560,1,0,0:0:0:0:
195,148,164634,1,0,0:0:0:0:
209,154,164707,1,8,0:0:0:0:
218,153,164854,1,0,0:0:0:0:
151,139,165001,1,8,0:0:0:0:
151,139,165075,1,8,0:0:0:0:
151,139,165148,1,8,0:0:0:0:
151,139,165296,1,0,0:0:0:0:
125,135,165443,1,8,0:0:0:0:
147,127,165590,1,0,0:0:0:0:
127,134,165663,1,0,0:0:0:0:
147,127,165737,1,8,0:0:0:0:
147,127,165884,1,0,0:0:0:0:
135,141,165957,1,8,0:0:0:0:
135,141,166031,1,8,0:0:0:0:
135,141,166104,1,8,0:0:0:0:
135,141,166178,1,0,0:0:0:0:
141,130,166325,1,8,0:0:0:0:
213,97,166472,1,0,0:0:0:0:
213,97,166546,1,0,0:0:0:0:
213,97,166619,1,8,0:0:0:0:
165,169,166693,1,8,0:0:0:0:
213,97,166766,1,0,0:0:0:0:
213,97,166913,1,8,0:0:0:0:
214,134,167060,1,0,0:0:0:0:
214,134,167134,1,0,0:0:0:0:
222,95,167207,1,0,0:0:0:0:
273,170,167354,1,12,0:0:0:0:
273,170,167648,1,8,0:0:0:0:
273,170,167796,1,0,0:0:0:0:
273,170,167943,1,8,0:0:0:0:
273,170,168016,1,8,0:0:0:0:
267,152,168090,1,8,0:0:0:0:
268,151,168237,1,0,0:0:0:0:
193,134,168310,1,0,0:0:0:0:
204,108,168384,1,8,0:0:0:0:
268,151,168457,1,8,0:0:0:0:
268,151,168531,1,0,0:0:0:0:
263,145,168678,1,0,0:0:0:0:
238,85,168825,1,12,0:0:0:0:
214,106,169119,1,8,0:0:0:0:
215,105,169266,1,0,0:0:0:0:
221,105,169413,1,8,0:0:0:0:
220,107,169560,1,8,0:0:0:0:
213,176,172354,5,0,0:0:0:0:
227,180,172648,1,8,0:0:0:0:
229,179,172845,1,0,0:0:0:0:
219,181,172943,1,8,0:0:0:0:
220,181,173139,1,0,0:0:0:0:
220,180,173237,1,0,0:0:0:0:
231,182,173433,1,8,0:0:0:0:
240,181,173531,1,0,0:0:0:0:
242,181,173727,1,8,0:0:0:0:
244,181,174021,1,0,0:0:0:0:
244,181,174119,1,8,0:0:0:0:
242,183,174315,1,0,0:0:0:0:
262,174,174413,1,8,0:0:0:0:
262,175,174609,1,8,0:0:0:0:
262,175,174903,1,0,0:0:0:0:
182,194,175001,1,0,0:0:0:0:
193,198,175197,1,0,0:0:0:0:
190,197,175296,1,8,0:0:0:0:
198,206,175443,1,8,0:0:0:0:
245,182,175590,1,0,0:0:0:0:
333,128,175786,1,8,0:0:0:0:
260,152,175884,1,0,0:0:0:0:
278,162,176080,1,8,0:0:0:0:
278,162,176374,1,0,0:0:0:0:
260,152,176472,1,8,0:0:0:0:
231,150,176668,1,0,0:0:0:0:
264,153,176766,1,0,0:0:0:0:
242,156,176962,1,8,0:0:0:0:
242,156,177060,1,8,0:0:0:0:
267,159,177648,1,8,0:0:0:0:
286,166,177746,1,0,0:0:0:0:
286,165,177845,1,0,0:0:0:0:
285,168,177943,1,8,0:0:0:0:
286,166,178825,1,0,0:0:0:0:
344,130,179413,1,8,0:0:0:0:
293,119,180124,1,8,0:0:0:0:
293,119,180296,1,8,0:0:0:0:
293,119,180516,1,0,0:0:0:0:
236,168,181227,1,0,0:0:0:0:
256,161,181423,1,8,0:0:0:0:
334,161,181619,1,0,0:0:0:0:
158,182,181840,1,8,0:0:0:0:
329,143,182943,1,0,0:0:0:0:
393,142,183237,1,0,0:0:0:0:
212,189,183727,1,0,0:0:0:0:
212,189,183825,1,8,0:0:0:0:
330,176,184119,1,0,0:0:0:0:
334,174,184413,1,0,0:0:0:0:
214,203,184609,1,8,0:0:0:0:
215,203,184707,1,0,0:0:0:0:
218,205,184903,1,0,0:0:0:0:
218,205,185001,1,8,0:0:0:0:
218,205,185197,1,0,0:0:0:0:
214,203,185296,1,8,0:0:0:0:
207,206,185492,1,0,0:0:0:0:
206,206,185590,1,0,0:0:0:0:
211,205,185786,1,8,0:0:0:0:
290,171,186080,1,8,0:0:0:0:
257,195,187943,5,0,0:0:0:0:
339,78,188237,1,8,0:0:0:0:
339,78,188335,1,0,0:0:0:0:
339,78,188433,1,0,0:0:0:0:
339,78,188531,1,8,0:0:0:0:
310,196,188825,1,8,0:0:0:0:
301,195,189021,1,0,0:0:0:0:
301,195,189119,1,8,0:0:0:0:
280,187,189413,1,0,0:0:0:0:
281,187,189609,1,8,0:0:0:0:
281,187,189707,1,0,0:0:0:0:
280,187,189903,1,8,0:0:0:0:
280,187,190001,1,8,0:0:0:0:
267,182,190296,1,0,0:0:0:0:
247,249,190492,1,8,0:0:0:0:
247,249,190590,1,8,0:0:0:0:
247,249,190786,1,0,0:0:0:0:
247,249,190884,1,8,0:0:0:0:
247,249,191178,1,0,0:0:0:0:
241,246,191472,1,8,0:0:0:0:
241,246,191766,1,0,0:0:0:0:
241,246,191962,1,8,0:0:0:0:
239,245,192060,1,0,0:0:0:0:
241,246,192256,1,8,0:0:0:0:
241,246,192354,1,8,0:0:0:0:
241,246,192648,1,0,0:0:0:0:
137,202,192943,1,8,0:0:0:0:
137,202,193016,1,8,0:0:0:0:
137,202,193090,1,8,0:0:0:0:
339,78,193237,1,0,0:0:0:0:
310,196,193531,1,8,0:0:0:0:
301,195,193727,1,0,0:0:0:0:
301,195,193825,1,8,0:0:0:0:
280,187,194119,1,8,0:0:0:0:
281,187,194315,1,0,0:0:0:0:
281,187,194413,1,8,0:0:0:0:
280,187,194609,1,0,0:0:0:0:
280,187,194707,1,0,0:0:0:0:
267,182,195002,1,8,0:0:0:0:
247,249,195198,1,0,0:0:0:0:
247,249,195296,1,0,0:0:0:0:
247,249,195492,1,8,0:0:0:0:
247,249,195590,1,0,0:0:0:0:
247,249,195884,1,0,0:0:0:0:
241,246,196178,1,8,0:0:0:0:
238,141,196374,1,8,0:0:0:0:
241,246,196472,1,0,0:0:0:0:
241,246,196668,1,8,0:0:0:0:
239,245,196766,1,8,0:0:0:0:
241,246,196962,1,0,0:0:0:0:
241,246,197060,1,8,0:0:0:0:
241,246,197354,1,0,0:0:0:0:
137,202,197649,1,8,0:0:0:0:
137,202,197722,1,8,0:0:0:0:
137,202,197796,1,8,0:0:0:0:
100,165,197869,1,8,0:0:0:0:
339,78,197943,1,0,0:0:0:0:
310,196,198237,1,8,0:0:0:0:
301,195,198433,1,0,0:0:0:0:
301,195,198531,1,8,0:0:0:0:
280,187,198825,1,0,0:0:0:0:
281,187,199021,1,8,0:0:0:0:
281,187,199119,1,0,0:0:0:0:
280,187,199315,1,8,0:0:0:0:
280,187,199413,1,8,0:0:0:0:
267,182,199708,1,0,0:0:0:0:
247,249,199904,1,8,0:0:0:0:
247,249,200002,1,8,0:0:0:0:
247,249,200198,1,0,0:0:0:0:
247,249,200296,1,8,0:0:0:0:
247,249,200590,1,0,0:0:0:0:
241,246,200884,1,8,0:0:0:0:
241,246,201178,1,0,0:0:0:0:
241,246,201374,1,8,0:0:0:0:
239,245,201472,1,0,0:0:0:0:
241,246,201668,1,8,0:0:0:0:
241,246,201766,1,8,0:0:0:0:
241,246,202060,1,0,0:0:0:0:
137,202,202355,1,8,0:0:0:0:
137,202,202428,1,8,0:0:0:0:
137,202,202502,1,8,0:0:0:0:
312,141,202575,1,8,0:0:0:0:
339,78,202649,1,0,0:0:0:0:
310,196,202943,1,8,0:0:0:0:
301,195,203139,1,0,0:0:0:0:
301,195,203237,1,8,0:0:0:0:
280,187,203531,1,8,0:0:0:0:
281,187,203727,1,0,0:0:0:0:
281,187,203825,1,8,0:0:0:0:
280,187,204021,1,0,0:0:0:0:
280,187,204119,1,0,0:0:0:0:
260,136,204413,1,8,0:0:0:0:
230,160,204609,1,0,0:0:0:0:
230,160,204707,1,0,0:0:0:0:
230,160,204903,1,8,0:0:0:0:
91,208,205001,1,0,0:0:0:0:
256,192,206179,12,8,209119,0:0:0:0:
145,169,211472,5,0,0:0:0:0:
145,169,212060,5,12,0:0:0:0:
150,170,212354,1,0,0:0:0:0:
165,178,212501,1,8,0:0:0:0:
167,178,212648,1,0,0:0:0:0:
167,178,212722,1,0,0:0:0:0:
167,178,212796,1,8,0:0:0:0:
167,178,212869,1,8,0:0:0:0:
167,178,212943,1,0,0:0:0:0:
167,178,213090,1,8,0:0:0:0:
191,130,213237,1,0,0:0:0:0:
191,130,213310,1,0,0:0:0:0:
191,130,213384,1,0,0:0:0:0:
183,127,213531,1,8,0:0:0:0:
183,127,213678,1,0,0:0:0:0:
191,143,213825,1,8,0:0:0:0:
189,143,213898,1,0,0:0:0:0:
191,143,213972,1,0,0:0:0:0:
193,146,214046,1,0,0:0:0:0:
207,152,214119,1,8,0:0:0:0:
216,151,214266,1,0,0:0:0:0:
218,161,214413,1,12,0:0:0:0:
219,155,215884,1,4,0:0:0:0:
219,155,216178,1,4,0:0:0:0:
219,155,216472,1,4,0:0:0:0:
219,155,216766,1,12,0:0:0:0:
257,147,217060,1,0,0:0:0:0:
257,147,217207,1,0,0:0:0:0:
257,147,217354,1,8,0:0:0:0:
249,148,217501,1,0,0:0:0:0:
249,148,217648,1,8,0:0:0:0:
240,143,217796,1,8,0:0:0:0:
240,143,217943,1,0,0:0:0:0:
235,143,218678,1,0,0:0:0:0:
370,152,219119,1,0,0:0:0:0:
370,152,219266,1,8,0:0:0:0:
154,139,219413,1,0,0:0:0:0:
154,139,219560,1,8,0:0:0:0:
154,139,219707,1,8,0:0:0:0:
154,139,219854,1,0,0:0:0:0:
137,134,220148,1,8,0:0:0:0:
129,128,220443,1,0,0:0:0:0:
132,128,220590,1,12,0:0:0:0:
258,168,220884,1,0,0:0:0:0:
258,168,221031,1,8,0:0:0:0:
258,168,221104,1,0,0:0:0:0:
258,168,221178,1,8,0:0:0:0:
258,168,221251,1,8,0:0:0:0:
258,168,221325,1,0,0:0:0:0:
258,168,221398,1,0,0:0:0:0:
111,197,221472,1,8,0:0:0:0:
150,170,221766,1,12,0:0:0:0:
165,178,221913,1,0,0:0:0:0:
167,178,222060,1,8,0:0:0:0:
167,178,222134,1,8,0:0:0:0:
167,178,222207,1,0,0:0:0:0:
167,178,222281,1,0,0:0:0:0:
167,178,222354,1,8,0:0:0:0:
167,178,222501,1,0,0:0:0:0:
191,130,222648,1,8,0:0:0:0:
191,130,222722,1,8,0:0:0:0:
191,130,222796,1,8,0:0:0:0:
183,127,222943,1,0,0:0:0:0:
183,127,223090,1,8,0:0:0:0:
191,143,223237,1,0,0:0:0:0:
189,143,223310,1,0,0:0:0:0:
191,143,223384,1,8,0:0:0:0:
193,146,223457,1,8,0:0:0:0:
207,152,223531,1,0,0:0:0:0:
216,151,223678,1,8,0:0:0:0:
149,137,223825,1,0,0:0:0:0:
149,137,223898,1,0,0:0:0:0:
149,137,223972,1,8,0:0:0:0:
149,137,224119,1,0,0:0:0:0:
123,133,224266,1,8,0:0:0:0:
145,125,224413,1,0,0:0:0:0:
125,132,224487,1,0,0:0:0:0:
145,125,224560,1,0,0:0:0:0:
145,125,224707,1,8,0:0:0:0:
133,139,224781,1,0,0:0:0:0:
133,139,224854,1,8,0:0:0:0:
133,139,224928,1,8,0:0:0:0:
133,139,225001,1,0,0:0:0:0:
139,128,225148,1,8,0:0:0:0:
211,95,225296,1,0,0:0:0:0:
211,95,225369,1,8,0:0:0:0:
211,95,225443,1,0,0:0:0:0:
163,167,225516,1,0,0:0:0:0:
211,95,225590,1,8,0:0:0:0:
211,95,225737,1,0,0:0:0:0:
212,132,225884,1,8,0:0:0:0:
212,132,225957,1,8,0:0:0:0:
220,93,226031,1,0,0:0:0:0:
271,168,226178,1,12,0:0:0:0:
271,168,226472,1,0,0:0:0:0:
271,168,226619,1,8,0:0:0:0:
271,168,226766,1,0,0:0:0:0:
271,168,226840,1,0,0:0:0:0:
265,150,226913,1,8,0:0:0:0:
266,149,227060,1,0,0:0:0:0:
266,149,227134,1,0,0:0:0:0:
266,149,227207,1,8,0:0:0:0:
266,149,227281,1,8,0:0:0:0:
266,149,227354,1,0,0:0:0:0:
261,143,227501,1,8,0:0:0:0:
264,141,227648,1,8,0:0:0:0:
264,141,227796,1,0,0:0:0:0:
263,141,227943,1,8,0:0:0:0:
263,143,228016,1,8,0:0:0:0:
266,149,228090,1,0,0:0:0:0:
266,149,228163,1,8,0:0:0:0:
266,149,228237,1,8,0:0:0:0:
266,149,228310,1,8,0:0:0:0:
259,146,228384,1,0,0:0:0:0:
236,126,228531,1,12,0:0:0:0:
160,150,228825,1,0,0:0:0:0:
160,150,228972,1,8,0:0:0:0:
129,174,229046,1,8,0:0:0:0:
160,150,229119,1,8,0:0:0:0:
160,150,229266,1,0,0:0:0:0:
155,148,229413,1,8,0:0:0:0:
129,174,229487,1,8,0:0:0:0:
160,150,229560,1,0,0:0:0:0:
122,169,229707,1,8,0:0:0:0:
160,150,229854,1,0,0:0:0:0:
160,150,230001,1,8,0:0:0:0:
160,150,230148,1,8,0:0:0:0:
160,150,230296,1,0,0:0:0:0:
155,148,230443,1,8,0:0:0:0:
160,150,230590,1,0,0:0:0:0:
160,150,230737,1,0,0:0:0:0:
111,197,230884,1,8,0:0:0:0:
150,170,231178,1,12,0:0:0:0:
165,178,231325,1,0,0:0:0:0:
167,178,231472,1,8,0:0:0:0:
167,178,231546,1,0,0:0:0:0:
167,178,231619,1,8,0:0:0:0:
167,178,231693,1,8,0:0:0:0:
167,178,231766,1,0,0:0:0:0:
167,178,231913,1,8,0:0:0:0:
191,130,232060,1,0,0:0:0:0:
191,130,232134,1,0,0:0:0:0:
191,130,232207,1,8,0:0:0:0:
183,127,232354,1,0,0:0:0:0:
183,127,232501,1,0,0:0:0:0:
191,143,232648,1,8,0:0:0:0:
189,143,232722,1,0,0:0:0:0:
191,143,232796,1,8,0:0:0:0:
193,146,232869,1,8,0:0:0:0:
207,152,232943,1,0,0:0:0:0:
216,151,233090,1,8,0:0:0:0:
149,137,233237,1,0,0:0:0:0:
149,137,233310,1,0,0:0:0:0:
149,137,233384,1,0,0:0:0:0:
149,137,233531,1,8,0:0:0:0:
123,133,233678,1,0,0:0:0:0:
145,125,233825,1,8,0:0:0:0:
125,132,233898,1,8,0:0:0:0:
145,125,233972,1,0,0:0:0:0:
145,125,234119,1,8,0:0:0:0:
133,139,234193,1,0,0:0:0:0:
133,139,234266,1,8,0:0:0:0:
133,139,234340,1,8,0:0:0:0:
133,139,234413,1,0,0:0:0:0:
139,128,234560,1,8,0:0:0:0:
211,95,234707,1,0,0:0:0:0:
211,95,234781,1,0,0:0:0:0:
211,95,234854,1,0,0:0:0:0:
163,167,234928,1,0,0:0:0:0:
211,95,235001,1,8,0:0:0:0:
211,95,235148,1,0,0:0:0:0:
212,132,235296,1,8,0:0:0:0:
212,132,235369,1,8,0:0:0:0:
220,93,235443,1,0,0:0:0:0:
271,168,235590,1,12,0:0:0:0:
251,150,235884,1,0,0:0:0:0:
251,150,236031,1,8,0:0:0:0:
262,142,236178,1,0,0:0:0:0:
254,146,236251,1,0,0:0:0:0:
187,157,236325,1,0,0:0:0:0:
187,157,236472,1,8,0:0:0:0:
187,157,236546,1,0,0:0:0:0:
187,157,236619,1,8,0:0:0:0:
187,157,236693,1,8,0:0:0:0:
187,157,236766,1,0,0:0:0:0:
187,157,236913,1,8,0:0:0:0:
187,157,237060,1,0,0:0:0:0:
226,136,237134,1,0,0:0:0:0:
187,157,237207,1,8,0:0:0:0:
220,135,237354,1,0,0:0:0:0:
201,134,237428,1,8,0:0:0:0:
203,131,237501,1,8,0:0:0:0:
202,134,237575,1,8,0:0:0:0:
206,130,237648,1,0,0:0:0:0:
182,150,237796,1,8,0:0:0:0:
207,166,237943,1,0,0:0:0:0:
207,166,238090,1,8,0:0:0:0:
207,166,238237,1,0,0:0:0:0:
207,166,238384,1,0,0:0:0:0:
206,161,238531,1,8,0:0:0:0:
209,160,238678,1,0,0:0:0:0:
211,162,238972,1,12,0:0:0:0:
230,183,239266,1,0,0:0:0:0:
230,183,239413,1,8,0:0:0:0:
258,168,239707,1,0,0:0:0:0:
258,168,239854,1,8,0:0:0:0:
258,168,239928,1,8,0:0:0:0:
258,168,240001,1,0,0:0:0:0:
258,168,240075,1,0,0:0:0:0:
258,168,240148,1,8,0:0:0:0:
258,168,240222,1,8,0:0:0:0:
111,197,240296,1,0,0:0:0:0:
165,178,240590,1,12,0:0:0:0:
150,170,240737,1,0,0:0:0:0:
167,178,240884,1,8,0:0:0:0:
167,178,240957,1,0,0:0:0:0:
167,178,241031,1,8,0:0:0:0:
167,178,241104,1,8,0:0:0:0:
167,178,241178,1,0,0:0:0:0:
167,178,241325,1,8,0:0:0:0:
191,130,241472,1,0,0:0:0:0:
191,130,241546,1,0,0:0:0:0:
191,130,241619,1,8,0:0:0:0:
183,127,241766,1,0,0:0:0:0:
183,127,241913,1,0,0:0:0:0:
191,143,242060,1,8,0:0:0:0:
189,143,242134,1,8,0:0:0:0:
191,143,242207,1,0,0:0:0:0:
193,146,242281,1,0,0:0:0:0:
207,152,242354,1,8,0:0:0:0:
216,151,242501,1,0,0:0:0:0:
149,137,242648,1,8,0:0:0:0:
149,137,242722,1,8,0:0:0:0:
149,137,242796,1,8,0:0:0:0:
149,137,242943,1,0,0:0:0:0:
123,133,243090,1,8,0:0:0:0:
145,125,243237,1,0,0:0:0:0:
125,132,243310,1,0,0:0:0:0:
145,125,243384,1,0,0:0:0:0:
145,125,243531,1,8,0:0:0:0:
133,139,243604,1,8,0:0:0:0:
133,139,243678,1,8,0:0:0:0:
133,139,243751,1,8,0:0:0:0:
133,139,243825,1,0,0:0:0:0:
139,128,243972,1,8,0:0:0:0:
211,95,244119,1,0,0:0:0:0:
211,95,244193,1,0,0:0:0:0:
211,95,244266,1,0,0:0:0:0:
163,167,244340,1,0,0:0:0:0:
211,95,244413,1,8,0:0:0:0:
211,95,244560,1,0,0:0:0:0:
212,132,244707,1,8,0:0:0:0:
212,132,244781,1,8,0:0:0:0:
220,93,244854,1,0,0:0:0:0:
271,168,245001,1,12,0:0:0:0:
271,168,245296,1,0,0:0:0:0:
271,168,245443,1,8,0:0:0:0:
271,168,245590,1,0,0:0:0:0:
271,168,245663,1,0,0:0:0:0:
265,150,245737,1,8,0:0:0:0:
266,149,245884,1,0,0:0:0:0:
191,132,245957,1,8,0:0:0:0:
202,106,246031,1,0,0:0:0:0:
266,149,246104,1,0,0:0:0:0:
266,149,246178,1,8,0:0:0:0:
261,143,246325,1,0,0:0:0:0:
236,83,246472,1,8,0:0:0:0:
214,129,246546,1,8,0:0:0:0:
213,129,246619,1,8,0:0:0:0:
222,128,246766,1,0,0:0:0:0:
220,125,246840,1,0,0:0:0:0:
220,125,246913,1,8,0:0:0:0:
220,125,246987,1,8,0:0:0:0:
220,125,247060,1,8,0:0:0:0:
220,125,247134,1,8,0:0:0:0:
220,125,247207,1,0,0:0:0:0:
218,162,247354,1,12,0:0:0:0:
234,134,247648,1,0,0:0:0:0:
179,143,247796,1,8,0:0:0:0:
179,143,247869,1,8,0:0:0:0:
179,143,247943,1,8,0:0:0:0:
227,147,248090,1,0,0:0:0:0:
229,146,248237,1,8,0:0:0:0:
229,147,248384,1,0,0:0:0:0:
232,145,248457,1,0,0:0:0:0:
233,144,248531,1,8,0:0:0:0:
234,149,248604,1,8,0:0:0:0:
234,149,248678,1,0,0:0:0:0:
231,149,248825,1,8,0:0:0:0:
233,150,248898,1,8,0:0:0:0:
232,152,248972,1,0,0:0:0:0:
247,155,249119,1,8,0:0:0:0:
247,155,249266,1,0,0:0:0:0:
247,155,249413,1,8,0:0:0:0:
