osu file format v14

[General]
AudioFilename: audio.mp3
AudioLeadIn: 0
PreviewTime: 49411
Countdown: 0
SampleSet: Soft
StackLeniency: 0.7
Mode: 0
LetterboxInBreaks: 0
WidescreenStoryboard: 1

[Editor]
DistanceSpacing: 1
BeatDivisor: 4
GridSize: 32
TimelineZoom: 1.6

[Metadata]
Title:Haru (TV Size)
TitleUnicode:晴る (TV Size)
Artist:Yorushika
ArtistUnicode:ヨルシカ
Creator:alevi
Version:Sotarks' Expert
Source:葬送のフリーレン
Tags:sunny sousou no frieren beyond journey's journey end japanese rock jrock j-rock pop jpop j-pop anime op opening n-buna suis スイ female vocals vocalist [_lost_] conner c_o_n_n_e_r Sarawatlism arutama freezinganimenz centrak_ sotarks
BeatmapID:4445421
BeatmapSetID:2115164

[Difficulty]
HPDrainRate:5
CircleSize:3.8
OverallDifficulty:9
ApproachRate:9.2
SliderMultiplier:1.92
SliderTickRate:1

[Events]
//Background and Video events
0,0,"1341394 (1).jpeg",0,0
Video,250,"VD (1).mp4"
//Break Periods
//Storyboard Layer 0 (Background)
//Storyboard Layer 1 (Fail)
//Storyboard Layer 2 (Pass)
//Storyboard Layer 3 (Foreground)
//Storyboard Layer 4 (Overlay)
//Storyboard Sound Samples

[TimingPoints]
588,294.117647058824,4,2,6,30,1,0
9999,-100,4,2,1,50,0,0
10293,-138.888888888889,4,2,1,50,0,0
14411,-138.888888888889,4,2,2,50,0,0
14558,-138.888888888889,4,2,1,50,0,0
19117,-138.888888888889,4,2,2,50,0,0
19411,-138.888888888889,4,2,1,50,0,0
23823,-138.888888888889,4,2,3,50,0,0
25882,-138.888888888889,4,2,1,50,0,0
28529,-138.888888888889,4,2,2,50,0,0
28823,-138.888888888889,4,2,1,50,0,0
33235,-138.888888888889,4,2,2,50,0,0
33382,-138.888888888889,4,2,1,50,0,0
33455,-98.0392156862745,4,2,3,5,0,0
33529,-138.888888888889,4,2,1,50,0,0
37940,-138.888888888889,4,2,2,50,0,0
38087,-138.888888888889,4,2,1,50,0,0
42646,-138.888888888889,4,2,2,50,0,0
42867,-98.0392156862745,4,2,3,5,0,0
42940,-138.888888888889,4,2,2,50,0,0
43235,-108.695652173913,4,2,1,50,0,0
45588,-108.695652173913,4,2,2,60,0,0
45882,-108.695652173913,4,2,1,60,0,0
46470,-108.695652173913,4,2,2,60,0,0
46764,-108.695652173913,4,2,1,60,0,0
47058,-108.695652173913,4,2,4,60,0,0
47205,-108.695652173913,4,2,1,60,0,0
47646,-238.095238095239,4,2,1,60,0,0
49338,-98.0392156862745,4,2,3,5,0,0
49411,-192.307692307693,4,2,5,60,0,0
49779,-192.307692307693,4,2,5,5,0,0
49852,-121.951219512195,4,2,1,60,0,0
49999,-98.0392156862746,4,2,1,80,0,0
50293,-98.0392156862746,4,2,3,80,0,0
50588,-98.0392156862746,4,2,2,80,0,0
50735,-98.0392156862746,4,2,1,80,0,0
50882,-98.0392156862746,4,2,2,80,0,0
51396,-192.307692307693,4,2,5,5,0,0
51470,-98.0392156862746,4,2,3,80,0,0
51764,-98.0392156862746,4,2,2,80,0,0
51911,-98.0392156862746,4,2,1,80,0,0
52058,-98.0392156862746,4,2,2,80,0,0
52352,-98.0392156862746,4,2,1,80,0,0
53823,-75.7575757575758,4,2,1,80,0,0
54043,-192.307692307693,4,2,5,5,0,0
54117,-81.9672131147541,4,2,1,80,0,0
54338,-192.307692307693,4,2,5,5,0,0
54411,-89.2857142857143,4,2,1,80,0,0
54632,-192.307692307693,4,2,5,5,0,0
54705,-98.0392156862745,4,2,1,80,0,0
54999,-98.0392156862745,4,2,3,80,0,0
55293,-98.0392156862745,4,2,2,80,0,0
55440,-98.0392156862745,4,2,1,80,0,0
55588,-98.0392156862745,4,2,2,80,0,0
55882,-98.0392156862745,4,2,3,80,0,0
56176,-98.0392156862745,4,2,2,80,0,0
56323,-98.0392156862745,4,2,1,80,0,0
56470,-98.0392156862745,4,2,2,80,0,0
57352,-98.0392156862745,4,2,1,80,0,0
57793,-98.0392156862745,4,2,3,80,0,0
58014,-192.307692307693,4,2,5,5,0,0
58088,-98.0392156862745,4,2,1,80,0,0
58529,-98.0392156862745,4,2,3,80,0,0
58823,-98.0392156862745,4,2,2,80,0,0
59411,-98.0392156862745,4,2,1,80,0,0
59632,-192.307692307693,4,2,5,5,0,0
59705,-98.0392156862745,4,2,2,80,0,0
59999,-98.0392156862745,4,2,2,80,0,0
60146,-98.0392156862745,4,2,1,80,0,0
60293,-98.0392156862745,4,2,3,80,0,0
60588,-98.0392156862745,4,2,2,80,0,0
60882,-98.0392156862745,4,2,3,80,0,0
61176,-98.0392156862745,4,2,2,80,0,0
61470,-98.0392156862745,4,2,3,80,0,0
61764,-98.0392156862745,4,2,2,80,0,0
62205,-98.0392156862745,4,2,1,80,0,0
62352,-98.0392156862745,4,2,2,80,0,0
62940,-98.0392156862745,4,2,3,80,0,0
63161,-98.0392156862745,4,2,3,5,0,0
63235,-98.0392156862745,4,2,2,80,0,0
63382,-98.0392156862745,4,2,1,80,0,0
63529,-98.0392156862745,4,2,2,80,0,0
64117,-98.0392156862745,4,2,1,80,0,0
64411,-98.0392156862745,4,2,2,80,0,0
64558,-98.0392156862745,4,2,1,80,0,0
64705,-98.0392156862745,4,2,2,80,0,0
65293,-98.0392156862745,4,2,3,80,0,0
65514,-98.0392156862745,4,2,3,5,0,0
65588,-98.0392156862745,4,2,2,80,0,0
65735,-98.0392156862745,4,2,1,80,0,0
65882,-98.0392156862745,4,2,2,80,0,0
66176,-98.0392156862745,4,2,3,80,0,0
66323,-98.0392156862745,4,2,1,80,0,0
66470,291.970802919708,4,2,3,80,1,0
66470,-98.0392156862745,4,2,3,80,0,0
66764,-98.0392156862745,4,2,3,80,0,0
67053,272.727272727273,4,2,3,80,1,0
67325,315.789473684211,4,2,3,80,1,0
67482,-98.0392156862745,4,2,3,80,0,0
67640,295.275590551181,4,2,3,80,1,0
67935,-100,4,2,1,80,0,0
68821,294.117647058824,4,2,1,80,1,0
68821,-98.0392156862745,4,2,1,80,0,0
69041,-98.0392156862745,4,2,3,5,0,0
69115,-98.0392156862745,4,2,1,80,0,0
69409,-98.0392156862745,4,2,2,80,0,0
69556,-98.0392156862745,4,2,1,80,0,0
69703,-98.0392156862745,4,2,3,80,0,0
69997,-98.0392156862745,4,2,2,80,0,0
70291,-98.0392156862745,4,2,3,80,0,0
70585,-98.0392156862745,4,2,2,80,0,0
70732,-98.0392156862745,4,2,1,80,0,0
70879,-98.0392156862745,4,2,2,80,0,0
71615,-98.0392156862745,4,2,1,80,0,0
71762,-98.0392156862745,4,2,2,80,0,0
72350,-98.0392156862745,4,2,3,80,0,0
72644,-98.0392156862745,4,2,2,80,0,0
72791,-98.0392156862745,4,2,1,80,0,0
72938,-98.0392156862745,4,2,2,80,0,0
73453,-98.0392156862745,4,2,3,5,0,0
73526,-98.0392156862745,4,2,1,80,0,0
73821,-98.0392156862745,4,2,3,80,0,0
74115,-98.0392156862745,4,2,2,80,0,0
74262,-98.0392156862745,4,2,1,80,0,0
74409,-98.0392156862745,4,2,2,80,0,0
74703,-98.0392156862745,4,2,3,80,0,0
74997,-98.0392156862745,4,2,2,80,0,0
75144,-98.0392156862745,4,2,1,80,0,0
75291,-98.0392156862745,4,2,2,80,0,0
75879,-98.0392156862745,4,2,3,80,0,0
76173,-98.0392156862745,4,2,1,80,0,0
76468,-98.0392156862745,4,2,3,80,0,0
76835,-98.0392156862745,4,2,3,5,0,0
76909,-98.0392156862745,4,2,1,80,0,0
77350,-98.0392156862745,4,2,3,80,0,0
77644,-98.0392156862745,4,2,2,80,0,0
78232,-98.0392156862745,4,2,1,80,0,0
78453,-98.0392156862745,4,2,3,5,0,0
78526,-98.0392156862745,4,2,1,80,0,0
78821,-98.0392156862745,4,2,2,80,0,0
78968,-98.0392156862745,4,2,1,80,0,0
79115,-98.0392156862745,4,2,2,80,0,0
79703,-98.0392156862745,4,2,3,80,0,0
79997,-98.0392156862745,4,2,2,80,0,0
80144,-98.0392156862745,4,2,1,80,0,0
80291,-98.0392156862745,4,2,2,80,0,0
81026,-98.0392156862745,4,2,1,80,0,0
81173,-98.0392156862745,4,2,2,80,0,0
81762,-98.0392156862745,4,2,3,80,0,0
82056,-98.0392156862745,4,2,2,80,0,0
82203,-98.0392156862745,4,2,1,80,0,0
82350,-98.0392156862745,4,2,2,80,0,0
82938,-98.0392156862745,4,2,1,80,0,0
83232,-98.0392156862745,4,2,2,80,0,0
83379,-98.0392156862745,4,2,1,80,0,0
83526,-98.0392156862745,4,2,2,80,0,0
84115,-98.0392156862745,4,2,3,80,0,0
84409,-98.0392156862745,4,2,1,80,0,0
85291,-98.0392156862745,4,2,6,30,0,0

[Colours]
Combo1 : 210,210,210
Combo2 : 106,242,242
Combo3 : 19,153,217

[HitObjects]
256,192,5293,12,2,8823,2:0:0:0:
131,82,9999,5,2,1:2:0:0:
131,82,10293,2,0,P|145:152|150:239,1,138.24,8|2,2:0|2:0,2:0:0:0:
115,327,10735,1,0,2:0:0:0:
258,315,10882,2,0,P|215:296|179:289,1,69.1199999999999,10|0,2:0|2:0,2:0:0:0:
379,200,11176,5,2,1:2:0:0:
379,200,11470,2,0,P|338:237|244:212,1,138.24,8|2,2:0|2:0,2:0:0:0:
307,153,11911,1,2,1:2:0:0:
353,310,12058,1,10,2:0:0:0:
418,120,12205,1,8,2:0:0:0:
272,71,12352,5,0,1:0:0:0:
272,71,12646,2,0,P|196:76|125:92,1,138.24,10|0,2:0|2:0,2:0:0:0:
48,63,13088,1,0,2:0:0:0:
24,208,13235,2,0,P|36:169|39:134,1,69.1199999999999,10|0,2:0|2:0,2:0:0:0:
142,285,13529,5,0,1:0:0:0:
142,285,13823,2,0,P|167:229|113:177,1,138.24,10|2,2:0|2:0,2:0:0:0:
62,340,14264,1,0,1:0:0:0:
270,251,14411,2,0,P|217:232|184:226,1,69.1199999999999,10|2,2:0|2:0,2:0:0:0:
305,334,14705,5,2,1:2:0:0:
305,334,14999,2,0,L|329:168,1,138.24,8|2,2:0|2:0,2:0:0:0:
391,138,15440,1,0,2:0:0:0:
303,47,15588,2,0,L|319:125,1,69.1199999999999,10|0,2:0|2:0,2:0:0:0:
133,193,15882,5,2,1:2:0:0:
133,193,16176,2,0,P|183:148|248:165,1,138.24,8|2,2:0|2:0,2:0:0:0:
70,105,16617,1,2,1:2:0:0:
204,233,16764,1,10,2:0:0:0:
18,306,16911,1,8,2:0:0:0:
53,207,17058,5,0,1:0:0:0:
53,207,17352,2,0,P|56:279|68:365,1,138.24,8|0,2:0|2:0,2:0:0:0:
142,384,17793,1,0,2:0:0:0:
204,248,17940,2,0,P|141:258|107:266,1,69.1199999999999,10|0,2:0|2:0,2:0:0:0:
266,311,18235,6,0,P|303:254|253:187,1,138.24,0|10,1:0|2:0,2:0:0:0:
177,160,18676,1,0,2:0:0:0:
268,52,18823,2,0,P|252:107|246:138,1,69.1199999999999,2|0,2:0|1:0,2:0:0:0:
376,213,19117,2,0,P|367:179|357:146,1,69.1199999999999,10|0,2:0|2:0,2:0:0:0:
461,16,19411,5,2,1:2:0:0:
461,16,19705,2,0,P|418:33|389:39,1,69.1199999999999,8|0,2:0|2:0,2:0:0:0:
470,225,19999,2,0,P|476:155|497:76,1,138.24,2|10,2:0|2:0,2:0:0:0:
357,146,20440,1,0,2:0:0:0:
469,304,20588,5,2,1:2:0:0:
469,304,20882,2,0,P|418:316|389:325,1,69.1199999999999,8|0,2:0|2:0,2:0:0:0:
231,248,21176,2,0,P|282:260|311:269,1,69.1199999999999,2|0,1:2|2:0,2:0:0:0:
474,220,21470,1,10,2:0:0:0:
259,348,21617,1,8,2:0:0:0:
332,252,21764,5,0,1:0:0:0:
332,252,22058,2,0,P|326:201|330:104,1,138.24,8|0,2:0|2:0,2:0:0:0:
213,150,22499,1,0,2:0:0:0:
195,29,22646,2,0,P|238:39|266:50,1,69.1199999999999,10|0,2:0|2:0,2:0:0:0:
141,211,22940,6,0,P|104:154|146:82,2,138.24,0|8|0,1:0|2:0|2:0,2:0:0:0:
25,103,23676,1,0,1:0:0:0:
207,246,23823,2,0,P|142:259|91:278,1,103.68000253125,10|0,2:0|2:0,2:0:0:0:
86,280,24117,1,0,1:0:0:0:
362,69,24411,6,0,P|424:105|402:187,1,138.24,8|0,2:0|2:0,2:0:0:0:
378,250,24852,1,0,2:0:0:0:
265,168,24999,2,0,P|321:175|344:187,1,69.1199999999999,8|0,2:0|2:0,2:0:0:0:
304,328,25293,6,0,P|296:279|282:244,1,69.1199999999999,0|0,1:0|2:0,2:0:0:0:
211,84,25588,2,0,P|183:164|178:226,1,138.24,8|2,2:0|2:0,2:0:0:0:
96,60,26029,1,2,1:2:0:0:
171,242,26176,1,10,2:0:0:0:
313,82,26323,1,8,2:0:0:0:
182,8,26470,5,0,1:0:0:0:
182,8,26764,2,0,P|230:36|305:4,1,138.24,8|0,2:0|2:0,2:0:0:0:
382,41,27205,1,0,2:0:0:0:
331,171,27352,2,0,P|316:109|317:84,1,69.1199999999999,8|0,2:0|2:0,2:0:0:0:
415,229,27646,6,0,P|356:269|279:244,1,138.24,0|8,1:0|2:0,2:0:0:0:
233,178,28088,1,0,2:0:0:0:
194,323,28235,2,0,P|209:278|212:245,1,69.1199999999999,2|2,2:0|1:2,2:0:0:0:
129,89,28529,2,0,P|134:123|146:155,1,69.1199999999999,10|0,2:0|2:0,2:0:0:0:
63,257,28823,6,0,L|-21:283,1,69.1199999999999,2|0,1:2|2:0,2:0:0:0:
194,323,29117,2,0,L|260:343,1,69.1199999999999,8|0,2:0|2:0,2:0:0:0:
111,374,29411,1,2,2:0:0:0:
230,250,29558,1,0,2:0:0:0:
126,169,29705,2,0,L|151:253,1,69.1199999999999,10|0,2:0|2:0,2:0:0:0:
200,114,29999,6,0,P|164:74|85:78,2,138.24,2|8|2,1:2|2:0|2:0,2:0:0:0:
17,33,30735,1,2,1:2:0:0:
170,195,30882,1,10,2:0:0:0:
279,11,31029,1,8,2:0:0:0:
159,46,31176,5,0,1:0:0:0:
159,46,31470,2,0,P|147:121|153:193,1,138.24,10|0,2:0|2:0,2:0:0:0:
144,282,31911,1,0,2:0:0:0:
286,207,32058,2,0,P|240:223|204:244,1,69.1199999999999,10|0,2:0|2:0,2:0:0:0:
367,256,32352,5,0,1:0:0:0:
367,256,32646,2,0,L|383:162,1,69.1199999999999,10|0,2:0|2:0,2:0:0:0:
273,29,32940,1,2,2:0:0:0:
423,109,33088,1,0,1:0:0:0:
233,169,33235,2,0,P|273:130|325:138,1,103.68,10|0,2:0|2:0,2:0:0:0:
341,148,33529,5,2,1:2:0:0:
149,326,33823,2,0,P|98:306|0:293,1,138.24,8|2,2:0|2:0,2:0:0:0:
71,221,34264,1,0,2:0:0:0:
227,302,34411,2,0,P|281:284|309:281,1,69.1199999999999,10|0,2:0|2:0,2:0:0:0:
171,234,34705,5,2,1:2:0:0:
171,234,34999,2,0,L|196:87,1,138.24,8|2,2:0|2:0,2:0:0:0:
81,9,35440,1,2,1:2:0:0:
262,161,35588,1,10,2:0:0:0:
76,22,35735,1,8,2:0:0:0:
247,0,35882,5,0,1:0:0:0:
247,0,36176,2,0,P|295:51|411:2,1,207.36,8|0,2:0|2:0,2:0:0:0:
406,203,36764,2,0,P|396:149|386:125,1,69.1199999999999,10|0,2:0|2:0,2:0:0:0:
481,81,37058,5,0,1:0:0:0:
253,139,37352,2,0,P|211:151|183:167,1,69.1199999999999,10|0,2:0|2:0,2:0:0:0:
394,270,37646,2,0,P|404:227|404:195,1,69.1199999999999,2|0,2:0|1:0,2:0:0:0:
186,322,37940,2,0,P|217:352|245:368,1,69.1199999999999,10|2,2:0|2:0,2:0:0:0:
278,242,38235,5,2,1:2:0:0:
278,242,38529,2,0,L|112:213,1,138.24,8|2,2:0|2:0,2:0:0:0:
53,264,38970,1,0,2:0:0:0:
43,115,39117,2,0,L|70:199,1,69.1199999999999,10|0,2:0|2:0,2:0:0:0:
131,79,39411,6,0,P|79:20|3:41,2,138.24,2|8|2,1:2|2:0|2:0,2:0:0:0:
53,264,40146,1,2,1:2:0:0:
222,91,40293,1,10,2:0:0:0:
214,324,40440,1,8,2:0:0:0:
160,195,40588,5,0,1:0:0:0:
160,195,40882,2,0,P|234:214|291:169,1,138.24,8|0,2:0|2:0,2:0:0:0:
371,211,41323,1,0,2:0:0:0:
381,76,41470,2,0,P|348:125|347:153,1,69.1199999999999,8|0,2:0|2:0,2:0:0:0:
404,299,41764,5,0,1:0:0:0:
404,299,42058,2,0,L|318:282,1,69.1199999999999,10|0,2:0|2:0,2:0:0:0:
158,291,42352,2,0,L|244:274,1,69.1199999999999,2|0,2:0|1:0,2:0:0:0:
264,90,42646,2,0,L|286:220,1,103.68,10|0,2:0|2:0,2:0:0:0:
287,221,42940,5,6,1:2:0:0:
41,113,43235,2,0,P|68:56|178:75,1,176.64,10|0,2:0|2:0,2:0:0:0:
118,271,43676,1,2,1:2:0:0:
41,218,43823,2,0,P|82:184|144:193,1,88.32,10|2,2:0|2:0,2:0:0:0:
248,329,44117,1,2,1:2:0:0:
248,151,44264,2,0,P|220:212|216:246,1,88.32,0|10,2:0|2:0,2:0:0:0:
388,81,44558,2,0,P|377:38|356:0,1,88.32,2|0,2:0|2:0,2:0:0:0:
498,203,44852,5,2,1:2:0:0:
293,73,44999,1,10,2:0:0:0:
504,226,45146,1,8,2:0:0:0:
317,237,45293,1,0,1:0:0:0:
507,123,45440,1,2,1:2:0:0:
421,333,45588,6,0,L|397:238,1,88.32,10|0,2:0|2:0,2:0:0:0:
428,96,45882,1,2,1:2:0:0:
292,321,46029,2,0,L|318:226,1,88.32,10|0,2:0|2:0,2:0:0:0:
344,97,46323,1,2,1:2:0:0:
156,297,46470,2,0,L|226:228,1,88.32,10|0,2:0|2:0,2:0:0:0:
275,61,46764,1,2,1:2:0:0:
49,214,46911,2,0,L|143:190,1,88.32,10|0,2:0|2:0,2:0:0:0:
229,0,47205,1,2,1:2:0:0:
156,297,47352,5,6,2:3:0:0:
78,16,47499,1,10,2:0:0:0:
0,141,47646,6,0,B|128:52|228:150|169:214|306:299|405:221,1,463.679999999998,2|0,1:2|2:0,2:0:0:0:
412,212,49411,6,0,P|423:171|377:202,1,124.8,2|0,2:0|2:0,2:0:0:0:
341,289,49852,6,0,P|350:316|356:345,1,39.36,2|2,2:0|2:0,2:0:0:0:
288,135,49999,6,0,P|296:65|310:25,1,97.9199999999999,6|0,1:2|2:0,2:0:0:0:
219,305,50293,2,0,P|165:338|120:328,1,97.9199999999999,10|0,2:0|2:0,2:0:0:0:
165,121,50588,1,2,1:2:0:0:
341,289,50735,1,2,1:2:0:0:
218,50,50882,1,10,2:0:0:0:
299,356,51029,1,8,2:0:0:0:
429,164,51176,6,0,P|355:138|260:138,1,146.88,2|0,1:2|2:0,2:0:0:0:
262,137,51470,2,0,P|256:201|281:239,1,97.9199999999999,10|0,2:0|2:0,2:0:0:0:
377,60,51764,1,2,1:2:0:0:
171,194,51911,1,2,1:2:0:0:
345,325,52058,2,0,P|353:271|366:219,1,97.9199999999999,10|0,2:0|2:0,2:0:0:0:
234,22,52352,5,6,1:2:0:0:
234,22,53823,6,0,P|161:41|197:167,1,190.08,6|0,1:2|2:0,2:0:0:0:
192,274,54117,6,0,P|194:199|220:92,1,175.68,6|0,1:2|2:0,2:0:0:0:
304,68,54411,6,0,B|331:80|364:85|364:85|391:109|391:109|420:113|466:112,1,161.28,6|0,1:2|2:0,2:0:0:0:
477,101,54705,6,0,P|496:167|489:202,1,97.92,6|0,1:2|2:0,2:0:0:0:
334,337,54999,1,10,2:0:0:0:
502,238,55146,1,0,2:0:0:0:
330,188,55293,1,2,1:2:0:0:
425,343,55440,1,2,1:2:0:0:
202,229,55588,1,10,2:0:0:0:
392,108,55735,1,8,2:0:0:0:
334,337,55882,6,0,B|300:334|262:321|262:321|202:338|202:338|160:321|105:307,1,195.84,2|10,1:2|2:0,2:0:0:0:
330,188,56323,1,2,2:0:0:0:
153,111,56470,1,2,1:2:0:0:
251,292,56617,1,0,1:0:0:0:
73,165,56764,2,0,P|53:110|81:54,1,97.92,10|0,2:0|2:0,2:0:0:0:
247,24,57058,5,0,1:0:0:0:
145,318,57205,1,8,2:0:0:0:
302,86,57352,1,2,1:2:0:0:
334,337,57499,1,0,1:0:0:0:
172,60,57646,1,8,2:0:0:0:
311,320,57793,2,0,P|328:260|330:145,1,146.88,2|0,1:2|2:0,2:0:0:0:
324,158,58088,6,0,B|285:158|248:145|248:145|199:155|199:155|158:141|104:129,1,195.84,4|0,1:2|1:0,2:0:0:0:
378,82,58529,2,0,P|421:138|421:173,1,97.92,10|0,2:0|2:0,2:0:0:0:
210,340,58823,2,0,P|219:275|232:228,1,97.92,2|8,1:2|2:0,2:0:0:0:
232,224,59043,1,8,2:0:0:0:
232,224,59117,1,8,1:2:0:0:
16,52,59264,2,0,P|32:103|34:116,1,48.96,8|8,2:0|2:0,2:0:0:0:
7,190,59411,6,0,P|60:168|164:171,1,146.88,2|0,1:2|2:0,2:0:0:0:
172,167,59705,2,0,P|190:107|174:68,1,97.92,12|0,2:0|2:0,2:0:0:0:
86,253,59999,1,2,1:2:0:0:
273,126,60146,1,2,1:2:0:0:
188,352,60293,2,0,P|184:294|171:244,1,97.92,10|0,2:0|2:0,2:0:0:0:
357,255,60588,6,0,P|300:291|258:291,1,97.92,2|0,1:2|2:0,2:0:0:0:
374,147,60882,1,10,2:0:0:0:
426,376,61029,1,0,2:0:0:0:
261,200,61176,1,2,1:2:0:0:
476,244,61323,1,0,1:0:0:0:
265,361,61470,1,10,2:0:0:0:
512,175,61617,1,8,2:0:0:0:
282,102,61764,6,0,P|266:43|288:-3,1,97.92,2|0,1:2|2:0,2:0:0:0:
207,238,62058,2,0,P|195:292|192:352,1,97.92,10|2,2:0|2:0,2:0:0:0:
109,148,62352,1,2,1:2:0:0:
297,220,62499,1,0,1:0:0:0:
73,271,62646,1,10,2:0:0:0:
362,169,62793,1,8,2:0:0:0:
166,84,62940,6,0,P|150:177|176:241,1,146.88,2|0,1:2|2:0,2:0:0:0:
178,245,63235,2,0,P|236:250|287:274,1,97.92,10|2,2:0|2:0,2:0:0:0:
377,100,63529,1,2,1:2:0:0:
383,292,63676,1,0,1:0:0:0:
468,135,63823,2,0,P|477:72|455:38,1,97.92,10|0,2:0|2:0,2:0:0:0:
121,33,64117,6,0,B|159:45|195:48|195:48|231:77|231:77|269:79|309:91,1,195.84,4|10,1:2|2:0,2:0:0:0:
123,165,64558,1,2,2:0:0:0:
321,76,64705,1,2,1:2:0:0:
260,254,64852,1,0,1:0:0:0:
295,6,64999,1,10,2:0:0:0:
138,249,65146,1,8,2:0:0:0:
376,204,65293,6,0,P|315:168|231:176,1,146.88,2|0,1:2|2:0,2:0:0:0:
213,188,65588,2,0,P|196:134|217:88,1,97.92,10|2,2:0|2:0,2:0:0:0:
298,274,65882,1,2,1:2:0:0:
118,175,66029,1,0,1:0:0:0:
281,35,66176,2,0,P|220:14|175:8,1,97.92,10|2,2:0|2:0,2:0:0:0:
376,204,66470,6,0,P|441:173|386:60,2,195.84,6|10|2,1:2|2:0|1:2,2:0:0:0:
234,106,67189,1,0,1:0:0:0:
369,315,67325,1,10,2:0:0:0:
153,214,67482,2,0,P|214:193|261:192,1,98.141184,8|0,2:0|1:0,2:0:0:0:
179,321,67787,5,8,2:0:0:0:
234,106,67935,1,4,1:2:0:0:
248,369,68082,1,8,2:0:0:0:
167,72,68230,1,2,1:2:0:0:
108,362,68378,1,8,2:0:0:0:
229,34,68525,1,8,2:0:0:0:
27,332,68673,1,8,2:0:0:0:
323,191,68821,6,0,P|386:175|494:191,1,146.88,6|0,1:2|2:0,2:0:0:0:
490,186,69115,2,0,P|499:246|484:282,1,97.92,12|0,2:0|2:0,2:0:0:0:
375,70,69409,1,2,1:2:0:0:
469,309,69556,1,2,1:2:0:0:
254,232,69703,2,0,P|194:221|150:221,1,97.92,10|0,2:0|2:0,2:0:0:0:
0,79,69997,6,0,B|107:33|86:132|234:66,1,195.84,2|10,1:2|2:0,2:0:0:0:
27,181,70438,1,0,2:0:0:0:
252,23,70585,2,0,P|279:82|264:125,1,97.92,2|2,1:2|1:2,2:0:0:0:
116,303,70879,1,10,2:0:0:0:
189,82,71026,1,8,2:0:0:0:
243,332,71173,6,0,P|296:339|348:358,1,97.92,2|0,1:2|2:0,2:0:0:0:
512,199,71468,2,0,P|459:206|407:225,1,97.92,10|2,2:0|2:0,2:0:0:0:
289,131,71762,1,2,1:2:0:0:
365,319,71909,1,0,1:0:0:0:
427,105,72056,1,10,2:0:0:0:
243,332,72203,1,8,2:0:0:0:
342,33,72350,6,0,P|297:89|184:73,2,195.84,2|10|2,1:2|2:0|1:2,2:0:0:0:
206,232,73085,1,0,1:0:0:0:
107,12,73232,2,0,P|92:81|129:171,1,146.88,10|0,2:0|2:0,2:0:0:0:
128,180,73526,6,0,P|69:203|27:191,1,97.92,6|0,1:2|2:0,2:0:0:0:
294,257,73821,2,0,P|364:277|413:278,1,97.92,10|0,2:0|2:0,2:0:0:0:
205,328,74115,1,2,1:2:0:0:
289,160,74262,1,2,1:2:0:0:
122,267,74409,1,10,2:0:0:0:
384,193,74556,1,8,2:0:0:0:
182,49,74703,6,0,P|204:143|214:262,1,195.84,2|10,1:2|2:0,2:0:0:0:
286,93,75144,1,2,2:0:0:0:
125,168,75291,1,2,1:2:0:0:
297,245,75438,1,0,1:0:0:0:
61,96,75585,2,0,P|29:147|47:212,1,97.92,10|0,2:0|2:0,2:0:0:0:
183,297,75879,5,2,1:2:0:0:
300,32,76026,1,8,2:0:0:0:
125,168,76173,1,2,1:2:0:0:
361,104,76321,1,0,1:0:0:0:
199,334,76468,1,10,2:0:0:0:
436,175,76615,2,0,P|382:141|271:144,1,146.88,0|0,1:0|2:0,2:0:0:0:
272,149,76909,6,0,B|278:195|288:230|288:230|285:270|285:270|297:309|302:355,1,195.84,4|0,1:2|1:0,2:0:0:0:
177,172,77350,2,0,P|172:112|199:76,1,97.92,10|0,2:0|2:0,2:0:0:0:
490,242,77644,2,0,P|431:246|390:258,1,97.92,2|8,1:2|2:0,2:0:0:0:
370,268,77865,1,8,2:0:0:0:
370,268,77938,1,8,1:2:0:0:
52,274,78085,2,0,P|107:284|115:288,1,48.96,8|8,2:0|2:0,2:0:0:0:
176,363,78232,6,0,P|173:302|203:203,1,146.88,2|0,1:2|2:0,2:0:0:0:
226,203,78526,2,0,P|258:251|243:300,1,97.92,12|0,2:0|2:0,2:0:0:0:
142,132,78821,1,2,1:2:0:0:
311,177,78968,1,2,1:2:0:0:
155,48,79115,2,0,P|219:31|273:26,1,97.92,10|0,2:0|2:0,2:0:0:0:
92,232,79409,6,0,P|31:192|81:64,1,195.84,2|10,1:2|2:0,2:0:0:0:
198,210,79850,1,0,2:0:0:0:
128,384,79997,2,0,P|132:322|146:282,1,97.92,2|2,1:2|1:2,2:0:0:0:
331,79,80291,1,10,2:0:0:0:
114,148,80438,1,8,2:0:0:0:
306,327,80585,6,0,L|281:215,1,97.92,2|0,1:2|2:0,2:0:0:0:
429,111,80879,1,8,0:0:0:0:
206,311,81026,1,2,0:0:0:0:
280,37,81173,1,2,1:2:0:0:
405,281,81321,1,0,1:0:0:0:
175,101,81468,2,0,P|153:41|172:-9,1,97.9200005976563,10|0,2:0|2:0,2:0:0:0:
284,231,81762,6,0,P|206:269|93:260,1,195.84,2|10,1:2|2:0,2:0:0:0:
184,111,82203,1,2,2:0:0:0:
7,227,82350,1,2,1:2:0:0:
203,125,82497,1,0,1:0:0:0:
130,368,82644,1,10,2:0:0:0:
10,109,82791,1,8,2:0:0:0:
234,285,82938,6,0,P|292:272|342:268,1,97.92,4|0,1:2|2:0,2:0:0:0:
137,66,83232,2,0,P|113:124|125:165,1,97.92,10|2,2:0|2:0,2:0:0:0:
260,54,83526,1,2,1:2:0:0:
23,118,83673,1,0,1:0:0:0:
226,263,83821,2,0,P|233:199|246:139,1,97.92,10|0,2:0|2:0,2:0:0:0:
45,331,84115,5,2,1:2:0:0:
120,86,84262,1,8,2:0:0:0:
197,352,84409,1,6,2:3:0:0:
22,117,84556,1,8,0:0:0:0:
22,117,84629,1,8,0:0:0:0:
22,117,84703,2,0,P|16:69|38:26,1,97.9200005976563,10|8,0:0|0:0,0:0:0:0:
320,306,84997,1,8,0:0:0:0:
0,211,85144,1,10,0:0:0:0:
217,75,85291,5,0,0:0:0:0:
256,192,85365,12,2,88821,2:0:0:0:
