osu file format v14

[General]
AudioFilename: audio.mp3
AudioLeadIn: 0
PreviewTime: 49411
Countdown: 0
SampleSet: Soft
StackLeniency: 0.7
Mode: 0
LetterboxInBreaks: 0
WidescreenStoryboard: 1

[Editor]
DistanceSpacing: 1.2
BeatDivisor: 4
GridSize: 32
TimelineZoom: 1.6

[Metadata]
Title:Haru (TV Size)
TitleUnicode:晴る (TV Size)
Artist:Yorushika
ArtistUnicode:ヨルシカ
Creator:alevi
Version:Lost's Insane
Source:葬送のフリーレン
Tags:sunny sousou no frieren beyond journey's journey end japanese rock jrock j-rock pop jpop j-pop anime op opening n-buna suis スイ female vocals vocalist [_lost_] conner c_o_n_n_e_r Sarawatlism arutama freezinganimenz centrak_ sotarks
BeatmapID:4442023
BeatmapSetID:2115164

[Difficulty]
HPDrainRate:5
CircleSize:4
OverallDifficulty:8
ApproachRate:9
SliderMultiplier:1.88
SliderTickRate:1

[Events]
//Background and Video events
0,0,"1341394 (1).jpeg",0,0
Video,250,"VD (1).mp4"
//Break Periods
//Storyboard Layer 0 (Background)
//Storyboard Layer 1 (Fail)
//Storyboard Layer 2 (Pass)
//Storyboard Layer 3 (Foreground)
//Storyboard Layer 4 (Overlay)
//Storyboard Sound Samples

[TimingPoints]
588,294.117647058824,4,2,6,30,1,0
9999,-142.857142857143,4,2,1,50,0,0
14411,-142.857142857143,4,2,2,50,0,0
14705,-142.857142857143,4,2,1,50,0,0
19117,-142.857142857143,4,2,2,50,0,0
19264,-142.857142857143,4,2,1,50,0,0
23823,-142.857142857143,4,2,3,50,0,0
25882,-142.857142857143,4,2,1,50,0,0
28529,-142.857142857143,4,2,2,50,0,0
28749,-142.857142857143,4,2,2,5,0,0
28823,-142.857142857143,4,2,1,50,0,0
33235,-142.857142857143,4,2,2,50,0,0
33382,-142.857142857143,4,2,1,50,0,0
37940,-142.857142857143,4,2,2,50,0,0
38161,-142.857142857143,4,2,1,5,0,0
38235,-142.857142857143,4,2,1,50,0,0
42646,-111.111111111111,4,2,2,50,0,0
42867,-111.111111111111,4,2,2,5,0,0
42940,-125,4,2,2,50,0,0
43234,-125,4,2,1,50,0,0
45588,-83.3333333333334,4,2,2,60,0,0
45808,-83.3333333333334,4,2,2,5,0,0
45882,-83.3333333333334,4,2,1,60,0,0
46029,-100,4,2,1,60,0,0
46249,-100,4,2,1,5,0,0
46323,-100,4,2,1,60,0,0
46470,-125,4,2,2,60,0,0
46690,-125,4,2,2,5,0,0
46764,-125,4,2,1,60,0,0
46911,-166.666666666667,4,2,1,60,0,0
47132,-166.666666666667,4,2,4,5,0,0
47205,-166.666666666667,4,2,1,60,0,0
47646,-333.333333333333,4,2,1,60,0,0
49410,-333.333333333333,4,2,5,60,0,0
49999,-90.9090909090909,4,2,1,80,0,0
50293,-90.9090909090909,4,2,3,80,0,0
50588,-90.9090909090909,4,2,2,80,0,0
50735,-90.9090909090909,4,2,1,80,0,0
50882,-90.9090909090909,4,2,2,80,0,0
51470,-90.9090909090909,4,2,3,80,0,0
51764,-90.9090909090909,4,2,2,80,0,0
51911,-90.9090909090909,4,2,1,80,0,0
52058,-76.9230769230769,4,2,2,80,0,0
52279,-76.9230769230769,4,2,2,5,0,0
52352,-76.9230769230769,4,2,1,80,0,0
54043,-76.9230769230769,4,2,1,5,0,0
54117,-71.4285714285714,4,2,1,80,0,0
54338,-71.4285714285714,4,2,1,5,0,0
54411,-66.6666666666667,4,2,1,80,0,0
54632,-66.6666666666667,4,2,1,5,0,0
54705,-90.9090909090909,4,2,1,80,0,0
54999,-90.9090909090909,4,2,3,80,0,0
55293,-90.9090909090909,4,2,2,80,0,0
55440,-90.9090909090909,4,2,1,80,0,0
55588,-90.9090909090909,4,2,2,80,0,0
55882,-90.9090909090909,4,2,3,80,0,0
56176,-90.9090909090909,4,2,2,80,0,0
56323,-90.9090909090909,4,2,1,80,0,0
56470,-90.9090909090909,4,2,2,80,0,0
57352,-90.9090909090909,4,2,1,80,0,0
57793,-90.9090909090909,4,2,3,80,0,0
58088,-76.9230769230769,4,2,1,80,0,0
58308,-76.9230769230769,4,2,1,5,0,0
58382,-76.9230769230769,4,2,1,80,0,0
58529,-66.6666666666667,4,2,3,80,0,0
58823,-66.6666666666667,4,2,2,80,0,0
58970,-76.9230769230769,4,2,2,80,0,0
59411,-200,4,2,1,80,0,0
59632,-200,4,2,1,5,0,0
59705,-66.6666666666667,4,2,1,80,0,0
59999,-66.6666666666667,4,2,2,80,0,0
60146,-66.6666666666667,4,2,1,80,0,0
60293,-90.9090909090909,4,2,3,80,0,0
60588,-90.9090909090909,4,2,2,80,0,0
60882,-90.9090909090909,4,2,3,80,0,0
61176,-90.9090909090909,4,2,2,80,0,0
61470,-90.9090909090909,4,2,3,80,0,0
61764,-90.9090909090909,4,2,2,80,0,0
61985,-90.9090909090909,4,2,2,5,0,0
62058,-90.9090909090909,4,2,2,80,0,0
62205,-90.9090909090909,4,2,1,80,0,0
62352,-90.9090909090909,4,2,2,80,0,0
62940,-90.9090909090909,4,2,3,80,0,0
63161,-90.9090909090909,4,2,3,5,0,0
63235,-90.9090909090909,4,2,2,80,0,0
63382,-90.9090909090909,4,2,1,80,0,0
63529,-90.9090909090909,4,2,2,80,0,0
64117,-90.9090909090909,4,2,1,80,0,0
64411,-90.9090909090909,4,2,2,80,0,0
64558,-90.9090909090909,4,2,1,80,0,0
64705,-90.9090909090909,4,2,2,80,0,0
65293,-90.9090909090909,4,2,3,80,0,0
65587,-90.9090909090909,4,2,2,80,0,0
65735,-90.9090909090909,4,2,1,80,0,0
65882,-90.9090909090909,4,2,2,80,0,0
66176,-90.9090909090909,4,2,3,80,0,0
66323,-90.9090909090909,4,2,1,80,0,0
66470,291.970802919708,4,2,3,80,1,0
66470,-90.9090909090909,4,2,3,80,0,1
66761,-90.9090909090909,4,2,3,80,0,0
67053,272.727272727273,4,2,3,80,1,0
67053,-90.9090909090909,4,2,3,80,0,0
67325,315.789473684211,4,2,3,80,1,0
67640,295.275590551181,4,2,3,80,1,0
67640,-76.9230769230769,4,2,3,80,0,0
67935,-76.9230769230769,4,2,1,80,0,0
68230,-66.6666666666667,4,2,1,80,0,0
68525,-76.9230769230769,4,2,1,80,0,0
68821,294.117647058824,4,2,1,80,1,0
68821,-200,4,2,1,80,0,0
69041,-200,4,2,1,5,0,0
69115,-66.6666666666667,4,2,1,80,0,0
69409,-66.6666666666667,4,2,2,80,0,0
69556,-66.6666666666667,4,2,1,80,0,0
69703,-90.9090909090909,4,2,3,80,0,0
69997,-90.9090909090909,4,2,2,80,0,0
70291,-90.9090909090909,4,2,3,80,0,0
70585,-90.9090909090909,4,2,2,80,0,0
70732,-90.9090909090909,4,2,1,80,0,0
70879,-90.9090909090909,4,2,2,80,0,0
71394,-90.9090909090909,4,2,2,5,0,0
71468,-90.9090909090909,4,2,2,80,0,0
71615,-90.9090909090909,4,2,1,80,0,0
71762,-90.9090909090909,4,2,2,80,0,0
72350,-90.9090909090909,4,2,3,80,0,0
72571,-90.9090909090909,4,2,3,5,0,0
72644,-90.9090909090909,4,2,2,80,0,0
72791,-90.9090909090909,4,2,1,80,0,0
72938,-90.9090909090909,4,2,2,80,0,0
73232,-76.9230769230769,4,2,2,80,0,0
73453,-76.9230769230769,4,2,2,5,0,0
73526,-90.9090909090909,4,2,1,80,0,0
73820,-90.9090909090909,4,2,3,80,0,0
74115,-90.9090909090909,4,2,2,80,0,0
74262,-90.9090909090909,4,2,1,80,0,0
74409,-90.9090909090909,4,2,2,80,0,0
74703,-90.9090909090909,4,2,3,80,0,0
74997,-90.9090909090909,4,2,2,80,0,0
75144,-90.9090909090909,4,2,1,80,0,0
75291,-90.9090909090909,4,2,2,80,0,0
75879,-90.9090909090909,4,2,3,80,0,0
76173,-90.9090909090909,4,2,1,80,0,0
76468,-83.3333333333333,4,2,3,80,0,0
76909,-76.9230769230769,4,2,1,80,0,0
77129,-76.9230769230769,4,2,1,5,0,0
77203,-76.9230769230769,4,2,1,80,0,0
77350,-66.6666666666667,4,2,3,80,0,0
77644,-66.6666666666667,4,2,2,80,0,0
78232,-200,4,2,1,80,0,0
78453,-200,4,2,1,5,0,0
78526,-66.6666666666667,4,2,1,80,0,0
78821,-66.6666666666667,4,2,2,80,0,0
78968,-66.6666666666667,4,2,1,80,0,0
79115,-90.9090909090909,4,2,2,80,0,0
79703,-90.9090909090909,4,2,3,80,0,0
79997,-90.9090909090909,4,2,2,80,0,0
80144,-90.9090909090909,4,2,1,80,0,0
80291,-90.9090909090909,4,2,2,80,0,0
80806,-90.9090909090909,4,2,2,5,0,0
80879,-90.9090909090909,4,2,2,80,0,0
81026,-90.9090909090909,4,2,1,80,0,0
81173,-90.9090909090909,4,2,2,80,0,0
81762,-90.9090909090909,4,2,3,80,0,0
82056,-90.9090909090909,4,2,2,80,0,0
82203,-90.9090909090909,4,2,1,80,0,0
82350,-90.9090909090909,4,2,2,80,0,0
82938,-90.9090909090909,4,2,1,80,0,0
83232,-90.9090909090909,4,2,2,80,0,0
83379,-90.9090909090909,4,2,1,80,0,0
83526,-90.9090909090909,4,2,2,80,0,0
84115,-90.9090909090909,4,2,3,80,0,0
84409,-90.9090909090909,4,2,1,80,0,0
85291,-90.9090909090909,4,2,6,30,0,0

[Colours]
Combo1 : 210,210,210
Combo2 : 106,242,242
Combo3 : 19,153,217

[HitObjects]
40,299,9999,6,0,P|52:232|58:152,1,131.599995983887,2|8,1:2|2:0,2:0:0:0:
57,168,10588,2,0,P|68:204|81:234,1,65.7999979919434,2|2,2:0|2:0,2:0:0:0:
150,277,10882,2,0,P|180:264|211:255,1,65.7999979919434,10|0,2:0|2:0,2:0:0:0:
143,170,11176,6,0,B|103:165|82:201|91:202|69:235|25:231,2,131.599995983887,2|8|2,1:2|2:0|2:0,2:0:0:0:
208,213,11911,1,2,1:2:0:0:
280,149,12058,2,0,P|243:140|210:126,1,65.7999979919434,10|8,2:0|2:0,2:0:0:0:
348,199,12352,6,0,P|372:166|463:175,1,131.599995983887,0|10,1:0|2:0,2:0:0:0:
502,231,12793,1,0,2:0:0:0:
502,231,12940,2,0,P|505:190|512:155,1,65.7999979919434,0|0,2:0|2:0,2:0:0:0:
405,24,13235,6,0,P|416:74|424:168,1,131.599995983887,10|0,2:0|1:0,2:0:0:0:
349,198,13676,1,0,2:0:0:0:
349,198,13823,2,0,B|312:206|276:183|300:175|264:152|210:171,2,131.599995983887,10|2|10,2:0|2:0|2:0,2:0:0:0:
183,282,14705,6,0,P|132:275|76:333,1,131.599995983887,2|8,1:2|2:0,2:0:0:0:
77,326,15293,2,0,P|89:285|88:256,1,65.7999979919434,2|2,2:0|2:0,2:0:0:0:
26,206,15588,2,0,P|14:165|15:136,1,65.7999979919434,10|0,2:0|2:0,2:0:0:0:
65,81,15882,2,0,B|100:81|120:97|120:97|133:113|133:113|154:132|195:131,1,131.599995983887,2|8,1:2|2:0,2:0:0:0:
181,130,16470,6,0,P|173:92|167:57,1,65.7999979919434,2|2,2:0|1:2,2:0:0:0:
231,194,16764,2,0,P|223:231|217:267,1,65.7999979919434,10|8,2:0|2:0,2:0:0:0:
292,138,17058,2,0,B|340:126|375:107|375:107|358:128|351:148,2,131.599995983887,0|8|0,1:0|2:0|2:0,2:0:0:0:
231,194,17793,1,0,2:0:0:0:
297,251,17940,6,0,B|398:226|398:226|410:208|397:187,2,131.599995983887,10|0|10,2:0|1:0|2:0,2:0:0:0:
231,194,18676,1,2,2:0:0:0:
161,230,18823,2,0,P|121:211|83:213,1,65.7999979919434,2|0,2:0|1:0,2:0:0:0:
31,248,19117,6,0,P|82:217|68:143,1,131.599995983887,10|2,2:0|1:2,2:0:0:0:
266,44,19705,2,0,B|254:4|254:4|238:119,1,131.599995983887,8|2,2:0|2:0,2:0:0:0:
183,146,20146,1,2,2:0:0:0:
183,146,20293,2,0,P|212:168|250:169,1,65.7999979919434,10|0,2:0|2:0,2:0:0:0:
315,160,20588,6,0,B|277:155|252:189|271:185|248:218|200:217,2,131.599995983887,2|8|2,1:2|2:0|2:0,2:0:0:0:
386,194,21323,1,2,1:2:0:0:
386,194,21470,2,0,P|420:183|456:168,1,65.7999979919434,10|8,2:0|2:0,2:0:0:0:
423,285,21764,6,0,P|397:252|301:270,1,131.599995983887,0|8,1:0|2:0,2:0:0:0:
111,266,22352,2,0,P|178:265|205:214,1,131.599995983887,0|10,2:0|2:0,2:0:0:0:
173,141,22793,1,0,2:0:0:0:
173,141,22940,6,0,B|131:132|108:161|121:162|95:195|35:186,2,131.599995983887,0|8|0,1:0|2:0|2:0,2:0:0:0:
298,159,23676,1,0,1:0:0:0:
238,210,23823,2,0,P|247:172|254:132,1,65.7999979919434,10|0,2:0|2:0,2:0:0:0:
271,58,24117,1,0,1:0:0:0:
271,58,24411,6,0,P|346:44|385:89,1,131.599995983887,8|0,2:0|2:0,2:0:0:0:
446,123,24852,1,0,2:0:0:0:
446,123,24999,2,0,P|452:85|462:59,1,65.7999979919434,8|0,2:0|2:0,2:0:0:0:
383,184,25293,1,0,1:0:0:0:
383,184,25588,6,0,P|318:138|268:157,1,131.599995983887,8|2,2:0|2:0,2:0:0:0:
222,211,26029,1,2,1:2:0:0:
222,211,26176,2,0,P|174:189|158:178,1,65.7999979919434,10|8,2:0|2:0,2:0:0:0:
288,272,26470,1,0,1:0:0:0:
288,272,26764,6,0,B|379:248|379:248|394:228|394:209,1,131.599995983887,8|0,2:0|2:0,2:0:0:0:
273,152,27205,1,0,2:0:0:0:
222,211,27352,2,0,B|184:204|154:237|169:236|147:268|96:262,2,131.599995983887,8|0|8,2:0|1:0|2:0,2:0:0:0:
222,211,28235,2,0,P|194:175|195:151,1,65.7999979919434,2|2,2:0|1:2,2:0:0:0:
299,42,28529,6,0,L|288:156,1,98.6999969879151,10|0,2:0|2:0,2:0:0:0:
273,152,28823,6,0,L|285:15,2,131.599995983887,2|8|2,1:2|2:0|2:0,2:0:0:0:
319,216,29558,1,2,2:0:0:0:
415,161,29705,2,0,P|365:145|334:131,1,65.7999979919434,10|0,2:0|2:0,2:0:0:0:
470,224,29999,6,0,P|506:179|472:109,1,131.599995983887,2|8,1:2|2:0,2:0:0:0:
319,216,30588,2,0,P|282:230|247:238,1,65.7999979919434,2|2,2:0|1:2,2:0:0:0:
204,176,30882,2,0,P|241:162|276:154,1,65.7999979919434,10|8,2:0|2:0,2:0:0:0:
143,234,31176,6,0,B|95:239|73:214|88:213|54:182|14:198,2,131.599995983887,0|10|0,1:0|2:0|2:0,2:0:0:0:
204,176,31911,1,0,2:0:0:0:
162,108,32058,6,0,P|123:75|48:102,2,131.599995983887,10|0|10,2:0|1:0|2:0,2:0:0:0:
222,57,32793,1,2,2:0:0:0:
284,105,32940,2,0,P|337:94|350:84,1,65.7999979919434,2|0,2:0|1:0,2:0:0:0:
204,176,33235,6,0,B|194:133|218:106|225:130|249:89|228:41,1,131.599995983887,10|2,2:0|1:2,2:0:0:0:
242,46,33823,6,0,B|258:80|234:121|227:97|203:124|213:167,1,131.599995983887,8|2,2:0|2:0,2:0:0:0:
261,228,34264,1,2,2:0:0:0:
308,164,34411,2,0,B|282:162|261:181|261:181|246:202|246:202|222:223|182:223,2,131.599995983887,10|2|8,2:0|1:2|2:0,2:0:0:0:
378,199,35146,1,0,2:0:0:0:
444,156,35293,6,0,P|457:118|446:90,1,65.7999979919434,2|2,2:0|1:2,2:0:0:0:
388,43,35588,2,0,P|352:55|305:61,1,65.7999979919434,10|8,2:0|2:0,2:0:0:0:
248,80,35882,2,0,P|281:65|338:128,2,131.599995983887,0|8|0,1:0|2:0|2:0,2:0:0:0:
134,64,36617,1,0,2:0:0:0:
180,0,36764,6,0,P|171:84|164:142,2,131.599995983887,10|0|10,2:0|1:0|2:0,2:0:0:0:
254,192,37646,2,0,P|298:209|328:215,1,65.7999979919434,2|0,2:0|1:0,2:0:0:0:
200,250,37940,2,0,P|152:243|109:275,1,98.6999969879151,10|0,2:0|2:0,2:0:0:0:
89,280,38235,6,0,P|124:230|82:181,1,131.599995983887,2|8,1:2|2:0,2:0:0:0:
85,181,38823,2,0,P|40:195|12:202,1,65.7999979919434,2|0,2:0|2:0,2:0:0:0:
121,110,39117,2,0,P|152:118|184:128,1,65.7999979919434,10|2,2:0|2:0,2:0:0:0:
246,176,39411,6,0,P|299:146|271:83,2,131.599995983887,2|8|2,1:2|2:0|2:0,2:0:0:0:
186,227,40146,1,2,1:2:0:0:
124,177,40293,2,0,P|113:145|117:111,1,65.7999979919434,10|8,2:0|2:0,2:0:0:0:
161,47,40588,6,0,B|258:68|258:68|267:82|262:99,1,131.599995983887,0|8,1:0|2:0,2:0:0:0:
381,257,41176,2,0,B|284:236|284:236|275:222|280:205,1,131.599995983887,0|8,2:0|2:0,2:0:0:0:
326,140,41617,1,0,2:0:0:0:
392,247,41764,2,0,B|440:238|462:266|450:270|476:298|523:290,1,131.599995983887,0|10,1:0|2:0,2:0:0:0:
265,203,42352,2,0,P|217:215|196:229,1,65.7999979919434,2|0,2:0|1:0,2:0:0:0:
154,291,42646,6,0,P|165:227|175:155,1,126.899996127319,10|0,2:0|2:0,2:0:0:0:
158,146,42940,6,0,P|147:220|135:294,2,150.4,6|10|0,1:2|2:0|2:0,2:0:0:0:
102,73,43676,1,2,1:2:0:0:
21,113,43823,2,0,P|52:145|93:147,1,75.2,10|2,2:0|2:0,2:0:0:0:
255,132,44117,5,2,1:2:0:0:
178,34,44264,2,0,P|143:48|107:60,1,75.2,2|10,0:0|2:2,2:0:0:0:
190,195,44558,2,0,P|164:156|171:124,1,75.2,2|0,2:0|2:0,2:0:0:0:
258,42,44852,1,2,1:2:0:0:
329,173,44999,1,10,2:0:0:0:
258,42,45146,1,8,2:0:0:0:
389,115,45293,6,0,L|461:97,1,75.2,0|2,1:0|1:2,0:0:0:0:
267,26,45588,6,0,P|209:88|118:75,1,169.199994836426,10|0,2:0|2:0,2:0:0:0:
97,40,45882,1,2,1:2:0:0:
266,218,46029,6,0,P|201:203|174:136,1,141,10|0,2:0|2:0,2:0:0:0:
189,108,46323,1,2,1:2:0:0:
130,294,46470,6,0,P|114:241|150:194,1,112.8,10|0,2:0|2:0,2:0:0:0:
176,193,46764,1,2,1:2:0:0:
17,231,46911,6,0,P|43:202|86:208,1,84.599997418213,10|0,2:0|2:0,2:0:0:0:
96,223,47205,1,2,1:2:0:0:
154,306,47352,1,6,2:3:0:0:
154,306,47499,1,10,2:2:0:0:
267,203,47646,6,0,B|322:113|407:111|474:178|466:253|378:272|344:222,1,338.399989672852,2|2,1:2|2:0,2:0:0:0:
345,224,49999,6,0,B|289:205|237:257|262:263|212:313|148:289,1,206.800006311035,6|10,1:2|2:0,2:0:0:0:
100,185,50440,1,0,2:0:0:0:
202,106,50588,2,0,P|185:179|177:224,1,103.400003155518,2|2,1:2|1:2,2:0:0:0:
0,273,50882,2,0,P|17:200|25:155,1,103.400003155518,10|8,2:0|2:0,2:0:0:0:
100,0,51176,6,0,L|100:209,1,206.800006311035,2|10,1:2|2:0,2:0:0:0:
170,308,51617,1,0,2:0:0:0:
267,236,51764,2,0,P|218:200|171:212,1,103.400003155518,2|2,1:2|1:2,2:0:0:0:
361,345,52058,6,0,B|490:301|490:301|500:272|481:255,1,183.299991609192,10|0,2:0|2:0,2:0:0:0:
427,201,52352,5,6,1:2:0:0:
427,201,53823,6,0,B|383:203|353:234|353:234|339:258|339:258|309:291|251:286,1,183.299991609192,6|0,1:2|2:0,2:0:0:0:
179,192,54117,6,0,B|240:179|293:135|293:135|267:172|257:202,1,197.39999397583,6|0,1:2|2:0,2:0:0:0:
191,317,54411,6,0,B|142:253|53:269|53:269|85:283|102:314,1,211.500008068085,6|0,1:2|2:0,2:0:0:0:
322,351,54705,6,0,B|445:315|445:315|473:276|437:234,1,206.800006311035,6|10,1:2|2:0,2:0:0:0:
290,273,55146,1,0,2:0:0:0:
319,146,55293,2,0,P|359:191|359:241,1,103.400003155518,2|2,1:2|1:2,2:0:0:0:
159,211,55588,2,0,P|171:141|174:88,1,103.400003155518,10|8,2:0|2:0,2:0:0:0:
250,0,55882,6,0,L|250:214,1,206.800006311035,2|10,1:2|2:0,2:0:0:0:
193,317,56323,1,2,2:0:0:0:
78,226,56470,2,0,P|153:205|184:188,1,103.400003155518,2|0,1:2|1:0,2:0:0:0:
102,342,56764,2,0,P|55:320|4:309,1,103.400003155518,10|0,2:0|2:0,2:0:0:0:
51,154,57058,5,0,1:0:0:0:
179,305,57205,1,8,2:0:0:0:
143,101,57352,1,2,1:2:0:0:
0,231,57499,1,0,1:0:0:0:
217,206,57646,6,0,P|239:159|213:104,1,103.400003155518,8|2,2:0|1:2,2:0:0:0:
96,255,57940,1,0,2:0:0:0:
141,1,58088,6,0,L|141:200,1,183.299991609192,4|0,1:2|2:0,2:0:0:0:
139,213,58382,1,0,1:0:0:0:
4,309,58529,6,0,B|14:257|14:257|31:232|31:232|43:161,1,141.000005378723,10|0,2:0|2:0,2:0:0:0:
238,330,58823,5,2,1:2:0:0:
238,330,58896,1,8,2:0:0:0:
238,330,58970,2,0,P|202:317|173:307,1,61.0999972030641,8|8,2:0|2:0,2:0:0:0:
126,203,59117,5,8,1:2:0:0:
126,203,59190,1,8,2:0:0:0:
126,203,59264,2,0,P|162:218|191:230,1,61.0999972030641,8|8,2:0|2:0,2:0:0:0:
356,224,59411,6,0,B|323:235|323:235|319:240|319:240|290:251,1,70.5,2|0,1:2|2:0,2:0:0:0:
266,246,59705,6,0,L|414:188,1,141.000005378723,12|0,2:0|2:0,2:0:0:0:
235,167,59999,5,2,1:2:0:0:
351,296,60146,1,2,1:2:0:0:
235,167,60293,2,0,L|352:126,1,103.400003155518,10|0,2:0|2:0,2:0:0:0:
434,285,60588,6,0,P|388:216|284:253,1,206.800006311035,2|10,1:2|2:0,2:0:0:0:
241,366,61029,1,0,2:0:0:0:
140,293,61176,2,0,P|198:279|247:265,1,103.400003155518,2|0,1:2|1:0,2:0:0:0:
13,188,61470,2,0,P|28:237|38:288,1,103.400003155518,10|8,2:0|2:0,2:0:0:0:
117,38,61764,6,0,L|117:213,1,155.100004733277,2|0,1:2|2:0,2:0:0:0:
111,225,62058,2,0,P|144:188|208:193,1,103.400003155518,10|2,2:0|2:0,2:0:0:0:
307,237,62352,1,2,1:2:0:0:
205,103,62499,1,0,1:0:0:0:
388,223,62646,2,0,P|392:170|400:114,1,103.400003155518,10|8,2:0|2:0,2:0:0:0:
182,281,62940,6,0,B|235:269|268:306|251:307|284:343|333:327,1,155.100004733277,2|0,1:2|2:0,2:0:0:0:
361,313,63235,2,0,P|395:262|378:208,1,103.400003155518,10|2,2:0|2:0,2:0:0:0:
247,128,63529,1,2,1:2:0:0:
307,237,63676,1,0,1:0:0:0:
426,128,63823,2,0,P|377:145|327:157,1,103.400003155518,10|0,2:0|2:0,2:0:0:0:
150,100,64117,6,0,B|282:67|282:67|247:109|246:134,1,206.800006311035,4|10,1:2|2:0,2:0:0:0:
175,229,64558,1,2,2:0:0:0:
54,198,64705,2,0,P|66:139|67:84,1,103.400003155518,2|0,1:2|1:0,2:0:0:0:
281,68,64999,2,0,P|269:127|268:182,1,103.400003155518,10|8,2:0|2:0,2:0:0:0:
173,0,65293,6,0,L|173:212,1,206.800006311035,2|10,1:2|2:0,2:0:0:0:
260,296,65735,1,2,2:0:0:0:
352,201,65882,2,0,P|272:184|247:175,1,103.400003155518,2|0,1:2|1:0,2:0:0:0:
339,324,66176,2,0,P|387:307|439:291,1,103.400003155518,10|2,2:0|2:0,2:0:0:0:
512,118,66470,6,0,B|441:141|441:141|410:181|410:181|328:208,1,206.800006311035,6|10,1:2|2:0,2:0:0:0:
230,137,66908,1,0,2:0:0:0:
286,31,67053,2,0,P|325:77|318:124,1,103.400003155518,2|0,1:2|1:0,2:0:0:0:
228,228,67325,1,10,2:0:0:0:
110,140,67482,1,8,2:0:0:0:
228,228,67640,6,0,P|237:164|249:95,1,122.199994406128,0|8,1:0|2:0,2:0:0:0:
40,216,67935,1,4,1:2:0:0:
87,0,68082,1,8,2:0:0:0:
87,0,68156,1,8,2:0:0:0:
87,0,68230,6,0,P|97:60|111:146,1,141.000005378723,2|8,1:2|2:0,2:0:0:0:
45,303,68525,6,0,P|11:248|32:187,1,122.199994406128,8|8,2:0|2:0,2:0:0:0:
234,100,68821,6,0,L|222:187,1,70.5,6|0,1:2|2:0,2:0:0:0:
201,232,69115,6,0,L|222:72,1,141.000005378723,12|0,2:0|2:0,2:0:0:0:
230,321,69409,5,2,1:2:0:0:
126,191,69556,1,2,1:2:0:0:
230,321,69703,2,0,P|295:299|348:282,1,103.400003155518,10|0,2:0|2:0,2:0:0:0:
460,102,69997,6,0,B|409:101|376:134|376:134|360:163|360:163|323:199|276:192,1,206.800006311035,2|10,1:2|2:0,2:0:0:0:
217,126,70438,1,0,2:0:0:0:
333,266,70585,2,0,B|381:288|381:288|392:302|392:302|437:322,1,103.400003155518,2|2,1:2|1:2,2:0:0:0:
198,249,70879,2,0,P|209:186|215:126,1,103.400003155518,10|8,2:0|2:0,2:0:0:0:
300,8,71173,6,0,L|300:182,1,155.100004733277,2|0,1:2|2:0,2:0:0:0:
288,194,71468,2,0,P|327:149|378:159,1,103.400003155518,10|2,2:0|2:0,2:0:0:0:
403,322,71762,1,2,1:2:0:0:
471,218,71909,1,0,1:0:0:0:
403,322,72056,2,0,P|359:274|372:226,1,103.400003155518,10|8,2:0|2:0,2:0:0:0:
496,309,72350,6,0,B|450:303|422:339|434:340|403:375|351:367,1,155.100004733277,2|0,1:2|2:0,2:0:0:0:
321,352,72644,2,0,P|283:304|301:243,1,103.400003155518,10|2,2:0|2:0,2:0:0:0:
365,145,72938,2,0,P|381:205|356:246,1,103.400003155518,2|0,1:2|1:0,2:0:0:0:
169,323,73232,6,0,P|112:258|157:182,1,183.299991609192,10|0,2:0|2:0,2:0:0:0:
179,172,73526,6,0,B|239:153|280:202|259:206|306:256|373:236,1,206.800006311035,6|10,1:2|2:0,2:0:0:0:
455,155,73968,1,0,2:0:0:0:
370,64,74115,2,0,P|324:69|288:114,1,103.400003155518,2|2,1:2|1:2,2:0:0:0:
455,155,74409,2,0,P|482:106|459:58,1,103.400003155518,10|8,2:0|2:0,2:0:0:0:
274,0,74703,6,0,L|274:232,1,206.800006311035,2|10,1:2|2:0,2:0:0:0:
349,305,75144,1,2,2:0:0:0:
455,241,75291,2,0,P|395:226|347:209,1,103.400003155518,2|0,1:2|1:0,2:0:0:0:
265,344,75585,2,0,P|313:327|364:315,1,103.400003155518,10|0,2:0|2:0,2:0:0:0:
192,214,75879,5,2,1:2:0:0:
114,310,76026,1,8,2:0:0:0:
268,252,76173,1,2,1:2:0:0:
100,191,76321,1,0,1:0:0:0:
265,344,76468,6,0,P|298:294|271:244,1,112.799996557617,10|0,2:0|1:0,2:0:0:0:
175,375,76762,1,0,2:0:0:0:
19,237,76909,6,0,B|55:227|89:256|89:256|101:279|101:279|136:308|178:293,1,183.299991609192,4|0,1:2|2:0,2:0:0:0:
202,277,77203,1,0,1:0:0:0:
25,359,77350,6,0,P|-17:300|16:237,1,141.000005378723,10|0,2:0|2:0,2:0:0:0:
149,117,77644,5,2,1:2:0:0:
149,117,77718,1,8,2:0:0:0:
149,117,77791,2,0,L|230:149,1,70.5000026893617,8|8,2:0|2:0,2:0:0:0:
312,55,77938,5,8,1:2:0:0:
312,55,78012,1,8,2:0:0:0:
312,55,78085,2,0,L|231:23,1,70.5000026893617,8|8,2:0|2:0,2:0:0:0:
368,144,78232,6,0,P|413:129|454:115,1,70.5,2|0,1:2|2:0,2:0:0:0:
451,94,78526,6,0,L|306:147,1,141.000005378723,12|0,2:0|2:0,2:0:0:0:
449,194,78821,5,2,1:2:0:0:
312,55,78968,1,2,1:2:0:0:
449,194,79115,2,0,P|484:146|467:99,1,103.400003155518,10|0,2:0|2:0,2:0:0:0:
257,0,79409,6,0,L|257:219,1,206.800006311035,2|10,1:2|2:0,2:0:0:0:
218,324,79850,1,0,2:0:0:0:
104,274,79997,2,0,P|154:229|201:238,1,103.400003155518,2|2,1:2|1:2,2:0:0:0:
56,344,80291,2,0,P|17:303|27:244,1,103.400003155518,10|8,2:0|2:0,2:0:0:0:
181,50,80585,6,0,L|181:220,1,155.100004733277,2|0,1:2|2:0,2:0:0:0:
186,231,80879,2,0,P|136:217|79:203,1,103.400003155518,10|2,2:0|2:0,2:0:0:0:
249,311,81173,2,0,P|299:293|350:277,1,103.400003155518,2|0,1:2|1:0,2:0:0:0:
372,143,81468,2,0,P|318:161|270:175,1,103.400003155518,10|0,2:0|2:0,2:0:0:0:
248,295,81762,6,0,B|316:273|355:313|337:318|383:360|447:335,1,206.800006311035,2|10,1:2|2:0,2:0:0:0:
397,220,82203,1,2,2:0:0:0:
245,308,82350,2,0,B|202:324|202:324|192:339|192:339|140:360,1,103.400003155518,2|0,1:2|1:0,2:0:0:0:
152,154,82644,2,0,P|208:176|221:221,1,103.400003155518,10|8,2:0|2:0,2:0:0:0:
5,298,82938,6,0,P|37:227|145:259,1,206.800006311035,4|10,1:2|2:0,2:0:0:0:
236,337,83379,1,2,2:0:0:0:
319,243,83526,2,0,P|247:223|212:209,1,103.400003155518,2|0,1:2|1:0,2:0:0:0:
402,317,83821,2,0,P|450:299|500:286,1,103.400003155518,10|0,2:0|2:0,2:0:0:0:
427,129,84115,5,2,1:2:0:0:
319,243,84262,1,8,2:0:0:0:
282,95,84409,1,6,2:3:0:0:
422,230,84556,1,8,2:0:0:0:
422,230,84629,1,8,2:0:0:0:
422,230,84703,5,10,2:0:0:0:
209,160,84850,1,8,2:0:0:0:
381,29,84997,1,8,2:0:0:0:
209,160,85144,1,10,2:0:0:0:
343,158,85291,5,2,2:0:0:0:
256,192,85365,12,2,88821,2:0:0:0:
