osu file format v14

[General]
AudioFilename: audio.mp3
AudioLeadIn: 0
PreviewTime: 48971
Countdown: 0
SampleSet: None
StackLeniency: 0.7
Mode: 0
LetterboxInBreaks: 0
WidescreenStoryboard: 0

[Editor]
Bookmarks: 9706,19118,28530,37942,49706,68529
DistanceSpacing: 0.6
BeatDivisor: 4
GridSize: 32
TimelineZoom: 1.8

[Metadata]
Title:Haru (TV Size)
TitleUnicode:晴る (TV Size)
Artist:Yorushika
ArtistUnicode:ヨルシカ
Creator:achyoo
Version:gayge
Source:葬送のフリーレン
Tags:ayucchi shirahane suou 錦木 千束 Nishikigi Chisato 井ノ上 たきな Inoue Takina chisataki sunny sousou no frieren beyond journey's journey end japanese pop jpop j-pop anime op opening n-buna suis enneya zekk luchibuchi yogurtt
BeatmapID:4538002
BeatmapSetID:2153652

[Difficulty]
HPDrainRate:5
CircleSize:4
OverallDifficulty:8.9
ApproachRate:9.2
SliderMultiplier:1.8
SliderTickRate:1

[Events]
//Background and Video events
0,0,"frieren.jpg",0,0
//Break Periods
//Storyboard Layer 0 (Background)
//Storyboard Layer 1 (Fail)
//Storyboard Layer 2 (Pass)
//Storyboard Layer 3 (Foreground)
//Storyboard Layer 4 (Overlay)
//Storyboard Sound Samples

[TimingPoints]
295,294.117647058824,4,2,1,35,1,0
295,-166.666666666667,4,2,1,35,0,0
9706,-125,4,2,1,50,0,0
49706,294.117647058824,4,2,1,75,1,0
49706,-83.3333333333333,4,2,1,75,0,1
52058,-250,4,2,1,35,0,0
53529,-71.4285714285714,4,2,1,75,0,1
54411,-83.3333333333333,4,2,1,75,0,1
57794,-66.6666666666667,4,2,1,75,0,1
59117,-83.3333333333333,4,2,1,75,0,1
76617,-125,4,2,1,75,0,1
77941,-83.3333333333333,4,2,1,75,0,1
85000,-166.666666666667,4,2,1,35,0,0

[Colours]
Combo1 : 136,169,255
Combo2 : 245,109,109
Combo3 : 143,143,143
Combo4 : 249,234,128

[HitObjects]
148,71,295,5,0,0:0:0:0:
148,71,589,2,0,P|127:141|129:242,1,161.999995056153
204,265,1177,1,0,0:0:0:0:
409,151,1471,5,0,0:0:0:0:
409,151,1765,2,0,P|363:147|288:130,1,107.999996704102
257,201,2206,1,0,0:0:0:0:
317,258,2353,2,0,P|358:251|394:249,1,53.9999983520508
211,365,2647,5,0,0:0:0:0:
211,365,2942,2,0,P|179:269|183:192,1,161.999995056153
208,138,3530,1,0,0:0:0:0:
443,284,3824,5,0,0:0:0:0:
443,284,4118,2,0,P|453:227|443:166,1,107.999996704102
378,50,4559,1,0,0:0:0:0:
451,87,4706,1,0,0:0:0:0:
369,48,4853,1,0,0:0:0:0:
362,163,5000,5,0,0:0:0:0:
362,163,5295,2,0,P|277:147|187:128,1,161.999995056153
154,59,5883,1,0,0:0:0:0:
54,240,6177,6,0,P|33:217|25:177,1,53.9999983520508
89,143,6471,2,0,P|131:175|127:288,1,161.999995056153
68,322,7059,1,0,0:0:0:0:
226,178,7353,5,0,0:0:0:0:
226,178,7647,2,0,P|287:190|343:200,1,107.999996704102
409,174,8089,1,0,0:0:0:0:
380,99,8236,2,0,P|390:53|400:27,1,53.9999983520508
450,249,8530,5,0,0:0:0:0:
450,249,8824,2,0,P|440:295|430:321,1,53.9999983520508
366,350,9118,5,0,0:0:0:0:
339,332,9265,1,0,0:0:0:0:
268,358,9412,1,0,0:0:0:0:
188,328,9559,1,0,0:0:0:0:
92,366,9706,5,0,0:0:0:0:
231,191,10000,1,0,0:0:0:0:
92,366,10295,2,0,P|77:316|65:297,1,72
205,124,10589,2,0,P|220:174|232:193,1,72
301,299,10883,2,0,L|148:271,1,144
31,67,11471,2,0,L|101:79,1,72
169,8,11765,1,0,0:0:0:0:
46,163,11912,1,0,0:0:0:0:
230,190,12059,5,0,0:0:0:0:
230,190,12353,2,0,P|210:128|128:111,1,144
41,320,12942,2,0,L|208:285,1,144
308,95,13530,2,0,L|475:130,1,144
373,206,13971,1,0,0:0:0:0:
503,358,14118,2,0,P|504:314|442:293,1,108
381,359,14412,5,0,0:0:0:0:
512,200,14706,1,0,0:0:0:0:
381,359,15000,2,0,L|292:344,1,72
441,188,15295,2,0,L|530:203,1,72
363,270,15589,2,0,L|322:115,1,144
145,315,16177,2,0,L|165:392,1,72
241,313,16471,1,0,0:0:0:0:
66,248,16618,1,0,0:0:0:0:
196,113,16765,5,0,0:0:0:0:
196,113,17059,2,0,B|165:146|165:146|208:189|200:257,1,144
288,176,17500,1,0,0:0:0:0:
141,37,17647,2,0,L|-5:12,1,144
141,296,18236,2,0,L|-5:321,1,144
53,218,18677,1,0,0:0:0:0:
223,368,18824,2,0,P|231:314|253:265,1,108
260,257,19118,6,0,P|263:197|165:168,1,144
437,50,19706,2,0,P|423:102|413:144,1,72
484,272,20000,2,0,P|498:220|508:178,1,72
310,361,20295,6,0,P|297:289|295:200,1,144
485,363,20883,2,0,P|490:314|491:264,1,72
411,130,21177,1,0,0:0:0:0:
291,208,21324,1,0,0:0:0:0:
238,142,21471,6,0,P|245:90|255:58,1,72
32,257,21765,2,0,P|103:246|181:360,1,216
238,142,22353,1,0,0:0:0:0:
51,37,22647,6,0,P|109:54|144:64,1,72
332,157,22942,2,0,P|242:185|192:226,1,144
65,143,23383,1,0,0:0:0:0:
211,13,23530,2,0,P|219:53|223:93,1,72
154,354,23824,5,0,0:0:0:0:
154,354,24118,2,0,P|132:274|122:188,1,144
139,49,24559,1,0,0:0:0:0:
65,143,24706,2,0,P|116:131|159:127,1,72
290,160,25000,6,0,P|379:145|457:132,1,144
512,348,25589,2,0,P|471:339|435:340,1,72
500,180,25883,5,0,0:0:0:0:
269,239,26030,1,0,0:0:0:0:
366,374,26177,6,0,P|355:314|347:276,1,72
489,265,26471,2,0,P|417:201|436:134,1,144
475,114,26912,1,0,0:0:0:0:
339,223,27059,2,0,P|300:231|257:241,1,72
59,370,27353,5,0,0:0:0:0:
106,277,27647,5,0,0:0:0:0:
35,135,27942,5,0,0:0:0:0:
21,113,28089,1,0,0:0:0:0:
74,2,28236,1,0,0:0:0:0:
238,35,28383,1,0,0:0:0:0:
96,194,28530,5,0,0:0:0:0:
305,238,28824,1,0,0:0:0:0:
96,194,29118,2,0,L|120:291,1,72
322,307,29412,2,0,L|298:210,1,72
148,88,29706,2,0,P|207:127|278:131,1,144
459,6,30295,2,0,L|443:98,1,72
366,28,30589,1,0,0:0:0:0:
501,164,30736,1,0,0:0:0:0:
328,237,30883,5,0,0:0:0:0:
328,237,31177,2,0,L|90:191,1,216
10,132,31765,2,0,P|74:119|148:88,1,144
328,237,32353,2,0,P|264:250|190:281,1,144
257,348,32795,1,0,0:0:0:0:
99,273,32942,2,0,P|94:224|163:215,1,108
140,347,33236,5,0,0:0:0:0:
0,205,33530,1,0,0:0:0:0:
140,347,33824,2,0,L|53:369,1,72
0,205,34118,2,0,L|87:183,1,72
185,109,34412,6,0,L|156:261,1,144
335,384,35000,2,0,L|348:313,1,72
423,261,35295,1,0,0:0:0:0:
299,117,35442,1,0,0:0:0:0:
485,140,35589,1,0,0:0:0:0:
485,140,35883,2,0,B|408:118|408:118|389:194|307:221,1,216
267,297,36471,2,0,P|221:252|242:167,1,144
94,0,37059,2,0,P|140:45|119:130,1,144
35,80,37500,1,0,0:0:0:0:
150,223,37647,2,0,L|44:245,1,108
33,255,37942,6,0,B|115:256|76:317|196:301,1,144
299,161,38530,2,0,P|301:124|268:90,1,72
162,206,38824,2,0,L|251:228,1,72
423,255,39118,2,0,L|258:311,1,144
76,148,39706,2,0,L|-6:176,1,72
75,245,40000,1,0,0:0:0:0:
146,84,40147,1,0,0:0:0:0:
291,212,40295,5,0,0:0:0:0:
291,212,40589,2,0,P|396:234|501:261,1,216
501,261,41177,2,0,P|487:222|484:177,1,72
286,52,41471,1,0,0:0:0:0:
286,52,41765,2,0,P|327:68|385:78,1,72
212,137,42059,2,0,P|177:145|143:159,1,72
333,295,42353,2,0,L|300:146,1,144
73,90,42942,2,0,B|22:136|22:136|86:191|49:293,1,216
156,267,43530,2,0,L|249:290,1,72
358,99,43824,5,0,0:0:0:0:
208,183,43971,1,0,0:0:0:0:
348,276,44118,1,0,0:0:0:0:
304,184,44265,1,0,0:0:0:0:
304,184,44559,1,0,0:0:0:0:
225,284,44706,5,0,0:0:0:0:
411,199,44853,1,0,0:0:0:0:
296,375,45000,5,0,0:0:0:0:
296,375,45147,1,0,0:0:0:0:
123,260,45295,2,0,B|12:233|12:233|32:280,1,144
175,162,45736,2,0,B|218:146|218:146|256:193|315:182,1,144
438,340,46177,6,0,L|409:191,1,144
512,34,46618,2,0,B|469:50|469:50|431:3|372:14,1,144
303,183,47059,1,0,0:0:0:0:
395,105,47206,1,0,0:0:0:0:
316,327,47353,1,0,0:0:0:0:
256,192,47500,12,0,49118,0:0:0:0:
312,315,49633,5,0,0:0:0:0:
317,309,49706,2,0,P|249:232|172:203,1,161.999995056153
133,252,50000,1,0,0:0:0:0:
23,190,50147,1,0,0:0:0:0:
152,341,50294,5,0,0:0:0:0:
300,196,50441,1,0,0:0:0:0:
129,88,50588,1,0,0:0:0:0:
363,22,50735,1,0,0:0:0:0:
198,198,50882,6,0,P|228:278|342:393,1,215.999993408203
414,334,51323,1,0,0:0:0:0:
460,216,51470,2,0,P|431:167|386:130,1,107.999996704102
211,39,51764,2,0,P|155:49|104:79,1,107.999996704102
504,16,52058,5,0,0:0:0:0:
479,51,52353,5,0,0:0:0:0:
500,127,52647,5,0,0:0:0:0:
466,206,52941,5,0,0:0:0:0:
477,234,53088,1,0,0:0:0:0:
511,301,53235,2,0,L|506:336,1,36
385,384,53529,6,0,P|327:305|314:202,1,188.999994232178
150,226,53823,2,0,P|215:164|292:136,1,125.999996154785
210,59,54044,1,0,0:0:0:0:
223,29,54117,2,0,P|303:35|325:151,1,188.999994232178
236,244,54411,6,0,P|146:187|48:159,1,161.999995056153
35,109,54706,1,0,0:0:0:0:
138,27,54853,1,0,0:0:0:0:
24,118,55000,5,0,0:0:0:0:
246,148,55147,1,0,0:0:0:0:
176,376,55294,1,0,0:0:0:0:
10,200,55441,1,0,0:0:0:0:
232,46,55588,6,0,P|283:69|351:101,1,107.999996704102
177,293,55882,2,0,P|126:270|58:238,1,107.999996704102
354,351,56176,5,0,0:0:0:0:
458,280,56323,1,0,0:0:0:0:
267,253,56470,2,0,P|256:195|243:136,1,107.999996704102
425,41,56764,5,0,0:0:0:0:
362,160,56911,1,0,0:0:0:0:
499,208,57058,1,0,0:0:0:0:
419,34,57206,5,0,0:0:0:0:
373,240,57353,1,0,0:0:0:0:
235,141,57500,1,0,0:0:0:0:
509,94,57647,5,0,0:0:0:0:
255,228,57794,2,0,P|161:219|67:340,1,202.500007724762
102,352,58088,2,0,P|142:354|183:312,1,67.5000025749208
162,26,58235,6,0,P|97:115|130:230,1,202.500007724762
186,245,58529,5,0,0:0:0:0:
224,230,58603,1,0,0:0:0:0:
261,216,58676,1,0,0:0:0:0:
299,202,58750,1,0,0:0:0:0:
316,182,58823,5,0,0:0:0:0:
355,191,58897,1,0,0:0:0:0:
394,200,58970,1,0,0:0:0:0:
433,209,59044,1,0,0:0:0:0:
472,218,59117,6,0,P|422:233|360:259,1,107.999996704102
355,19,59411,2,0,P|420:50|485:76,1,107.999996704102
202,100,59706,5,0,0:0:0:0:
316,182,59853,1,0,0:0:0:0:
234,296,60000,1,0,0:0:0:0:
120,214,60147,1,0,0:0:0:0:
0,357,60294,6,0,P|66:318|162:288,1,161.999995056153
234,296,60588,2,0,P|222:239|218:180,1,107.999996704102
49,29,60882,5,0,0:0:0:0:
6,241,61029,1,0,0:0:0:0:
224,182,61176,1,0,0:0:0:0:
141,0,61323,1,0,0:0:0:0:
111,189,61470,6,0,P|129:248|148:294,1,107.999996704102
362,223,61764,2,0,P|344:164|325:118,1,107.999996704102
247,64,62058,2,0,P|188:82|142:101,1,107.999996704102
225,346,62353,2,0,P|284:328|330:309,1,107.999996704102
486,95,62647,6,0,P|385:108|275:134,1,161.999995056153
282,186,62941,2,0,P|318:228|376:251,1,107.999996704102
492,184,63235,1,0,0:0:0:0:
363,35,63382,1,0,0:0:0:0:
501,194,63529,6,0,P|509:268|402:317,1,161.999995056153
381,360,63823,2,0,P|361:300|371:225,1,107.999996704102
266,43,64117,2,0,P|205:84|168:106,1,107.999996704102
64,283,64411,5,0,0:0:0:0:
175,184,64558,1,0,0:0:0:0:
33,93,64706,1,0,0:0:0:0:
148,8,64853,1,0,0:0:0:0:
67,184,65000,6,0,P|113:270|151:363,1,161.999995056153
61,369,65294,1,0,0:0:0:0:
208,266,65441,1,0,0:0:0:0:
366,354,65588,2,0,P|417:306|457:286,1,107.999996704102
503,222,65808,1,0,0:0:0:0:
512,219,65882,2,0,P|461:171|421:151,1,107.999996704102
121,259,66176,5,0,0:0:0:0:
286,69,66323,1,0,0:0:0:0:
264,319,66470,1,0,0:0:0:0:
134,103,66617,1,0,0:0:0:0:
365,202,66764,5,0,0:0:0:0:
109,265,66911,1,0,0:0:0:0:
291,57,67058,1,0,0:0:0:0:
267,332,67205,1,0,0:0:0:0:
124,95,67353,5,0,0:0:0:0:
378,203,67499,1,0,0:0:0:0:
97,273,67647,1,0,0:0:0:0:
297,43,67794,1,0,0:0:0:0:
83,281,67941,5,0,0:0:0:0:
393,205,68088,1,0,0:0:0:0:
113,85,68235,1,0,0:0:0:0:
270,346,68382,1,0,0:0:0:0:
304,27,68529,6,0,P|368:22|401:105,1,161.999995056153
339,145,68823,1,0,0:0:0:0:
467,259,68970,1,0,0:0:0:0:
270,346,69117,1,0,0:0:0:0:
306,261,69264,1,0,0:0:0:0:
104,168,69411,2,0,P|52:183|0:196,1,107.999996704102
159,384,69706,6,0,P|182:278|211:174,1,215.999993408203
390,53,70147,1,0,0:0:0:0:
266,0,70294,2,0,P|252:56|302:101,1,107.999996704102
455,179,70588,1,0,0:0:0:0:
276,315,70735,1,0,0:0:0:0:
498,378,70882,6,0,P|485:323|382:314,1,161.999995056153
336,248,71176,2,0,P|352:187|367:116,1,107.999996704102
206,253,71470,2,0,P|174:198|134:137,1,107.999996704102
181,378,71764,2,0,P|100:357|7:337,1,161.999995056153
23,340,72058,1,0,0:0:0:0:
150,160,72353,5,0,0:0:0:0:
34,104,72500,1,0,0:0:0:0:
120,272,72647,1,0,0:0:0:0:
271,144,72794,1,0,0:0:0:0:
452,312,72941,2,0,B|504:276|504:276|452:228|456:148,1,161.999995056153
512,131,73235,6,0,P|408:143|336:68,1,215.999993408203
114,13,73750,1,0,0:0:0:0:
114,13,73823,2,0,L|149:149,1,107.999996704102
30,328,74117,1,0,0:0:0:0:
239,234,74264,1,0,0:0:0:0:
10,187,74411,6,0,L|144:229,1,107.999996704102
290,361,74706,2,0,P|361:361|394:214,1,215.999993408203
353,155,75147,1,0,0:0:0:0:
187,306,75294,2,0,P|206:227|221:147,1,161.999995056153
185,79,75588,5,0,0:0:0:0:
311,251,75735,1,0,0:0:0:0:
128,383,75882,2,0,P|76:368|17:359,1,107.999996704102
117,190,76176,5,0,0:0:0:0:
311,59,76323,2,0,B|398:38|385:109|492:75,1,161.999995056153
475,94,76617,2,0,P|450:199|447:265,1,144
337,201,77058,5,0,0:0:0:0:
477,361,77206,2,0,L|539:348,2,36
247,278,77500,5,0,0:0:0:0:
232,310,77573,1,0,0:0:0:0:
208,337,77647,1,0,0:0:0:0:
176,354,77720,1,0,0:0:0:0:
141,360,77794,1,0,0:0:0:0:
106,354,77867,1,0,0:0:0:0:
74,338,77941,6,0,L|44:215,1,107.999996704102
169,38,78235,2,0,P|84:35|95:146,1,215.999993408203
148,228,78676,1,0,0:0:0:0:
299,57,78823,1,0,0:0:0:0:
475,137,78970,1,0,0:0:0:0:
258,306,79117,6,0,L|221:143,1,161.999995056153
235,134,79411,2,0,P|288:165|355:144,1,107.999996704102
147,341,79706,2,0,P|94:336|49:366,1,107.999996704102
92,149,80000,1,0,0:0:0:0:
258,306,80147,1,0,0:0:0:0:
432,158,80294,6,0,P|446:89|337:73,1,161.999995056153
308,15,80588,2,0,P|266:28|194:42,1,107.999996704102
357,262,80882,2,0,P|410:271|461:288,1,107.999996704102
190,152,81176,5,0,0:0:0:0:
296,126,81323,1,0,0:0:0:0:
296,126,81397,1,0,0:0:0:0:
296,126,81470,2,0,P|264:229|245:335,1,215.999993408203
25,255,81911,5,0,0:0:0:0:
25,255,81985,1,0,0:0:0:0:
25,255,82058,1,0,0:0:0:0:
190,152,82206,1,0,0:0:0:0:
190,152,82353,1,0,0:0:0:0:
16,55,82500,1,0,0:0:0:0:
129,255,82647,6,0,P|152:327|157:380,1,107.999996704102
323,229,82941,2,0,P|300:157|295:104,1,107.999996704102
258,328,83235,2,0,P|331:344|380:366,1,107.999996704102
170,101,83529,2,0,P|71:79|7:50,1,161.999995056153
6,39,83823,1,0,0:0:0:0:
111,202,83970,1,0,0:0:0:0:
255,56,84117,1,0,0:0:0:0:
7,156,84264,5,0,0:0:0:0:
7,156,84338,1,0,0:0:0:0:
7,156,84411,1,0,0:0:0:0:
213,260,84558,1,0,0:0:0:0:
262,40,84706,1,0,0:0:0:0:
95,210,84853,1,0,0:0:0:0:
276,356,85000,5,0,0:0:0:0:
276,355,85294,2,0,P|351:327|431:318,1,161.999995056153
506,372,85882,1,0,0:0:0:0:
336,222,86176,1,0,0:0:0:0:
336,222,86470,2,0,P|318:187|313:109,1,107.999996704102
332,42,86911,1,0,0:0:0:0:
408,82,87058,2,0,P|440:83|473:68,1,53.9999983520508
240,16,87353,5,0,0:0:0:0:
240,16,87647,2,0,L|67:53,1,161.999995056153
31,127,88235,1,0,0:0:0:0:
213,177,88529,1,0,0:0:0:0:
