osu file format v14

[General]
AudioFilename: audio.mp3
AudioLeadIn: 0
PreviewTime: 49118
Countdown: 0
SampleSet: Normal
StackLeniency: 0.7
Mode: 1
LetterboxInBreaks: 0
WidescreenStoryboard: 1

[Editor]
Bookmarks: 527,9939,28763,49939,59645,69057,78469,85232,88762,106998
DistanceSpacing: 1.3
BeatDivisor: 4
GridSize: 32
TimelineZoom: 2.200001

[Metadata]
Title:Haru (TV Size)
TitleUnicode:晴る (TV Size)
Artist:Yorushika
ArtistUnicode:ヨルシカ
Creator:Zhuosh
Version:ler's Sunlit
Source:葬送のフリーレン
Tags:kayoko k_a_y_o_k_o ler1211 sammu iredi -maruko- nbuna n-buna ナブナ suis スイ sousou no frieren beyond journey's end anime op opening theme japanese pop jpop j-pop
BeatmapID:4550786
BeatmapSetID:2114635

[Difficulty]
HPDrainRate:6
CircleSize:2
OverallDifficulty:6
ApproachRate:10
SliderMultiplier:1.4
SliderTickRate:1

[Events]
//Background and Video events
Video,-263,"op.mp4"
0,0,"frieren.jpg",0,75
//Break Periods
//Storyboard Layer 0 (Background)
//Storyboard Layer 1 (Fail)
//Storyboard Layer 2 (Pass)
//Storyboard Layer 3 (Foreground)
//Storyboard Layer 4 (Overlay)
//Storyboard Sound Samples

[TimingPoints]
295,294.117647058823,4,1,0,30,1,0
295,-125,4,1,0,30,0,0
9559,-125,4,1,0,70,0,0
49559,-100,4,1,0,90,0,0
49706,-100,4,1,0,90,0,1
52059,-100,4,1,0,90,0,0
52133,-100,4,1,0,30,0,0
53383,-100,4,1,0,90,0,0
54412,-100,4,1,0,90,0,1
59118,-100,4,1,0,90,0,0
59412,-100,4,1,0,90,0,1
68530,-100,4,1,0,90,0,0
68824,-100,4,1,0,90,0,1
77942,-100,4,1,0,90,0,0
78236,-100,4,1,0,90,0,1
84927,-100,4,1,0,30,0,1
85000,-100,4,1,0,30,0,0
85074,-125,4,1,0,30,0,0

[HitObjects]
256,192,295,5,8,0:0:0:0:
256,191,589,1,0,0:0:0:0:
256,191,1030,1,8,0:0:0:0:
256,191,1177,1,8,0:0:0:0:
256,191,1471,1,8,0:0:0:0:
256,191,1765,1,0,0:0:0:0:
256,191,2206,1,8,0:0:0:0:
256,191,2353,1,8,0:0:0:0:
256,191,2500,1,8,0:0:0:0:
256,191,2647,1,8,0:0:0:0:
256,191,2942,1,0,0:0:0:0:
256,191,3383,1,8,0:0:0:0:
256,191,3530,1,0,0:0:0:0:
256,191,3628,1,8,0:0:0:0:
256,191,3726,1,8,0:0:0:0:
255,191,3824,1,8,0:0:0:0:
255,191,4118,1,0,0:0:0:0:
255,191,4559,1,8,0:0:0:0:
256,191,4706,1,8,0:0:0:0:
256,191,5000,1,8,0:0:0:0:
256,191,5294,1,0,0:0:0:0:
256,191,5736,1,8,0:0:0:0:
256,191,5883,1,8,0:0:0:0:
256,191,6177,1,8,0:0:0:0:
256,191,6471,1,0,0:0:0:0:
256,191,6912,1,8,0:0:0:0:
256,191,7059,1,8,0:0:0:0:
256,191,7206,1,8,0:0:0:0:
255,191,7353,1,8,0:0:0:0:
255,191,7647,1,0,0:0:0:0:
255,191,8089,1,8,0:0:0:0:
255,191,8236,1,0,0:0:0:0:
255,191,8334,1,0,0:0:0:0:
255,191,8432,1,0,0:0:0:0:
255,191,8530,1,8,0:0:0:0:
255,191,8824,1,0,0:0:0:0:
255,191,9118,1,8,0:0:0:0:
256,191,9265,1,8,0:0:0:0:
256,191,9412,1,8,0:0:0:0:
256,191,9706,1,0,0:0:0:0:
256,191,10000,1,8,0:0:0:0:
256,191,10294,1,0,0:0:0:0:
256,191,10442,1,0,0:0:0:0:
256,191,10589,1,8,0:0:0:0:
256,191,10883,1,0,0:0:0:0:
256,191,11177,1,8,0:0:0:0:
256,191,11471,1,0,0:0:0:0:
256,191,11618,1,0,0:0:0:0:
256,191,11765,1,8,0:0:0:0:
256,191,11912,1,8,0:0:0:0:
256,191,12059,1,0,0:0:0:0:
256,191,12353,1,8,0:0:0:0:
256,191,12794,1,0,0:0:0:0:
256,191,12942,1,8,0:0:0:0:
256,191,13236,1,0,0:0:0:0:
256,191,13530,1,8,0:0:0:0:
255,191,13824,1,0,0:0:0:0:
255,191,13971,1,0,0:0:0:0:
256,191,14118,1,8,0:0:0:0:
256,191,14265,1,0,0:0:0:0:
255,191,14412,1,0,0:0:0:0:
255,191,14706,1,8,0:0:0:0:
255,191,15000,1,0,0:0:0:0:
256,191,15147,1,8,0:0:0:0:
256,191,15294,1,8,0:0:0:0:
255,191,15589,1,0,0:0:0:0:
255,191,15883,1,8,0:0:0:0:
256,191,16177,1,0,0:0:0:0:
256,191,16324,1,8,0:0:0:0:
256,191,16471,1,8,0:0:0:0:
256,191,16618,1,8,0:0:0:0:
255,191,16765,1,0,0:0:0:0:
255,191,17059,1,8,0:0:0:0:
255,191,17500,1,8,0:0:0:0:
255,191,17647,1,8,0:0:0:0:
255,191,17942,1,0,0:0:0:0:
255,191,18236,1,8,0:0:0:0:
256,191,18530,1,0,0:0:0:0:
255,191,18677,1,8,0:0:0:0:
256,191,18824,1,8,0:0:0:0:
255,191,18971,1,0,0:0:0:0:
256,191,19118,1,0,0:0:0:0:
256,191,19412,1,8,0:0:0:0:
256,191,19706,1,8,0:0:0:0:
256,191,19853,1,0,0:0:0:0:
256,191,20000,1,8,0:0:0:0:
256,191,20294,1,0,0:0:0:0:
256,191,20589,1,8,0:0:0:0:
256,191,20883,1,8,0:0:0:0:
256,191,21030,1,0,0:0:0:0:
256,191,21177,1,8,0:0:0:0:
256,191,21324,1,8,0:0:0:0:
256,191,21471,1,0,0:0:0:0:
256,191,21765,1,8,0:0:0:0:
256,191,22206,1,0,0:0:0:0:
256,191,22353,1,8,0:0:0:0:
256,191,22647,1,0,0:0:0:0:
256,191,22942,1,8,0:0:0:0:
256,191,23236,1,8,0:0:0:0:
256,191,23383,1,0,0:0:0:0:
256,191,23530,1,8,0:0:0:0:
256,191,23677,1,0,0:0:0:0:
256,191,23824,1,0,0:0:0:0:
256,191,24118,1,8,0:0:0:0:
256,191,24559,1,0,0:0:0:0:
256,191,24706,1,8,0:0:0:0:
256,191,25000,1,0,0:0:0:0:
256,191,25294,1,8,0:0:0:0:
256,191,25442,1,0,0:0:0:0:
256,191,25736,1,0,0:0:0:0:
256,191,25883,1,8,0:0:0:0:
256,191,26030,1,8,0:0:0:0:
256,191,26177,1,0,0:0:0:0:
256,191,26471,1,8,0:0:0:0:
256,191,26912,1,8,0:0:0:0:
256,191,27059,1,8,0:0:0:0:
256,191,27353,1,0,0:0:0:0:
256,191,27647,1,8,0:0:0:0:
256,191,27942,1,8,0:0:0:0:
256,191,28089,1,8,0:0:0:0:
256,191,28236,1,8,0:0:0:0:
256,191,28383,1,0,0:0:0:0:
256,191,28530,1,0,0:0:0:0:
256,191,28824,1,8,0:0:0:0:
256,191,29118,1,0,0:0:0:0:
256,191,29266,1,0,0:0:0:0:
256,191,29413,1,8,0:0:0:0:
256,191,29707,1,0,0:0:0:0:
256,191,30001,1,8,0:0:0:0:
256,191,30295,1,0,0:0:0:0:
256,191,30442,1,0,0:0:0:0:
256,191,30589,1,8,0:0:0:0:
256,191,30736,1,8,0:0:0:0:
256,191,30883,1,0,0:0:0:0:
256,191,31177,1,8,0:0:0:0:
256,191,31618,1,0,0:0:0:0:
256,191,31766,1,8,0:0:0:0:
256,191,32060,1,0,0:0:0:0:
256,191,32354,1,8,0:0:0:0:
255,191,32648,1,0,0:0:0:0:
255,191,32795,1,0,0:0:0:0:
256,191,32942,1,8,0:0:0:0:
256,191,33089,1,0,0:0:0:0:
255,191,33236,1,0,0:0:0:0:
255,191,33530,1,8,0:0:0:0:
255,191,33824,1,0,0:0:0:0:
256,191,33971,1,8,0:0:0:0:
256,191,34118,1,8,0:0:0:0:
255,191,34413,1,0,0:0:0:0:
255,191,34707,1,8,0:0:0:0:
256,191,35001,1,0,0:0:0:0:
256,191,35148,1,8,0:0:0:0:
256,191,35295,1,8,0:0:0:0:
256,191,35442,1,8,0:0:0:0:
255,191,35589,1,0,0:0:0:0:
255,191,35883,1,8,0:0:0:0:
255,191,36324,1,8,0:0:0:0:
255,191,36471,1,8,0:0:0:0:
255,191,36766,1,0,0:0:0:0:
255,191,37060,1,8,0:0:0:0:
256,191,37354,1,0,0:0:0:0:
255,191,37501,1,8,0:0:0:0:
256,191,37648,1,8,0:0:0:0:
255,191,37795,1,0,0:0:0:0:
256,191,37942,1,0,0:0:0:0:
256,191,38236,1,8,0:0:0:0:
256,191,38530,1,8,0:0:0:0:
256,191,38677,1,0,0:0:0:0:
256,191,38824,1,8,0:0:0:0:
256,191,39118,1,0,0:0:0:0:
256,191,39413,1,8,0:0:0:0:
256,191,39707,1,8,0:0:0:0:
256,191,39854,1,0,0:0:0:0:
256,191,40001,1,8,0:0:0:0:
256,191,40148,1,8,0:0:0:0:
256,191,40295,1,0,0:0:0:0:
256,191,40589,1,8,0:0:0:0:
256,191,41030,1,0,0:0:0:0:
256,191,41177,1,8,0:0:0:0:
256,191,41471,1,0,0:0:0:0:
256,191,41766,1,8,0:0:0:0:
256,191,42060,1,8,0:0:0:0:
256,191,42207,1,0,0:0:0:0:
256,191,42354,1,8,0:0:0:0:
256,191,42501,1,0,0:0:0:0:
256,191,42648,1,8,0:0:0:0:
256,191,42942,1,8,0:0:0:0:
256,191,43089,1,0,0:0:0:0:
256,191,43383,1,0,0:0:0:0:
256,191,43530,1,8,0:0:0:0:
256,191,43824,1,0,0:0:0:0:
256,191,43971,1,0,0:0:0:0:
256,191,44118,1,8,0:0:0:0:
256,191,44266,1,0,0:0:0:0:
256,191,44560,1,0,0:0:0:0:
256,191,44707,1,8,0:0:0:0:
256,191,44854,1,8,0:0:0:0:
256,191,45001,1,0,0:0:0:0:
256,191,45147,1,0,0:0:0:0:
256,191,45295,1,8,0:0:0:0:
256,191,45589,1,0,0:0:0:0:
256,191,45736,1,8,0:0:0:0:
256,191,45883,1,0,0:0:0:0:
256,191,46030,1,0,0:0:0:0:
256,191,46177,1,8,0:0:0:0:
256,191,46471,1,0,0:0:0:0:
256,191,46618,1,8,0:0:0:0:
256,191,46766,1,8,0:0:0:0:
256,191,46913,1,8,0:0:0:0:
256,191,47060,1,0,0:0:0:0:
256,191,47207,1,8,0:0:0:0:
256,192,47353,12,0,48971,0:0:0:0:
255,192,49118,5,8,0:0:0:0:
255,192,49706,1,4,0:0:0:0:
255,192,50000,1,8,0:0:0:0:
255,192,50221,1,8,0:0:0:0:
256,191,50294,1,0,0:0:0:0:
256,191,50442,1,0,0:0:0:0:
256,191,50515,1,0,0:0:0:0:
256,191,50589,1,8,0:0:0:0:
256,191,50736,1,8,0:0:0:0:
256,191,50883,1,0,0:0:0:0:
256,192,51103,1,0,0:0:0:0:
256,192,51177,1,8,0:0:0:0:
256,192,51324,1,8,0:0:0:0:
255,192,51397,1,8,0:0:0:0:
255,192,51471,1,0,0:0:0:0:
255,191,51618,1,0,0:0:0:0:
256,192,51692,1,0,0:0:0:0:
255,191,51765,1,8,0:0:0:0:
255,191,51912,1,8,0:0:0:0:
256,192,52059,1,4,0:0:0:0:
255,191,53530,1,12,0:0:0:0:
255,191,53824,1,12,0:0:0:0:
255,191,54118,1,12,0:0:0:0:
255,191,54412,1,4,0:0:0:0:
255,191,54633,1,0,0:0:0:0:
255,191,54706,1,8,0:0:0:0:
256,192,54853,1,8,0:0:0:0:
256,192,55000,1,0,0:0:0:0:
256,192,55147,1,0,0:0:0:0:
255,191,55221,1,0,0:0:0:0:
255,191,55294,1,8,0:0:0:0:
255,191,55368,1,8,0:0:0:0:
255,191,55442,1,8,0:0:0:0:
255,191,55515,1,8,0:0:0:0:
255,191,55589,1,0,0:0:0:0:
255,191,55736,1,8,0:0:0:0:
256,191,55883,1,8,0:0:0:0:
255,191,55956,1,0,0:0:0:0:
256,191,56030,1,8,0:0:0:0:
256,191,56103,1,8,0:0:0:0:
255,191,56177,1,0,0:0:0:0:
255,191,56324,1,0,0:0:0:0:
255,191,56397,1,0,0:0:0:0:
255,192,56471,1,8,0:0:0:0:
255,192,56618,1,8,0:0:0:0:
255,192,56692,1,8,0:0:0:0:
255,191,56765,1,0,0:0:0:0:
255,191,56912,1,8,0:0:0:0:
255,191,57059,1,0,0:0:0:0:
256,191,57133,1,8,0:0:0:0:
255,191,57206,1,0,0:0:0:0:
255,191,57280,1,0,0:0:0:0:
255,191,57353,1,8,0:0:0:0:
255,191,57427,1,0,0:0:0:0:
255,192,57500,1,0,0:0:0:0:
255,192,57574,1,8,0:0:0:0:
255,191,57647,1,0,0:0:0:0:
255,191,57794,1,12,0:0:0:0:
255,191,58089,1,0,0:0:0:0:
255,191,58162,1,0,0:0:0:0:
255,191,58236,1,8,0:0:0:0:
255,192,58383,1,8,0:0:0:0:
255,191,58530,1,0,0:0:0:0:
255,191,58603,1,0,0:0:0:0:
255,191,58677,1,0,0:0:0:0:
255,191,58750,1,8,0:0:0:0:
255,191,58824,1,0,0:0:0:0:
255,191,58897,1,0,0:0:0:0:
255,191,58971,1,0,0:0:0:0:
255,191,59044,1,8,0:0:0:0:
255,192,59118,1,0,0:0:0:0:
255,192,59412,1,12,0:0:0:0:
255,191,59633,1,8,0:0:0:0:
255,191,59706,1,0,0:0:0:0:
255,192,59853,1,0,0:0:0:0:
255,192,59927,1,0,0:0:0:0:
255,192,60000,1,8,0:0:0:0:
255,192,60147,1,8,0:0:0:0:
255,192,60221,1,8,0:0:0:0:
255,192,60294,1,0,0:0:0:0:
255,192,60515,1,0,0:0:0:0:
255,192,60589,1,8,0:0:0:0:
255,192,60736,1,8,0:0:0:0:
255,192,60809,1,8,0:0:0:0:
255,192,60883,1,0,0:0:0:0:
255,192,60956,1,8,0:0:0:0:
255,192,61030,1,0,0:0:0:0:
255,192,61103,1,0,0:0:0:0:
255,192,61177,1,8,0:0:0:0:
255,192,61324,1,8,0:0:0:0:
255,192,61471,1,0,0:0:0:0:
255,192,61544,1,8,0:0:0:0:
255,192,61618,1,8,0:0:0:0:
255,192,61692,1,0,0:0:0:0:
255,192,61765,1,8,0:0:0:0:
255,192,61839,1,8,0:0:0:0:
255,192,61912,1,0,0:0:0:0:
255,192,61986,1,8,0:0:0:0:
255,192,62059,1,0,0:0:0:0:
255,192,62206,1,0,0:0:0:0:
255,192,62353,1,8,0:0:0:0:
255,192,62427,1,8,0:0:0:0:
255,192,62500,1,8,0:0:0:0:
255,192,62574,1,8,0:0:0:0:
255,192,62647,1,0,0:0:0:0:
255,192,62868,1,0,0:0:0:0:
255,192,62942,1,8,0:0:0:0:
255,192,63015,1,0,0:0:0:0:
255,191,63162,1,8,0:0:0:0:
255,192,63236,1,0,0:0:0:0:
255,192,63383,1,0,0:0:0:0:
255,192,63456,1,0,0:0:0:0:
255,192,63530,1,8,0:0:0:0:
255,192,63677,1,8,0:0:0:0:
255,192,63824,1,4,0:0:0:0:
255,192,64044,1,0,0:0:0:0:
255,192,64118,1,8,0:0:0:0:
255,192,64265,1,8,0:0:0:0:
255,192,64412,1,0,0:0:0:0:
255,192,64486,1,8,0:0:0:0:
255,192,64559,1,0,0:0:0:0:
255,192,64633,1,0,0:0:0:0:
255,192,64706,1,8,0:0:0:0:
255,192,64853,1,8,0:0:0:0:
255,192,64927,1,8,0:0:0:0:
255,192,65000,1,0,0:0:0:0:
255,192,65147,1,8,0:0:0:0:
255,192,65294,1,8,0:0:0:0:
255,192,65368,1,0,0:0:0:0:
255,192,65442,1,8,0:0:0:0:
255,192,65515,1,8,0:0:0:0:
255,192,65589,1,0,0:0:0:0:
255,192,65662,1,0,0:0:0:0:
255,192,65736,1,0,0:0:0:0:
255,192,65809,1,0,0:0:0:0:
255,192,65883,1,8,0:0:0:0:
255,192,66030,1,8,0:0:0:0:
255,192,66177,1,4,0:0:0:0:
255,192,66397,1,0,0:0:0:0:
255,192,66471,1,8,0:0:0:0:
255,192,66618,1,8,0:0:0:0:
255,191,66692,1,8,0:0:0:0:
255,192,66765,1,0,0:0:0:0:
255,192,66912,1,0,0:0:0:0:
255,191,67059,1,8,0:0:0:0:
255,192,67133,1,0,0:0:0:0:
255,191,67206,1,8,0:0:0:0:
255,192,67280,1,8,0:0:0:0:
255,192,67353,1,0,0:0:0:0:
255,192,67500,1,8,0:0:0:0:
255,192,67574,1,0,0:0:0:0:
255,191,67647,1,8,0:0:0:0:
255,191,67721,1,0,0:0:0:0:
255,192,67794,1,8,0:0:0:0:
255,191,67942,1,0,0:0:0:0:
255,191,68015,1,0,0:0:0:0:
255,191,68089,1,8,0:0:0:0:
255,192,68162,1,8,0:0:0:0:
255,191,68236,1,0,0:0:0:0:
255,192,68309,1,0,0:0:0:0:
255,191,68383,1,8,0:0:0:0:
255,192,68456,1,8,0:0:0:0:
255,191,68530,1,0,0:0:0:0:
255,192,68824,1,12,0:0:0:0:
255,191,69044,1,8,0:0:0:0:
255,191,69118,1,0,0:0:0:0:
255,192,69265,1,0,0:0:0:0:
255,192,69339,1,0,0:0:0:0:
255,192,69412,1,8,0:0:0:0:
255,192,69559,1,8,0:0:0:0:
255,192,69633,1,8,0:0:0:0:
255,192,69706,1,0,0:0:0:0:
255,192,69780,1,0,0:0:0:0:
255,191,69927,1,0,0:0:0:0:
255,192,70001,1,8,0:0:0:0:
255,192,70148,1,8,0:0:0:0:
255,192,70295,1,0,0:0:0:0:
255,192,70368,1,8,0:0:0:0:
255,192,70442,1,0,0:0:0:0:
255,192,70515,1,0,0:0:0:0:
255,192,70589,1,8,0:0:0:0:
255,192,70736,1,8,0:0:0:0:
255,192,70883,1,0,0:0:0:0:
255,192,70956,1,8,0:0:0:0:
255,192,71030,1,8,0:0:0:0:
255,192,71104,1,0,0:0:0:0:
255,192,71177,1,8,0:0:0:0:
255,192,71251,1,0,0:0:0:0:
255,192,71324,1,8,0:0:0:0:
255,192,71398,1,8,0:0:0:0:
255,192,71471,1,0,0:0:0:0:
255,192,71618,1,0,0:0:0:0:
255,192,71765,1,8,0:0:0:0:
255,192,71839,1,8,0:0:0:0:
255,192,71912,1,0,0:0:0:0:
255,192,71986,1,8,0:0:0:0:
255,192,72059,1,0,0:0:0:0:
255,191,72206,1,8,0:0:0:0:
255,192,72280,1,0,0:0:0:0:
255,192,72353,1,8,0:0:0:0:
255,192,72500,1,8,0:0:0:0:
255,192,72574,1,8,0:0:0:0:
255,191,72647,1,0,0:0:0:0:
255,192,72721,1,8,0:0:0:0:
255,191,72794,1,0,0:0:0:0:
255,192,72868,1,0,0:0:0:0:
255,191,72942,1,8,0:0:0:0:
255,191,73089,1,8,0:0:0:0:
255,191,73236,1,4,0:0:0:0:
255,191,73457,1,0,0:0:0:0:
255,191,73530,1,8,0:0:0:0:
256,192,73677,1,8,0:0:0:0:
256,192,73824,1,0,0:0:0:0:
256,192,73971,1,0,0:0:0:0:
255,191,74045,1,0,0:0:0:0:
255,191,74118,1,8,0:0:0:0:
255,191,74192,1,8,0:0:0:0:
255,191,74266,1,0,0:0:0:0:
255,191,74339,1,8,0:0:0:0:
255,191,74413,1,0,0:0:0:0:
255,191,74560,1,8,0:0:0:0:
256,191,74707,1,8,0:0:0:0:
255,191,74780,1,0,0:0:0:0:
256,191,74854,1,8,0:0:0:0:
256,191,74927,1,8,0:0:0:0:
255,191,75001,1,0,0:0:0:0:
255,191,75148,1,0,0:0:0:0:
255,191,75221,1,0,0:0:0:0:
255,192,75295,1,8,0:0:0:0:
255,192,75442,1,8,0:0:0:0:
255,192,75516,1,8,0:0:0:0:
255,191,75589,1,0,0:0:0:0:
255,191,75736,1,8,0:0:0:0:
255,191,75883,1,0,0:0:0:0:
255,191,75956,1,0,0:0:0:0:
255,191,76030,1,8,0:0:0:0:
256,191,76103,1,0,0:0:0:0:
255,191,76177,1,8,0:0:0:0:
255,191,76251,1,0,0:0:0:0:
255,192,76324,1,0,0:0:0:0:
255,192,76397,1,8,0:0:0:0:
255,191,76471,1,0,0:0:0:0:
255,191,76618,1,12,0:0:0:0:
255,191,76913,1,0,0:0:0:0:
255,191,76986,1,0,0:0:0:0:
255,191,77060,1,8,0:0:0:0:
255,192,77207,1,8,0:0:0:0:
255,191,77354,1,0,0:0:0:0:
255,191,77427,1,8,0:0:0:0:
255,191,77501,1,8,0:0:0:0:
255,191,77574,1,8,0:0:0:0:
255,191,77648,1,0,0:0:0:0:
255,191,77721,1,8,0:0:0:0:
255,191,77795,1,8,0:0:0:0:
255,191,77868,1,8,0:0:0:0:
255,192,77942,1,0,0:0:0:0:
255,192,78236,1,12,0:0:0:0:
255,191,78457,1,8,0:0:0:0:
255,191,78530,1,0,0:0:0:0:
255,192,78677,1,0,0:0:0:0:
255,192,78751,1,0,0:0:0:0:
255,192,78824,1,8,0:0:0:0:
255,192,78971,1,8,0:0:0:0:
255,192,79045,1,8,0:0:0:0:
255,192,79118,1,0,0:0:0:0:
255,192,79192,1,8,0:0:0:0:
255,192,79339,1,0,0:0:0:0:
255,192,79413,1,8,0:0:0:0:
255,192,79560,1,8,0:0:0:0:
255,192,79707,1,0,0:0:0:0:
255,192,79780,1,8,0:0:0:0:
255,192,79854,1,0,0:0:0:0:
255,192,79927,1,0,0:0:0:0:
255,192,80001,1,8,0:0:0:0:
255,192,80148,1,8,0:0:0:0:
255,192,80295,1,0,0:0:0:0:
255,192,80368,1,8,0:0:0:0:
255,192,80442,1,8,0:0:0:0:
255,192,80516,1,0,0:0:0:0:
255,192,80589,1,8,0:0:0:0:
255,192,80663,1,8,0:0:0:0:
255,192,80736,1,8,0:0:0:0:
255,192,80810,1,8,0:0:0:0:
255,192,80883,1,0,0:0:0:0:
255,192,81030,1,0,0:0:0:0:
255,192,81177,1,8,0:0:0:0:
255,192,81251,1,0,0:0:0:0:
255,192,81324,1,8,0:0:0:0:
255,192,81398,1,8,0:0:0:0:
255,192,81471,1,0,0:0:0:0:
255,192,81692,1,0,0:0:0:0:
255,192,81766,1,8,0:0:0:0:
255,192,81839,1,8,0:0:0:0:
255,191,81986,1,8,0:0:0:0:
255,192,82060,1,0,0:0:0:0:
255,192,82207,1,0,0:0:0:0:
255,192,82280,1,0,0:0:0:0:
255,192,82354,1,8,0:0:0:0:
255,192,82501,1,8,0:0:0:0:
255,192,82648,1,4,0:0:0:0:
255,192,82868,1,0,0:0:0:0:
255,192,82942,1,8,0:0:0:0:
255,192,83089,1,8,0:0:0:0:
255,192,83236,1,0,0:0:0:0:
255,192,83309,1,8,0:0:0:0:
255,192,83383,1,0,0:0:0:0:
255,192,83457,1,0,0:0:0:0:
255,192,83530,1,8,0:0:0:0:
255,192,83677,1,8,0:0:0:0:
255,192,83750,1,8,0:0:0:0:
255,192,83824,1,0,0:0:0:0:
255,192,83971,1,8,0:0:0:0:
255,192,84118,1,8,0:0:0:0:
255,192,84192,1,0,0:0:0:0:
255,192,84266,1,8,0:0:0:0:
255,192,84339,1,8,0:0:0:0:
255,192,84413,1,0,0:0:0:0:
255,192,84486,1,0,0:0:0:0:
255,192,84559,1,8,0:0:0:0:
255,192,84633,1,0,0:0:0:0:
255,192,84707,1,8,0:0:0:0:
255,192,84853,1,8,0:0:0:0:
255,192,85000,1,0,0:0:0:0:
255,192,85294,1,8,0:0:0:0:
255,192,85883,1,0,0:0:0:0:
255,192,86177,1,0,0:0:0:0:
255,192,86471,1,8,0:0:0:0:
255,192,86912,1,0,0:0:0:0:
255,192,87059,1,0,0:0:0:0:
255,192,87206,1,0,0:0:0:0:
255,192,87353,1,0,0:0:0:0:
255,192,87647,1,8,0:0:0:0:
255,192,88089,1,0,0:0:0:0:
255,192,88236,1,8,0:0:0:0:
255,192,88334,1,8,0:0:0:0:
255,192,88432,1,8,0:0:0:0:
255,192,88530,1,0,0:0:0:0:
