osu file format v14

[General]
AudioFilename: audio.mp3
AudioLeadIn: 0
PreviewTime: 49118
Countdown: 0
SampleSet: Normal
StackLeniency: 0.7
Mode: 1
LetterboxInBreaks: 0
WidescreenStoryboard: 1

[Editor]
Bookmarks: 527,9939,28763,49939,59645,69057,78469,87586,106998
DistanceSpacing: 1.3
BeatDivisor: 4
GridSize: 32
TimelineZoom: 2.4

[Metadata]
Title:Haru (TV Size)
TitleUnicode:晴る (TV Size)
Artist:Yorushika
ArtistUnicode:ヨルシカ
Creator:Zhuosh
Version:iRedi's Oni
Source:葬送のフリーレン
Tags:kayoko k_a_y_o_k_o ler1211 sammu iredi -maruko- nbuna n-buna ナブナ suis スイ sousou no frieren beyond journey's end anime op opening theme japanese pop jpop j-pop
BeatmapID:4440969
BeatmapSetID:2114635

[Difficulty]
HPDrainRate:5.5
CircleSize:2
OverallDifficulty:5.5
ApproachRate:10
SliderMultiplier:1.4
SliderTickRate:1

[Events]
//Background and Video events
0,0,"bg.jpg",0,60
Video,-263,"op.mp4"
//Break Periods
//Storyboard Layer 0 (Background)
//Storyboard Layer 1 (Fail)
//Storyboard Layer 2 (Pass)
//Storyboard Layer 3 (Foreground)
//Storyboard Layer 4 (Overlay)
//Storyboard Sound Samples

[TimingPoints]
295,294.117647058823,4,1,0,30,1,0
295,-125,4,1,0,30,0,0
9118,-125,4,1,0,30,0,0
9412,-111.111111111111,4,1,0,30,0,0
9706,-100,4,1,0,60,0,0
42647,-100,4,1,0,70,0,0
47500,-100,4,1,0,65,0,0
49706,-100,4,1,0,80,0,1
52059,-100,4,1,0,80,0,0
53530,-86.9565217391304,4,1,0,80,0,0
53824,-90.9090909090909,4,1,0,80,0,0
54118,-95.2380952380952,4,1,0,80,0,0
54412,-100,4,1,0,80,0,1
58530,-100,4,1,0,80,0,0
59412,-100,4,1,0,80,0,1
68530,-100,4,1,0,80,0,0
68824,-100,4,1,0,80,0,1
77353,-100,4,1,0,80,0,0
78236,-100,4,1,0,80,0,1
85000,-100,4,1,0,30,0,0

[HitObjects]
256,192,295,5,0,0:0:0:0:
256,191,589,1,8,0:0:0:0:
256,191,1030,1,8,0:0:0:0:
256,191,1177,1,8,0:0:0:0:
256,191,1471,1,0,0:0:0:0:
256,191,1765,1,8,0:0:0:0:
256,191,2206,1,0,0:0:0:0:
256,191,2353,1,0,0:0:0:0:
256,191,2647,1,8,0:0:0:0:
256,191,2942,1,0,0:0:0:0:
256,191,3383,1,8,0:0:0:0:
256,191,3530,1,8,0:0:0:0:
255,191,3824,1,0,0:0:0:0:
255,191,4118,1,0,0:0:0:0:
255,191,4559,1,8,0:0:0:0:
256,191,4706,1,0,0:0:0:0:
256,191,5000,1,8,0:0:0:0:
256,191,5294,1,0,0:0:0:0:
256,191,5736,1,0,0:0:0:0:
256,191,5883,1,8,0:0:0:0:
256,191,6177,1,0,0:0:0:0:
256,191,6471,1,8,0:0:0:0:
256,191,6912,1,0,0:0:0:0:
256,191,7059,1,0,0:0:0:0:
255,191,7353,1,8,0:0:0:0:
255,191,7647,1,0,0:0:0:0:
255,191,8089,1,8,0:0:0:0:
255,191,8236,1,8,0:0:0:0:
255,191,8530,1,0,0:0:0:0:
255,191,8824,1,8,0:0:0:0:
255,191,9118,1,0,0:0:0:0:
256,191,9412,1,8,0:0:0:0:
256,191,9706,1,0,0:0:0:0:
256,191,10000,1,8,0:0:0:0:
256,191,10294,1,0,0:0:0:0:
256,191,10442,1,0,0:0:0:0:
256,191,10589,1,8,0:0:0:0:
256,191,10883,1,0,0:0:0:0:
256,191,11177,1,8,0:0:0:0:
256,191,11471,1,0,0:0:0:0:
256,191,11618,1,0,0:0:0:0:
256,191,11765,1,8,0:0:0:0:
256,191,11912,1,8,0:0:0:0:
256,191,12059,1,0,0:0:0:0:
256,191,12353,1,8,0:0:0:0:
256,191,12794,1,0,0:0:0:0:
256,191,12942,1,8,0:0:0:0:
256,191,13236,1,0,0:0:0:0:
256,191,13530,1,8,0:0:0:0:
255,191,13824,1,0,0:0:0:0:
255,191,13971,1,0,0:0:0:0:
256,191,14118,1,8,0:0:0:0:
255,191,14412,1,0,0:0:0:0:
255,191,14706,1,8,0:0:0:0:
255,191,15000,1,0,0:0:0:0:
256,191,15147,1,0,0:0:0:0:
256,191,15294,1,8,0:0:0:0:
255,191,15589,1,0,0:0:0:0:
255,191,15883,1,8,0:0:0:0:
256,191,16177,1,0,0:0:0:0:
256,191,16324,1,0,0:0:0:0:
256,191,16471,1,8,0:0:0:0:
256,191,16618,1,8,0:0:0:0:
255,191,16765,1,0,0:0:0:0:
255,191,17059,1,8,0:0:0:0:
255,191,17500,1,0,0:0:0:0:
255,191,17647,1,8,0:0:0:0:
255,191,17942,1,0,0:0:0:0:
255,191,18236,1,8,0:0:0:0:
256,191,18530,1,0,0:0:0:0:
255,191,18677,1,0,0:0:0:0:
256,191,18824,1,8,0:0:0:0:
256,191,19118,1,0,0:0:0:0:
256,191,19412,1,8,0:0:0:0:
256,191,19706,1,8,0:0:0:0:
256,191,19853,1,0,0:0:0:0:
256,191,20000,1,8,0:0:0:0:
256,191,20294,1,0,0:0:0:0:
256,191,20589,1,8,0:0:0:0:
256,191,20883,1,8,0:0:0:0:
256,191,21030,1,0,0:0:0:0:
256,191,21177,1,8,0:0:0:0:
256,191,21324,1,8,0:0:0:0:
256,191,21471,1,0,0:0:0:0:
256,191,21765,1,8,0:0:0:0:
256,191,22206,1,0,0:0:0:0:
256,191,22353,1,8,0:0:0:0:
256,191,22647,1,0,0:0:0:0:
256,191,22942,1,8,0:0:0:0:
256,191,23383,1,0,0:0:0:0:
256,191,23530,1,8,0:0:0:0:
256,191,23677,1,8,0:0:0:0:
256,191,23824,1,0,0:0:0:0:
256,191,24118,1,8,0:0:0:0:
256,191,24706,1,8,0:0:0:0:
256,191,25000,1,0,0:0:0:0:
256,191,25294,1,8,0:0:0:0:
256,191,25736,1,0,0:0:0:0:
256,191,25883,1,8,0:0:0:0:
256,191,26030,1,8,0:0:0:0:
256,191,26177,1,0,0:0:0:0:
256,191,26471,1,8,0:0:0:0:
256,191,27059,1,8,0:0:0:0:
256,191,27353,1,0,0:0:0:0:
256,191,27647,1,8,0:0:0:0:
256,191,27942,1,0,0:0:0:0:
256,191,28089,1,0,0:0:0:0:
256,191,28236,1,8,0:0:0:0:
256,191,28530,1,0,0:0:0:0:
255,191,28824,1,8,0:0:0:0:
256,191,28971,1,0,0:0:0:0:
256,191,29265,1,8,0:0:0:0:
255,191,29412,1,0,0:0:0:0:
255,191,29559,1,8,0:0:0:0:
255,191,29706,1,8,0:0:0:0:
255,191,30000,1,0,0:0:0:0:
256,191,30147,1,8,0:0:0:0:
255,191,30442,1,0,0:0:0:0:
255,191,30589,1,8,0:0:0:0:
255,191,30736,1,8,0:0:0:0:
255,191,30883,1,0,0:0:0:0:
256,191,31177,1,8,0:0:0:0:
255,191,31324,1,0,0:0:0:0:
255,191,31618,1,8,0:0:0:0:
256,191,31765,1,8,0:0:0:0:
256,191,31912,1,0,0:0:0:0:
256,191,32059,1,8,0:0:0:0:
256,191,32353,1,0,0:0:0:0:
256,191,32500,1,8,0:0:0:0:
256,191,32647,1,0,0:0:0:0:
256,191,32794,1,8,0:0:0:0:
255,191,32942,1,0,0:0:0:0:
255,191,33236,1,8,0:0:0:0:
255,191,33530,1,0,0:0:0:0:
256,191,33677,1,8,0:0:0:0:
255,191,33971,1,0,0:0:0:0:
255,191,34118,1,0,0:0:0:0:
255,191,34265,1,8,0:0:0:0:
255,191,34412,1,0,0:0:0:0:
255,191,34706,1,8,0:0:0:0:
256,191,34853,1,0,0:0:0:0:
256,191,35147,1,0,0:0:0:0:
256,191,35294,1,8,0:0:0:0:
256,191,35442,1,0,0:0:0:0:
256,191,35589,1,0,0:0:0:0:
256,191,35883,1,8,0:0:0:0:
256,191,36030,1,0,0:0:0:0:
256,191,36324,1,0,0:0:0:0:
256,191,36471,1,0,0:0:0:0:
256,191,36618,1,0,0:0:0:0:
256,191,36765,1,8,0:0:0:0:
256,191,37059,1,0,0:0:0:0:
256,191,37206,1,8,0:0:0:0:
256,191,37353,1,0,0:0:0:0:
255,191,37500,1,0,0:0:0:0:
256,191,37647,1,8,0:0:0:0:
256,191,37942,1,0,0:0:0:0:
256,191,38236,1,8,0:0:0:0:
256,191,38383,1,0,0:0:0:0:
256,191,38677,1,8,0:0:0:0:
256,191,38824,1,8,0:0:0:0:
256,191,38971,1,8,0:0:0:0:
256,191,39118,1,0,0:0:0:0:
256,191,39412,1,8,0:0:0:0:
256,191,39559,1,0,0:0:0:0:
256,191,39853,1,0,0:0:0:0:
256,191,40000,1,8,0:0:0:0:
256,191,40147,1,8,0:0:0:0:
256,191,40294,1,0,0:0:0:0:
256,191,40589,1,8,0:0:0:0:
256,191,40736,1,8,0:0:0:0:
256,191,41030,1,0,0:0:0:0:
255,191,41177,1,8,0:0:0:0:
255,191,41324,1,0,0:0:0:0:
255,191,41471,1,8,0:0:0:0:
255,191,41765,1,0,0:0:0:0:
255,191,41912,1,8,0:0:0:0:
255,191,42059,1,0,0:0:0:0:
255,191,42206,1,0,0:0:0:0:
255,191,42353,1,8,0:0:0:0:
512,0,42647,1,12,0:0:0:0:
255,191,42942,1,0,0:0:0:0:
255,191,43089,1,0,0:0:0:0:
255,191,43383,1,8,0:0:0:0:
255,191,43530,1,0,0:0:0:0:
255,191,43677,1,0,0:0:0:0:
255,191,43824,1,8,0:0:0:0:
255,191,43971,1,8,0:0:0:0:
255,191,44118,1,0,0:0:0:0:
255,191,44265,1,8,0:0:0:0:
255,191,44412,1,0,0:0:0:0:
255,191,44559,1,8,0:0:0:0:
255,191,44706,1,0,0:0:0:0:
255,191,44853,1,0,0:0:0:0:
255,191,45000,1,8,0:0:0:0:
255,191,45147,1,0,0:0:0:0:
512,0,45294,1,12,0:0:0:0:
255,191,45589,1,0,0:0:0:0:
255,191,45736,1,8,0:0:0:0:
255,191,45809,1,8,0:0:0:0:
255,191,45883,1,0,0:0:0:0:
255,191,46030,1,0,0:0:0:0:
512,0,46177,1,12,0:0:0:0:
255,191,46471,1,0,0:0:0:0:
255,191,46618,1,8,0:0:0:0:
255,191,46912,1,8,0:0:0:0:
255,191,47059,1,0,0:0:0:0:
255,191,47133,1,0,0:0:0:0:
255,191,47206,1,8,0:0:0:0:
255,191,47353,1,0,0:0:0:0:
256,192,47500,8,0,48971,0:0:0:0:
255,192,49118,5,0,0:0:0:0:
512,0,49706,1,12,0:0:0:0:
256,192,50000,1,0,0:0:0:0:
256,192,50147,1,8,0:0:0:0:
256,192,50221,1,8,0:0:0:0:
256,192,50294,1,0,0:0:0:0:
256,192,50442,1,0,0:0:0:0:
256,192,50589,1,8,0:0:0:0:
256,192,50736,1,0,0:0:0:0:
256,192,50809,1,0,0:0:0:0:
256,192,50883,1,8,0:0:0:0:
256,192,51177,1,0,0:0:0:0:
256,192,51324,1,0,0:0:0:0:
256,192,51471,1,8,0:0:0:0:
256,192,51544,1,8,0:0:0:0:
256,192,51618,1,0,0:0:0:0:
256,192,51692,1,0,0:0:0:0:
256,192,51765,1,8,0:0:0:0:
256,192,51912,1,0,0:0:0:0:
512,0,52059,1,12,0:0:0:0:
512,0,53530,1,4,0:0:0:0:
512,0,53824,1,4,0:0:0:0:
512,0,54118,1,4,0:0:0:0:
512,0,54412,1,12,0:0:0:0:
256,192,54706,1,0,0:0:0:0:
256,192,54853,1,8,0:0:0:0:
256,192,54927,1,0,0:0:0:0:
256,192,55000,1,8,0:0:0:0:
256,192,55147,1,0,0:0:0:0:
256,192,55294,1,0,0:0:0:0:
256,192,55442,1,8,0:0:0:0:
256,192,55589,1,0,0:0:0:0:
256,192,55883,1,8,0:0:0:0:
256,192,56030,1,0,0:0:0:0:
256,192,56103,1,0,0:0:0:0:
256,192,56177,1,8,0:0:0:0:
256,192,56324,1,8,0:0:0:0:
256,192,56471,1,0,0:0:0:0:
256,192,56765,1,8,0:0:0:0:
256,192,56912,1,0,0:0:0:0:
256,192,56986,1,0,0:0:0:0:
256,192,57059,1,8,0:0:0:0:
256,192,57206,1,0,0:0:0:0:
256,192,57353,1,8,0:0:0:0:
256,192,57427,1,8,0:0:0:0:
256,192,57500,1,0,0:0:0:0:
256,192,57647,1,0,0:0:0:0:
512,0,57794,1,12,0:0:0:0:
256,192,58089,1,0,0:0:0:0:
256,192,58236,1,8,0:0:0:0:
256,192,58383,1,8,0:0:0:0:
256,192,58530,1,0,0:0:0:0:
256,192,58677,1,8,0:0:0:0:
256,192,58750,1,0,0:0:0:0:
256,192,58824,1,8,0:0:0:0:
256,192,58971,1,0,0:0:0:0:
256,192,59044,1,0,0:0:0:0:
256,192,59118,1,8,0:0:0:0:
512,0,59412,1,4,0:0:0:0:
256,192,59706,1,8,0:0:0:0:
256,192,59853,1,0,0:0:0:0:
256,192,59927,1,0,0:0:0:0:
256,192,60000,1,8,0:0:0:0:
256,192,60148,1,0,0:0:0:0:
256,192,60295,1,8,0:0:0:0:
256,192,60589,1,0,0:0:0:0:
256,192,60736,1,8,0:0:0:0:
256,192,60809,1,8,0:0:0:0:
256,192,60883,1,0,0:0:0:0:
256,192,61030,1,8,0:0:0:0:
256,192,61177,1,0,0:0:0:0:
256,192,61324,1,0,0:0:0:0:
256,192,61471,1,8,0:0:0:0:
256,192,61765,1,0,0:0:0:0:
256,192,61912,1,8,0:0:0:0:
256,192,61986,1,0,0:0:0:0:
256,192,62059,1,8,0:0:0:0:
256,192,62206,1,0,0:0:0:0:
256,192,62353,1,8,0:0:0:0:
256,192,62500,1,8,0:0:0:0:
256,192,62647,1,0,0:0:0:0:
256,192,62942,1,0,0:0:0:0:
256,192,63089,1,8,0:0:0:0:
256,192,63236,1,0,0:0:0:0:
256,192,63309,1,0,0:0:0:0:
256,192,63383,1,0,0:0:0:0:
256,192,63456,1,0,0:0:0:0:
256,192,63530,1,8,0:0:0:0:
256,192,63677,1,0,0:0:0:0:
512,0,63824,1,12,0:0:0:0:
256,192,64118,1,0,0:0:0:0:
256,192,64265,1,8,0:0:0:0:
256,192,64339,1,8,0:0:0:0:
256,192,64412,1,0,0:0:0:0:
256,192,64559,1,8,0:0:0:0:
256,192,64706,1,0,0:0:0:0:
256,192,64853,1,0,0:0:0:0:
256,192,65000,1,8,0:0:0:0:
256,192,65294,1,8,0:0:0:0:
256,192,65442,1,0,0:0:0:0:
256,192,65515,1,0,0:0:0:0:
256,192,65589,1,8,0:0:0:0:
256,192,65736,1,0,0:0:0:0:
256,192,65883,1,8,0:0:0:0:
256,192,66030,1,8,0:0:0:0:
512,0,66177,1,4,0:0:0:0:
256,192,66471,1,8,0:0:0:0:
256,192,66618,1,0,0:0:0:0:
256,192,66765,1,8,0:0:0:0:
256,192,66839,1,8,0:0:0:0:
256,192,66912,1,0,0:0:0:0:
256,192,67059,1,0,0:0:0:0:
256,192,67206,1,8,0:0:0:0:
256,192,67280,1,0,0:0:0:0:
256,192,67353,1,8,0:0:0:0:
256,192,67500,1,0,0:0:0:0:
512,0,67647,1,12,0:0:0:0:
256,192,67942,1,8,0:0:0:0:
256,192,68089,1,8,0:0:0:0:
256,192,68236,1,8,0:0:0:0:
256,192,68383,1,8,0:0:0:0:
256,192,68530,1,0,0:0:0:0:
512,0,68824,1,12,0:0:0:0:
256,192,69118,1,0,0:0:0:0:
256,192,69265,1,0,0:0:0:0:
256,192,69339,1,0,0:0:0:0:
256,192,69412,1,8,0:0:0:0:
256,192,69560,1,8,0:0:0:0:
256,192,69707,1,0,0:0:0:0:
256,192,70000,1,8,0:0:0:0:
256,192,70148,1,0,0:0:0:0:
256,192,70295,1,0,0:0:0:0:
256,192,70368,1,0,0:0:0:0:
256,192,70442,1,8,0:0:0:0:
256,192,70589,1,0,0:0:0:0:
256,192,70736,1,0,0:0:0:0:
256,192,70883,1,8,0:0:0:0:
256,192,71177,1,0,0:0:0:0:
256,192,71324,1,8,0:0:0:0:
256,192,71398,1,8,0:0:0:0:
256,192,71471,1,0,0:0:0:0:
256,192,71618,1,0,0:0:0:0:
256,192,71765,1,8,0:0:0:0:
256,192,71912,1,0,0:0:0:0:
256,192,72059,1,8,0:0:0:0:
256,192,72206,1,8,0:0:0:0:
256,192,72354,1,0,0:0:0:0:
256,192,72501,1,0,0:0:0:0:
256,192,72648,1,8,0:0:0:0:
256,192,72721,1,8,0:0:0:0:
256,192,72795,1,0,0:0:0:0:
256,192,72868,1,0,0:0:0:0:
256,192,72942,1,8,0:0:0:0:
256,192,73089,1,0,0:0:0:0:
512,0,73236,1,12,0:0:0:0:
256,192,73530,1,0,0:0:0:0:
256,192,73677,1,8,0:0:0:0:
256,192,73751,1,0,0:0:0:0:
256,192,73824,1,8,0:0:0:0:
256,192,73971,1,0,0:0:0:0:
256,192,74118,1,8,0:0:0:0:
256,192,74265,1,8,0:0:0:0:
256,192,74412,1,0,0:0:0:0:
256,192,74706,1,8,0:0:0:0:
256,192,74854,1,0,0:0:0:0:
256,192,74927,1,0,0:0:0:0:
256,192,75001,1,8,0:0:0:0:
256,192,75148,1,0,0:0:0:0:
256,192,75295,1,8,0:0:0:0:
256,192,75442,1,0,0:0:0:0:
256,192,75589,1,8,0:0:0:0:
256,192,75736,1,8,0:0:0:0:
256,192,76030,1,0,0:0:0:0:
256,192,76177,1,8,0:0:0:0:
256,192,76251,1,0,0:0:0:0:
256,192,76324,1,8,0:0:0:0:
256,192,76471,1,0,0:0:0:0:
512,0,76618,1,12,0:0:0:0:
256,192,76912,1,0,0:0:0:0:
512,0,77059,1,12,0:0:0:0:
256,192,77354,1,0,0:0:0:0:
256,192,77501,1,8,0:0:0:0:
256,192,77574,1,8,0:0:0:0:
256,192,77648,1,0,0:0:0:0:
256,192,77795,1,8,0:0:0:0:
256,192,77868,1,0,0:0:0:0:
256,192,77942,1,8,0:0:0:0:
256,192,78089,1,8,0:0:0:0:
512,0,78236,1,4,0:0:0:0:
256,192,78530,1,8,0:0:0:0:
256,192,78677,1,0,0:0:0:0:
256,192,78751,1,0,0:0:0:0:
256,192,78824,1,8,0:0:0:0:
256,192,78972,1,0,0:0:0:0:
256,192,79119,1,8,0:0:0:0:
256,192,79265,1,8,0:0:0:0:
256,192,79413,1,0,0:0:0:0:
256,192,79560,1,0,0:0:0:0:
256,192,79707,1,8,0:0:0:0:
256,192,79780,1,0,0:0:0:0:
256,192,79854,1,8,0:0:0:0:
256,192,80001,1,0,0:0:0:0:
256,192,80148,1,0,0:0:0:0:
256,192,80295,1,8,0:0:0:0:
256,192,80442,1,0,0:0:0:0:
256,192,80515,1,0,0:0:0:0:
256,192,80589,1,8,0:0:0:0:
256,192,80736,1,8,0:0:0:0:
256,192,80883,1,0,0:0:0:0:
256,192,81030,1,8,0:0:0:0:
256,192,81103,1,0,0:0:0:0:
256,192,81177,1,8,0:0:0:0:
256,192,81324,1,8,0:0:0:0:
256,192,81471,1,0,0:0:0:0:
256,192,81766,1,8,0:0:0:0:
256,192,81913,1,0,0:0:0:0:
256,192,82060,1,8,0:0:0:0:
256,192,82133,1,8,0:0:0:0:
256,192,82207,1,8,0:0:0:0:
256,192,82280,1,8,0:0:0:0:
256,192,82354,1,0,0:0:0:0:
256,192,82501,1,0,0:0:0:0:
512,0,82648,1,12,0:0:0:0:
256,192,82942,1,0,0:0:0:0:
256,192,83089,1,8,0:0:0:0:
256,192,83163,1,8,0:0:0:0:
256,192,83236,1,0,0:0:0:0:
256,192,83383,1,8,0:0:0:0:
256,192,83530,1,8,0:0:0:0:
256,192,83677,1,8,0:0:0:0:
256,192,83824,1,0,0:0:0:0:
256,192,83971,1,8,0:0:0:0:
256,192,84044,1,8,0:0:0:0:
256,192,84118,1,0,0:0:0:0:
256,192,84266,1,0,0:0:0:0:
256,192,84339,1,0,0:0:0:0:
256,192,84413,1,8,0:0:0:0:
256,192,84560,1,0,0:0:0:0:
256,192,84706,1,8,0:0:0:0:
256,192,84854,1,8,0:0:0:0:
256,192,85001,1,0,0:0:0:0:
256,192,85294,1,8,0:0:0:0:
256,192,85883,1,8,0:0:0:0:
256,192,86177,1,0,0:0:0:0:
256,192,86471,1,8,0:0:0:0:
256,192,86912,1,8,0:0:0:0:
256,192,87059,1,8,0:0:0:0:
256,192,87353,1,0,0:0:0:0:
256,192,87647,1,8,0:0:0:0:
256,192,88089,1,8,0:0:0:0:
256,192,88236,1,8,0:0:0:0:
256,192,88530,1,0,0:0:0:0:
