osu file format v14

[General]
AudioFilename: audio.mp3
AudioLeadIn: 0
PreviewTime: 49118
Countdown: 0
SampleSet: Normal
StackLeniency: 0.7
Mode: 1
LetterboxInBreaks: 0
WidescreenStoryboard: 0

[Editor]
Bookmarks: 527,9939,28763,49939,59645,69057,78469,85232,88762,106998
DistanceSpacing: 1.3
BeatDivisor: 4
GridSize: 32
TimelineZoom: 2.300001

[Metadata]
Title:Haru (TV Size)
TitleUnicode:晴る (TV Size)
Artist:Yorushika
ArtistUnicode:ヨルシカ
Creator:Zhuosh
Version:Shadowed
Source:葬送のフリーレン
Tags:kayoko k_a_y_o_k_o ler1211 sammu iredi -maruko- nbuna n-buna ナブナ suis スイ sousou no frieren beyond journey's end anime op opening theme japanese pop jpop j-pop
BeatmapID:4440361
BeatmapSetID:2114635

[Difficulty]
HPDrainRate:6
CircleSize:2
OverallDifficulty:6.5
ApproachRate:10
SliderMultiplier:1.4
SliderTickRate:1

[Events]
//Background and Video events
0,0,"bg.jpg",0,60
Video,-263,"op.mp4"
//Break Periods
//Storyboard Layer 0 (Background)
//Storyboard Layer 1 (Fail)
//Storyboard Layer 2 (Pass)
//Storyboard Layer 3 (Foreground)
//Storyboard Layer 4 (Overlay)
//Storyboard Sound Samples

[TimingPoints]
295,294.117647058823,4,1,0,30,1,0
295,-125,4,1,0,30,0,0
9118,-125,4,1,0,30,0,0
9265,-121.212121212121,4,1,0,30,0,0
9412,-117.647058823529,4,1,0,30,0,0
9706,-111.111111111111,4,1,0,60,0,0
42647,-100,4,1,0,70,0,0
42942,-111.111111111111,4,1,0,70,0,0
43089,-110.701199618531,4,1,0,70,0,0
43383,-109.8903836572,4,1,0,70,0,0
43530,-109.489413458436,4,1,0,70,0,0
43824,-108.696187871171,4,1,0,70,0,0
43971,-108.303869573758,4,1,0,70,0,0
44118,-107.914373088685,4,1,0,70,0,0
44265,-107.527668080542,4,1,0,70,0,0
44412,-107.143724647186,4,1,0,70,0,0
44559,-106.762513312034,4,1,0,70,0,0
44633,-106.571635660788,4,1,0,70,0,0
44706,-106.384005016521,4,1,0,70,0,0
44853,-106.008171112713,4,1,0,70,0,0
45000,-105.634983356084,4,1,0,70,0,0
45147,-105.264413898435,4,1,0,70,0,0
45294,-104.896435280968,4,1,0,70,0,0
45589,-104.165682709111,4,1,0,70,0,0
45736,-103.805332643024,4,1,0,70,0,0
45809,-103.627308180238,4,1,0,70,0,0
45883,-103.447467166979,4,1,0,70,0,0
46030,-103.092060672634,4,1,0,70,0,0
46177,-102.739087902362,4,1,0,70,0,0
46471,-102.040344221338,4,1,0,70,0,0
46618,-101.694524495677,4,1,0,70,0,0
46912,-101.009869701619,4,1,0,70,0,0
47059,-100.670987767026,4,1,0,70,0,0
47133,-100.501253132832,4,1,0,70,0,0
47206,-100.334372085617,4,1,0,70,0,0
47353,-100,4,1,0,70,0,0
47500,-50,4,1,0,65,0,0
48530,-125,4,1,0,65,0,0
49706,-83.333333333333,4,1,0,80,0,1
49780,-100,4,1,0,80,0,1
52059,-100,4,1,0,80,0,0
52133,-100,4,1,0,60,0,0
53530,-76.923076923077,4,1,0,80,0,0
53824,-83.333333333333,4,1,0,80,0,0
54118,-90.909090909091,4,1,0,80,0,0
54412,-100,4,1,0,80,0,1
57794,-83.333333333333,4,1,0,80,0,1
57942,-84.623430962343,4,1,0,80,0,1
58089,-85.944969722724,4,1,0,80,0,1
58162,-86.61670235546,4,1,0,80,0,1
58236,-87.308439456076,4,1,0,80,0,1
58383,-88.715867967979,4,1,0,80,0,1
58530,-90.169415960767,4,1,0,80,0,0
58603,-90.909090909091,4,1,0,80,0,0
58677,-91.671388101983,4,1,0,80,0,0
58750,-92.436014625229,4,1,0,80,0,0
58824,-93.224245217792,4,1,0,80,0,0
58897,-94.015107495642,4,1,0,80,0,0
58971,-94.83061774704,4,1,0,80,0,0
59044,-95.649089619295,4,1,0,80,0,0
59118,-96.493320610687,4,1,0,80,0,0
59265,-98.215369673425,4,1,0,80,0,0
59412,-83.333333333333,4,1,0,80,0,1
59486,-100,4,1,0,80,0,1
67942,-100,4,1,0,80,0,1
68089,-97.560975609756,4,1,0,80,0,1
68236,-95.238095238095,4,1,0,80,0,1
68383,-93.023255813953,4,1,0,80,0,1
68530,-90.909090909091,4,1,0,80,0,0
68824,-83.333333333333,4,1,0,80,0,1
68897,-100,4,1,0,80,0,1
76618,-83.333333333333,4,1,0,80,0,1
76765,-84.623430962343,4,1,0,80,0,1
76912,-85.944969722724,4,1,0,80,0,1
76986,-86.95652173913,4,1,0,80,0,1
77059,-87.308439456076,4,1,0,80,0,1
77206,-88.715867967979,4,1,0,80,0,1
77280,-89.285714285714,4,1,0,80,0,1
77353,-90.169415960767,4,1,0,80,0,0
77427,-90.909090909091,4,1,0,80,0,0
77500,-91.671388101983,4,1,0,80,0,0
77574,-92.436014625229,4,1,0,80,0,0
77647,-93.224245217792,4,1,0,80,0,0
77721,-94.015107495642,4,1,0,80,0,0
77794,-94.83061774704,4,1,0,80,0,0
77868,-95.649089619295,4,1,0,80,0,0
77942,-96.493320610687,4,1,0,80,0,0
78089,-98.215369673425,4,1,0,80,0,0
78236,-83.333333333333,4,1,0,80,0,1
78309,-100,4,1,0,80,0,1
84118,-100,4,1,0,80,0,1
84265,-103.448275862069,4,1,0,80,0,1
84339,-105.275722129386,4,1,0,80,0,1
84412,-107.142857142857,4,1,0,80,0,1
84559,-111.111111111111,4,1,0,80,0,1
84706,-115.384615384615,4,1,0,80,0,1
84853,-120,4,1,0,80,0,1
85000,-125,4,1,0,30,0,0

[HitObjects]
256,192,295,5,0,0:0:0:0:
256,191,589,1,8,0:0:0:0:
256,191,1030,1,0,0:0:0:0:
256,191,1177,1,8,0:0:0:0:
256,191,1471,1,0,0:0:0:0:
256,191,1765,1,8,0:0:0:0:
256,191,2206,1,0,0:0:0:0:
256,191,2353,1,8,0:0:0:0:
256,191,2500,1,0,0:0:0:0:
256,191,2647,1,0,0:0:0:0:
256,191,2942,1,8,0:0:0:0:
256,191,3383,1,8,0:0:0:0:
256,191,3530,1,0,0:0:0:0:
256,191,3628,1,8,0:0:0:0:
256,191,3726,1,8,0:0:0:0:
255,191,3824,1,0,0:0:0:0:
255,191,4118,1,8,0:0:0:0:
255,191,4559,1,8,0:0:0:0:
256,191,4706,1,8,0:0:0:0:
256,191,5000,1,0,0:0:0:0:
256,191,5294,1,8,0:0:0:0:
256,191,5736,1,0,0:0:0:0:
256,191,5883,1,8,0:0:0:0:
256,191,6177,1,0,0:0:0:0:
256,191,6471,1,8,0:0:0:0:
256,191,6912,1,0,0:0:0:0:
256,191,7059,1,8,0:0:0:0:
256,191,7206,1,0,0:0:0:0:
255,191,7353,1,0,0:0:0:0:
255,191,7647,1,8,0:0:0:0:
255,191,8089,1,8,0:0:0:0:
255,191,8236,1,0,0:0:0:0:
255,191,8334,1,8,0:0:0:0:
255,191,8432,1,8,0:0:0:0:
255,191,8530,1,0,0:0:0:0:
255,191,8824,1,0,0:0:0:0:
255,191,9118,1,8,0:0:0:0:
256,191,9265,1,0,0:0:0:0:
256,191,9412,1,8,0:0:0:0:
256,191,9706,1,0,0:0:0:0:
256,191,10000,1,8,0:0:0:0:
256,191,10294,1,0,0:0:0:0:
256,191,10442,1,0,0:0:0:0:
256,191,10589,1,8,0:0:0:0:
256,191,10883,1,0,0:0:0:0:
256,191,11177,1,8,0:0:0:0:
256,191,11471,1,8,0:0:0:0:
256,191,11618,1,0,0:0:0:0:
256,191,11765,1,8,0:0:0:0:
256,191,11912,1,8,0:0:0:0:
256,191,12059,1,0,0:0:0:0:
256,191,12353,1,8,0:0:0:0:
256,191,12794,1,0,0:0:0:0:
256,191,12942,1,8,0:0:0:0:
256,191,13236,1,0,0:0:0:0:
256,191,13530,1,8,0:0:0:0:
255,191,13824,1,0,0:0:0:0:
255,191,13971,1,0,0:0:0:0:
256,191,14118,1,8,0:0:0:0:
256,192,14265,1,0,0:0:0:0:
255,191,14412,1,0,0:0:0:0:
255,191,14706,1,8,0:0:0:0:
255,191,15000,1,8,0:0:0:0:
256,191,15147,1,0,0:0:0:0:
256,191,15294,1,8,0:0:0:0:
255,191,15589,1,0,0:0:0:0:
255,191,15883,1,8,0:0:0:0:
256,191,16177,1,0,0:0:0:0:
256,191,16324,1,0,0:0:0:0:
256,191,16471,1,8,0:0:0:0:
256,191,16618,1,8,0:0:0:0:
255,191,16765,1,0,0:0:0:0:
255,191,17059,1,8,0:0:0:0:
255,191,17500,1,0,0:0:0:0:
255,191,17647,1,8,0:0:0:0:
255,191,17942,1,0,0:0:0:0:
255,191,18236,1,8,0:0:0:0:
256,191,18530,1,8,0:0:0:0:
255,191,18677,1,0,0:0:0:0:
256,191,18824,1,8,0:0:0:0:
256,192,18971,1,0,0:0:0:0:
256,191,19118,1,0,0:0:0:0:
256,191,19412,1,8,0:0:0:0:
256,191,19706,1,0,0:0:0:0:
256,191,19853,1,0,0:0:0:0:
256,191,20000,1,8,0:0:0:0:
256,191,20294,1,0,0:0:0:0:
256,191,20589,1,8,0:0:0:0:
256,191,20883,1,8,0:0:0:0:
256,191,21030,1,0,0:0:0:0:
256,191,21177,1,8,0:0:0:0:
256,191,21324,1,8,0:0:0:0:
256,191,21471,1,0,0:0:0:0:
256,191,21765,1,8,0:0:0:0:
256,191,22206,1,0,0:0:0:0:
256,191,22353,1,8,0:0:0:0:
256,191,22647,1,0,0:0:0:0:
256,191,22942,1,8,0:0:0:0:
256,191,23383,1,0,0:0:0:0:
256,191,23530,1,8,0:0:0:0:
256,191,23677,1,0,0:0:0:0:
256,191,23824,1,0,0:0:0:0:
256,191,24118,1,8,0:0:0:0:
256,191,24559,1,0,0:0:0:0:
256,191,24706,1,8,0:0:0:0:
256,191,25000,1,0,0:0:0:0:
256,191,25294,1,8,0:0:0:0:
256,191,25589,1,0,0:0:0:0:
256,191,25736,1,0,0:0:0:0:
256,191,25883,1,8,0:0:0:0:
256,191,26030,1,8,0:0:0:0:
256,191,26177,1,0,0:0:0:0:
256,191,26471,1,8,0:0:0:0:
256,191,26912,1,0,0:0:0:0:
256,191,27059,1,8,0:0:0:0:
256,191,27353,1,0,0:0:0:0:
256,191,27647,1,8,0:0:0:0:
256,191,27942,1,0,0:0:0:0:
256,191,28089,1,0,0:0:0:0:
256,191,28236,1,8,0:0:0:0:
256,192,28383,1,0,0:0:0:0:
256,191,28530,1,0,0:0:0:0:
255,191,28824,1,8,0:0:0:0:
256,191,29118,1,0,0:0:0:0:
256,191,29265,1,0,0:0:0:0:
255,191,29412,1,8,0:0:0:0:
255,191,29706,1,0,0:0:0:0:
255,191,30000,1,8,0:0:0:0:
256,191,30294,1,0,0:0:0:0:
255,191,30442,1,0,0:0:0:0:
255,191,30589,1,8,0:0:0:0:
255,191,30736,1,8,0:0:0:0:
255,191,30883,1,0,0:0:0:0:
256,191,31177,1,8,0:0:0:0:
255,191,31618,1,0,0:0:0:0:
256,191,31765,1,8,0:0:0:0:
255,191,32059,1,0,0:0:0:0:
256,191,32353,1,8,0:0:0:0:
255,191,32647,1,0,0:0:0:0:
256,191,32794,1,0,0:0:0:0:
255,191,32942,1,8,0:0:0:0:
256,192,33089,1,0,0:0:0:0:
255,191,33236,1,0,0:0:0:0:
255,191,33530,1,8,0:0:0:0:
256,191,33824,1,0,0:0:0:0:
255,191,33971,1,0,0:0:0:0:
255,191,34118,1,8,0:0:0:0:
255,191,34412,1,0,0:0:0:0:
255,191,34706,1,8,0:0:0:0:
256,191,35000,1,8,0:0:0:0:
256,191,35147,1,0,0:0:0:0:
256,191,35294,1,8,0:0:0:0:
256,191,35442,1,8,0:0:0:0:
256,191,35589,1,0,0:0:0:0:
256,191,35883,1,8,0:0:0:0:
256,191,36324,1,0,0:0:0:0:
256,191,36471,1,8,0:0:0:0:
256,191,36765,1,0,0:0:0:0:
256,191,37059,1,8,0:0:0:0:
256,191,37353,1,8,0:0:0:0:
255,191,37500,1,0,0:0:0:0:
256,191,37647,1,8,0:0:0:0:
256,192,37794,1,0,0:0:0:0:
256,191,37942,1,0,0:0:0:0:
256,191,38236,1,8,0:0:0:0:
256,191,38530,1,0,0:0:0:0:
256,191,38677,1,0,0:0:0:0:
256,191,38824,1,8,0:0:0:0:
256,191,39118,1,0,0:0:0:0:
256,191,39412,1,8,0:0:0:0:
256,191,39706,1,0,0:0:0:0:
256,191,39853,1,0,0:0:0:0:
256,191,40000,1,8,0:0:0:0:
256,191,40147,1,8,0:0:0:0:
256,191,40294,1,0,0:0:0:0:
256,191,40589,1,8,0:0:0:0:
256,191,41030,1,0,0:0:0:0:
255,191,41177,1,8,0:0:0:0:
255,191,41471,1,0,0:0:0:0:
255,191,41765,1,8,0:0:0:0:
255,191,41912,1,0,0:0:0:0:
255,191,42059,1,8,0:0:0:0:
255,191,42206,1,0,0:0:0:0:
255,191,42353,1,8,0:0:0:0:
255,191,42500,1,8,0:0:0:0:
255,191,42647,1,4,0:0:0:0:
255,191,42942,1,8,0:0:0:0:
255,191,43089,1,0,0:0:0:0:
255,191,43383,1,0,0:0:0:0:
255,191,43530,1,8,0:0:0:0:
255,191,43824,1,0,0:0:0:0:
255,191,43971,1,0,0:0:0:0:
255,191,44118,1,8,0:0:0:0:
255,191,44265,1,0,0:0:0:0:
255,191,44412,1,8,0:0:0:0:
255,191,44559,1,0,0:0:0:0:
255,191,44633,1,0,0:0:0:0:
255,191,44706,1,8,0:0:0:0:
255,191,44853,1,8,0:0:0:0:
255,191,45000,1,0,0:0:0:0:
255,191,45147,1,0,0:0:0:0:
255,191,45294,1,8,0:0:0:0:
255,191,45589,1,0,0:0:0:0:
255,191,45736,1,8,0:0:0:0:
255,191,45809,1,8,0:0:0:0:
255,191,45883,1,0,0:0:0:0:
255,191,46030,1,0,0:0:0:0:
255,191,46177,1,8,0:0:0:0:
255,191,46471,1,0,0:0:0:0:
255,191,46618,1,8,0:0:0:0:
255,191,46912,1,0,0:0:0:0:
255,191,47059,1,8,0:0:0:0:
255,191,47133,1,0,0:0:0:0:
255,191,47206,1,8,0:0:0:0:
255,191,47353,1,0,0:0:0:0:
256,192,47500,8,0,48971,0:0:0:0:
255,192,49118,5,8,0:0:0:0:
255,192,49706,1,12,0:0:0:0:
255,192,49927,1,0,0:0:0:0:
255,192,50000,1,8,0:0:0:0:
255,192,50147,1,0,0:0:0:0:
256,191,50294,1,8,0:0:0:0:
256,191,50368,1,8,0:0:0:0:
256,191,50442,1,0,0:0:0:0:
256,191,50515,1,0,0:0:0:0:
256,191,50589,1,8,0:0:0:0:
256,191,50736,1,8,0:0:0:0:
256,191,50883,1,0,0:0:0:0:
255,192,50956,1,8,0:0:0:0:
256,192,51030,1,0,0:0:0:0:
256,192,51177,1,8,0:0:0:0:
256,192,51324,1,0,0:0:0:0:
255,192,51397,1,0,0:0:0:0:
255,192,51471,1,8,0:0:0:0:
255,191,51618,1,8,0:0:0:0:
256,192,51692,1,8,0:0:0:0:
255,191,51765,1,0,0:0:0:0:
255,191,51912,1,0,0:0:0:0:
256,192,52059,1,12,0:0:0:0:
255,191,53530,1,12,0:0:0:0:
255,191,53824,1,12,0:0:0:0:
255,191,54118,1,12,0:0:0:0:
255,191,54412,1,4,0:0:0:0:
255,191,54633,1,0,0:0:0:0:
255,191,54706,1,8,0:0:0:0:
256,192,54853,1,8,0:0:0:0:
256,192,55000,1,0,0:0:0:0:
256,192,55074,1,8,0:0:0:0:
256,192,55147,1,0,0:0:0:0:
255,191,55294,1,8,0:0:0:0:
255,191,55368,1,8,0:0:0:0:
255,191,55442,1,0,0:0:0:0:
255,191,55515,1,8,0:0:0:0:
255,191,55589,1,0,0:0:0:0:
255,191,55736,1,0,0:0:0:0:
256,191,55883,1,8,0:0:0:0:
256,191,55956,1,8,0:0:0:0:
256,191,56030,1,0,0:0:0:0:
255,191,56177,1,8,0:0:0:0:
255,191,56324,1,0,0:0:0:0:
255,191,56397,1,0,0:0:0:0:
255,192,56471,1,8,0:0:0:0:
255,191,56544,1,0,0:0:0:0:
255,192,56618,1,8,0:0:0:0:
255,192,56692,1,8,0:0:0:0:
255,191,56765,1,0,0:0:0:0:
255,191,56912,1,8,0:0:0:0:
255,191,57059,1,0,0:0:0:0:
255,191,57133,1,0,0:0:0:0:
255,191,57206,1,0,0:0:0:0:
255,191,57353,1,8,0:0:0:0:
255,191,57500,1,0,0:0:0:0:
255,191,57647,1,0,0:0:0:0:
255,191,57794,1,12,0:0:0:0:
255,191,58089,1,0,0:0:0:0:
255,191,58162,1,0,0:0:0:0:
255,191,58236,1,8,0:0:0:0:
255,192,58383,1,0,0:0:0:0:
255,191,58530,1,8,0:0:0:0:
255,191,58603,1,8,0:0:0:0:
255,191,58677,1,0,0:0:0:0:
255,191,58750,1,0,0:0:0:0:
255,191,58824,1,8,0:0:0:0:
255,191,58897,1,8,0:0:0:0:
255,191,58971,1,8,0:0:0:0:
255,191,59044,1,8,0:0:0:0:
255,192,59118,1,0,0:0:0:0:
255,192,59412,1,12,0:0:0:0:
255,191,59633,1,8,0:0:0:0:
255,191,59706,1,0,0:0:0:0:
255,192,59853,1,0,0:0:0:0:
255,192,59927,1,0,0:0:0:0:
255,192,60000,1,8,0:0:0:0:
255,192,60147,1,0,0:0:0:0:
255,192,60294,1,8,0:0:0:0:
255,192,60368,1,8,0:0:0:0:
255,192,60442,1,0,0:0:0:0:
255,192,60515,1,0,0:0:0:0:
255,192,60589,1,8,0:0:0:0:
255,192,60736,1,0,0:0:0:0:
255,192,60883,1,8,0:0:0:0:
255,192,60956,1,8,0:0:0:0:
255,192,61030,1,0,0:0:0:0:
255,192,61103,1,0,0:0:0:0:
255,192,61177,1,0,0:0:0:0:
255,192,61324,1,8,0:0:0:0:
255,192,61471,1,0,0:0:0:0:
255,192,61544,1,8,0:0:0:0:
255,192,61618,1,0,0:0:0:0:
255,192,61765,1,8,0:0:0:0:
255,192,61912,1,0,0:0:0:0:
255,192,61986,1,0,0:0:0:0:
255,192,62059,1,8,0:0:0:0:
255,192,62133,1,8,0:0:0:0:
255,192,62206,1,0,0:0:0:0:
255,192,62353,1,8,0:0:0:0:
255,192,62427,1,0,0:0:0:0:
255,192,62500,1,8,0:0:0:0:
255,192,62647,1,0,0:0:0:0:
255,192,62794,1,0,0:0:0:0:
255,192,62942,1,8,0:0:0:0:
255,191,63015,1,8,0:0:0:0:
255,192,63089,1,0,0:0:0:0:
255,192,63162,1,0,0:0:0:0:
255,192,63236,1,8,0:0:0:0:
255,191,63309,1,0,0:0:0:0:
255,192,63383,1,0,0:0:0:0:
255,192,63530,1,8,0:0:0:0:
255,192,63603,1,8,0:0:0:0:
255,192,63677,1,8,0:0:0:0:
255,192,63824,1,4,0:0:0:0:
255,192,64044,1,0,0:0:0:0:
255,192,64118,1,8,0:0:0:0:
255,192,64265,1,0,0:0:0:0:
255,192,64412,1,8,0:0:0:0:
255,192,64486,1,8,0:0:0:0:
255,192,64559,1,0,0:0:0:0:
255,192,64706,1,8,0:0:0:0:
255,192,64780,1,0,0:0:0:0:
255,192,64853,1,8,0:0:0:0:
255,192,64927,1,8,0:0:0:0:
255,192,65000,1,0,0:0:0:0:
255,192,65147,1,0,0:0:0:0:
255,192,65221,1,0,0:0:0:0:
255,192,65294,1,8,0:0:0:0:
255,192,65442,1,0,0:0:0:0:
255,192,65589,1,8,0:0:0:0:
255,192,65662,1,8,0:0:0:0:
255,192,65736,1,8,0:0:0:0:
255,192,65883,1,0,0:0:0:0:
255,192,66030,1,8,0:0:0:0:
255,192,66177,1,4,0:0:0:0:
255,192,66397,1,0,0:0:0:0:
255,192,66471,1,8,0:0:0:0:
255,192,66618,1,8,0:0:0:0:
255,191,66692,1,8,0:0:0:0:
255,192,66765,1,0,0:0:0:0:
255,192,66912,1,0,0:0:0:0:
255,191,67059,1,8,0:0:0:0:
255,192,67133,1,0,0:0:0:0:
255,191,67206,1,8,0:0:0:0:
255,192,67280,1,8,0:0:0:0:
255,192,67353,1,0,0:0:0:0:
255,192,67500,1,8,0:0:0:0:
255,192,67574,1,8,0:0:0:0:
255,191,67647,1,0,0:0:0:0:
255,192,67721,1,0,0:0:0:0:
255,192,67794,1,8,0:0:0:0:
255,192,67868,1,8,0:0:0:0:
255,191,67942,1,0,0:0:0:0:
255,191,68089,1,8,0:0:0:0:
255,191,68236,1,8,0:0:0:0:
255,191,68383,1,8,0:0:0:0:
255,191,68530,1,4,0:0:0:0:
255,192,68824,1,12,0:0:0:0:
255,191,69044,1,8,0:0:0:0:
255,191,69118,1,0,0:0:0:0:
255,191,69265,1,0,0:0:0:0:
255,191,69339,1,0,0:0:0:0:
255,191,69412,1,8,0:0:0:0:
255,191,69559,1,8,0:0:0:0:
255,191,69706,1,0,0:0:0:0:
255,191,69780,1,8,0:0:0:0:
255,191,69853,1,0,0:0:0:0:
255,191,70000,1,8,0:0:0:0:
255,192,70147,1,8,0:0:0:0:
255,192,70221,1,8,0:0:0:0:
255,191,70294,1,0,0:0:0:0:
255,191,70442,1,0,0:0:0:0:
255,191,70515,1,0,0:0:0:0:
255,191,70589,1,8,0:0:0:0:
255,191,70736,1,8,0:0:0:0:
255,191,70809,1,0,0:0:0:0:
255,191,70883,1,8,0:0:0:0:
255,191,70956,1,0,0:0:0:0:
255,191,71030,1,0,0:0:0:0:
255,191,71103,1,0,0:0:0:0:
255,191,71177,1,8,0:0:0:0:
255,191,71324,1,8,0:0:0:0:
255,191,71471,1,0,0:0:0:0:
255,191,71544,1,0,0:0:0:0:
255,191,71618,1,0,0:0:0:0:
255,192,71692,1,0,0:0:0:0:
255,191,71765,1,8,0:0:0:0:
255,191,71912,1,0,0:0:0:0:
255,191,72059,1,8,0:0:0:0:
255,191,72133,1,8,0:0:0:0:
255,191,72206,1,0,0:0:0:0:
255,191,72353,1,8,0:0:0:0:
255,192,72427,1,8,0:0:0:0:
255,192,72500,1,0,0:0:0:0:
255,192,72574,1,0,0:0:0:0:
255,191,72647,1,8,0:0:0:0:
255,191,72794,1,0,0:0:0:0:
255,191,72942,1,8,0:0:0:0:
255,192,73015,1,8,0:0:0:0:
255,191,73089,1,8,0:0:0:0:
255,191,73236,1,4,0:0:0:0:
255,191,73456,1,0,0:0:0:0:
255,191,73530,1,8,0:0:0:0:
255,192,73677,1,8,0:0:0:0:
255,192,73824,1,0,0:0:0:0:
255,192,73897,1,8,0:0:0:0:
255,192,73971,1,0,0:0:0:0:
255,192,74118,1,8,0:0:0:0:
255,191,74192,1,8,0:0:0:0:
255,192,74265,1,0,0:0:0:0:
255,191,74339,1,8,0:0:0:0:
255,192,74412,1,0,0:0:0:0:
255,192,74559,1,0,0:0:0:0:
255,192,74706,1,8,0:0:0:0:
255,192,74780,1,8,0:0:0:0:
255,192,74853,1,0,0:0:0:0:
255,192,75000,1,8,0:0:0:0:
255,192,75074,1,8,0:0:0:0:
255,192,75147,1,0,0:0:0:0:
255,192,75221,1,0,0:0:0:0:
255,192,75294,1,8,0:0:0:0:
255,192,75368,1,0,0:0:0:0:
255,192,75442,1,8,0:0:0:0:
255,192,75515,1,8,0:0:0:0:
255,192,75589,1,0,0:0:0:0:
255,192,75736,1,8,0:0:0:0:
255,192,75883,1,0,0:0:0:0:
255,192,75956,1,0,0:0:0:0:
255,192,76030,1,0,0:0:0:0:
255,192,76177,1,8,0:0:0:0:
255,192,76324,1,0,0:0:0:0:
255,192,76471,1,0,0:0:0:0:
255,192,76618,1,12,0:0:0:0:
255,192,76912,1,0,0:0:0:0:
255,192,76986,1,0,0:0:0:0:
255,192,77059,1,8,0:0:0:0:
255,191,77206,1,0,0:0:0:0:
255,192,77280,1,0,0:0:0:0:
255,192,77353,1,8,0:0:0:0:
255,192,77427,1,8,0:0:0:0:
255,192,77500,1,0,0:0:0:0:
255,192,77574,1,0,0:0:0:0:
255,192,77647,1,8,0:0:0:0:
255,192,77721,1,8,0:0:0:0:
255,192,77794,1,8,0:0:0:0:
255,192,77868,1,8,0:0:0:0:
255,192,77942,1,0,0:0:0:0:
255,192,78236,1,12,0:0:0:0:
255,192,78456,1,8,0:0:0:0:
255,192,78530,1,0,0:0:0:0:
255,192,78677,1,0,0:0:0:0:
255,192,78750,1,0,0:0:0:0:
255,192,78824,1,8,0:0:0:0:
255,192,78971,1,0,0:0:0:0:
255,192,79118,1,8,0:0:0:0:
255,192,79192,1,8,0:0:0:0:
256,192,79265,1,0,0:0:0:0:
256,192,79339,1,0,0:0:0:0:
256,192,79412,1,8,0:0:0:0:
255,192,79559,1,0,0:0:0:0:
255,192,79706,1,8,0:0:0:0:
255,192,79780,1,8,0:0:0:0:
255,192,79853,1,0,0:0:0:0:
255,192,80000,1,8,0:0:0:0:
255,192,80147,1,8,0:0:0:0:
255,192,80221,1,8,0:0:0:0:
255,192,80294,1,0,0:0:0:0:
255,191,80368,1,8,0:0:0:0:
255,192,80442,1,0,0:0:0:0:
255,192,80515,1,0,0:0:0:0:
255,192,80589,1,8,0:0:0:0:
255,192,80736,1,0,0:0:0:0:
255,192,80883,1,8,0:0:0:0:
255,192,80956,1,8,0:0:0:0:
255,192,81030,1,8,0:0:0:0:
255,192,81103,1,0,0:0:0:0:
255,192,81177,1,8,0:0:0:0:
255,192,81250,1,8,0:0:0:0:
255,192,81324,1,0,0:0:0:0:
255,192,81397,1,0,0:0:0:0:
255,192,81471,1,8,0:0:0:0:
255,192,81618,1,0,0:0:0:0:
255,192,81765,1,8,0:0:0:0:
255,191,81839,1,8,0:0:0:0:
255,192,81912,1,0,0:0:0:0:
255,191,81986,1,0,0:0:0:0:
255,192,82059,1,8,0:0:0:0:
255,191,82133,1,0,0:0:0:0:
255,192,82206,1,0,0:0:0:0:
255,192,82353,1,8,0:0:0:0:
255,192,82427,1,8,0:0:0:0:
255,192,82500,1,8,0:0:0:0:
255,192,82647,1,4,0:0:0:0:
255,192,82868,1,0,0:0:0:0:
255,192,82942,1,8,0:0:0:0:
255,192,83089,1,0,0:0:0:0:
255,192,83236,1,8,0:0:0:0:
255,192,83309,1,8,0:0:0:0:
255,192,83383,1,0,0:0:0:0:
255,192,83530,1,8,0:0:0:0:
255,192,83603,1,8,0:0:0:0:
255,192,83677,1,0,0:0:0:0:
255,192,83750,1,8,0:0:0:0:
255,192,83824,1,0,0:0:0:0:
255,192,83897,1,0,0:0:0:0:
255,192,83971,1,8,0:0:0:0:
255,192,84118,1,0,0:0:0:0:
255,192,84265,1,0,0:0:0:0:
255,192,84339,1,0,0:0:0:0:
255,192,84412,1,8,0:0:0:0:
255,192,84559,1,8,0:0:0:0:
255,192,84706,1,8,0:0:0:0:
255,192,84853,1,8,0:0:0:0:
255,192,85000,1,0,0:0:0:0:
255,192,85294,1,8,0:0:0:0:
255,192,85883,1,8,0:0:0:0:
255,192,86177,1,0,0:0:0:0:
255,192,86471,1,8,0:0:0:0:
255,192,86912,1,0,0:0:0:0:
255,192,87059,1,8,0:0:0:0:
255,192,87206,1,0,0:0:0:0:
255,192,87353,1,0,0:0:0:0:
255,192,87647,1,8,0:0:0:0:
255,192,88089,1,8,0:0:0:0:
255,192,88236,1,0,0:0:0:0:
255,192,88334,1,8,0:0:0:0:
255,192,88432,1,8,0:0:0:0:
255,192,88530,1,0,0:0:0:0:
