osu file format v14

[General]
AudioFilename: audio.mp3
AudioLeadIn: 0
PreviewTime: 49118
Countdown: 0
SampleSet: Normal
StackLeniency: 0.7
Mode: 1
LetterboxInBreaks: 0
WidescreenStoryboard: 1

[Editor]
Bookmarks: 527,9939,28763,49939,59645,69057,78469,87586,106998
DistanceSpacing: 1.3
BeatDivisor: 4
GridSize: 32
TimelineZoom: 1.5

[Metadata]
Title:Haru (TV Size)
TitleUnicode:晴る (TV Size)
Artist:Yorushika
ArtistUnicode:ヨルシカ
Creator:Zhuosh
Version:Sammu's Muzukashii
Source:葬送のフリーレン
Tags:kayoko k_a_y_o_k_o ler1211 sammu iredi -maruko- nbuna n-buna ナブナ suis スイ sousou no frieren beyond journey's end anime op opening theme japanese pop jpop j-pop
BeatmapID:4441032
BeatmapSetID:2114635

[Difficulty]
HPDrainRate:6
CircleSize:2
OverallDifficulty:5
ApproachRate:10
SliderMultiplier:1.4
SliderTickRate:1

[Events]
//Background and Video events
0,0,"bg.jpg",0,60
Video,-263,"op.mp4"
//Break Periods
//Storyboard Layer 0 (Background)
//Storyboard Layer 1 (Fail)
//Storyboard Layer 2 (Pass)
//Storyboard Layer 3 (Foreground)
//Storyboard Layer 4 (Overlay)
//Storyboard Sound Samples

[TimingPoints]
295,294.117647058823,4,1,0,30,1,0
295,-111.111111111111,4,1,0,30,0,0
9706,-111.111111111111,4,1,0,60,0,0
42647,-100,4,1,0,70,0,0
47500,-100,4,1,0,65,0,0
49706,-100,4,1,0,80,0,1
52059,-83.3333333333333,4,1,0,80,0,0
52133,-100,4,1,0,60,0,0
53530,-86.9565217391304,4,1,0,80,0,0
53824,-90.9090909090909,4,1,0,80,0,0
54118,-95.2380952380952,4,1,0,80,0,0
54412,-100,4,1,0,80,0,1
58530,-100,4,1,0,80,0,0
59412,-100,4,1,0,80,0,1
68530,-100,4,1,0,80,0,0
68824,-100,4,1,0,80,0,1
77353,-100,4,1,0,80,0,0
78236,-100,4,1,0,80,0,1
85000,-100,4,1,0,30,0,0
85074,-111.111111111111,4,1,0,30,0,0

[HitObjects]
256,192,295,5,0,0:0:0:0:
256,192,589,1,8,0:0:0:0:
256,192,1030,1,8,0:0:0:0:
256,192,1177,1,0,0:0:0:0:
256,192,1471,1,0,0:0:0:0:
256,192,1765,1,8,0:0:0:0:
256,192,2206,1,0,0:0:0:0:
256,192,2353,1,8,0:0:0:0:
256,192,2647,1,0,0:0:0:0:
256,192,2942,1,8,0:0:0:0:
256,192,3383,1,8,0:0:0:0:
256,192,3530,1,8,0:0:0:0:
256,192,3824,1,0,0:0:0:0:
256,192,4118,1,8,0:0:0:0:
256,192,4559,1,8,0:0:0:0:
256,192,4706,1,0,0:0:0:0:
256,192,5000,1,0,0:0:0:0:
256,192,5294,1,8,0:0:0:0:
256,192,5736,1,8,0:0:0:0:
256,192,5883,1,0,0:0:0:0:
256,192,6177,1,0,0:0:0:0:
256,192,6471,1,8,0:0:0:0:
256,192,6912,1,0,0:0:0:0:
256,192,7059,1,8,0:0:0:0:
256,192,7353,1,0,0:0:0:0:
256,192,7647,1,8,0:0:0:0:
256,192,8089,1,8,0:0:0:0:
256,192,8236,1,8,0:0:0:0:
256,192,8530,1,0,0:0:0:0:
256,192,8824,1,0,0:0:0:0:
256,192,9118,1,8,0:0:0:0:
256,192,9412,1,8,0:0:0:0:
256,192,9706,1,0,0:0:0:0:
256,192,10000,1,8,0:0:0:0:
256,192,10589,1,8,0:0:0:0:
256,192,10883,1,0,0:0:0:0:
256,192,11177,1,8,0:0:0:0:
256,192,11618,1,0,0:0:0:0:
256,192,11765,1,8,0:0:0:0:
256,192,11912,1,8,0:0:0:0:
256,192,12059,1,0,0:0:0:0:
256,192,12353,1,8,0:0:0:0:
256,192,12942,1,8,0:0:0:0:
256,192,13236,1,0,0:0:0:0:
256,192,13530,1,8,0:0:0:0:
256,192,13971,1,0,0:0:0:0:
256,192,14118,1,8,0:0:0:0:
256,192,14412,1,0,0:0:0:0:
256,192,14706,1,8,0:0:0:0:
256,192,15294,1,8,0:0:0:0:
256,192,15589,1,0,0:0:0:0:
256,192,15883,1,8,0:0:0:0:
256,192,16324,1,0,0:0:0:0:
256,192,16471,1,8,0:0:0:0:
256,192,16618,1,8,0:0:0:0:
256,192,16765,1,0,0:0:0:0:
256,192,17059,1,8,0:0:0:0:
256,192,17647,1,8,0:0:0:0:
256,192,17942,1,0,0:0:0:0:
256,192,18236,1,8,0:0:0:0:
256,192,18677,1,0,0:0:0:0:
256,192,18824,1,8,0:0:0:0:
256,192,19118,1,0,0:0:0:0:
256,192,19412,1,8,0:0:0:0:
256,192,20000,1,8,0:0:0:0:
256,192,20294,1,0,0:0:0:0:
256,192,20589,1,8,0:0:0:0:
256,192,21030,1,0,0:0:0:0:
256,192,21177,1,8,0:0:0:0:
256,192,21324,1,8,0:0:0:0:
256,192,21471,1,0,0:0:0:0:
256,192,21765,1,8,0:0:0:0:
256,192,22353,1,8,0:0:0:0:
256,192,22647,1,0,0:0:0:0:
256,192,22942,1,8,0:0:0:0:
256,192,23383,1,0,0:0:0:0:
256,192,23530,1,8,0:0:0:0:
256,192,23824,1,0,0:0:0:0:
256,192,24118,1,8,0:0:0:0:
256,192,24706,1,8,0:0:0:0:
256,192,25000,1,0,0:0:0:0:
256,192,25294,1,8,0:0:0:0:
256,192,25736,1,0,0:0:0:0:
256,192,25883,1,8,0:0:0:0:
256,192,26030,1,8,0:0:0:0:
256,192,26177,1,0,0:0:0:0:
256,192,26471,1,8,0:0:0:0:
256,192,27059,1,8,0:0:0:0:
256,192,27353,1,0,0:0:0:0:
256,192,27647,1,8,0:0:0:0:
256,192,27942,1,0,0:0:0:0:
256,192,28089,1,0,0:0:0:0:
256,192,28236,1,8,0:0:0:0:
256,192,28530,1,0,0:0:0:0:
256,192,28824,1,8,0:0:0:0:
256,192,29265,1,0,0:0:0:0:
256,192,29412,1,8,0:0:0:0:
256,192,29706,1,0,0:0:0:0:
256,192,30000,1,8,0:0:0:0:
256,192,30442,1,0,0:0:0:0:
256,192,30589,1,8,0:0:0:0:
256,192,30736,1,0,0:0:0:0:
256,192,30883,1,0,0:0:0:0:
256,192,31177,1,8,0:0:0:0:
256,192,31765,1,8,0:0:0:0:
256,192,32059,1,0,0:0:0:0:
256,192,32353,1,8,0:0:0:0:
256,192,32647,1,0,0:0:0:0:
256,192,32794,1,0,0:0:0:0:
256,192,32942,1,8,0:0:0:0:
256,192,33236,1,0,0:0:0:0:
256,192,33530,1,8,0:0:0:0:
256,192,33971,1,0,0:0:0:0:
256,192,34118,1,8,0:0:0:0:
256,192,34412,1,0,0:0:0:0:
256,192,34706,1,8,0:0:0:0:
256,192,35147,1,0,0:0:0:0:
256,192,35294,1,8,0:0:0:0:
256,192,35442,1,8,0:0:0:0:
256,192,35589,1,0,0:0:0:0:
256,192,35883,1,8,0:0:0:0:
256,192,36471,1,8,0:0:0:0:
256,192,36765,1,0,0:0:0:0:
256,192,37059,1,8,0:0:0:0:
256,192,37353,1,0,0:0:0:0:
256,192,37500,1,0,0:0:0:0:
256,192,37647,1,8,0:0:0:0:
256,192,37942,1,0,0:0:0:0:
256,192,38236,1,8,0:0:0:0:
256,192,38677,1,0,0:0:0:0:
256,192,38824,1,8,0:0:0:0:
256,192,39118,1,0,0:0:0:0:
256,192,39412,1,8,0:0:0:0:
256,192,39853,1,0,0:0:0:0:
256,192,40000,1,8,0:0:0:0:
256,192,40147,1,0,0:0:0:0:
256,192,40294,1,0,0:0:0:0:
256,192,40589,1,8,0:0:0:0:
256,192,41177,1,8,0:0:0:0:
256,192,41471,1,0,0:0:0:0:
256,192,41765,1,8,0:0:0:0:
256,192,42059,1,0,0:0:0:0:
256,192,42206,1,0,0:0:0:0:
256,192,42353,1,8,0:0:0:0:
256,192,42647,1,12,0:0:0:0:
256,192,42942,1,0,0:0:0:0:
256,192,43383,1,0,0:0:0:0:
256,192,43530,1,8,0:0:0:0:
256,192,43677,1,8,0:0:0:0:
256,192,43824,1,0,0:0:0:0:
256,192,43971,1,8,0:0:0:0:
256,192,44265,1,0,0:0:0:0:
256,192,44559,1,0,0:0:0:0:
256,192,44706,1,8,0:0:0:0:
256,192,44853,1,8,0:0:0:0:
256,192,45000,1,0,0:0:0:0:
256,192,45147,1,0,0:0:0:0:
256,192,45294,1,8,0:0:0:0:
256,192,45589,1,8,0:0:0:0:
256,192,45736,1,0,0:0:0:0:
256,192,46030,1,0,0:0:0:0:
256,192,46177,1,8,0:0:0:0:
256,192,46471,1,8,0:0:0:0:
256,192,46618,1,0,0:0:0:0:
256,192,46912,1,0,0:0:0:0:
256,192,47059,1,8,0:0:0:0:
256,192,47206,1,8,0:0:0:0:
256,192,47353,1,0,0:0:0:0:
256,192,47500,12,0,48971,0:0:0:0:
256,192,49118,5,8,0:0:0:0:
256,192,49706,1,4,0:0:0:0:
256,192,50000,1,8,0:0:0:0:
256,192,50294,1,0,0:0:0:0:
256,192,50442,1,0,0:0:0:0:
256,192,50589,1,8,0:0:0:0:
256,192,50736,1,8,0:0:0:0:
256,192,50883,1,0,0:0:0:0:
256,192,51177,1,8,0:0:0:0:
256,192,51324,1,8,0:0:0:0:
256,192,51471,1,0,0:0:0:0:
256,192,51544,1,0,0:0:0:0:
256,192,51618,1,0,0:0:0:0:
256,192,51765,1,8,0:0:0:0:
256,192,52059,1,4,0:0:0:0:
256,192,53530,1,12,0:0:0:0:
256,192,53824,1,12,0:0:0:0:
256,192,54118,1,12,0:0:0:0:
256,192,54412,1,4,0:0:0:0:
256,192,54706,1,8,0:0:0:0:
256,192,55000,1,0,0:0:0:0:
256,192,55147,1,0,0:0:0:0:
256,192,55294,1,8,0:0:0:0:
256,192,55442,1,8,0:0:0:0:
256,192,55589,1,0,0:0:0:0:
256,192,55883,1,8,0:0:0:0:
256,192,56177,1,0,0:0:0:0:
256,192,56324,1,0,0:0:0:0:
256,192,56471,1,8,0:0:0:0:
256,192,56765,1,0,0:0:0:0:
256,192,56912,1,8,0:0:0:0:
256,192,57059,1,0,0:0:0:0:
256,192,57133,1,0,0:0:0:0:
256,192,57206,1,0,0:0:0:0:
256,192,57353,1,8,0:0:0:0:
256,192,57500,1,0,0:0:0:0:
256,192,57794,1,12,0:0:0:0:
256,192,58089,1,0,0:0:0:0:
256,192,58236,1,8,0:0:0:0:
256,192,58530,1,0,0:0:0:0:
256,192,58677,1,8,0:0:0:0:
256,192,58751,1,8,0:0:0:0:
256,192,58824,1,8,0:0:0:0:
256,192,58971,1,0,0:0:0:0:
256,192,59045,1,0,0:0:0:0:
256,192,59118,1,0,0:0:0:0:
256,192,59412,1,12,0:0:0:0:
256,192,59706,1,0,0:0:0:0:
256,192,59853,1,0,0:0:0:0:
256,192,60000,1,8,0:0:0:0:
256,192,60294,1,0,0:0:0:0:
256,192,60589,1,8,0:0:0:0:
256,192,60883,1,0,0:0:0:0:
256,192,61030,1,0,0:0:0:0:
256,192,61177,1,8,0:0:0:0:
256,192,61250,1,8,0:0:0:0:
256,192,61324,1,8,0:0:0:0:
256,192,61471,1,0,0:0:0:0:
256,192,61765,1,8,0:0:0:0:
256,192,62059,1,8,0:0:0:0:
256,192,62206,1,0,0:0:0:0:
256,192,62353,1,8,0:0:0:0:
256,192,62500,1,8,0:0:0:0:
256,192,62647,1,0,0:0:0:0:
256,192,62942,1,8,0:0:0:0:
256,192,63236,1,0,0:0:0:0:
256,192,63383,1,0,0:0:0:0:
256,192,63530,1,8,0:0:0:0:
256,192,63824,1,4,0:0:0:0:
256,192,64118,1,8,0:0:0:0:
256,192,64265,1,8,0:0:0:0:
256,192,64412,1,0,0:0:0:0:
256,192,64559,1,0,0:0:0:0:
256,192,64706,1,8,0:0:0:0:
256,192,64853,1,8,0:0:0:0:
256,192,65000,1,0,0:0:0:0:
256,192,65294,1,8,0:0:0:0:
256,192,65442,1,8,0:0:0:0:
256,192,65589,1,0,0:0:0:0:
256,192,65662,1,0,0:0:0:0:
256,192,65736,1,0,0:0:0:0:
256,192,65883,1,8,0:0:0:0:
256,192,66177,1,0,0:0:0:0:
256,192,66471,1,8,0:0:0:0:
256,192,66765,1,0,0:0:0:0:
256,192,66912,1,0,0:0:0:0:
256,192,67059,1,8,0:0:0:0:
256,192,67206,1,0,0:0:0:0:
256,192,67500,1,8,0:0:0:0:
256,192,67647,1,0,0:0:0:0:
256,192,67794,1,8,0:0:0:0:
256,192,67942,1,8,0:0:0:0:
256,192,68089,1,0,0:0:0:0:
256,192,68236,1,8,0:0:0:0:
256,192,68309,1,8,0:0:0:0:
256,192,68383,1,8,0:0:0:0:
256,192,68530,1,0,0:0:0:0:
256,192,68824,1,12,0:0:0:0:
256,192,69118,1,0,0:0:0:0:
256,192,69265,1,0,0:0:0:0:
256,192,69412,1,8,0:0:0:0:
256,192,69559,1,8,0:0:0:0:
256,192,69706,1,0,0:0:0:0:
256,192,70000,1,8,0:0:0:0:
256,192,70294,1,0,0:0:0:0:
256,192,70442,1,0,0:0:0:0:
256,192,70589,1,8,0:0:0:0:
256,192,70662,1,8,0:0:0:0:
256,192,70736,1,8,0:0:0:0:
256,192,70883,1,0,0:0:0:0:
256,192,71177,1,8,0:0:0:0:
256,192,71471,1,0,0:0:0:0:
256,192,71618,1,8,0:0:0:0:
256,192,71765,1,8,0:0:0:0:
256,192,71912,1,8,0:0:0:0:
256,192,72059,1,0,0:0:0:0:
256,192,72353,1,8,0:0:0:0:
256,192,72647,1,0,0:0:0:0:
256,192,72794,1,0,0:0:0:0:
256,192,72942,1,8,0:0:0:0:
256,192,73236,1,4,0:0:0:0:
256,192,73530,1,8,0:0:0:0:
256,192,73824,1,0,0:0:0:0:
256,192,73971,1,0,0:0:0:0:
256,192,74118,1,8,0:0:0:0:
256,192,74265,1,0,0:0:0:0:
256,192,74412,1,0,0:0:0:0:
256,192,74706,1,8,0:0:0:0:
256,192,74853,1,8,0:0:0:0:
256,192,75000,1,0,0:0:0:0:
256,192,75074,1,0,0:0:0:0:
256,192,75147,1,0,0:0:0:0:
256,192,75294,1,8,0:0:0:0:
256,192,75589,1,0,0:0:0:0:
256,192,75736,1,8,0:0:0:0:
256,192,75883,1,0,0:0:0:0:
256,192,75956,1,0,0:0:0:0:
256,192,76030,1,0,0:0:0:0:
256,192,76177,1,8,0:0:0:0:
256,192,76324,1,0,0:0:0:0:
256,192,76618,1,12,0:0:0:0:
256,192,76912,1,0,0:0:0:0:
256,192,77059,1,8,0:0:0:0:
256,192,77206,1,8,0:0:0:0:
256,192,77353,1,0,0:0:0:0:
256,192,77500,1,8,0:0:0:0:
256,192,77574,1,8,0:0:0:0:
256,192,77647,1,8,0:0:0:0:
256,192,77794,1,0,0:0:0:0:
256,192,77868,1,0,0:0:0:0:
256,192,77942,1,0,0:0:0:0:
256,192,78236,1,12,0:0:0:0:
256,192,78530,1,0,0:0:0:0:
256,192,78677,1,0,0:0:0:0:
256,192,78824,1,8,0:0:0:0:
256,192,79118,1,0,0:0:0:0:
256,192,79412,1,8,0:0:0:0:
256,192,79706,1,0,0:0:0:0:
256,192,79853,1,0,0:0:0:0:
256,192,80000,1,8,0:0:0:0:
256,192,80074,1,8,0:0:0:0:
256,192,80147,1,8,0:0:0:0:
256,192,80294,1,0,0:0:0:0:
256,192,80589,1,8,0:0:0:0:
256,192,80883,1,8,0:0:0:0:
256,192,81030,1,0,0:0:0:0:
256,192,81177,1,8,0:0:0:0:
256,192,81324,1,8,0:0:0:0:
256,192,81471,1,0,0:0:0:0:
256,192,81765,1,8,0:0:0:0:
256,192,82059,1,0,0:0:0:0:
256,192,82206,1,0,0:0:0:0:
256,192,82353,1,8,0:0:0:0:
256,192,82500,1,8,0:0:0:0:
256,192,82647,1,4,0:0:0:0:
256,192,82942,1,8,0:0:0:0:
256,192,83236,1,8,0:0:0:0:
256,192,83383,1,0,0:0:0:0:
256,192,83530,1,8,0:0:0:0:
256,192,83677,1,8,0:0:0:0:
256,192,83824,1,0,0:0:0:0:
256,192,83971,1,8,0:0:0:0:
256,192,84118,1,0,0:0:0:0:
256,192,84265,1,8,0:0:0:0:
256,192,84339,1,8,0:0:0:0:
256,192,84412,1,8,0:0:0:0:
256,192,84559,1,0,0:0:0:0:
256,192,84706,1,8,0:0:0:0:
256,192,84853,1,8,0:0:0:0:
256,192,85000,1,0,0:0:0:0:
256,192,85294,1,8,0:0:0:0:
256,192,85735,1,8,0:0:0:0:
256,192,85882,1,0,0:0:0:0:
256,192,86176,1,0,0:0:0:0:
256,192,86470,1,8,0:0:0:0:
256,192,86911,1,0,0:0:0:0:
256,192,87058,1,8,0:0:0:0:
256,192,87352,1,0,0:0:0:0:
256,192,87647,1,8,0:0:0:0:
256,192,88088,1,8,0:0:0:0:
256,192,88235,1,8,0:0:0:0:
256,192,88530,1,0,0:0:0:0:
