osu file format v14

[General]
AudioFilename: audio.mp3
AudioLeadIn: 0
PreviewTime: 49125
Countdown: 0
SampleSet: Soft
StackLeniency: 0.7
Mode: 3
LetterboxInBreaks: 0
SpecialStyle: 0
WidescreenStoryboard: 0

[Editor]
DistanceSpacing: 1.1
BeatDivisor: 8
GridSize: 32
TimelineZoom: 1.9

[Metadata]
Title:Haru (TV Size)
TitleUnicode:晴る (TV Size)
Artist:Yorushika
ArtistUnicode:ヨルシカ
Creator:Sun
Version:Journey
Source:葬送のフリーレン
Tags:-[ Peachy ]- Interlude- Critical_Star chang [ Lovega ] Lude Hoto cocoa sunny sousou no frieren beyond journey's journey end japanese j pop jpop j-pop j rock j-rock jrock anime op opening ナブナ n-buna スイ suis chord jack long note LN coordination release
BeatmapID:4487106
BeatmapSetID:2133047

[Difficulty]
HPDrainRate:8
CircleSize:7
OverallDifficulty:8
ApproachRate:5
SliderMultiplier:1.4
SliderTickRate:1

[Events]
//Background and Video events
0,0,"bg1.jpg",0,0
Video,-240,"awa.mp4"
//Break Periods
//Storyboard Layer 0 (Background)
//Storyboard Layer 1 (Fail)
//Storyboard Layer 2 (Pass)
//Storyboard Layer 3 (Foreground)
//Storyboard Layer 4 (Overlay)
//Storyboard Sound Samples

[TimingPoints]
302,294.117647058824,4,2,1,40,1,0
47360,-153.846153846154,4,2,1,40,0,0
49125,-71.4285714285714,4,2,1,40,0,0
49272,-200,4,2,1,40,0,0
49419,-133.333333333333,4,2,1,40,0,0
49566,-90.9090909090909,4,2,1,40,0,0
49603,-83.3333333333333,4,2,1,40,0,0
49640,-71.4285714285714,4,2,1,40,0,0
49658,-66.6666666666667,4,2,1,40,0,0
49677,-62.5,4,2,1,40,0,0
49695,-58.8235294117647,4,2,1,40,0,0
49713,-100,4,2,1,40,0,1
52066,-10,4,2,1,40,0,1
52140,-250,4,2,1,40,0,1
53243,-200,4,2,1,40,0,1
53316,-133.333333333333,4,2,1,40,0,1
53390,-86.9565217391304,4,2,1,40,0,1
53427,-80,4,2,1,40,0,1
53463,-71.4285714285714,4,2,1,40,0,1
53482,-66.6666666666667,4,2,1,40,0,1
53500,-62.5,4,2,1,40,0,1
53518,-58.8235294117647,4,2,1,40,0,1
53537,-200,4,2,1,40,0,1
53610,-133.333333333333,4,2,1,40,0,1
53684,-86.9565217391304,4,2,1,40,0,1
53721,-80,4,2,1,40,0,1
53757,-71.4285714285714,4,2,1,40,0,1
53776,-66.6666666666667,4,2,1,40,0,1
53794,-62.5,4,2,1,40,0,1
53812,-58.8235294117647,4,2,1,40,0,1
53831,-200,4,2,1,40,0,1
53904,-133.333333333333,4,2,1,40,0,1
53978,-86.9565217391304,4,2,1,40,0,1
54015,-80,4,2,1,40,0,1
54051,-71.4285714285714,4,2,1,40,0,1
54070,-66.6666666666667,4,2,1,40,0,1
54088,-62.5,4,2,1,40,0,1
54106,-58.8235294117647,4,2,1,40,0,1
54125,-200,4,2,1,40,0,1
54198,-133.333333333333,4,2,1,40,0,1
54272,-86.9565217391304,4,2,1,40,0,1
54309,-80,4,2,1,40,0,1
54345,-71.4285714285714,4,2,1,40,0,1
54364,-66.6666666666667,4,2,1,40,0,1
54382,-62.5,4,2,1,40,0,1
54400,-58.8235294117647,4,2,1,40,0,1
54419,-100,4,2,1,40,0,1
85007,-100,4,2,1,40,0,0

[HitObjects]
109,192,302,128,0,449:0:0:0:0:
329,192,596,128,0,1037:0:0:0:0:
475,192,596,128,0,1478:0:0:0:0:
36,192,1037,1,0,0:0:0:0:
36,192,1184,128,0,1331:0:0:0:0:
329,192,1331,128,0,1478:0:0:0:0:
182,192,1478,128,0,1625:0:0:0:0:
256,192,1772,128,0,2654:0:0:0:0:
402,192,1772,128,0,2213:0:0:0:0:
109,192,2213,1,0,0:0:0:0:
109,192,2360,128,0,2507:0:0:0:0:
36,192,2507,128,0,2654:0:0:0:0:
475,192,2654,128,0,2802:0:0:0:0:
109,192,2949,128,0,3537:0:0:0:0:
329,192,2949,128,0,3831:0:0:0:0:
182,192,3390,1,0,0:0:0:0:
182,192,3537,128,0,3684:0:0:0:0:
475,192,3684,128,0,3831:0:0:0:0:
36,192,3831,128,0,3978:0:0:0:0:
256,192,4125,128,0,4713:0:0:0:0:
475,192,4125,128,0,5007:0:0:0:0:
109,192,4566,1,0,0:0:0:0:
109,192,4713,128,0,5007:0:0:0:0:
256,192,5007,128,0,5154:0:0:0:0:
182,192,5302,128,0,6184:0:0:0:0:
402,192,5302,128,0,5890:0:0:0:0:
36,192,5743,1,0,0:0:0:0:
36,192,5890,128,0,6037:0:0:0:0:
402,192,6037,128,0,6184:0:0:0:0:
329,192,6184,128,0,6331:0:0:0:0:
109,192,6478,128,0,7066:0:0:0:0:
256,192,6478,128,0,7360:0:0:0:0:
475,192,6919,1,0,0:0:0:0:
475,192,7066,128,0,7213:0:0:0:0:
182,192,7213,128,0,7360:0:0:0:0:
36,192,7360,128,0,7507:0:0:0:0:
402,192,7654,128,0,8096:0:0:0:0:
475,192,7654,128,0,8537:0:0:0:0:
109,192,8096,1,0,0:0:0:0:
109,192,8243,128,0,8390:0:0:0:0:
329,192,8390,128,0,8537:0:0:0:0:
256,192,8537,128,0,8684:0:0:0:0:
182,192,8831,128,0,9713:0:0:0:0:
475,192,8831,128,0,9272:0:0:0:0:
36,192,9125,128,0,9419:0:0:0:0:
329,192,9272,1,0,0:0:0:0:
475,192,9419,128,0,9713:0:0:0:0:
36,192,9713,1,2,0:0:0:0:
109,192,9713,1,0,0:0:0:0:
329,192,9713,128,0,10007:0:0:0:0:
109,192,10007,128,8,10449:0:0:0:0:
256,192,10007,1,0,0:0:0:0:
402,192,10007,1,0,0:0:0:0:
475,192,10007,1,0,0:0:0:0:
182,192,10302,128,0,10449:0:0:0:0:
329,192,10302,128,0,10596:0:0:0:0:
36,192,10449,1,0,0:0:0:0:
109,192,10596,1,8,0:0:0:0:
182,192,10596,128,0,10890:0:0:0:0:
402,192,10596,1,0,0:0:0:0:
475,192,10596,1,0,0:0:0:0:
36,192,10890,1,2,0:0:0:0:
256,192,10890,1,0,0:0:0:0:
475,192,10890,128,0,11184:0:0:0:0:
36,192,11184,1,8,0:0:0:0:
109,192,11184,1,0,0:0:0:0:
182,192,11184,1,0,0:0:0:0:
402,192,11184,128,0,11625:0:0:0:0:
256,192,11478,128,0,11772:0:0:0:0:
475,192,11478,128,0,11625:0:0:0:0:
182,192,11625,1,2,0:0:0:0:
109,192,11625,1,0,0:0:0:0:
329,192,11772,1,8,0:0:0:0:
36,192,11772,1,0,0:0:0:0:
475,192,11772,128,0,12360:0:0:0:0:
36,192,11919,1,8,0:0:0:0:
182,192,11919,1,0,0:0:0:0:
329,192,11919,1,0,0:0:0:0:
256,192,12066,1,2,0:0:0:0:
402,192,12066,1,0,0:0:0:0:
36,192,12360,128,8,12802:0:0:0:0:
109,192,12360,128,0,12654:0:0:0:0:
182,192,12360,1,0,0:0:0:0:
329,192,12360,1,0,0:0:0:0:
329,192,12802,1,0,0:0:0:0:
36,192,12949,1,8,0:0:0:0:
182,192,12949,1,0,0:0:0:0:
402,192,12949,1,0,0:0:0:0:
475,192,12949,128,0,13537:0:0:0:0:
109,192,13243,1,2,0:0:0:0:
256,192,13243,1,0,0:0:0:0:
36,192,13537,128,8,13978:0:0:0:0:
182,192,13537,128,0,13831:0:0:0:0:
329,192,13537,1,0,0:0:0:0:
402,192,13537,1,0,0:0:0:0:
402,192,13831,128,0,13978:0:0:0:0:
475,192,13831,128,0,14125:0:0:0:0:
182,192,13978,1,2,0:0:0:0:
256,192,13978,1,0,0:0:0:0:
36,192,14125,1,8,0:0:0:0:
109,192,14125,1,0,0:0:0:0:
256,192,14125,1,0,0:0:0:0:
402,192,14125,128,0,14419:0:0:0:0:
36,192,14419,1,2,0:0:0:0:
182,192,14419,1,0,0:0:0:0:
329,192,14419,128,0,14713:0:0:0:0:
109,192,14713,1,8,0:0:0:0:
182,192,14713,1,0,0:0:0:0:
402,192,14713,1,0,0:0:0:0:
475,192,14713,128,0,15154:0:0:0:0:
36,192,15007,128,0,15302:0:0:0:0:
182,192,15007,128,0,15154:0:0:0:0:
329,192,15154,128,0,15449:0:0:0:0:
109,192,15302,128,8,15596:0:0:0:0:
402,192,15302,1,0,0:0:0:0:
475,192,15302,1,0,0:0:0:0:
256,192,15449,128,0,15596:0:0:0:0:
182,192,15596,128,2,15890:0:0:0:0:
329,192,15596,1,0,0:0:0:0:
475,192,15596,1,0,0:0:0:0:
36,192,15890,1,8,0:0:0:0:
109,192,15890,1,0,0:0:0:0:
329,192,15890,128,0,16331:0:0:0:0:
402,192,15890,1,0,0:0:0:0:
36,192,16184,128,0,16478:0:0:0:0:
475,192,16184,128,0,16331:0:0:0:0:
109,192,16331,1,2,0:0:0:0:
256,192,16331,1,0,0:0:0:0:
182,192,16478,1,8,0:0:0:0:
329,192,16478,1,0,0:0:0:0:
475,192,16478,128,0,17066:0:0:0:0:
36,192,16625,1,8,0:0:0:0:
182,192,16625,1,0,0:0:0:0:
329,192,16625,1,0,0:0:0:0:
256,192,16772,1,2,0:0:0:0:
402,192,16772,1,0,0:0:0:0:
36,192,17066,1,8,0:0:0:0:
109,192,17066,1,0,0:0:0:0:
256,192,17066,128,0,17507:0:0:0:0:
329,192,17066,128,0,17654:0:0:0:0:
475,192,17507,1,0,0:0:0:0:
36,192,17654,1,8,0:0:0:0:
256,192,17654,1,0,0:0:0:0:
475,192,17654,128,0,18243:0:0:0:0:
182,192,17654,1,0,0:0:0:0:
36,192,17949,1,2,0:0:0:0:
329,192,17949,128,0,18096:0:0:0:0:
109,192,18243,128,8,18537:0:0:0:0:
182,192,18243,128,0,18684:0:0:0:0:
329,192,18243,1,0,0:0:0:0:
402,192,18243,1,0,0:0:0:0:
402,192,18537,128,0,18978:0:0:0:0:
475,192,18537,128,0,18684:0:0:0:0:
256,192,18684,1,2,0:0:0:0:
329,192,18684,1,0,0:0:0:0:
36,192,18831,1,8,0:0:0:0:
109,192,18831,1,0,0:0:0:0:
182,192,18831,128,0,19125:0:0:0:0:
256,192,19125,1,2,0:0:0:0:
402,192,19125,1,0,0:0:0:0:
475,192,19125,128,0,19419:0:0:0:0:
36,192,19419,1,8,0:0:0:0:
109,192,19419,1,0,0:0:0:0:
182,192,19419,1,0,0:0:0:0:
329,192,19419,128,0,19860:0:0:0:0:
36,192,19713,128,0,20007:0:0:0:0:
256,192,19713,128,0,19860:0:0:0:0:
182,192,19860,1,0,0:0:0:0:
109,192,20007,1,8,0:0:0:0:
256,192,20007,128,0,20302:0:0:0:0:
402,192,20007,1,0,0:0:0:0:
475,192,20007,1,0,0:0:0:0:
36,192,20302,1,2,0:0:0:0:
182,192,20302,128,0,20596:0:0:0:0:
475,192,20302,1,0,0:0:0:0:
36,192,20596,1,8,0:0:0:0:
109,192,20596,1,0,0:0:0:0:
329,192,20596,128,0,20890:0:0:0:0:
402,192,20596,128,0,21037:0:0:0:0:
182,192,20890,128,0,21184:0:0:0:0:
475,192,20890,128,0,21037:0:0:0:0:
36,192,21037,1,2,0:0:0:0:
109,192,21037,1,0,0:0:0:0:
256,192,21184,1,8,0:0:0:0:
329,192,21184,1,0,0:0:0:0:
475,192,21184,128,0,21772:0:0:0:0:
36,192,21331,1,8,0:0:0:0:
256,192,21331,1,0,0:0:0:0:
329,192,21331,1,0,0:0:0:0:
109,192,21478,1,2,0:0:0:0:
402,192,21478,1,0,0:0:0:0:
36,192,21772,1,8,0:0:0:0:
109,192,21772,1,0,0:0:0:0:
256,192,21772,128,0,22360:0:0:0:0:
329,192,21772,128,0,22213:0:0:0:0:
36,192,22213,1,0,0:0:0:0:
36,192,22360,128,8,22654:0:0:0:0:
109,192,22360,1,0,0:0:0:0:
329,192,22360,1,0,0:0:0:0:
475,192,22360,1,0,0:0:0:0:
182,192,22654,1,2,0:0:0:0:
402,192,22654,1,0,0:0:0:0:
475,192,22654,1,0,0:0:0:0:
36,192,22949,1,8,0:0:0:0:
109,192,22949,1,0,0:0:0:0:
329,192,22949,128,0,23390:0:0:0:0:
402,192,22949,128,0,23537:0:0:0:0:
36,192,23390,1,2,0:0:0:0:
182,192,23390,1,0,0:0:0:0:
36,192,23537,1,8,0:0:0:0:
109,192,23537,1,0,0:0:0:0:
256,192,23537,128,0,23831:0:0:0:0:
475,192,23537,1,0,0:0:0:0:
182,192,23831,1,2,0:0:0:0:
329,192,23831,1,0,0:0:0:0:
475,192,23831,128,0,24125:0:0:0:0:
36,192,24125,1,8,0:0:0:0:
182,192,24125,1,0,0:0:0:0:
256,192,24125,128,0,24713:0:0:0:0:
402,192,24125,128,0,24566:0:0:0:0:
182,192,24566,128,0,24713:0:0:0:0:
36,192,24713,128,8,24860:0:0:0:0:
329,192,24713,128,0,24860:0:0:0:0:
402,192,24713,1,0,0:0:0:0:
475,192,24713,1,0,0:0:0:0:
109,192,25007,128,2,25302:0:0:0:0:
329,192,25007,1,0,0:0:0:0:
475,192,25007,1,0,0:0:0:0:
182,192,25302,1,8,0:0:0:0:
256,192,25302,1,0,0:0:0:0:
329,192,25302,128,0,25890:0:0:0:0:
475,192,25302,128,0,25743:0:0:0:0:
36,192,25596,128,0,25890:0:0:0:0:
109,192,25743,1,2,0:0:0:0:
182,192,25743,1,0,0:0:0:0:
256,192,25890,128,8,26478:0:0:0:0:
402,192,25890,1,0,0:0:0:0:
475,192,25890,1,0,0:0:0:0:
36,192,26037,1,8,0:0:0:0:
402,192,26037,1,0,0:0:0:0:
475,192,26037,1,0,0:0:0:0:
182,192,26184,1,2,0:0:0:0:
329,192,26184,1,0,0:0:0:0:
36,192,26478,128,8,26919:0:0:0:0:
329,192,26478,1,0,0:0:0:0:
402,192,26478,1,0,0:0:0:0:
475,192,26478,128,0,27066:0:0:0:0:
182,192,26919,128,0,27066:0:0:0:0:
36,192,27066,128,8,27360:0:0:0:0:
256,192,27066,1,0,0:0:0:0:
329,192,27066,1,0,0:0:0:0:
402,192,27066,1,0,0:0:0:0:
182,192,27360,1,2,0:0:0:0:
329,192,27360,128,0,27654:0:0:0:0:
475,192,27360,1,0,0:0:0:0:
109,192,27654,128,8,28096:0:0:0:0:
256,192,27654,1,0,0:0:0:0:
402,192,27654,1,0,0:0:0:0:
475,192,27654,128,0,28243:0:0:0:0:
36,192,27949,128,0,28096:0:0:0:0:
182,192,28096,1,2,0:0:0:0:
329,192,28096,1,0,0:0:0:0:
36,192,28243,128,8,28390:0:0:0:0:
109,192,28243,1,0,0:0:0:0:
256,192,28243,128,0,28537:0:0:0:0:
402,192,28243,1,0,0:0:0:0:
182,192,28390,128,0,28537:0:0:0:0:
329,192,28537,128,2,28831:0:0:0:0:
402,192,28537,1,0,0:0:0:0:
475,192,28537,1,0,0:0:0:0:
36,192,28831,1,8,0:0:0:0:
109,192,28831,128,0,29125:0:0:0:0:
256,192,28831,128,0,29272:0:0:0:0:
475,192,28831,1,0,0:0:0:0:
182,192,29125,128,0,29272:0:0:0:0:
329,192,29272,128,0,29419:0:0:0:0:
36,192,29419,128,8,29713:0:0:0:0:
182,192,29419,1,0,0:0:0:0:
256,192,29419,1,0,0:0:0:0:
402,192,29419,128,0,29713:0:0:0:0:
182,192,29713,1,2,0:0:0:0:
329,192,29713,128,0,30007:0:0:0:0:
475,192,29713,1,0,0:0:0:0:
109,192,30007,128,8,30449:0:0:0:0:
256,192,30007,128,0,30302:0:0:0:0:
402,192,30007,1,0,0:0:0:0:
475,192,30007,1,0,0:0:0:0:
36,192,30302,128,0,30449:0:0:0:0:
329,192,30449,128,2,30596:0:0:0:0:
475,192,30449,1,0,0:0:0:0:
36,192,30596,1,8,0:0:0:0:
109,192,30596,1,0,0:0:0:0:
182,192,30596,128,0,31184:0:0:0:0:
329,192,30743,1,8,0:0:0:0:
402,192,30743,1,0,0:0:0:0:
475,192,30743,1,0,0:0:0:0:
109,192,30890,1,2,0:0:0:0:
256,192,30890,1,0,0:0:0:0:
36,192,31184,128,8,31625:0:0:0:0:
329,192,31184,1,0,0:0:0:0:
402,192,31184,128,0,31772:0:0:0:0:
475,192,31184,128,0,31478:0:0:0:0:
329,192,31625,128,0,31772:0:0:0:0:
36,192,31772,1,8,0:0:0:0:
109,192,31772,1,0,0:0:0:0:
182,192,31772,128,0,32066:0:0:0:0:
475,192,31772,128,0,32360:0:0:0:0:
256,192,32066,1,2,0:0:0:0:
402,192,32066,1,0,0:0:0:0:
36,192,32360,128,8,32654:0:0:0:0:
109,192,32360,1,0,0:0:0:0:
256,192,32360,128,0,32802:0:0:0:0:
329,192,32360,1,0,0:0:0:0:
402,192,32654,128,0,32949:0:0:0:0:
109,192,32802,1,2,0:0:0:0:
329,192,32802,128,0,32949:0:0:0:0:
36,192,32949,1,8,0:0:0:0:
182,192,32949,128,0,33243:0:0:0:0:
256,192,32949,1,0,0:0:0:0:
475,192,32949,1,0,0:0:0:0:
109,192,33243,128,2,33537:0:0:0:0:
402,192,33243,1,0,0:0:0:0:
475,192,33243,1,0,0:0:0:0:
36,192,33537,1,8,0:0:0:0:
256,192,33537,1,0,0:0:0:0:
329,192,33537,128,0,33831:0:0:0:0:
475,192,33537,128,0,33978:0:0:0:0:
109,192,33831,128,0,34125:0:0:0:0:
329,192,33978,128,0,34125:0:0:0:0:
36,192,34125,128,8,34419:0:0:0:0:
182,192,34125,1,0,0:0:0:0:
402,192,34125,128,0,34419:0:0:0:0:
475,192,34125,1,0,0:0:0:0:
109,192,34419,1,2,0:0:0:0:
256,192,34419,1,0,0:0:0:0:
329,192,34419,128,0,34713:0:0:0:0:
36,192,34713,128,8,35154:0:0:0:0:
182,192,34713,128,0,35007:0:0:0:0:
402,192,34713,1,0,0:0:0:0:
475,192,34713,1,0,0:0:0:0:
475,192,35007,128,0,35302:0:0:0:0:
182,192,35154,1,2,0:0:0:0:
329,192,35154,128,0,35302:0:0:0:0:
36,192,35302,1,8,0:0:0:0:
109,192,35302,1,0,0:0:0:0:
256,192,35302,128,0,35596:0:0:0:0:
402,192,35449,1,8,0:0:0:0:
109,192,35449,1,0,0:0:0:0:
36,192,35449,1,0,0:0:0:0:
475,192,35596,1,2,0:0:0:0:
182,192,35596,1,0,0:0:0:0:
329,192,35596,1,0,0:0:0:0:
36,192,35890,128,8,36331:0:0:0:0:
256,192,35890,1,0,0:0:0:0:
402,192,35890,128,0,36184:0:0:0:0:
475,192,35890,128,0,36478:0:0:0:0:
182,192,36331,128,0,36478:0:0:0:0:
36,192,36478,1,8,0:0:0:0:
109,192,36478,1,0,0:0:0:0:
256,192,36478,128,0,36772:0:0:0:0:
402,192,36478,1,0,0:0:0:0:
182,192,36772,1,2,0:0:0:0:
402,192,36772,1,0,0:0:0:0:
475,192,36772,1,0,0:0:0:0:
36,192,37066,128,8,37360:0:0:0:0:
329,192,37066,128,0,37507:0:0:0:0:
402,192,37066,1,0,0:0:0:0:
475,192,37066,1,0,0:0:0:0:
182,192,37360,128,0,37654:0:0:0:0:
36,192,37507,128,2,37654:0:0:0:0:
475,192,37507,1,0,0:0:0:0:
109,192,37654,1,8,0:0:0:0:
256,192,37654,1,0,0:0:0:0:
329,192,37654,128,0,37949:0:0:0:0:
402,192,37654,1,0,0:0:0:0:
36,192,37949,1,2,0:0:0:0:
182,192,37949,1,0,0:0:0:0:
475,192,37949,128,0,38243:0:0:0:0:
36,192,38243,128,8,38684:0:0:0:0:
109,192,38243,1,0,0:0:0:0:
329,192,38243,1,0,0:0:0:0:
402,192,38243,128,0,38537:0:0:0:0:
256,192,38537,128,0,38831:0:0:0:0:
402,192,38684,128,0,38831:0:0:0:0:
36,192,38831,1,8,0:0:0:0:
182,192,38831,1,0,0:0:0:0:
329,192,38831,128,0,39125:0:0:0:0:
475,192,38831,1,0,0:0:0:0:
109,192,39125,128,2,39419:0:0:0:0:
182,192,39125,1,0,0:0:0:0:
402,192,39125,1,0,0:0:0:0:
36,192,39419,1,8,0:0:0:0:
256,192,39419,128,0,39713:0:0:0:0:
329,192,39419,1,0,0:0:0:0:
475,192,39419,128,0,39860:0:0:0:0:
109,192,39713,128,0,40007:0:0:0:0:
182,192,39860,1,2,0:0:0:0:
329,192,39860,128,0,40007:0:0:0:0:
475,192,40007,1,8,0:0:0:0:
402,192,40007,1,0,0:0:0:0:
36,192,40007,128,0,40302:0:0:0:0:
182,192,40154,1,8,0:0:0:0:
402,192,40154,1,0,0:0:0:0:
475,192,40154,1,0,0:0:0:0:
329,192,40302,1,2,0:0:0:0:
109,192,40302,1,0,0:0:0:0:
256,192,40302,1,0,0:0:0:0:
36,192,40596,1,8,0:0:0:0:
182,192,40596,128,0,41184:0:0:0:0:
329,192,40596,128,0,40890:0:0:0:0:
402,192,40596,128,0,41037:0:0:0:0:
256,192,41037,128,0,41184:0:0:0:0:
36,192,41184,1,8,0:0:0:0:
329,192,41184,1,0,0:0:0:0:
402,192,41184,1,0,0:0:0:0:
475,192,41184,1,0,0:0:0:0:
182,192,41331,128,0,41478:0:0:0:0:
109,192,41478,1,2,0:0:0:0:
256,192,41478,1,0,0:0:0:0:
475,192,41478,1,0,0:0:0:0:
36,192,41772,1,8,0:0:0:0:
182,192,41772,128,0,41919:0:0:0:0:
329,192,41772,128,0,42066:0:0:0:0:
475,192,41772,128,0,42213:0:0:0:0:
182,192,42066,128,0,42360:0:0:0:0:
36,192,42213,1,2,0:0:0:0:
329,192,42213,128,0,42360:0:0:0:0:
109,192,42360,128,8,42654:0:0:0:0:
256,192,42360,1,0,0:0:0:0:
402,192,42360,128,0,42654:0:0:0:0:
475,192,42360,1,0,0:0:0:0:
36,192,42654,1,4,0:0:0:0:
182,192,42654,1,2,0:0:0:0:
329,192,42654,1,0,0:0:0:0:
475,192,42654,1,0,0:0:0:0:
109,192,42949,1,8,0:0:0:0:
256,192,42949,1,0,0:0:0:0:
402,192,42949,128,0,43243:0:0:0:0:
475,192,42949,128,0,43390:0:0:0:0:
36,192,43390,1,2,0:0:0:0:
182,192,43390,1,0,0:0:0:0:
329,192,43390,128,0,43537:0:0:0:0:
36,192,43537,1,8,0:0:0:0:
109,192,43537,1,0,0:0:0:0:
256,192,43537,1,0,0:0:0:0:
475,192,43537,128,0,43684:0:0:0:0:
329,192,43684,128,0,43831:0:0:0:0:
36,192,43831,1,2,0:0:0:0:
182,192,43831,1,0,0:0:0:0:
475,192,43831,128,0,43978:0:0:0:0:
256,192,43978,128,0,44125:0:0:0:0:
402,192,43978,128,0,44125:0:0:0:0:
36,192,44125,1,8,0:0:0:0:
109,192,44125,1,0,0:0:0:0:
182,192,44125,1,0,0:0:0:0:
329,192,44125,1,0,0:0:0:0:
329,192,44272,128,0,44419:0:0:0:0:
475,192,44272,128,0,44419:0:0:0:0:
182,192,44419,1,0,0:0:0:0:
182,192,44566,1,2,0:0:0:0:
329,192,44566,128,0,44713:0:0:0:0:
475,192,44566,1,0,0:0:0:0:
36,192,44713,1,8,0:0:0:0:
109,192,44713,1,0,0:0:0:0:
256,192,44713,1,0,0:0:0:0:
36,192,44860,1,8,0:0:0:0:
109,192,44860,1,0,0:0:0:0:
256,192,44860,128,0,45007:0:0:0:0:
329,192,45007,1,2,0:0:0:0:
402,192,45007,1,0,0:0:0:0:
475,192,45007,1,0,0:0:0:0:
36,192,45154,1,2,0:0:0:0:
109,192,45154,1,0,0:0:0:0:
182,192,45154,1,0,0:0:0:0:
402,192,45302,1,8,0:0:0:0:
256,192,45302,1,0,0:0:0:0:
109,192,45302,128,0,45449:0:0:0:0:
36,192,45302,128,0,45449:0:0:0:0:
329,192,45596,1,2,0:0:0:0:
475,192,45596,1,0,0:0:0:0:
36,192,45596,1,0,0:0:0:0:
329,192,45743,128,8,45890:0:0:0:0:
475,192,45743,128,0,45890:0:0:0:0:
256,192,45743,1,0,0:0:0:0:
109,192,45743,1,0,0:0:0:0:
182,192,45890,1,0,0:0:0:0:
36,192,46037,1,2,0:0:0:0:
109,192,46037,1,0,0:0:0:0:
475,192,46037,1,0,0:0:0:0:
256,192,46184,1,8,0:0:0:0:
109,192,46184,128,0,46331:0:0:0:0:
402,192,46184,1,0,0:0:0:0:
36,192,46184,128,0,46331:0:0:0:0:
329,192,46478,1,2,0:0:0:0:
475,192,46478,1,0,0:0:0:0:
36,192,46478,1,0,0:0:0:0:
475,192,46625,128,8,46772:0:0:0:0:
256,192,46625,1,0,0:0:0:0:
329,192,46625,128,0,46772:0:0:0:0:
109,192,46625,1,0,0:0:0:0:
182,192,46772,1,0,0:0:0:0:
36,192,46919,1,2,0:0:0:0:
256,192,46919,1,0,0:0:0:0:
475,192,46919,1,0,0:0:0:0:
109,192,47066,1,0,0:0:0:0:
329,192,47066,1,0,0:0:0:0:
402,192,47066,1,0,0:0:0:0:
36,192,47213,1,8,0:0:0:0:
329,192,47213,1,0,0:0:0:0:
475,192,47213,1,0,0:0:0:0:
182,192,47213,1,0,0:0:0:0:
109,192,47360,128,2,49125:0:0:0:0:
256,192,47360,1,0,0:0:0:0:
402,192,47360,128,0,49125:0:0:0:0:
36,192,49713,128,4,50449:0:0:0:0:
182,192,49713,128,2,50007:0:0:0:0:
329,192,49713,1,0,0:0:0:0:
402,192,49713,1,0,0:0:0:0:
475,192,49713,1,0,0:0:0:0:
109,192,50007,1,8,0:0:0:0:
256,192,50007,1,0,0:0:0:0:
329,192,50007,1,0,0:0:0:0:
475,192,50007,1,0,0:0:0:0:
402,192,50154,1,0,0:0:0:0:
109,192,50302,1,2,0:0:0:0:
182,192,50302,1,0,0:0:0:0:
329,192,50302,128,0,51037:0:0:0:0:
402,192,50449,1,2,0:0:0:0:
475,192,50449,1,0,0:0:0:0:
36,192,50596,1,8,0:0:0:0:
182,192,50596,1,0,0:0:0:0:
256,192,50596,1,0,0:0:0:0:
109,192,50743,1,8,0:0:0:0:
402,192,50743,1,0,0:0:0:0:
475,192,50743,1,0,0:0:0:0:
36,192,50890,128,2,51184:0:0:0:0:
182,192,50890,128,0,51625:0:0:0:0:
256,192,51037,1,0,0:0:0:0:
109,192,51184,1,8,0:0:0:0:
329,192,51184,1,0,0:0:0:0:
402,192,51184,1,0,0:0:0:0:
475,192,51184,1,0,0:0:0:0:
256,192,51331,1,0,0:0:0:0:
36,192,51478,1,2,0:0:0:0:
329,192,51478,1,0,0:0:0:0:
475,192,51478,128,0,51919:0:0:0:0:
109,192,51625,1,2,0:0:0:0:
256,192,51625,1,0,0:0:0:0:
36,192,51772,128,8,51919:0:0:0:0:
182,192,51772,1,0,0:0:0:0:
329,192,51772,1,0,0:0:0:0:
402,192,51772,1,0,0:0:0:0:
256,192,51919,1,0,0:0:0:0:
36,192,52066,1,2,0:0:0:0:
109,192,52066,1,4,0:0:0:0:
182,192,52066,1,0,0:0:0:0:
329,192,52066,1,0,0:0:0:0:
475,192,52066,1,0,0:0:0:0:
182,192,53537,1,4,0:0:0:0:
256,192,53537,1,2,0:0:0:0:
329,192,53537,1,0,0:0:0:0:
402,192,53537,1,0,0:0:0:0:
475,192,53537,1,0,0:0:0:0:
109,192,53831,1,2,0:0:0:0:
182,192,53831,1,4,0:0:0:0:
256,192,53831,1,0,0:0:0:0:
329,192,53831,1,0,0:0:0:0:
402,192,53831,1,0,0:0:0:0:
109,192,54125,1,4,0:0:0:0:
182,192,54125,1,0,0:0:0:0:
256,192,54125,1,0,0:0:0:0:
329,192,54125,1,0,0:0:0:0:
36,192,54125,1,2,0:0:0:0:
36,192,54419,128,2,54713:0:0:0:0:
402,192,54419,1,4,0:0:0:0:
256,192,54419,1,0,0:0:0:0:
475,192,54419,128,0,55154:0:0:0:0:
329,192,54419,1,0,0:0:0:0:
109,192,54713,1,8,0:0:0:0:
182,192,54713,1,0,0:0:0:0:
329,192,54713,1,0,0:0:0:0:
402,192,54713,1,0,0:0:0:0:
182,192,54860,1,0,0:0:0:0:
36,192,55007,128,2,55449:0:0:0:0:
329,192,55007,1,0,0:0:0:0:
402,192,55007,1,0,0:0:0:0:
109,192,55154,1,2,0:0:0:0:
182,192,55154,1,0,0:0:0:0:
256,192,55302,1,8,0:0:0:0:
329,192,55302,128,0,56037:0:0:0:0:
475,192,55302,1,0,0:0:0:0:
109,192,55449,1,8,0:0:0:0:
182,192,55449,1,0,0:0:0:0:
402,192,55449,1,0,0:0:0:0:
36,192,55596,1,2,0:0:0:0:
256,192,55596,1,0,0:0:0:0:
475,192,55596,128,0,55890:0:0:0:0:
36,192,55890,1,8,0:0:0:0:
109,192,55890,1,0,0:0:0:0:
182,192,55890,128,0,56331:0:0:0:0:
256,192,55890,1,0,0:0:0:0:
402,192,56037,1,0,0:0:0:0:
36,192,56184,128,2,56625:0:0:0:0:
256,192,56184,1,0,0:0:0:0:
475,192,56184,1,0,0:0:0:0:
329,192,56331,1,2,0:0:0:0:
402,192,56331,1,0,0:0:0:0:
109,192,56478,1,8,0:0:0:0:
182,192,56478,1,0,0:0:0:0:
256,192,56478,1,0,0:0:0:0:
475,192,56478,128,0,58096:0:0:0:0:
329,192,56625,1,0,0:0:0:0:
36,192,56772,1,2,0:0:0:0:
109,192,56772,1,0,0:0:0:0:
256,192,56772,1,0,0:0:0:0:
109,192,56919,1,8,0:0:0:0:
182,192,56919,1,0,0:0:0:0:
329,192,56919,1,0,0:0:0:0:
402,192,56919,1,0,0:0:0:0:
36,192,57066,128,2,58096:0:0:0:0:
182,192,57066,1,0,0:0:0:0:
256,192,57213,1,2,0:0:0:0:
402,192,57213,1,0,0:0:0:0:
109,192,57360,1,8,0:0:0:0:
182,192,57360,1,0,0:0:0:0:
329,192,57360,1,0,0:0:0:0:
109,192,57507,1,2,0:0:0:0:
256,192,57507,128,0,57802:0:0:0:0:
109,192,57802,1,4,0:0:0:0:
182,192,57802,1,2,0:0:0:0:
329,192,57802,1,0,0:0:0:0:
402,192,57802,1,0,0:0:0:0:
256,192,57949,128,0,58096:0:0:0:0:
109,192,58096,1,2,0:0:0:0:
402,192,58096,1,0,0:0:0:0:
36,192,58243,1,8,0:0:0:0:
182,192,58243,1,0,0:0:0:0:
329,192,58243,1,0,0:0:0:0:
475,192,58243,1,0,0:0:0:0:
256,192,58390,128,0,58537:0:0:0:0:
182,192,58537,1,2,0:0:0:0:
402,192,58537,1,0,0:0:0:0:
475,192,58537,1,0,0:0:0:0:
36,192,58684,1,8,0:0:0:0:
109,192,58684,1,0,0:0:0:0:
329,192,58684,1,0,0:0:0:0:
182,192,58757,1,8,0:0:0:0:
402,192,58757,1,0,0:0:0:0:
475,192,58757,1,0,0:0:0:0:
36,192,58831,1,2,0:0:0:0:
109,192,58831,1,0,0:0:0:0:
256,192,58831,1,0,0:0:0:0:
329,192,58904,1,8,0:0:0:0:
402,192,58904,1,0,0:0:0:0:
475,192,58904,1,0,0:0:0:0:
36,192,58978,1,8,0:0:0:0:
109,192,58978,1,0,0:0:0:0:
182,192,58978,1,0,0:0:0:0:
256,192,59052,1,8,0:0:0:0:
402,192,59052,1,0,0:0:0:0:
475,192,59052,1,0,0:0:0:0:
36,192,59125,128,2,59860:0:0:0:0:
109,192,59125,1,4,0:0:0:0:
182,192,59125,1,0,0:0:0:0:
329,192,59125,128,0,59419:0:0:0:0:
109,192,59419,1,8,0:0:0:0:
256,192,59419,1,4,0:0:0:0:
402,192,59419,1,0,0:0:0:0:
475,192,59419,1,0,0:0:0:0:
182,192,59566,1,0,0:0:0:0:
256,192,59713,1,2,0:0:0:0:
402,192,59713,1,0,0:0:0:0:
475,192,59713,128,0,60743:0:0:0:0:
109,192,59860,1,2,0:0:0:0:
182,192,59860,1,0,0:0:0:0:
36,192,60007,1,8,0:0:0:0:
256,192,60007,1,0,0:0:0:0:
329,192,60007,1,0,0:0:0:0:
402,192,60007,1,0,0:0:0:0:
109,192,60154,1,0,0:0:0:0:
36,192,60302,1,2,0:0:0:0:
182,192,60302,128,0,60596:0:0:0:0:
329,192,60302,128,0,60743:0:0:0:0:
36,192,60596,1,8,0:0:0:0:
109,192,60596,1,0,0:0:0:0:
256,192,60596,1,0,0:0:0:0:
402,192,60596,1,0,0:0:0:0:
36,192,60743,1,0,0:0:0:0:
109,192,60890,1,2,0:0:0:0:
182,192,60890,1,0,0:0:0:0:
402,192,60890,128,0,61331:0:0:0:0:
256,192,61037,1,2,0:0:0:0:
329,192,61037,1,0,0:0:0:0:
36,192,61184,1,8,0:0:0:0:
182,192,61184,128,0,61331:0:0:0:0:
475,192,61184,1,0,0:0:0:0:
109,192,61331,1,8,0:0:0:0:
256,192,61331,1,0,0:0:0:0:
329,192,61331,1,0,0:0:0:0:
36,192,61478,128,2,61919:0:0:0:0:
182,192,61478,128,0,61625:0:0:0:0:
475,192,61478,1,0,0:0:0:0:
329,192,61625,1,0,0:0:0:0:
109,192,61772,1,8,0:0:0:0:
256,192,61772,128,0,62213:0:0:0:0:
402,192,61772,1,0,0:0:0:0:
475,192,61772,1,0,0:0:0:0:
182,192,61919,1,0,0:0:0:0:
36,192,62066,128,2,62213:0:0:0:0:
109,192,62066,1,0,0:0:0:0:
475,192,62066,128,0,62507:0:0:0:0:
329,192,62213,1,2,0:0:0:0:
402,192,62213,1,0,0:0:0:0:
36,192,62360,1,8,0:0:0:0:
109,192,62360,128,0,62802:0:0:0:0:
256,192,62360,1,0,0:0:0:0:
182,192,62507,1,8,0:0:0:0:
329,192,62507,1,0,0:0:0:0:
402,192,62507,1,0,0:0:0:0:
36,192,62654,1,2,0:0:0:0:
256,192,62654,1,0,0:0:0:0:
475,192,62654,128,0,62802:0:0:0:0:
329,192,62802,128,0,62949:0:0:0:0:
36,192,62949,1,8,0:0:0:0:
182,192,62949,128,0,63390:0:0:0:0:
402,192,62949,128,0,63096:0:0:0:0:
475,192,62949,1,0,0:0:0:0:
109,192,63096,128,0,63243:0:0:0:0:
36,192,63243,1,2,0:0:0:0:
329,192,63243,128,0,63390:0:0:0:0:
475,192,63243,128,0,63684:0:0:0:0:
256,192,63390,1,2,0:0:0:0:
402,192,63390,1,0,0:0:0:0:
36,192,63537,128,8,64125:0:0:0:0:
109,192,63537,1,0,0:0:0:0:
182,192,63537,128,0,63684:0:0:0:0:
329,192,63537,1,0,0:0:0:0:
402,192,63684,128,0,63831:0:0:0:0:
109,192,63831,1,2,0:0:0:0:
182,192,63831,1,4,0:0:0:0:
256,192,63831,1,0,0:0:0:0:
329,192,63831,128,0,64272:0:0:0:0:
475,192,63831,1,0,0:0:0:0:
109,192,64125,1,8,0:0:0:0:
182,192,64125,128,0,64566:0:0:0:0:
402,192,64125,1,0,0:0:0:0:
475,192,64125,1,0,0:0:0:0:
256,192,64272,1,0,0:0:0:0:
36,192,64419,1,2,0:0:0:0:
109,192,64419,1,0,0:0:0:0:
475,192,64419,128,0,64860:0:0:0:0:
329,192,64566,1,2,0:0:0:0:
402,192,64566,1,0,0:0:0:0:
36,192,64713,1,8,0:0:0:0:
109,192,64713,1,0,0:0:0:0:
256,192,64713,128,0,65449:0:0:0:0:
182,192,64860,1,8,0:0:0:0:
329,192,64860,1,0,0:0:0:0:
402,192,64860,1,0,0:0:0:0:
36,192,65007,128,2,65154:0:0:0:0:
109,192,65007,1,0,0:0:0:0:
475,192,65007,1,0,0:0:0:0:
402,192,65154,128,0,65302:0:0:0:0:
36,192,65302,1,8,0:0:0:0:
109,192,65302,128,0,65449:0:0:0:0:
329,192,65302,1,0,0:0:0:0:
475,192,65302,1,0,0:0:0:0:
182,192,65449,1,0,0:0:0:0:
36,192,65596,1,2,0:0:0:0:
109,192,65596,1,0,0:0:0:0:
329,192,65596,128,0,66184:0:0:0:0:
256,192,65743,1,2,0:0:0:0:
402,192,65743,1,0,0:0:0:0:
475,192,65743,1,0,0:0:0:0:
36,192,65890,1,8,0:0:0:0:
109,192,65890,1,0,0:0:0:0:
182,192,65890,1,0,0:0:0:0:
182,192,66037,128,0,66184:0:0:0:0:
36,192,66184,1,2,0:0:0:0:
109,192,66184,1,4,0:0:0:0:
256,192,66184,128,0,66478:0:0:0:0:
402,192,66184,1,0,0:0:0:0:
475,192,66184,1,0,0:0:0:0:
109,192,66478,1,8,0:0:0:0:
182,192,66478,1,0,0:0:0:0:
329,192,66478,1,0,0:0:0:0:
402,192,66478,1,0,0:0:0:0:
36,192,66625,1,0,0:0:0:0:
109,192,66625,1,0,0:0:0:0:
256,192,66772,1,2,0:0:0:0:
402,192,66772,1,0,0:0:0:0:
475,192,66772,1,0,0:0:0:0:
256,192,66919,1,2,0:0:0:0:
402,192,66919,1,0,0:0:0:0:
475,192,66919,1,0,0:0:0:0:
36,192,67066,1,8,0:0:0:0:
109,192,67066,1,0,0:0:0:0:
182,192,67066,1,0,0:0:0:0:
329,192,67066,1,0,0:0:0:0:
36,192,67213,1,8,0:0:0:0:
109,192,67213,1,0,0:0:0:0:
182,192,67213,1,0,0:0:0:0:
256,192,67213,1,0,0:0:0:0:
475,192,67360,1,2,0:0:0:0:
329,192,67360,1,0,0:0:0:0:
402,192,67360,1,0,0:0:0:0:
36,192,67507,1,8,0:0:0:0:
109,192,67507,1,0,0:0:0:0:
182,192,67507,1,0,0:0:0:0:
475,192,67507,1,0,0:0:0:0:
36,192,67654,1,2,0:0:0:0:
256,192,67654,1,4,0:0:0:0:
329,192,67654,1,0,0:0:0:0:
402,192,67654,1,0,0:0:0:0:
475,192,67654,1,0,0:0:0:0:
36,192,67802,1,8,0:0:0:0:
109,192,67802,1,0,0:0:0:0:
182,192,67802,1,0,0:0:0:0:
402,192,67802,1,0,0:0:0:0:
256,192,67949,128,2,68390:0:0:0:0:
329,192,67949,1,0,0:0:0:0:
475,192,67949,1,0,0:0:0:0:
36,192,68096,1,8,0:0:0:0:
109,192,68096,1,0,0:0:0:0:
182,192,68096,1,0,0:0:0:0:
329,192,68243,1,8,0:0:0:0:
402,192,68243,1,0,0:0:0:0:
475,192,68243,1,0,0:0:0:0:
36,192,68390,1,8,0:0:0:0:
109,192,68390,1,0,0:0:0:0:
182,192,68390,1,0,0:0:0:0:
36,192,68537,128,2,68831:0:0:0:0:
256,192,68537,1,4,0:0:0:0:
329,192,68537,1,0,0:0:0:0:
402,192,68537,1,0,0:0:0:0:
475,192,68537,128,0,69272:0:0:0:0:
109,192,68831,1,8,0:0:0:0:
182,192,68831,1,4,0:0:0:0:
256,192,68831,1,0,0:0:0:0:
402,192,68831,1,0,0:0:0:0:
329,192,68978,1,0,0:0:0:0:
36,192,69125,128,2,70154:0:0:0:0:
109,192,69125,1,0,0:0:0:0:
256,192,69125,1,0,0:0:0:0:
182,192,69272,1,2,0:0:0:0:
329,192,69272,1,0,0:0:0:0:
109,192,69419,1,8,0:0:0:0:
256,192,69419,1,0,0:0:0:0:
402,192,69419,1,0,0:0:0:0:
475,192,69419,1,0,0:0:0:0:
256,192,69566,1,0,0:0:0:0:
182,192,69713,128,2,70154:0:0:0:0:
329,192,69713,128,0,70007:0:0:0:0:
475,192,69713,1,0,0:0:0:0:
109,192,70007,1,8,0:0:0:0:
256,192,70007,1,0,0:0:0:0:
402,192,70007,1,0,0:0:0:0:
475,192,70007,1,0,0:0:0:0:
329,192,70154,1,0,0:0:0:0:
36,192,70302,1,2,0:0:0:0:
256,192,70302,128,0,70743:0:0:0:0:
475,192,70302,1,0,0:0:0:0:
109,192,70449,1,2,0:0:0:0:
182,192,70449,1,0,0:0:0:0:
36,192,70596,1,8,0:0:0:0:
402,192,70596,128,0,70743:0:0:0:0:
475,192,70596,1,0,0:0:0:0:
109,192,70743,1,8,0:0:0:0:
182,192,70743,1,0,0:0:0:0:
329,192,70743,1,0,0:0:0:0:
36,192,70890,128,2,71331:0:0:0:0:
256,192,70890,1,0,0:0:0:0:
475,192,70890,128,0,71184:0:0:0:0:
109,192,71184,1,8,0:0:0:0:
182,192,71184,128,0,71625:0:0:0:0:
256,192,71184,1,0,0:0:0:0:
329,192,71184,1,0,0:0:0:0:
402,192,71331,1,0,0:0:0:0:
256,192,71478,1,2,0:0:0:0:
329,192,71478,128,0,71919:0:0:0:0:
475,192,71478,1,0,0:0:0:0:
36,192,71625,1,2,0:0:0:0:
109,192,71625,1,0,0:0:0:0:
182,192,71772,1,8,0:0:0:0:
402,192,71772,1,0,0:0:0:0:
475,192,71772,128,0,72213:0:0:0:0:
36,192,71919,1,0,0:0:0:0:
109,192,71919,1,0,0:0:0:0:
256,192,71919,128,0,72066:0:0:0:0:
36,192,72066,128,2,72507:0:0:0:0:
182,192,72066,1,0,0:0:0:0:
329,192,72066,1,0,0:0:0:0:
329,192,72213,128,0,72360:0:0:0:0:
109,192,72360,128,8,72507:0:0:0:0:
182,192,72360,1,0,0:0:0:0:
402,192,72360,1,0,0:0:0:0:
475,192,72360,128,0,72802:0:0:0:0:
329,192,72507,1,0,0:0:0:0:
36,192,72654,128,2,73096:0:0:0:0:
109,192,72654,128,0,72802:0:0:0:0:
256,192,72654,1,0,0:0:0:0:
182,192,72802,1,2,0:0:0:0:
329,192,72802,1,0,0:0:0:0:
109,192,72949,1,8,0:0:0:0:
256,192,72949,1,0,0:0:0:0:
402,192,72949,128,0,73096:0:0:0:0:
475,192,72949,128,0,73096:0:0:0:0:
182,192,73096,1,0,0:0:0:0:
36,192,73243,128,2,73978:0:0:0:0:
109,192,73243,1,4,0:0:0:0:
256,192,73243,1,0,0:0:0:0:
402,192,73243,1,0,0:0:0:0:
475,192,73243,128,0,73537:0:0:0:0:
182,192,73537,1,8,0:0:0:0:
256,192,73537,1,0,0:0:0:0:
329,192,73537,1,0,0:0:0:0:
402,192,73537,1,0,0:0:0:0:
182,192,73684,128,0,73831:0:0:0:0:
256,192,73831,1,2,0:0:0:0:
402,192,73831,1,0,0:0:0:0:
475,192,73831,128,0,74272:0:0:0:0:
182,192,73978,1,2,0:0:0:0:
329,192,73978,1,0,0:0:0:0:
36,192,74125,1,8,0:0:0:0:
109,192,74125,128,0,74860:0:0:0:0:
256,192,74125,1,0,0:0:0:0:
182,192,74272,1,8,0:0:0:0:
329,192,74272,1,0,0:0:0:0:
402,192,74272,1,0,0:0:0:0:
36,192,74419,1,2,0:0:0:0:
256,192,74419,128,0,74713:0:0:0:0:
475,192,74419,1,0,0:0:0:0:
182,192,74713,1,8,0:0:0:0:
329,192,74713,128,0,74860:0:0:0:0:
402,192,74713,1,0,0:0:0:0:
475,192,74713,1,0,0:0:0:0:
36,192,74860,1,0,0:0:0:0:
109,192,75007,1,2,0:0:0:0:
182,192,75007,1,0,0:0:0:0:
475,192,75007,128,0,75449:0:0:0:0:
256,192,75154,1,2,0:0:0:0:
402,192,75154,1,0,0:0:0:0:
36,192,75302,128,8,76919:0:0:0:0:
109,192,75302,1,0,0:0:0:0:
182,192,75302,1,0,0:0:0:0:
329,192,75302,1,0,0:0:0:0:
402,192,75449,1,0,0:0:0:0:
109,192,75596,1,2,0:0:0:0:
182,192,75596,1,0,0:0:0:0:
256,192,75596,1,0,0:0:0:0:
109,192,75743,1,8,0:0:0:0:
182,192,75743,1,0,0:0:0:0:
329,192,75743,1,0,0:0:0:0:
402,192,75743,1,0,0:0:0:0:
329,192,75890,1,2,0:0:0:0:
475,192,75890,128,0,76919:0:0:0:0:
109,192,76037,1,2,0:0:0:0:
256,192,76037,1,0,0:0:0:0:
109,192,76184,1,8,0:0:0:0:
182,192,76184,1,0,0:0:0:0:
329,192,76184,1,0,0:0:0:0:
402,192,76184,1,0,0:0:0:0:
256,192,76331,1,2,0:0:0:0:
402,192,76331,128,0,76625:0:0:0:0:
109,192,76625,1,2,0:0:0:0:
182,192,76625,1,4,0:0:0:0:
256,192,76625,1,0,0:0:0:0:
329,192,76625,1,0,0:0:0:0:
329,192,76772,128,0,76919:0:0:0:0:
109,192,76919,1,2,0:0:0:0:
182,192,76919,1,0,0:0:0:0:
36,192,77066,1,8,0:0:0:0:
256,192,77066,1,0,0:0:0:0:
402,192,77066,1,0,0:0:0:0:
475,192,77066,1,0,0:0:0:0:
256,192,77213,128,0,77360:0:0:0:0:
36,192,77360,1,2,0:0:0:0:
109,192,77360,1,0,0:0:0:0:
329,192,77360,1,0,0:0:0:0:
182,192,77507,1,8,0:0:0:0:
402,192,77507,1,0,0:0:0:0:
475,192,77507,1,0,0:0:0:0:
36,192,77581,1,8,0:0:0:0:
109,192,77581,1,0,0:0:0:0:
329,192,77581,1,0,0:0:0:0:
256,192,77654,1,2,0:0:0:0:
402,192,77654,1,0,0:0:0:0:
475,192,77654,1,0,0:0:0:0:
36,192,77728,1,8,0:0:0:0:
109,192,77728,1,0,0:0:0:0:
182,192,77728,1,0,0:0:0:0:
329,192,77802,1,8,0:0:0:0:
402,192,77802,1,0,0:0:0:0:
475,192,77802,1,0,0:0:0:0:
36,192,77875,1,8,0:0:0:0:
109,192,77875,1,0,0:0:0:0:
256,192,77875,1,0,0:0:0:0:
182,192,77949,128,2,78243:0:0:0:0:
329,192,77949,1,4,0:0:0:0:
402,192,77949,1,0,0:0:0:0:
475,192,77949,128,0,78684:0:0:0:0:
36,192,78243,1,8,0:0:0:0:
109,192,78243,1,4,0:0:0:0:
256,192,78243,1,0,0:0:0:0:
402,192,78243,1,0,0:0:0:0:
329,192,78390,1,0,0:0:0:0:
36,192,78537,128,2,79272:0:0:0:0:
182,192,78537,1,0,0:0:0:0:
256,192,78537,1,0,0:0:0:0:
329,192,78684,128,2,78831:0:0:0:0:
402,192,78684,1,0,0:0:0:0:
109,192,78831,1,8,0:0:0:0:
182,192,78831,1,0,0:0:0:0:
256,192,78831,1,0,0:0:0:0:
475,192,78831,1,0,0:0:0:0:
329,192,78978,128,0,79125:0:0:0:0:
182,192,79125,128,2,79566:0:0:0:0:
402,192,79125,128,0,79272:0:0:0:0:
475,192,79125,1,0,0:0:0:0:
256,192,79272,128,0,79419:0:0:0:0:
36,192,79419,1,8,0:0:0:0:
109,192,79419,128,0,79566:0:0:0:0:
329,192,79419,1,0,0:0:0:0:
475,192,79419,1,0,0:0:0:0:
329,192,79566,128,0,79713:0:0:0:0:
109,192,79713,1,2,0:0:0:0:
402,192,79713,128,0,79860:0:0:0:0:
475,192,79713,128,0,80154:0:0:0:0:
182,192,79860,1,2,0:0:0:0:
256,192,79860,128,0,80007:0:0:0:0:
36,192,80007,128,8,80449:0:0:0:0:
109,192,80007,128,0,80154:0:0:0:0:
402,192,80007,1,0,0:0:0:0:
182,192,80154,1,8,0:0:0:0:
256,192,80154,1,0,0:0:0:0:
329,192,80154,128,0,80302:0:0:0:0:
109,192,80302,1,2,0:0:0:0:
402,192,80302,1,0,0:0:0:0:
475,192,80302,128,0,80743:0:0:0:0:
182,192,80449,128,0,80596:0:0:0:0:
36,192,80596,1,8,0:0:0:0:
109,192,80596,128,0,81037:0:0:0:0:
329,192,80596,128,0,80743:0:0:0:0:
402,192,80596,1,0,0:0:0:0:
256,192,80743,128,0,80890:0:0:0:0:
182,192,80890,1,2,0:0:0:0:
402,192,80890,128,0,81037:0:0:0:0:
475,192,80890,1,0,0:0:0:0:
36,192,81037,1,2,0:0:0:0:
329,192,81037,128,0,81184:0:0:0:0:
109,192,81184,1,8,0:0:0:0:
182,192,81184,1,0,0:0:0:0:
256,192,81184,1,0,0:0:0:0:
475,192,81184,128,0,81625:0:0:0:0:
182,192,81331,128,0,81478:0:0:0:0:
36,192,81478,128,2,81625:0:0:0:0:
256,192,81478,1,0,0:0:0:0:
402,192,81478,1,0,0:0:0:0:
109,192,81625,128,0,81772:0:0:0:0:
36,192,81772,1,8,0:0:0:0:
182,192,81772,128,0,81919:0:0:0:0:
329,192,81772,128,0,82213:0:0:0:0:
475,192,81772,1,0,0:0:0:0:
402,192,81919,128,0,82066:0:0:0:0:
36,192,82066,128,2,82507:0:0:0:0:
256,192,82066,128,0,82213:0:0:0:0:
475,192,82066,1,0,0:0:0:0:
109,192,82213,1,2,0:0:0:0:
182,192,82213,1,0,0:0:0:0:
256,192,82360,1,8,0:0:0:0:
329,192,82360,1,0,0:0:0:0:
402,192,82360,128,0,82507:0:0:0:0:
475,192,82360,128,0,82949:0:0:0:0:
182,192,82507,128,8,82654:0:0:0:0:
36,192,82654,1,2,0:0:0:0:
109,192,82654,128,4,83096:0:0:0:0:
256,192,82654,1,0,0:0:0:0:
329,192,82654,1,0,0:0:0:0:
402,192,82654,1,0,0:0:0:0:
36,192,82949,128,8,83096:0:0:0:0:
182,192,82949,1,0,0:0:0:0:
329,192,82949,128,0,83390:0:0:0:0:
402,192,82949,1,0,0:0:0:0:
256,192,83096,1,0,0:0:0:0:
36,192,83243,128,2,83684:0:0:0:0:
109,192,83243,1,0,0:0:0:0:
475,192,83243,128,0,83390:0:0:0:0:
182,192,83390,128,2,83537:0:0:0:0:
256,192,83390,1,0,0:0:0:0:
109,192,83537,1,8,0:0:0:0:
329,192,83537,1,0,0:0:0:0:
402,192,83537,1,0,0:0:0:0:
475,192,83537,128,0,83978:0:0:0:0:
256,192,83684,128,0,83831:0:0:0:0:
36,192,83831,1,2,0:0:0:0:
182,192,83831,1,0,0:0:0:0:
329,192,83831,1,0,0:0:0:0:
109,192,83978,1,8,0:0:0:0:
256,192,83978,1,0,0:0:0:0:
402,192,83978,1,0,0:0:0:0:
182,192,84125,1,0,0:0:0:0:
329,192,84125,1,0,0:0:0:0:
475,192,84125,128,0,84713:0:0:0:0:
36,192,84272,1,8,0:0:0:0:
109,192,84272,1,0,0:0:0:0:
182,192,84272,1,0,0:0:0:0:
256,192,84346,1,8,0:0:0:0:
329,192,84346,1,0,0:0:0:0:
402,192,84346,1,0,0:0:0:0:
36,192,84419,128,8,84860:0:0:0:0:
109,192,84419,1,0,0:0:0:0:
182,192,84419,1,0,0:0:0:0:
256,192,84566,1,8,0:0:0:0:
329,192,84566,1,0,0:0:0:0:
402,192,84566,1,0,0:0:0:0:
109,192,84713,1,8,0:0:0:0:
182,192,84713,1,0,0:0:0:0:
256,192,84713,1,0,0:0:0:0:
256,192,84860,1,8,0:0:0:0:
329,192,84860,1,0,0:0:0:0:
402,192,84860,1,0,0:0:0:0:
475,192,84860,128,0,86184:0:0:0:0:
182,192,85007,128,0,85154:0:0:0:0:
329,192,85302,128,0,85890:0:0:0:0:
109,192,85743,128,0,85890:0:0:0:0:
36,192,85890,1,0,0:0:0:0:
256,192,86184,128,0,86331:0:0:0:0:
402,192,86478,128,0,87066:0:0:0:0:
329,192,86919,128,0,87066:0:0:0:0:
109,192,87066,1,0,0:0:0:0:
182,192,87360,128,0,87507:0:0:0:0:
329,192,87654,128,0,88243:0:0:0:0:
109,192,88096,128,0,88243:0:0:0:0:
36,192,88243,1,0,0:0:0:0:
256,192,88537,128,0,88684:0:0:0:0:
