osu file format v14

[General]
AudioFilename: audio.mp3
AudioLeadIn: 0
PreviewTime: 49118
Countdown: 0
SampleSet: Soft
StackLeniency: 0.7
Mode: 3
LetterboxInBreaks: 0
SpecialStyle: 0
WidescreenStoryboard: 0

[Editor]
Bookmarks: 80368
DistanceSpacing: 0.6
BeatDivisor: 4
GridSize: 32
TimelineZoom: 1.1

[Metadata]
Title:Haru (TV Size)
TitleUnicode:晴る (TV Size)
Artist:Yorushika
ArtistUnicode:ヨルシカ
Creator:Kibitz
Version:Easy
Source:葬送のフリーレン
Tags:sousou no frieren beyond journey's journey end sunny ナブナ スイ female vocalist vocals japanese pop jpop j-pop anime op opening two 2 n-buna suis zembonics ballistic ballisticbubba bubba
BeatmapID:4462755
BeatmapSetID:2123543

[Difficulty]
HPDrainRate:6.5
CircleSize:4
OverallDifficulty:6.5
ApproachRate:5
SliderMultiplier:1.4
SliderTickRate:1

[Events]
//Background and Video events
0,0,"bg.jpg",0,0
Video,-250,"op.mp4"
//Break Periods
//Storyboard Layer 0 (Background)
//Storyboard Layer 1 (Fail)
//Storyboard Layer 2 (Pass)
//Storyboard Layer 3 (Foreground)
//Storyboard Layer 4 (Overlay)
//Storyboard Sound Samples

[TimingPoints]
295,294.117647058824,4,2,1,50,1,0
49706,-100,4,2,1,50,0,1
52059,-100,4,2,1,50,0,0
54412,-100,4,2,1,50,0,1
57942,-100,4,2,1,50,0,0
59118,-100,4,2,1,50,0,1
67353,-100,4,2,1,50,0,0
68530,-100,4,2,1,50,0,1
76765,-100,4,2,1,50,0,0
77942,-100,4,2,1,50,0,1
85000,-100,4,2,1,50,0,0

[HitObjects]
64,192,295,5,0,0:0:0:0:
448,192,589,128,0,1177:0:0:0:0:
192,192,1177,1,0,0:0:0:0:
320,192,1471,1,0,0:0:0:0:
64,192,1765,128,0,2353:0:0:0:0:
448,192,2353,1,0,0:0:0:0:
192,192,2647,1,0,0:0:0:0:
320,192,2942,128,0,3530:0:0:0:0:
64,192,3530,1,0,0:0:0:0:
448,192,3824,1,0,0:0:0:0:
192,192,4118,128,0,4706:0:0:0:0:
64,192,4706,1,0,0:0:0:0:
448,192,5000,1,0,0:0:0:0:
64,192,5295,128,0,5883:0:0:0:0:
320,192,5883,1,0,0:0:0:0:
192,192,6177,1,0,0:0:0:0:
448,192,6471,128,0,7059:0:0:0:0:
64,192,7059,1,0,0:0:0:0:
320,192,7353,1,0,0:0:0:0:
192,192,7647,128,0,8236:0:0:0:0:
448,192,8236,1,0,0:0:0:0:
64,192,8530,1,0,0:0:0:0:
320,192,8824,128,0,9118:0:0:0:0:
64,192,9118,128,0,9412:0:0:0:0:
448,192,9412,128,0,9706:0:0:0:0:
64,192,9706,1,0,0:0:0:0:
320,192,10000,1,0,0:0:0:0:
448,192,10295,128,0,10589:0:0:0:0:
192,192,10589,128,0,10883:0:0:0:0:
320,192,10883,128,0,11177:0:0:0:0:
192,192,11177,1,0,0:0:0:0:
64,192,11471,128,0,11765:0:0:0:0:
448,192,11765,1,0,0:0:0:0:
192,192,11912,1,0,0:0:0:0:
320,192,12059,1,0,0:0:0:0:
448,192,12353,128,0,12647:0:0:0:0:
64,192,12942,128,0,13236:0:0:0:0:
192,192,13236,1,0,0:0:0:0:
448,192,13530,128,0,13824:0:0:0:0:
320,192,13824,128,0,14118:0:0:0:0:
192,192,14118,128,0,14412:0:0:0:0:
64,192,14412,128,0,14706:0:0:0:0:
448,192,14706,1,0,0:0:0:0:
192,192,15000,128,0,15295:0:0:0:0:
320,192,15295,128,0,15589:0:0:0:0:
448,192,15589,128,0,15883:0:0:0:0:
64,192,15883,1,0,0:0:0:0:
192,192,16177,128,0,16471:0:0:0:0:
448,192,16471,1,0,0:0:0:0:
64,192,16618,1,0,0:0:0:0:
320,192,16765,1,0,0:0:0:0:
192,192,17059,128,0,17647:0:0:0:0:
320,192,17647,128,0,17942:0:0:0:0:
192,192,17942,1,0,0:0:0:0:
64,192,18236,128,0,18530:0:0:0:0:
192,192,18530,128,0,18824:0:0:0:0:
320,192,18824,128,0,19118:0:0:0:0:
448,192,19118,128,0,19412:0:0:0:0:
64,192,19412,1,0,0:0:0:0:
320,192,19706,128,0,20000:0:0:0:0:
192,192,20000,128,0,20295:0:0:0:0:
64,192,20295,128,0,20589:0:0:0:0:
448,192,20589,1,0,0:0:0:0:
320,192,20883,128,0,21177:0:0:0:0:
192,192,21177,1,0,0:0:0:0:
448,192,21324,1,0,0:0:0:0:
64,192,21471,1,0,0:0:0:0:
448,192,21765,128,0,22353:0:0:0:0:
192,192,22353,128,0,22647:0:0:0:0:
320,192,22647,1,0,0:0:0:0:
64,192,22942,128,0,23530:0:0:0:0:
192,192,23530,1,0,0:0:0:0:
320,192,23824,1,0,0:0:0:0:
64,192,24118,128,0,24706:0:0:0:0:
448,192,24706,1,0,0:0:0:0:
320,192,25000,1,0,0:0:0:0:
192,192,25295,128,0,25883:0:0:0:0:
64,192,25883,1,0,0:0:0:0:
448,192,26030,1,0,0:0:0:0:
192,192,26177,1,0,0:0:0:0:
320,192,26471,128,0,27059:0:0:0:0:
64,192,27059,1,0,0:0:0:0:
448,192,27353,1,0,0:0:0:0:
320,192,27647,128,0,27942:0:0:0:0:
64,192,27942,128,0,28236:0:0:0:0:
192,192,28236,128,0,28530:0:0:0:0:
320,192,28530,128,0,28824:0:0:0:0:
192,192,28824,1,0,0:0:0:0:
448,192,29118,128,0,29412:0:0:0:0:
320,192,29412,128,0,29706:0:0:0:0:
192,192,29706,128,0,30000:0:0:0:0:
320,192,30000,1,0,0:0:0:0:
448,192,30295,128,0,30589:0:0:0:0:
64,192,30589,1,0,0:0:0:0:
320,192,30736,1,0,0:0:0:0:
192,192,30883,1,0,0:0:0:0:
64,192,31177,128,0,31471:0:0:0:0:
448,192,31765,128,0,32059:0:0:0:0:
320,192,32059,1,0,0:0:0:0:
64,192,32353,128,0,32647:0:0:0:0:
192,192,32647,128,0,32942:0:0:0:0:
320,192,32942,128,0,33236:0:0:0:0:
448,192,33236,128,0,33530:0:0:0:0:
64,192,33530,1,0,0:0:0:0:
320,192,33824,128,0,34118:0:0:0:0:
192,192,34118,128,0,34412:0:0:0:0:
64,192,34412,128,0,34706:0:0:0:0:
448,192,34706,1,0,0:0:0:0:
320,192,35000,128,0,35295:0:0:0:0:
64,192,35295,1,0,0:0:0:0:
448,192,35442,1,0,0:0:0:0:
192,192,35589,1,0,0:0:0:0:
320,192,35883,128,0,36471:0:0:0:0:
192,192,36471,128,0,36765:0:0:0:0:
320,192,36765,1,0,0:0:0:0:
448,192,37059,128,0,37353:0:0:0:0:
320,192,37353,128,0,37647:0:0:0:0:
192,192,37647,128,0,37942:0:0:0:0:
64,192,37942,128,0,38236:0:0:0:0:
448,192,38236,1,0,0:0:0:0:
192,192,38530,128,0,38824:0:0:0:0:
320,192,38824,128,0,39118:0:0:0:0:
448,192,39118,128,0,39412:0:0:0:0:
64,192,39412,1,0,0:0:0:0:
192,192,39706,128,0,40000:0:0:0:0:
320,192,40000,1,0,0:0:0:0:
64,192,40147,1,0,0:0:0:0:
448,192,40295,1,0,0:0:0:0:
64,192,40589,128,0,41177:0:0:0:0:
448,192,41177,1,0,0:0:0:0:
192,192,41471,1,0,0:0:0:0:
320,192,41765,128,0,42059:0:0:0:0:
192,192,42059,128,0,42353:0:0:0:0:
64,192,42353,128,0,42647:0:0:0:0:
448,192,42647,1,0,0:0:0:0:
192,192,42942,128,0,43530:0:0:0:0:
320,192,43530,1,0,0:0:0:0:
64,192,43824,1,0,0:0:0:0:
448,192,44118,1,0,0:0:0:0:
192,192,44265,1,0,0:0:0:0:
448,192,44559,1,0,0:0:0:0:
64,192,44706,1,0,0:0:0:0:
320,192,45000,1,0,0:0:0:0:
192,192,45147,1,0,0:0:0:0:
64,192,45295,1,0,0:0:0:0:
192,192,45589,1,0,0:0:0:0:
320,192,45736,1,0,0:0:0:0:
448,192,46030,1,0,0:0:0:0:
192,192,46177,1,0,0:0:0:0:
64,192,46471,1,0,0:0:0:0:
320,192,46618,1,0,0:0:0:0:
64,192,46912,1,0,0:0:0:0:
192,192,47059,1,0,0:0:0:0:
320,192,47206,1,0,0:0:0:0:
448,192,47353,128,0,49118:0:0:0:0:
64,192,49118,128,0,49706:0:0:0:0:
448,192,49706,1,0,0:0:0:0:
320,192,49706,128,0,50000:0:0:0:0:
192,192,50000,1,0,0:0:0:0:
448,192,50295,128,0,50883:0:0:0:0:
64,192,50589,1,0,0:0:0:0:
192,192,50883,128,0,51177:0:0:0:0:
320,192,51177,1,0,0:0:0:0:
64,192,51471,128,0,51765:0:0:0:0:
192,192,51765,1,0,0:0:0:0:
320,192,52059,128,0,52353:0:0:0:0:
448,192,52059,1,0,0:0:0:0:
192,192,52353,128,0,52647:0:0:0:0:
448,192,52647,128,0,52942:0:0:0:0:
64,192,52942,128,0,53236:0:0:0:0:
320,192,53236,128,0,53530:0:0:0:0:
192,192,53530,1,0,0:0:0:0:
64,192,53530,1,0,0:0:0:0:
320,192,53824,1,0,0:0:0:0:
448,192,53824,1,0,0:0:0:0:
192,192,54118,1,0,0:0:0:0:
64,192,54118,1,0,0:0:0:0:
448,192,54412,128,0,54706:0:0:0:0:
320,192,54412,1,0,0:0:0:0:
192,192,54706,1,0,0:0:0:0:
320,192,55000,128,0,55295:0:0:0:0:
64,192,55295,128,0,55883:0:0:0:0:
448,192,55589,1,0,0:0:0:0:
320,192,55883,128,0,56177:0:0:0:0:
192,192,56177,128,0,56471:0:0:0:0:
448,192,56471,128,0,57059:0:0:0:0:
64,192,56765,1,0,0:0:0:0:
192,192,57059,128,0,57353:0:0:0:0:
320,192,57353,1,0,0:0:0:0:
64,192,57500,1,0,0:0:0:0:
448,192,57795,1,0,0:0:0:0:
320,192,57795,1,0,0:0:0:0:
64,192,58089,1,0,0:0:0:0:
448,192,58236,1,0,0:0:0:0:
320,192,58530,128,0,58824:0:0:0:0:
64,192,58824,128,0,59118:0:0:0:0:
448,192,59118,128,0,59412:0:0:0:0:
320,192,59412,1,0,0:0:0:0:
192,192,59412,1,0,0:0:0:0:
64,192,59706,128,0,60295:0:0:0:0:
448,192,60000,1,0,0:0:0:0:
320,192,60295,128,0,60589:0:0:0:0:
192,192,60589,1,0,0:0:0:0:
448,192,60883,128,0,61471:0:0:0:0:
64,192,61177,1,0,0:0:0:0:
192,192,61471,128,0,61765:0:0:0:0:
320,192,61765,128,0,62059:0:0:0:0:
64,192,62059,128,0,62353:0:0:0:0:
448,192,62353,128,0,62647:0:0:0:0:
320,192,62647,1,0,0:0:0:0:
192,192,62942,128,0,63236:0:0:0:0:
320,192,63236,128,0,63530:0:0:0:0:
448,192,63530,128,0,63824:0:0:0:0:
64,192,63824,1,0,0:0:0:0:
192,192,63824,1,0,0:0:0:0:
320,192,64118,128,0,64412:0:0:0:0:
192,192,64412,128,0,64706:0:0:0:0:
448,192,64706,128,0,65295:0:0:0:0:
64,192,65000,1,0,0:0:0:0:
192,192,65295,128,0,65589:0:0:0:0:
320,192,65589,128,0,65883:0:0:0:0:
448,192,65883,1,0,0:0:0:0:
64,192,66177,128,0,66765:0:0:0:0:
192,192,66177,1,0,0:0:0:0:
448,192,66471,1,0,0:0:0:0:
320,192,66765,1,0,0:0:0:0:
192,192,66912,1,0,0:0:0:0:
64,192,67059,1,0,0:0:0:0:
448,192,67206,1,0,0:0:0:0:
320,192,67500,1,0,0:0:0:0:
192,192,67647,128,0,67942:0:0:0:0:
448,192,67942,128,0,68236:0:0:0:0:
64,192,68236,128,0,68530:0:0:0:0:
448,192,68530,128,0,68824:0:0:0:0:
192,192,68824,1,0,0:0:0:0:
320,192,68824,1,0,0:0:0:0:
64,192,69118,128,0,69706:0:0:0:0:
448,192,69412,1,0,0:0:0:0:
320,192,69706,128,0,70000:0:0:0:0:
64,192,70000,1,0,0:0:0:0:
448,192,70295,128,0,70589:0:0:0:0:
320,192,70589,128,0,70883:0:0:0:0:
192,192,70883,128,0,71177:0:0:0:0:
448,192,71177,128,0,71471:0:0:0:0:
64,192,71471,128,0,71765:0:0:0:0:
320,192,71765,128,0,72059:0:0:0:0:
192,192,72059,128,0,72353:0:0:0:0:
448,192,72353,128,0,72647:0:0:0:0:
320,192,72647,128,0,72942:0:0:0:0:
192,192,72942,128,0,73236:0:0:0:0:
64,192,73236,128,0,73530:0:0:0:0:
448,192,73236,1,0,0:0:0:0:
320,192,73530,1,0,0:0:0:0:
192,192,73824,128,0,74118:0:0:0:0:
448,192,74118,128,0,74706:0:0:0:0:
64,192,74412,1,0,0:0:0:0:
192,192,74706,128,0,75000:0:0:0:0:
320,192,75000,128,0,75295:0:0:0:0:
64,192,75295,128,0,75883:0:0:0:0:
448,192,75589,1,0,0:0:0:0:
320,192,75883,128,0,76177:0:0:0:0:
192,192,76177,1,0,0:0:0:0:
448,192,76324,1,0,0:0:0:0:
64,192,76618,1,0,0:0:0:0:
192,192,76618,1,0,0:0:0:0:
64,192,76912,1,0,0:0:0:0:
320,192,77059,128,0,77353:0:0:0:0:
192,192,77353,128,0,77647:0:0:0:0:
448,192,77647,128,0,77942:0:0:0:0:
64,192,77942,128,0,78236:0:0:0:0:
192,192,78236,1,0,0:0:0:0:
320,192,78236,1,0,0:0:0:0:
448,192,78530,128,0,79118:0:0:0:0:
64,192,78824,1,0,0:0:0:0:
192,192,79118,128,0,79412:0:0:0:0:
320,192,79412,1,0,0:0:0:0:
448,192,79706,128,0,80000:0:0:0:0:
320,192,80000,128,0,80295:0:0:0:0:
64,192,80295,128,0,80589:0:0:0:0:
192,192,80589,128,0,80883:0:0:0:0:
320,192,80883,128,0,81177:0:0:0:0:
448,192,81177,128,0,81471:0:0:0:0:
64,192,81471,1,0,0:0:0:0:
320,192,81765,128,0,82059:0:0:0:0:
192,192,82059,128,0,82353:0:0:0:0:
64,192,82353,128,0,82647:0:0:0:0:
448,192,82647,1,0,0:0:0:0:
320,192,82647,1,0,0:0:0:0:
192,192,82942,1,0,0:0:0:0:
320,192,83236,128,0,83530:0:0:0:0:
64,192,83530,128,0,84118:0:0:0:0:
448,192,83824,1,0,0:0:0:0:
320,192,84118,128,0,84412:0:0:0:0:
64,192,84412,1,0,0:0:0:0:
448,192,84559,1,0,0:0:0:0:
64,192,84706,1,0,0:0:0:0:
320,192,84853,1,0,0:0:0:0:
448,192,85000,128,0,85883:0:0:0:0:
64,192,85295,1,0,0:0:0:0:
192,192,85883,1,0,0:0:0:0:
320,192,86177,1,0,0:0:0:0:
64,192,86471,128,0,87059:0:0:0:0:
448,192,87059,1,0,0:0:0:0:
192,192,87353,1,0,0:0:0:0:
320,192,87647,128,0,88236:0:0:0:0:
64,192,88236,1,0,0:0:0:0:
448,192,88530,1,0,0:0:0:0:
