osu file format v14

[General]
AudioFilename: audio.mp3
AudioLeadIn: 0
PreviewTime: 39174
Countdown: 0
SampleSet: Soft
StackLeniency: 0.7
Mode: 3
LetterboxInBreaks: 0
SpecialStyle: 0
WidescreenStoryboard: 1

[Editor]
Bookmarks: 82531
DistanceSpacing: 1
BeatDivisor: 4
GridSize: 32
TimelineZoom: 2.999999

[Metadata]
Title:Hana ni Bourei
TitleUnicode:花に亡霊
Artist:Yorushika
ArtistUnicode:ヨルシカ
Creator:emO_Oticon
Version:Flowers to you
Source:泣きたい私は猫をかぶる
Tags:ヨルシカ 花に亡霊 泣きたい私は猫をかぶる A Whisker Away n-buna suis yorushika hana ni bourei ghost in a flower japanese rock pop anime j-rock jrock j-pop jpop
BeatmapID:2970431
BeatmapSetID:1157124

[Difficulty]
HPDrainRate:8
CircleSize:4
OverallDifficulty:6
ApproachRate:5
SliderMultiplier:1.4
SliderTickRate:1

[Events]
//Background and Video events
0,0,"76316346_p0.jpg",0,0
//Break Periods
//Storyboard Layer 0 (Background)
//Storyboard Layer 1 (Fail)
//Storyboard Layer 2 (Pass)
//Storyboard Layer 3 (Foreground)
//Storyboard Layer 4 (Overlay)
//Storyboard Sound Samples

[TimingPoints]
1287,333.333333333333,4,2,0,5,1,0

[HitObjects]
448,192,1287,5,0,0:0:0:0:
192,192,1287,128,0,1953:0:0:0:0:
320,192,1620,128,0,1953:0:0:0:0:
448,192,1953,1,0,0:0:0:0:
64,192,1953,1,0,0:0:0:0:
64,192,2620,1,0,0:0:0:0:
320,192,2620,128,0,3286:0:0:0:0:
192,192,2953,128,0,3286:0:0:0:0:
64,192,3286,1,0,0:0:0:0:
448,192,3286,1,0,0:0:0:0:
64,192,3953,1,0,0:0:0:0:
320,192,3953,128,0,4620:0:0:0:0:
448,192,4286,128,0,4620:0:0:0:0:
64,192,4620,1,0,0:0:0:0:
192,192,4620,1,0,0:0:0:0:
448,192,5286,1,0,0:0:0:0:
192,192,5286,128,0,5953:0:0:0:0:
64,192,5620,128,0,5953:0:0:0:0:
448,192,5953,1,0,0:0:0:0:
320,192,5953,1,0,0:0:0:0:
448,192,6620,1,0,0:0:0:0:
192,192,6620,128,0,7286:0:0:0:0:
320,192,6953,128,0,7286:0:0:0:0:
64,192,7286,1,0,0:0:0:0:
448,192,7286,1,0,0:0:0:0:
64,192,7953,1,0,0:0:0:0:
320,192,7953,128,0,8620:0:0:0:0:
192,192,8286,128,0,8620:0:0:0:0:
64,192,8620,1,0,0:0:0:0:
448,192,8620,1,0,0:0:0:0:
64,192,9120,1,0,0:0:0:0:
64,192,9286,128,0,10536:0:0:0:0:
192,192,9620,128,0,10870:0:0:0:0:
448,192,9786,1,0,0:0:0:0:
448,192,9953,128,0,10536:0:0:0:0:
320,192,10286,128,0,10870:0:0:0:0:
64,192,10620,128,0,11203:0:0:0:0:
448,192,10620,128,0,11203:0:0:0:0:
192,192,10953,128,0,11203:0:0:0:0:
320,192,10953,128,0,11203:0:0:0:0:
192,192,11286,1,0,0:0:0:0:
320,192,11286,1,0,0:0:0:0:
448,192,11286,128,0,11453:0:0:0:0:
64,192,11286,128,0,11453:0:0:0:0:
448,192,11953,128,0,12620:0:0:0:0:
320,192,11953,1,0,0:0:0:0:
192,192,12286,128,0,12620:0:0:0:0:
64,192,12620,1,0,0:0:0:0:
320,192,12620,1,0,0:0:0:0:
192,192,13286,1,0,0:0:0:0:
64,192,13286,128,0,13953:0:0:0:0:
320,192,13620,128,0,13953:0:0:0:0:
448,192,13953,1,0,0:0:0:0:
192,192,13953,1,0,0:0:0:0:
64,192,14620,1,0,0:0:0:0:
320,192,14620,128,0,15286:0:0:0:0:
192,192,14953,128,0,15286:0:0:0:0:
64,192,15286,1,0,0:0:0:0:
448,192,15286,1,0,0:0:0:0:
448,192,15953,1,0,0:0:0:0:
192,192,15953,128,0,16620:0:0:0:0:
320,192,16286,128,0,16620:0:0:0:0:
64,192,16620,1,0,0:0:0:0:
448,192,16620,1,0,0:0:0:0:
320,192,17286,1,0,0:0:0:0:
448,192,17286,128,0,17953:0:0:0:0:
192,192,17620,128,0,17953:0:0:0:0:
64,192,17953,1,0,0:0:0:0:
320,192,17953,1,0,0:0:0:0:
64,192,18620,128,0,19286:0:0:0:0:
192,192,18620,1,0,0:0:0:0:
320,192,18953,128,0,19286:0:0:0:0:
192,192,19286,1,0,0:0:0:0:
448,192,19286,1,0,0:0:0:0:
448,192,19953,128,0,21203:0:0:0:0:
320,192,20286,128,0,21203:0:0:0:0:
64,192,20453,1,0,0:0:0:0:
64,192,20620,128,0,21286:0:0:0:0:
192,192,20953,128,0,21286:0:0:0:0:
448,192,21286,128,0,22203:0:0:0:0:
320,192,21286,128,0,21870:0:0:0:0:
64,192,21620,128,0,21870:0:0:0:0:
192,192,21620,1,0,0:0:0:0:
192,192,21953,128,0,22120:0:0:0:0:
64,192,21953,128,0,22786:0:0:0:0:
320,192,21953,1,0,0:0:0:0:
320,192,22286,128,0,22786:0:0:0:0:
192,192,22286,1,0,0:0:0:0:
448,192,22286,128,0,22786:0:0:0:0:
448,192,22953,128,0,23870:0:0:0:0:
64,192,22953,1,0,0:0:0:0:
320,192,22953,128,0,23536:0:0:0:0:
64,192,23286,128,0,23536:0:0:0:0:
192,192,23286,1,0,0:0:0:0:
192,192,23620,128,0,23786:0:0:0:0:
64,192,23620,128,0,24536:0:0:0:0:
320,192,23620,1,0,0:0:0:0:
320,192,23953,128,0,24536:0:0:0:0:
192,192,23953,1,0,0:0:0:0:
448,192,23953,128,0,24203:0:0:0:0:
448,192,24286,128,0,25203:0:0:0:0:
64,192,24620,128,0,25203:0:0:0:0:
320,192,24620,1,0,0:0:0:0:
192,192,24620,128,0,25203:0:0:0:0:
320,192,25245,1,0,0:0:0:0:
64,192,25286,128,0,26453:0:0:0:0:
448,192,25286,128,0,26453:0:0:0:0:
192,192,25286,128,0,26453:0:0:0:0:
64,192,26620,128,0,26953:0:0:0:0:
192,192,26620,128,0,26661:0:0:0:0:
448,192,26620,1,0,0:0:0:0:
320,192,26786,1,0,0:0:0:0:
192,192,26953,1,0,0:0:0:0:
320,192,27120,1,0,0:0:0:0:
64,192,27286,128,0,27620:0:0:0:0:
192,192,27286,128,0,27328:0:0:0:0:
448,192,27286,1,0,0:0:0:0:
320,192,27453,1,0,0:0:0:0:
192,192,27620,1,0,0:0:0:0:
320,192,27786,1,0,0:0:0:0:
64,192,27953,128,0,28286:0:0:0:0:
448,192,27953,128,0,28286:0:0:0:0:
192,192,27953,128,0,27995:0:0:0:0:
448,192,29286,128,0,29620:0:0:0:0:
320,192,29286,128,0,29328:0:0:0:0:
64,192,29286,1,0,0:0:0:0:
192,192,29453,1,0,0:0:0:0:
320,192,29620,1,0,0:0:0:0:
192,192,29786,1,0,0:0:0:0:
448,192,29953,128,0,30286:0:0:0:0:
320,192,29953,128,0,29995:0:0:0:0:
64,192,29953,1,0,0:0:0:0:
192,192,30120,1,0,0:0:0:0:
320,192,30286,1,0,0:0:0:0:
192,192,30453,1,0,0:0:0:0:
448,192,30620,128,0,30953:0:0:0:0:
64,192,30620,128,0,30953:0:0:0:0:
320,192,30620,128,0,30661:0:0:0:0:
64,192,31245,1,0,0:0:0:0:
448,192,31245,1,0,0:0:0:0:
320,192,31286,128,0,31786:0:0:0:0:
192,192,31286,128,0,31786:0:0:0:0:
64,192,31786,1,0,0:0:0:0:
448,192,31953,128,0,32203:0:0:0:0:
192,192,31953,1,0,0:0:0:0:
320,192,32120,128,0,32370:0:0:0:0:
64,192,32120,1,0,0:0:0:0:
192,192,32286,128,0,32536:0:0:0:0:
448,192,32286,1,0,0:0:0:0:
64,192,32453,128,0,32703:0:0:0:0:
320,192,32453,1,0,0:0:0:0:
320,192,32620,128,0,32870:0:0:0:0:
448,192,32620,1,0,0:0:0:0:
192,192,32786,128,0,33036:0:0:0:0:
64,192,32786,1,0,0:0:0:0:
448,192,32953,128,0,33203:0:0:0:0:
320,192,32953,1,0,0:0:0:0:
64,192,33120,128,0,33203:0:0:0:0:
192,192,33120,1,0,0:0:0:0:
320,192,33286,128,0,33620:0:0:0:0:
448,192,33286,128,0,33453:0:0:0:0:
192,192,33286,128,0,33453:0:0:0:0:
64,192,33286,128,0,33453:0:0:0:0:
192,192,33620,128,0,33786:0:0:0:0:
64,192,33620,1,0,0:0:0:0:
448,192,33620,1,0,0:0:0:0:
320,192,33786,128,0,33953:0:0:0:0:
192,192,33953,128,0,34286:0:0:0:0:
64,192,33953,1,0,0:0:0:0:
448,192,33953,1,0,0:0:0:0:
320,192,34286,128,0,34453:0:0:0:0:
64,192,34286,1,0,0:0:0:0:
448,192,34286,1,0,0:0:0:0:
192,192,34453,128,0,34620:0:0:0:0:
64,192,34620,1,0,0:0:0:0:
320,192,34620,128,0,34870:0:0:0:0:
448,192,34620,128,0,34870:0:0:0:0:
64,192,34786,128,0,34870:0:0:0:0:
64,192,34953,128,0,35203:0:0:0:0:
192,192,34953,128,0,35203:0:0:0:0:
448,192,34953,1,0,0:0:0:0:
448,192,35120,128,0,35203:0:0:0:0:
192,192,35286,128,0,35536:0:0:0:0:
320,192,35286,128,0,35536:0:0:0:0:
64,192,35286,1,0,0:0:0:0:
448,192,35286,1,0,0:0:0:0:
64,192,35453,128,0,35536:0:0:0:0:
448,192,35453,128,0,35536:0:0:0:0:
64,192,35620,128,0,35870:0:0:0:0:
448,192,35620,128,0,35870:0:0:0:0:
192,192,35620,1,0,0:0:0:0:
320,192,35620,1,0,0:0:0:0:
192,192,35786,128,0,35870:0:0:0:0:
320,192,35786,128,0,35870:0:0:0:0:
64,192,35953,128,0,36036:0:0:0:0:
192,192,35953,128,0,36036:0:0:0:0:
320,192,35953,128,0,36203:0:0:0:0:
448,192,35953,128,0,36203:0:0:0:0:
64,192,36120,128,0,36203:0:0:0:0:
192,192,36120,128,0,36203:0:0:0:0:
64,192,36286,128,0,36536:0:0:0:0:
192,192,36286,128,0,36536:0:0:0:0:
320,192,36286,128,0,36370:0:0:0:0:
448,192,36286,128,0,36370:0:0:0:0:
320,192,36453,128,0,36536:0:0:0:0:
448,192,36453,128,0,36536:0:0:0:0:
64,192,36620,128,0,36870:0:0:0:0:
448,192,36620,128,0,36870:0:0:0:0:
192,192,36620,128,0,36703:0:0:0:0:
320,192,36620,128,0,36703:0:0:0:0:
192,192,36786,128,0,36870:0:0:0:0:
320,192,36786,128,0,36870:0:0:0:0:
192,192,36953,128,0,37203:0:0:0:0:
320,192,36953,128,0,37203:0:0:0:0:
64,192,36953,128,0,37036:0:0:0:0:
448,192,36953,128,0,37036:0:0:0:0:
64,192,37120,128,0,37203:0:0:0:0:
448,192,37120,128,0,37203:0:0:0:0:
192,192,37286,128,0,37620:0:0:0:0:
320,192,37286,128,0,37578:0:0:0:0:
64,192,37286,128,0,37661:0:0:0:0:
448,192,37286,128,0,37620:0:0:0:0:
320,192,37620,1,0,0:0:0:0:
192,192,37661,128,0,37953:0:0:0:0:
448,192,37953,128,0,38286:0:0:0:0:
64,192,37953,128,0,38286:0:0:0:0:
320,192,38286,128,0,38620:0:0:0:0:
192,192,38286,128,0,38328:0:0:0:0:
64,192,38620,128,0,38953:0:0:0:0:
448,192,38620,128,0,38953:0:0:0:0:
192,192,38953,128,0,39286:0:0:0:0:
320,192,38953,128,0,38995:0:0:0:0:
448,192,39286,128,0,39328:0:0:0:0:
64,192,39286,128,0,39453:0:0:0:0:
192,192,39453,128,0,39620:0:0:0:0:
320,192,39620,128,0,39786:0:0:0:0:
448,192,39786,128,0,39953:0:0:0:0:
192,192,39953,128,0,40203:0:0:0:0:
64,192,39953,128,0,40036:0:0:0:0:
320,192,39953,1,0,0:0:0:0:
320,192,40120,128,0,40203:0:0:0:0:
448,192,40286,128,0,40536:0:0:0:0:
64,192,40286,1,0,0:0:0:0:
192,192,40370,1,0,0:0:0:0:
64,192,40453,128,0,40536:0:0:0:0:
192,192,40620,128,0,40870:0:0:0:0:
320,192,40620,128,0,40703:0:0:0:0:
64,192,40620,1,0,0:0:0:0:
448,192,40786,128,0,40870:0:0:0:0:
320,192,40953,1,0,0:0:0:0:
64,192,40953,128,0,41036:0:0:0:0:
192,192,41036,128,0,41120:0:0:0:0:
320,192,41120,128,0,41203:0:0:0:0:
448,192,41120,1,0,0:0:0:0:
192,192,41203,128,0,41286:0:0:0:0:
320,192,41286,128,0,41370:0:0:0:0:
64,192,41286,1,0,0:0:0:0:
448,192,41370,128,0,41536:0:0:0:0:
192,192,41453,128,0,41536:0:0:0:0:
64,192,41453,1,0,0:0:0:0:
320,192,41536,128,0,41703:0:0:0:0:
64,192,41620,128,0,41703:0:0:0:0:
448,192,41620,1,0,0:0:0:0:
192,192,41703,128,0,41870:0:0:0:0:
320,192,41786,1,0,0:0:0:0:
448,192,41786,128,0,41870:0:0:0:0:
64,192,41870,128,0,41953:0:0:0:0:
320,192,41953,1,0,0:0:0:0:
192,192,41953,128,0,42120:0:0:0:0:
320,192,42120,128,0,42286:0:0:0:0:
448,192,42120,1,0,0:0:0:0:
192,192,42286,128,0,42453:0:0:0:0:
64,192,42286,1,0,0:0:0:0:
448,192,42453,128,0,42620:0:0:0:0:
320,192,42453,1,0,0:0:0:0:
320,192,42620,1,0,0:0:0:0:
64,192,42620,128,0,42870:0:0:0:0:
192,192,42620,128,0,42703:0:0:0:0:
448,192,42786,128,0,42870:0:0:0:0:
320,192,42953,128,0,43203:0:0:0:0:
64,192,42953,1,0,0:0:0:0:
192,192,43036,1,0,0:0:0:0:
448,192,43120,128,0,43203:0:0:0:0:
64,192,43286,128,0,43536:0:0:0:0:
192,192,43286,128,0,43370:0:0:0:0:
320,192,43286,1,0,0:0:0:0:
320,192,43453,128,0,43536:0:0:0:0:
448,192,43620,128,0,43703:0:0:0:0:
192,192,43620,1,0,0:0:0:0:
320,192,43703,128,0,43786:0:0:0:0:
64,192,43786,1,0,0:0:0:0:
192,192,43786,128,0,43870:0:0:0:0:
320,192,43870,128,0,43953:0:0:0:0:
448,192,43953,1,0,0:0:0:0:
192,192,43953,128,0,44036:0:0:0:0:
64,192,44036,128,0,44203:0:0:0:0:
448,192,44120,1,0,0:0:0:0:
320,192,44120,128,0,44203:0:0:0:0:
192,192,44203,128,0,44370:0:0:0:0:
64,192,44286,1,0,0:0:0:0:
448,192,44286,128,0,44370:0:0:0:0:
320,192,44370,128,0,44536:0:0:0:0:
64,192,44453,128,0,44536:0:0:0:0:
192,192,44453,1,0,0:0:0:0:
448,192,44536,128,0,44620:0:0:0:0:
320,192,44620,128,0,44786:0:0:0:0:
192,192,44620,1,0,0:0:0:0:
192,192,44786,128,0,44953:0:0:0:0:
64,192,44786,1,0,0:0:0:0:
320,192,44953,128,0,45120:0:0:0:0:
448,192,44953,1,0,0:0:0:0:
64,192,45120,128,0,45286:0:0:0:0:
192,192,45120,1,0,0:0:0:0:
448,192,45286,128,0,45536:0:0:0:0:
192,192,45286,128,0,45370:0:0:0:0:
320,192,45286,1,0,0:0:0:0:
320,192,45453,128,0,45703:0:0:0:0:
64,192,45453,128,0,45536:0:0:0:0:
192,192,45620,128,0,45870:0:0:0:0:
448,192,45620,128,0,45703:0:0:0:0:
64,192,45786,128,0,46036:0:0:0:0:
320,192,45786,128,0,45870:0:0:0:0:
192,192,45953,128,0,46036:0:0:0:0:
448,192,45953,128,0,46120:0:0:0:0:
320,192,45953,1,0,0:0:0:0:
192,192,46120,128,0,46286:0:0:0:0:
64,192,46120,1,0,0:0:0:0:
448,192,46286,1,0,0:0:0:0:
320,192,46286,128,0,46453:0:0:0:0:
192,192,46370,1,0,0:0:0:0:
448,192,46453,128,0,46620:0:0:0:0:
64,192,46453,1,0,0:0:0:0:
192,192,46536,1,0,0:0:0:0:
64,192,46620,128,0,46870:0:0:0:0:
320,192,46620,128,0,46703:0:0:0:0:
192,192,46786,128,0,47036:0:0:0:0:
448,192,46786,128,0,46870:0:0:0:0:
320,192,46953,128,0,47203:0:0:0:0:
64,192,46953,128,0,47036:0:0:0:0:
448,192,47120,128,0,47370:0:0:0:0:
192,192,47120,128,0,47203:0:0:0:0:
320,192,47286,128,0,47370:0:0:0:0:
64,192,47286,128,0,47453:0:0:0:0:
320,192,47453,128,0,47620:0:0:0:0:
192,192,47453,1,0,0:0:0:0:
448,192,47536,1,0,0:0:0:0:
192,192,47620,128,0,47786:0:0:0:0:
64,192,47620,1,0,0:0:0:0:
320,192,47703,1,0,0:0:0:0:
64,192,47786,1,0,0:0:0:0:
448,192,47786,1,0,0:0:0:0:
192,192,47870,1,0,0:0:0:0:
64,192,47953,128,0,48203:0:0:0:0:
320,192,47953,128,0,48203:0:0:0:0:
448,192,47953,128,0,48203:0:0:0:0:
64,192,48286,128,0,48620:0:0:0:0:
192,192,48286,128,0,48620:0:0:0:0:
320,192,48286,1,0,0:0:0:0:
448,192,48286,128,0,48620:0:0:0:0:
320,192,48620,1,0,0:0:0:0:
192,192,48953,128,0,49536:0:0:0:0:
320,192,48953,128,0,49536:0:0:0:0:
448,192,48953,1,0,0:0:0:0:
64,192,48953,1,0,0:0:0:0:
448,192,49620,128,0,50203:0:0:0:0:
64,192,49620,128,0,49870:0:0:0:0:
192,192,49620,128,0,49870:0:0:0:0:
320,192,49620,128,0,50036:0:0:0:0:
64,192,49953,1,0,0:0:0:0:
192,192,49953,1,0,0:0:0:0:
64,192,50120,128,0,50536:0:0:0:0:
192,192,50120,1,0,0:0:0:0:
320,192,50120,1,0,0:0:0:0:
192,192,50286,128,0,50536:0:0:0:0:
320,192,50286,1,0,0:0:0:0:
448,192,50286,1,0,0:0:0:0:
320,192,50453,128,0,50536:0:0:0:0:
448,192,50453,1,0,0:0:0:0:
64,192,50620,128,0,50703:0:0:0:0:
192,192,50620,128,0,50870:0:0:0:0:
448,192,50620,1,0,0:0:0:0:
320,192,50620,1,0,0:0:0:0:
320,192,50786,128,0,50870:0:0:0:0:
64,192,50953,1,0,0:0:0:0:
448,192,50953,128,0,51203:0:0:0:0:
192,192,51036,1,0,0:0:0:0:
320,192,51120,128,0,51203:0:0:0:0:
64,192,51120,1,0,0:0:0:0:
448,192,51286,1,0,0:0:0:0:
64,192,51286,128,0,51370:0:0:0:0:
192,192,51286,128,0,51536:0:0:0:0:
320,192,51453,128,0,51536:0:0:0:0:
448,192,51620,128,0,51703:0:0:0:0:
64,192,51620,128,0,51703:0:0:0:0:
192,192,51620,1,0,0:0:0:0:
320,192,51703,128,0,51786:0:0:0:0:
192,192,51786,128,0,51870:0:0:0:0:
64,192,51786,1,0,0:0:0:0:
320,192,51870,128,0,51953:0:0:0:0:
192,192,51953,128,0,52120:0:0:0:0:
448,192,51953,1,0,0:0:0:0:
64,192,52036,128,0,52203:0:0:0:0:
448,192,52120,1,0,0:0:0:0:
320,192,52120,128,0,52286:0:0:0:0:
192,192,52203,128,0,52370:0:0:0:0:
448,192,52286,128,0,52453:0:0:0:0:
64,192,52286,1,0,0:0:0:0:
320,192,52370,128,0,52536:0:0:0:0:
192,192,52453,1,0,0:0:0:0:
64,192,52453,128,0,52536:0:0:0:0:
448,192,52536,128,0,52620:0:0:0:0:
64,192,52620,128,0,52786:0:0:0:0:
192,192,52620,1,0,0:0:0:0:
320,192,52620,1,0,0:0:0:0:
448,192,52786,1,0,0:0:0:0:
320,192,52786,128,0,52953:0:0:0:0:
192,192,52953,128,0,53120:0:0:0:0:
64,192,52953,1,0,0:0:0:0:
320,192,53120,1,0,0:0:0:0:
448,192,53120,128,0,53286:0:0:0:0:
192,192,53286,128,0,53370:0:0:0:0:
64,192,53286,128,0,53536:0:0:0:0:
320,192,53286,1,0,0:0:0:0:
448,192,53453,128,0,53536:0:0:0:0:
64,192,53620,1,0,0:0:0:0:
320,192,53620,128,0,53870:0:0:0:0:
192,192,53703,1,0,0:0:0:0:
448,192,53786,128,0,53870:0:0:0:0:
192,192,53953,1,0,0:0:0:0:
320,192,53953,128,0,54036:0:0:0:0:
64,192,53953,128,0,54203:0:0:0:0:
192,192,54120,128,0,54203:0:0:0:0:
320,192,54286,1,0,0:0:0:0:
448,192,54286,128,0,54370:0:0:0:0:
64,192,54286,128,0,54370:0:0:0:0:
192,192,54370,128,0,54453:0:0:0:0:
448,192,54453,1,0,0:0:0:0:
320,192,54453,128,0,54536:0:0:0:0:
192,192,54536,128,0,54620:0:0:0:0:
64,192,54620,1,0,0:0:0:0:
320,192,54620,128,0,54786:0:0:0:0:
448,192,54703,128,0,54870:0:0:0:0:
192,192,54786,128,0,54953:0:0:0:0:
64,192,54786,1,0,0:0:0:0:
320,192,54870,128,0,55036:0:0:0:0:
448,192,54953,1,0,0:0:0:0:
64,192,54953,128,0,55120:0:0:0:0:
192,192,55036,128,0,55203:0:0:0:0:
448,192,55120,128,0,55203:0:0:0:0:
320,192,55120,1,0,0:0:0:0:
64,192,55203,128,0,55286:0:0:0:0:
448,192,55286,128,0,55453:0:0:0:0:
192,192,55286,1,0,0:0:0:0:
320,192,55286,1,0,0:0:0:0:
320,192,55453,128,0,55620:0:0:0:0:
64,192,55620,1,0,0:0:0:0:
192,192,55620,128,0,55786:0:0:0:0:
448,192,55786,128,0,55953:0:0:0:0:
320,192,55786,1,0,0:0:0:0:
320,192,55953,128,0,56036:0:0:0:0:
64,192,55953,128,0,56203:0:0:0:0:
192,192,56120,128,0,56370:0:0:0:0:
448,192,56120,128,0,56203:0:0:0:0:
320,192,56286,128,0,56536:0:0:0:0:
64,192,56286,128,0,56370:0:0:0:0:
448,192,56453,128,0,56870:0:0:0:0:
192,192,56453,128,0,56536:0:0:0:0:
192,192,56620,128,0,57036:0:0:0:0:
64,192,56620,128,0,56870:0:0:0:0:
320,192,56620,128,0,56703:0:0:0:0:
320,192,56786,128,0,57203:0:0:0:0:
448,192,56953,128,0,57203:0:0:0:0:
64,192,56953,128,0,57203:0:0:0:0:
192,192,57120,128,0,57370:0:0:0:0:
320,192,57286,128,0,57536:0:0:0:0:
448,192,57286,128,0,57536:0:0:0:0:
64,192,57286,128,0,57870:0:0:0:0:
192,192,57453,128,0,57703:0:0:0:0:
448,192,57620,128,0,57870:0:0:0:0:
320,192,57620,128,0,58036:0:0:0:0:
192,192,57786,128,0,58203:0:0:0:0:
64,192,57953,128,0,58203:0:0:0:0:
448,192,57953,128,0,58203:0:0:0:0:
320,192,58120,128,0,58370:0:0:0:0:
448,192,58286,128,0,58536:0:0:0:0:
64,192,58286,128,0,58536:0:0:0:0:
192,192,58286,128,0,58536:0:0:0:0:
320,192,58453,128,0,58536:0:0:0:0:
64,192,58620,128,0,58870:0:0:0:0:
448,192,58620,128,0,58870:0:0:0:0:
192,192,58620,128,0,58870:0:0:0:0:
320,192,58620,128,0,58786:0:0:0:0:
320,192,58870,1,0,0:0:0:0:
192,192,58953,128,0,59120:0:0:0:0:
64,192,58953,128,0,59203:0:0:0:0:
448,192,58953,128,0,59203:0:0:0:0:
192,192,59203,1,0,0:0:0:0:
64,192,59286,128,0,59536:0:0:0:0:
320,192,59286,128,0,59453:0:0:0:0:
448,192,59286,128,0,59536:0:0:0:0:
320,192,59536,1,0,0:0:0:0:
192,192,59620,128,0,59870:0:0:0:0:
64,192,59620,128,0,59870:0:0:0:0:
448,192,59620,128,0,59870:0:0:0:0:
64,192,59953,128,0,60536:0:0:0:0:
192,192,59953,128,0,60870:0:0:0:0:
320,192,59953,128,0,60870:0:0:0:0:
448,192,59953,128,0,60536:0:0:0:0:
64,192,60620,1,0,0:0:0:0:
448,192,60620,1,0,0:0:0:0:
64,192,60953,1,0,0:0:0:0:
448,192,60953,1,0,0:0:0:0:
320,192,60953,1,0,0:0:0:0:
192,192,60953,1,0,0:0:0:0:
192,192,61286,128,0,61536:0:0:0:0:
320,192,61286,128,0,61536:0:0:0:0:
64,192,61286,128,0,61536:0:0:0:0:
448,192,61286,128,0,61536:0:0:0:0:
320,192,61620,128,0,61786:0:0:0:0:
448,192,61620,128,0,61703:0:0:0:0:
64,192,61620,1,0,0:0:0:0:
192,192,61703,128,0,61870:0:0:0:0:
64,192,61786,128,0,61870:0:0:0:0:
320,192,61870,128,0,62036:0:0:0:0:
448,192,61870,128,0,61953:0:0:0:0:
192,192,61953,128,0,62120:0:0:0:0:
64,192,62036,128,0,62120:0:0:0:0:
448,192,62120,128,0,62536:0:0:0:0:
320,192,62120,128,0,62203:0:0:0:0:
192,192,62286,128,0,62370:0:0:0:0:
64,192,62453,128,0,62536:0:0:0:0:
320,192,62453,128,0,62536:0:0:0:0:
192,192,62620,128,0,62786:0:0:0:0:
64,192,62620,128,0,62703:0:0:0:0:
448,192,62620,1,0,0:0:0:0:
320,192,62703,128,0,62870:0:0:0:0:
448,192,62786,128,0,62870:0:0:0:0:
64,192,62870,128,0,62953:0:0:0:0:
192,192,62870,128,0,63036:0:0:0:0:
320,192,62953,128,0,63120:0:0:0:0:
448,192,63036,128,0,63120:0:0:0:0:
64,192,63120,128,0,63453:0:0:0:0:
192,192,63120,1,0,0:0:0:0:
192,192,63286,128,0,63453:0:0:0:0:
320,192,63286,1,0,0:0:0:0:
448,192,63453,128,0,63620:0:0:0:0:
320,192,63536,128,0,63703:0:0:0:0:
64,192,63620,128,0,63786:0:0:0:0:
192,192,63703,128,0,63870:0:0:0:0:
448,192,63786,128,0,63953:0:0:0:0:
320,192,63870,128,0,63953:0:0:0:0:
64,192,63953,128,0,64009:0:0:0:0:
192,192,63953,128,0,64064:0:0:0:0:
320,192,64009,128,0,64120:0:0:0:0:
448,192,64064,128,0,64175:0:0:0:0:
192,192,64120,128,0,64231:0:0:0:0:
64,192,64175,128,0,64286:0:0:0:0:
448,192,64231,128,0,64342:0:0:0:0:
320,192,64286,128,0,64398:0:0:0:0:
192,192,64342,128,0,64453:0:0:0:0:
64,192,64398,128,0,64509:0:0:0:0:
320,192,64453,128,0,64564:0:0:0:0:
448,192,64509,128,0,64620:0:0:0:0:
64,192,64564,128,0,64675:0:0:0:0:
192,192,64620,128,0,64731:0:0:0:0:
320,192,64675,128,0,64786:0:0:0:0:
448,192,64731,128,0,64842:0:0:0:0:
192,192,64786,128,0,64898:0:0:0:0:
64,192,64842,128,0,64953:0:0:0:0:
448,192,64898,128,0,65009:0:0:0:0:
320,192,64953,128,0,65064:0:0:0:0:
192,192,65009,128,0,65120:0:0:0:0:
64,192,65064,128,0,65175:0:0:0:0:
448,192,65120,128,0,65203:0:0:0:0:
320,192,65161,128,0,65286:0:0:0:0:
192,192,65203,128,0,65286:0:0:0:0:
448,192,65286,128,0,65370:0:0:0:0:
64,192,65286,128,0,65370:0:0:0:0:
320,192,65370,128,0,65536:0:0:0:0:
448,192,65453,128,0,65620:0:0:0:0:
64,192,65453,128,0,65536:0:0:0:0:
192,192,65536,128,0,65703:0:0:0:0:
64,192,65620,128,0,65786:0:0:0:0:
320,192,65620,1,0,0:0:0:0:
448,192,65703,128,0,65870:0:0:0:0:
320,192,65786,128,0,65870:0:0:0:0:
192,192,65786,1,0,0:0:0:0:
64,192,65870,128,0,66036:0:0:0:0:
320,192,65953,128,0,66036:0:0:0:0:
448,192,65953,1,0,0:0:0:0:
192,192,66120,128,0,66370:0:0:0:0:
448,192,66120,128,0,66203:0:0:0:0:
64,192,66120,1,0,0:0:0:0:
320,192,66286,128,0,66536:0:0:0:0:
64,192,66453,128,0,66536:0:0:0:0:
192,192,66453,1,0,0:0:0:0:
320,192,66620,128,0,66786:0:0:0:0:
448,192,66620,1,0,0:0:0:0:
64,192,66620,1,0,0:0:0:0:
192,192,66703,128,0,66870:0:0:0:0:
64,192,66786,128,0,66870:0:0:0:0:
448,192,66786,1,0,0:0:0:0:
320,192,66870,128,0,67036:0:0:0:0:
448,192,66953,128,0,67036:0:0:0:0:
192,192,66953,128,0,67120:0:0:0:0:
64,192,67036,128,0,67120:0:0:0:0:
448,192,67120,128,0,67536:0:0:0:0:
320,192,67120,128,0,67203:0:0:0:0:
64,192,67286,1,0,0:0:0:0:
192,192,67286,128,0,67370:0:0:0:0:
64,192,67453,128,0,67536:0:0:0:0:
320,192,67453,128,0,67536:0:0:0:0:
192,192,67620,128,0,67786:0:0:0:0:
64,192,67620,1,0,0:0:0:0:
448,192,67620,1,0,0:0:0:0:
320,192,67703,128,0,67870:0:0:0:0:
448,192,67786,128,0,67870:0:0:0:0:
192,192,67870,128,0,68036:0:0:0:0:
64,192,67953,128,0,68036:0:0:0:0:
320,192,67953,128,0,68120:0:0:0:0:
448,192,68036,128,0,68120:0:0:0:0:
64,192,68120,128,0,68370:0:0:0:0:
320,192,68286,128,0,68370:0:0:0:0:
192,192,68286,1,0,0:0:0:0:
448,192,68453,128,0,68703:0:0:0:0:
64,192,68453,128,0,68536:0:0:0:0:
320,192,68620,128,0,68703:0:0:0:0:
64,192,68620,1,0,0:0:0:0:
192,192,68620,128,0,68870:0:0:0:0:
448,192,68786,128,0,69036:0:0:0:0:
64,192,68786,128,0,68870:0:0:0:0:
64,192,68953,128,0,69203:0:0:0:0:
320,192,68953,128,0,69036:0:0:0:0:
192,192,69120,128,0,69203:0:0:0:0:
448,192,69120,128,0,69203:0:0:0:0:
64,192,69286,128,0,69536:0:0:0:0:
192,192,69286,128,0,69620:0:0:0:0:
320,192,69286,128,0,69620:0:0:0:0:
448,192,69286,128,0,69536:0:0:0:0:
64,192,69620,1,0,0:0:0:0:
448,192,69620,1,0,0:0:0:0:
192,192,69703,1,0,0:0:0:0:
320,192,69703,1,0,0:0:0:0:
64,192,69786,1,0,0:0:0:0:
448,192,69786,1,0,0:0:0:0:
192,192,69870,1,0,0:0:0:0:
320,192,69870,1,0,0:0:0:0:
64,192,69953,1,0,0:0:0:0:
448,192,69953,1,0,0:0:0:0:
192,192,70286,128,0,70870:0:0:0:0:
320,192,70286,128,0,70870:0:0:0:0:
64,192,70286,128,0,70870:0:0:0:0:
448,192,70286,128,0,70870:0:0:0:0:
192,192,70953,128,0,71370:0:0:0:0:
320,192,70953,128,0,71536:0:0:0:0:
64,192,70953,128,0,71203:0:0:0:0:
448,192,70953,128,0,71620:0:0:0:0:
64,192,71286,1,0,0:0:0:0:
192,192,71453,1,0,0:0:0:0:
64,192,71453,128,0,71870:0:0:0:0:
320,192,71620,1,0,0:0:0:0:
192,192,71620,128,0,71870:0:0:0:0:
448,192,71786,1,0,0:0:0:0:
320,192,71786,128,0,71870:0:0:0:0:
192,192,71953,128,0,72120:0:0:0:0:
64,192,71953,128,0,72036:0:0:0:0:
320,192,72036,128,0,72203:0:0:0:0:
448,192,72120,128,0,72203:0:0:0:0:
192,192,72203,128,0,72370:0:0:0:0:
64,192,72203,128,0,72286:0:0:0:0:
320,192,72286,128,0,72453:0:0:0:0:
448,192,72370,128,0,72453:0:0:0:0:
64,192,72453,128,0,72870:0:0:0:0:
192,192,72453,128,0,72536:0:0:0:0:
320,192,72620,128,0,72703:0:0:0:0:
448,192,72620,1,0,0:0:0:0:
192,192,72786,128,0,72870:0:0:0:0:
448,192,72786,128,0,72870:0:0:0:0:
320,192,72953,128,0,73120:0:0:0:0:
448,192,72953,128,0,73036:0:0:0:0:
64,192,72953,1,0,0:0:0:0:
192,192,73036,128,0,73203:0:0:0:0:
64,192,73120,128,0,73203:0:0:0:0:
448,192,73203,128,0,73286:0:0:0:0:
320,192,73203,128,0,73370:0:0:0:0:
192,192,73286,128,0,73453:0:0:0:0:
64,192,73370,128,0,73453:0:0:0:0:
448,192,73453,128,0,73703:0:0:0:0:
320,192,73453,1,0,0:0:0:0:
64,192,73620,128,0,73703:0:0:0:0:
320,192,73620,128,0,73703:0:0:0:0:
192,192,73786,128,0,73870:0:0:0:0:
448,192,73786,128,0,73953:0:0:0:0:
320,192,73786,1,0,0:0:0:0:
64,192,73870,128,0,74120:0:0:0:0:
320,192,73953,128,0,74036:0:0:0:0:
448,192,74036,128,0,74286:0:0:0:0:
192,192,74120,128,0,74203:0:0:0:0:
64,192,74203,128,0,74453:0:0:0:0:
320,192,74286,128,0,74370:0:0:0:0:
448,192,74370,128,0,74536:0:0:0:0:
192,192,74453,128,0,74536:0:0:0:0:
64,192,74536,128,0,74703:0:0:0:0:
448,192,74620,128,0,74731:0:0:0:0:
320,192,74675,128,0,74786:0:0:0:0:
192,192,74731,128,0,74842:0:0:0:0:
64,192,74786,128,0,74898:0:0:0:0:
320,192,74842,128,0,74953:0:0:0:0:
448,192,74898,128,0,75009:0:0:0:0:
64,192,74953,128,0,75064:0:0:0:0:
192,192,75009,128,0,75120:0:0:0:0:
320,192,75064,128,0,75175:0:0:0:0:
448,192,75120,128,0,75231:0:0:0:0:
192,192,75175,128,0,75286:0:0:0:0:
64,192,75231,128,0,75342:0:0:0:0:
448,192,75286,128,0,75398:0:0:0:0:
320,192,75342,128,0,75453:0:0:0:0:
192,192,75398,128,0,75509:0:0:0:0:
64,192,75453,128,0,75564:0:0:0:0:
320,192,75509,128,0,75620:0:0:0:0:
448,192,75564,128,0,75675:0:0:0:0:
64,192,75620,128,0,75731:0:0:0:0:
192,192,75675,128,0,75786:0:0:0:0:
320,192,75731,128,0,75842:0:0:0:0:
448,192,75786,128,0,75898:0:0:0:0:
192,192,75842,128,0,76036:0:0:0:0:
448,192,75953,128,0,76036:0:0:0:0:
64,192,75953,128,0,76036:0:0:0:0:
320,192,76036,128,0,76203:0:0:0:0:
448,192,76120,128,0,76286:0:0:0:0:
64,192,76120,128,0,76203:0:0:0:0:
192,192,76203,128,0,76370:0:0:0:0:
64,192,76286,128,0,76453:0:0:0:0:
320,192,76286,1,0,0:0:0:0:
448,192,76370,128,0,76536:0:0:0:0:
320,192,76453,128,0,76536:0:0:0:0:
192,192,76453,1,0,0:0:0:0:
64,192,76536,128,0,76703:0:0:0:0:
448,192,76620,128,0,76870:0:0:0:0:
192,192,76620,128,0,76703:0:0:0:0:
320,192,76620,1,0,0:0:0:0:
320,192,76786,128,0,76870:0:0:0:0:
64,192,76786,128,0,77203:0:0:0:0:
192,192,76786,1,0,0:0:0:0:
448,192,76953,128,0,77036:0:0:0:0:
192,192,76953,128,0,77203:0:0:0:0:
320,192,76953,1,0,0:0:0:0:
448,192,77120,128,0,77203:0:0:0:0:
320,192,77120,128,0,77203:0:0:0:0:
320,192,77286,128,0,77453:0:0:0:0:
448,192,77286,1,0,0:0:0:0:
64,192,77286,1,0,0:0:0:0:
192,192,77370,128,0,77536:0:0:0:0:
64,192,77453,128,0,77536:0:0:0:0:
448,192,77453,1,0,0:0:0:0:
320,192,77536,128,0,77703:0:0:0:0:
448,192,77620,128,0,77703:0:0:0:0:
192,192,77620,128,0,77786:0:0:0:0:
64,192,77703,128,0,77786:0:0:0:0:
448,192,77786,128,0,78203:0:0:0:0:
320,192,77786,1,0,0:0:0:0:
192,192,77953,128,0,78036:0:0:0:0:
64,192,77953,1,0,0:0:0:0:
64,192,78120,128,0,78203:0:0:0:0:
320,192,78120,128,0,78203:0:0:0:0:
192,192,78286,128,0,78453:0:0:0:0:
64,192,78286,1,0,0:0:0:0:
448,192,78286,1,0,0:0:0:0:
320,192,78370,128,0,78536:0:0:0:0:
448,192,78453,128,0,78536:0:0:0:0:
64,192,78453,1,0,0:0:0:0:
192,192,78536,128,0,78703:0:0:0:0:
64,192,78620,128,0,78703:0:0:0:0:
320,192,78620,128,0,78786:0:0:0:0:
448,192,78703,128,0,78786:0:0:0:0:
64,192,78786,128,0,79036:0:0:0:0:
320,192,78953,128,0,79036:0:0:0:0:
192,192,78953,1,0,0:0:0:0:
448,192,79120,128,0,79370:0:0:0:0:
64,192,79120,128,0,79203:0:0:0:0:
320,192,79286,128,0,79370:0:0:0:0:
64,192,79286,1,0,0:0:0:0:
192,192,79286,128,0,79536:0:0:0:0:
448,192,79453,128,0,79703:0:0:0:0:
64,192,79453,128,0,79536:0:0:0:0:
64,192,79620,128,0,79870:0:0:0:0:
320,192,79620,128,0,79703:0:0:0:0:
192,192,79786,128,0,79870:0:0:0:0:
448,192,79786,128,0,79870:0:0:0:0:
448,192,79953,128,0,80203:0:0:0:0:
320,192,79953,128,0,80203:0:0:0:0:
64,192,79953,128,0,80203:0:0:0:0:
192,192,80203,1,0,0:0:0:0:
320,192,80286,128,0,80453:0:0:0:0:
448,192,80286,128,0,80536:0:0:0:0:
64,192,80286,128,0,80536:0:0:0:0:
320,192,80536,1,0,0:0:0:0:
448,192,80620,128,0,80870:0:0:0:0:
192,192,80620,128,0,80786:0:0:0:0:
64,192,80620,128,0,80870:0:0:0:0:
192,192,80870,1,0,0:0:0:0:
320,192,80953,128,0,81120:0:0:0:0:
448,192,80953,128,0,81203:0:0:0:0:
64,192,80953,128,0,81203:0:0:0:0:
320,192,81203,1,0,0:0:0:0:
448,192,81286,128,0,82453:0:0:0:0:
192,192,81286,128,0,82453:0:0:0:0:
64,192,81286,128,0,82453:0:0:0:0:
448,192,82620,128,0,83286:0:0:0:0:
64,192,82620,1,0,0:0:0:0:
320,192,82620,1,0,0:0:0:0:
64,192,82953,1,0,0:0:0:0:
320,192,82953,128,0,83286:0:0:0:0:
64,192,83286,1,0,0:0:0:0:
192,192,83286,1,0,0:0:0:0:
64,192,83953,128,0,84536:0:0:0:0:
448,192,83953,1,0,0:0:0:0:
192,192,83953,1,0,0:0:0:0:
448,192,84286,128,0,84328:0:0:0:0:
192,192,84286,128,0,84536:0:0:0:0:
320,192,84453,128,0,84536:0:0:0:0:
448,192,84620,1,0,0:0:0:0:
192,192,84620,128,0,84661:0:0:0:0:
64,192,84620,128,0,84661:0:0:0:0:
320,192,85286,128,0,85953:0:0:0:0:
64,192,85286,1,0,0:0:0:0:
448,192,85286,1,0,0:0:0:0:
192,192,85620,128,0,85953:0:0:0:0:
64,192,85620,1,0,0:0:0:0:
448,192,85953,1,0,0:0:0:0:
64,192,85953,1,0,0:0:0:0:
192,192,86620,128,0,87203:0:0:0:0:
448,192,86620,1,0,0:0:0:0:
64,192,86620,1,0,0:0:0:0:
64,192,86953,128,0,86995:0:0:0:0:
320,192,86953,128,0,87203:0:0:0:0:
448,192,87120,128,0,87203:0:0:0:0:
320,192,87286,128,0,87328:0:0:0:0:
448,192,87286,128,0,87328:0:0:0:0:
64,192,87286,1,0,0:0:0:0:
448,192,87953,128,0,88620:0:0:0:0:
64,192,87953,1,0,0:0:0:0:
320,192,87953,1,0,0:0:0:0:
64,192,88286,1,0,0:0:0:0:
320,192,88286,128,0,88620:0:0:0:0:
64,192,88620,1,0,0:0:0:0:
192,192,88620,1,0,0:0:0:0:
64,192,89286,128,0,89870:0:0:0:0:
192,192,89286,1,0,0:0:0:0:
448,192,89286,1,0,0:0:0:0:
448,192,89620,128,0,89661:0:0:0:0:
192,192,89620,128,0,89870:0:0:0:0:
320,192,89786,128,0,89870:0:0:0:0:
64,192,89953,128,0,89995:0:0:0:0:
192,192,89953,128,0,89995:0:0:0:0:
448,192,89953,1,0,0:0:0:0:
448,192,90620,128,0,91870:0:0:0:0:
320,192,90953,128,0,92203:0:0:0:0:
64,192,91120,1,0,0:0:0:0:
64,192,91286,128,0,91870:0:0:0:0:
192,192,91620,128,0,92203:0:0:0:0:
448,192,91953,128,0,92370:0:0:0:0:
64,192,91953,128,0,92370:0:0:0:0:
320,192,92286,128,0,92453:0:0:0:0:
192,192,92286,128,0,92453:0:0:0:0:
448,192,92453,128,0,92536:0:0:0:0:
64,192,92453,128,0,92536:0:0:0:0:
320,192,92536,128,0,92620:0:0:0:0:
192,192,92536,128,0,92620:0:0:0:0:
64,192,92620,128,0,92953:0:0:0:0:
448,192,92620,128,0,92953:0:0:0:0:
448,192,93286,128,0,93703:0:0:0:0:
320,192,93286,128,0,93536:0:0:0:0:
64,192,93286,128,0,93370:0:0:0:0:
192,192,93453,1,0,0:0:0:0:
320,192,93620,128,0,93870:0:0:0:0:
64,192,93620,128,0,93703:0:0:0:0:
448,192,93786,128,0,94203:0:0:0:0:
192,192,93786,1,0,0:0:0:0:
320,192,93953,128,0,94286:0:0:0:0:
64,192,93953,128,0,94036:0:0:0:0:
192,192,94120,128,0,94286:0:0:0:0:
64,192,94286,1,0,0:0:0:0:
448,192,94286,1,0,0:0:0:0:
192,192,94453,1,0,0:0:0:0:
64,192,94620,128,0,95120:0:0:0:0:
448,192,94620,128,0,94786:0:0:0:0:
320,192,94620,128,0,94786:0:0:0:0:
192,192,94953,128,0,95120:0:0:0:0:
320,192,94953,128,0,95120:0:0:0:0:
448,192,94953,1,0,0:0:0:0:
192,192,95286,128,0,95620:0:0:0:0:
64,192,95286,128,0,95620:0:0:0:0:
448,192,95286,128,0,95620:0:0:0:0:
320,192,95286,1,0,0:0:0:0:
320,192,95786,1,0,0:0:0:0:
192,192,95786,1,0,0:0:0:0:
64,192,95953,128,0,96370:0:0:0:0:
192,192,95953,128,0,96203:0:0:0:0:
448,192,95953,128,0,96036:0:0:0:0:
320,192,96120,1,0,0:0:0:0:
192,192,96286,128,0,96536:0:0:0:0:
448,192,96286,128,0,96370:0:0:0:0:
64,192,96453,128,0,96953:0:0:0:0:
320,192,96453,1,0,0:0:0:0:
192,192,96620,128,0,96953:0:0:0:0:
448,192,96620,128,0,96703:0:0:0:0:
320,192,96620,1,0,0:0:0:0:
448,192,96786,128,0,96953:0:0:0:0:
320,192,96786,128,0,96953:0:0:0:0:
320,192,97120,1,0,0:0:0:0:
192,192,97120,1,0,0:0:0:0:
448,192,97286,128,0,97870:0:0:0:0:
64,192,97286,128,0,97536:0:0:0:0:
192,192,97286,128,0,97536:0:0:0:0:
320,192,97286,1,0,0:0:0:0:
320,192,97620,128,0,98203:0:0:0:0:
64,192,97620,128,0,97870:0:0:0:0:
192,192,97620,128,0,97870:0:0:0:0:
64,192,97953,128,0,98203:0:0:0:0:
448,192,97953,128,0,98536:0:0:0:0:
192,192,97953,128,0,98203:0:0:0:0:
192,192,98286,128,0,98536:0:0:0:0:
64,192,98286,128,0,98536:0:0:0:0:
320,192,98286,1,0,0:0:0:0:
320,192,98620,128,0,98870:0:0:0:0:
448,192,98620,1,0,0:0:0:0:
192,192,98786,128,0,99036:0:0:0:0:
64,192,98786,1,0,0:0:0:0:
320,192,98953,128,0,99203:0:0:0:0:
448,192,98953,1,0,0:0:0:0:
64,192,99120,128,0,99370:0:0:0:0:
192,192,99120,1,0,0:0:0:0:
448,192,99286,128,0,99536:0:0:0:0:
320,192,99286,1,0,0:0:0:0:
64,192,99453,128,0,99703:0:0:0:0:
192,192,99453,1,0,0:0:0:0:
448,192,99620,128,0,99870:0:0:0:0:
320,192,99620,1,0,0:0:0:0:
64,192,99786,128,0,100036:0:0:0:0:
192,192,99786,1,0,0:0:0:0:
192,192,99953,128,0,100203:0:0:0:0:
448,192,99953,1,0,0:0:0:0:
64,192,100120,128,0,100370:0:0:0:0:
448,192,100120,1,0,0:0:0:0:
192,192,100286,128,0,100536:0:0:0:0:
448,192,100286,1,0,0:0:0:0:
64,192,100453,128,0,100703:0:0:0:0:
320,192,100453,128,0,100536:0:0:0:0:
192,192,100620,128,0,100703:0:0:0:0:
448,192,100620,128,0,100870:0:0:0:0:
64,192,100786,128,0,100870:0:0:0:0:
320,192,100786,128,0,101036:0:0:0:0:
64,192,100953,128,0,101036:0:0:0:0:
448,192,100953,128,0,101203:0:0:0:0:
64,192,101120,128,0,101203:0:0:0:0:
320,192,101120,128,0,101370:0:0:0:0:
448,192,101286,128,0,101870:0:0:0:0:
64,192,101286,128,0,101703:0:0:0:0:
192,192,101286,128,0,101370:0:0:0:0:
320,192,101620,128,0,101703:0:0:0:0:
64,192,101786,1,0,0:0:0:0:
192,192,101786,128,0,101870:0:0:0:0:
64,192,101953,128,0,102536:0:0:0:0:
192,192,101953,1,0,0:0:0:0:
448,192,101953,128,0,102370:0:0:0:0:
320,192,101953,128,0,102036:0:0:0:0:
192,192,102286,128,0,102370:0:0:0:0:
320,192,102453,128,0,102536:0:0:0:0:
448,192,102453,1,0,0:0:0:0:
192,192,102620,128,0,102703:0:0:0:0:
448,192,102620,1,0,0:0:0:0:
320,192,102786,128,0,102870:0:0:0:0:
64,192,102786,1,0,0:0:0:0:
64,192,102953,128,0,103036:0:0:0:0:
448,192,102953,1,0,0:0:0:0:
320,192,103120,1,0,0:0:0:0:
448,192,103245,1,0,0:0:0:0:
192,192,103286,128,0,103536:0:0:0:0:
64,192,103286,1,0,0:0:0:0:
320,192,103453,128,0,103536:0:0:0:0:
64,192,103578,1,0,0:0:0:0:
320,192,103620,128,0,103870:0:0:0:0:
448,192,103620,1,0,0:0:0:0:
192,192,103786,128,0,103870:0:0:0:0:
64,192,103953,128,0,104370:0:0:0:0:
448,192,103953,128,0,104453:0:0:0:0:
192,192,103953,1,0,0:0:0:0:
320,192,103953,1,0,0:0:0:0:
64,192,104411,1,0,0:0:0:0:
192,192,104453,1,0,0:0:0:0:
320,192,104495,1,0,0:0:0:0:
448,192,104536,1,0,0:0:0:0:
192,192,104620,1,0,0:0:0:0:
320,192,104620,128,0,104703:0:0:0:0:
64,192,104786,128,0,104870:0:0:0:0:
448,192,104786,128,0,104870:0:0:0:0:
192,192,104953,128,0,105036:0:0:0:0:
320,192,104953,1,0,0:0:0:0:
64,192,105120,128,0,105203:0:0:0:0:
448,192,105120,1,0,0:0:0:0:
320,192,105203,1,0,0:0:0:0:
64,192,105286,128,0,105703:0:0:0:0:
192,192,105286,128,0,105370:0:0:0:0:
448,192,105286,1,0,0:0:0:0:
320,192,105453,1,0,0:0:0:0:
448,192,105620,128,0,105703:0:0:0:0:
192,192,105620,1,0,0:0:0:0:
320,192,105786,1,0,0:0:0:0:
448,192,105786,1,0,0:0:0:0:
448,192,105953,128,0,106370:0:0:0:0:
320,192,105953,128,0,106036:0:0:0:0:
64,192,105953,1,0,0:0:0:0:
192,192,106120,128,0,106203:0:0:0:0:
64,192,106286,128,0,106370:0:0:0:0:
320,192,106286,1,0,0:0:0:0:
192,192,106453,1,0,0:0:0:0:
64,192,106453,1,0,0:0:0:0:
320,192,106536,1,0,0:0:0:0:
192,192,106620,128,0,107786:0:0:0:0:
64,192,106620,1,0,0:0:0:0:
448,192,106620,1,0,0:0:0:0:
320,192,107286,1,0,0:0:0:0:
448,192,107286,128,0,107786:0:0:0:0:
64,192,107286,128,0,107786:0:0:0:0:
192,192,107870,1,0,0:0:0:0:
64,192,107953,1,0,0:0:0:0:
448,192,107953,128,0,108370:0:0:0:0:
320,192,107953,128,0,108036:0:0:0:0:
192,192,108120,1,0,0:0:0:0:
64,192,108286,128,0,108370:0:0:0:0:
320,192,108286,1,0,0:0:0:0:
64,192,108453,1,0,0:0:0:0:
192,192,108453,1,0,0:0:0:0:
64,192,108620,128,0,109036:0:0:0:0:
192,192,108620,128,0,108703:0:0:0:0:
448,192,108620,1,0,0:0:0:0:
320,192,108786,128,0,108870:0:0:0:0:
448,192,108953,128,0,109036:0:0:0:0:
192,192,108953,1,0,0:0:0:0:
320,192,109120,1,0,0:0:0:0:
448,192,109120,1,0,0:0:0:0:
192,192,109203,1,0,0:0:0:0:
448,192,109286,128,0,110370:0:0:0:0:
320,192,109286,1,0,0:0:0:0:
64,192,109286,1,0,0:0:0:0:
64,192,109620,128,0,110370:0:0:0:0:
192,192,109703,1,0,0:0:0:0:
320,192,109786,1,0,0:0:0:0:
192,192,109870,128,0,110370:0:0:0:0:
320,192,109953,128,0,110370:0:0:0:0:
192,192,110453,1,0,0:0:0:0:
448,192,110453,1,0,0:0:0:0:
64,192,110620,128,0,110870:0:0:0:0:
320,192,110620,1,0,0:0:0:0:
448,192,110620,1,0,0:0:0:0:
192,192,110786,128,0,111036:0:0:0:0:
448,192,110786,1,0,0:0:0:0:
320,192,110953,128,0,111203:0:0:0:0:
64,192,110953,1,0,0:0:0:0:
448,192,111120,128,0,111370:0:0:0:0:
192,192,111120,1,0,0:0:0:0:
192,192,111286,128,0,111536:0:0:0:0:
64,192,111286,1,0,0:0:0:0:
320,192,111453,128,0,111703:0:0:0:0:
448,192,111453,1,0,0:0:0:0:
64,192,111620,128,0,111870:0:0:0:0:
192,192,111620,1,0,0:0:0:0:
448,192,111786,128,0,111870:0:0:0:0:
320,192,111786,1,0,0:0:0:0:
192,192,111953,128,0,112370:0:0:0:0:
64,192,111953,128,0,112036:0:0:0:0:
320,192,111953,128,0,112120:0:0:0:0:
448,192,111953,128,0,112036:0:0:0:0:
320,192,112286,128,0,112536:0:0:0:0:
448,192,112286,128,0,112370:0:0:0:0:
64,192,112286,128,0,112370:0:0:0:0:
192,192,112453,128,0,112703:0:0:0:0:
320,192,112620,128,0,113036:0:0:0:0:
64,192,112620,128,0,112703:0:0:0:0:
448,192,112620,128,0,112703:0:0:0:0:
192,192,112953,1,0,0:0:0:0:
448,192,112953,128,0,113036:0:0:0:0:
64,192,112953,128,0,113036:0:0:0:0:
448,192,113120,128,0,113203:0:0:0:0:
64,192,113120,128,0,113203:0:0:0:0:
192,192,113120,128,0,113203:0:0:0:0:
320,192,113120,1,0,0:0:0:0:
320,192,113286,128,0,113536:0:0:0:0:
448,192,113286,128,0,113536:0:0:0:0:
64,192,113286,1,0,0:0:0:0:
64,192,113453,128,0,113536:0:0:0:0:
64,192,113620,128,0,113870:0:0:0:0:
192,192,113620,128,0,113870:0:0:0:0:
448,192,113620,1,0,0:0:0:0:
448,192,113786,128,0,113870:0:0:0:0:
192,192,113953,128,0,114203:0:0:0:0:
320,192,113953,128,0,114203:0:0:0:0:
64,192,113953,1,0,0:0:0:0:
448,192,113953,1,0,0:0:0:0:
64,192,114120,128,0,114203:0:0:0:0:
448,192,114120,128,0,114203:0:0:0:0:
64,192,114286,128,0,114536:0:0:0:0:
448,192,114286,128,0,114536:0:0:0:0:
192,192,114286,1,0,0:0:0:0:
320,192,114286,1,0,0:0:0:0:
192,192,114453,128,0,114536:0:0:0:0:
320,192,114453,128,0,114536:0:0:0:0:
64,192,114620,128,0,114703:0:0:0:0:
192,192,114620,128,0,114703:0:0:0:0:
320,192,114620,128,0,114870:0:0:0:0:
448,192,114620,128,0,114870:0:0:0:0:
64,192,114786,128,0,114870:0:0:0:0:
192,192,114786,128,0,114870:0:0:0:0:
64,192,114953,128,0,115203:0:0:0:0:
192,192,114953,128,0,115203:0:0:0:0:
320,192,114953,128,0,115036:0:0:0:0:
448,192,114953,128,0,115036:0:0:0:0:
320,192,115120,128,0,115203:0:0:0:0:
448,192,115120,128,0,115203:0:0:0:0:
64,192,115286,128,0,115536:0:0:0:0:
448,192,115286,128,0,115536:0:0:0:0:
192,192,115286,128,0,115370:0:0:0:0:
320,192,115286,128,0,115370:0:0:0:0:
192,192,115453,128,0,115536:0:0:0:0:
320,192,115453,128,0,115536:0:0:0:0:
192,192,115620,128,0,115870:0:0:0:0:
320,192,115620,128,0,115870:0:0:0:0:
64,192,115620,128,0,115703:0:0:0:0:
448,192,115620,128,0,115703:0:0:0:0:
64,192,115786,128,0,115870:0:0:0:0:
448,192,115786,128,0,115870:0:0:0:0:
192,192,115953,1,0,0:0:0:0:
320,192,115953,1,0,0:0:0:0:
64,192,115953,1,0,0:0:0:0:
448,192,115953,1,0,0:0:0:0:
320,192,116245,1,0,0:0:0:0:
192,192,116266,1,0,0:0:0:0:
448,192,116286,128,0,117203:0:0:0:0:
64,192,116286,1,0,0:0:0:0:
192,192,116599,1,0,0:0:0:0:
320,192,116620,128,0,117036:0:0:0:0:
64,192,116620,1,0,0:0:0:0:
192,192,116932,1,0,0:0:0:0:
64,192,116953,128,0,117203:0:0:0:0:
320,192,117120,1,0,0:0:0:0:
192,192,117203,1,0,0:0:0:0:
64,192,117286,128,0,117870:0:0:0:0:
448,192,117286,128,0,117536:0:0:0:0:
320,192,117286,128,0,117536:0:0:0:0:
192,192,117620,128,0,118036:0:0:0:0:
448,192,117620,128,0,118370:0:0:0:0:
320,192,117620,128,0,118203:0:0:0:0:
64,192,117953,1,0,0:0:0:0:
192,192,118120,1,0,0:0:0:0:
64,192,118120,128,0,118536:0:0:0:0:
320,192,118286,1,0,0:0:0:0:
192,192,118286,128,0,118536:0:0:0:0:
320,192,118453,128,0,118536:0:0:0:0:
448,192,118453,1,0,0:0:0:0:
192,192,118620,128,0,118870:0:0:0:0:
64,192,118620,128,0,118703:0:0:0:0:
448,192,118620,128,0,118703:0:0:0:0:
320,192,118620,1,0,0:0:0:0:
320,192,118786,128,0,118870:0:0:0:0:
64,192,118953,1,0,0:0:0:0:
320,192,118953,128,0,119203:0:0:0:0:
448,192,118953,128,0,119036:0:0:0:0:
192,192,119036,1,0,0:0:0:0:
64,192,119120,128,0,119203:0:0:0:0:
64,192,119286,128,0,119370:0:0:0:0:
192,192,119286,128,0,119536:0:0:0:0:
448,192,119286,128,0,119370:0:0:0:0:
320,192,119453,128,0,119536:0:0:0:0:
448,192,119453,128,0,119620:0:0:0:0:
320,192,119620,1,0,0:0:0:0:
64,192,119620,128,0,119703:0:0:0:0:
192,192,119703,128,0,119786:0:0:0:0:
64,192,119786,1,0,0:0:0:0:
320,192,119786,128,0,119953:0:0:0:0:
448,192,119870,128,0,120036:0:0:0:0:
192,192,119953,128,0,120120:0:0:0:0:
64,192,119953,1,0,0:0:0:0:
320,192,120036,128,0,120203:0:0:0:0:
64,192,120120,128,0,120203:0:0:0:0:
448,192,120120,1,0,0:0:0:0:
192,192,120203,128,0,120286:0:0:0:0:
64,192,120286,1,0,0:0:0:0:
320,192,120286,128,0,120453:0:0:0:0:
448,192,120370,128,0,120536:0:0:0:0:
64,192,120453,1,0,0:0:0:0:
192,192,120453,128,0,120620:0:0:0:0:
320,192,120536,128,0,120620:0:0:0:0:
448,192,120620,128,0,120870:0:0:0:0:
64,192,120620,128,0,120870:0:0:0:0:
192,192,120786,128,0,121036:0:0:0:0:
320,192,120786,1,0,0:0:0:0:
448,192,120953,1,0,0:0:0:0:
320,192,120953,128,0,121203:0:0:0:0:
64,192,121120,128,0,121286:0:0:0:0:
192,192,121120,1,0,0:0:0:0:
320,192,121286,128,0,121370:0:0:0:0:
448,192,121286,128,0,121536:0:0:0:0:
192,192,121286,1,0,0:0:0:0:
64,192,121453,128,0,121536:0:0:0:0:
448,192,121620,1,0,0:0:0:0:
192,192,121620,128,0,121870:0:0:0:0:
64,192,121620,1,0,0:0:0:0:
320,192,121703,1,0,0:0:0:0:
64,192,121786,128,0,121870:0:0:0:0:
448,192,121786,128,0,121870:0:0:0:0:
320,192,121953,128,0,122036:0:0:0:0:
448,192,121953,128,0,122203:0:0:0:0:
192,192,121953,1,0,0:0:0:0:
192,192,122120,128,0,122203:0:0:0:0:
64,192,122120,128,0,122286:0:0:0:0:
448,192,122286,128,0,122370:0:0:0:0:
192,192,122286,1,0,0:0:0:0:
320,192,122370,128,0,122453:0:0:0:0:
448,192,122453,1,0,0:0:0:0:
192,192,122453,128,0,122620:0:0:0:0:
64,192,122536,128,0,122703:0:0:0:0:
320,192,122620,128,0,122786:0:0:0:0:
448,192,122620,1,0,0:0:0:0:
192,192,122703,128,0,122870:0:0:0:0:
64,192,122786,1,0,0:0:0:0:
448,192,122786,128,0,122870:0:0:0:0:
320,192,122870,128,0,122953:0:0:0:0:
192,192,122953,128,0,123120:0:0:0:0:
448,192,122953,1,0,0:0:0:0:
64,192,123036,128,0,123203:0:0:0:0:
320,192,123120,128,0,123286:0:0:0:0:
448,192,123120,1,0,0:0:0:0:
192,192,123203,128,0,123286:0:0:0:0:
448,192,123286,128,0,123536:0:0:0:0:
64,192,123286,128,0,123536:0:0:0:0:
320,192,123453,128,0,123703:0:0:0:0:
192,192,123453,1,0,0:0:0:0:
64,192,123620,1,0,0:0:0:0:
192,192,123620,128,0,123870:0:0:0:0:
320,192,123786,1,0,0:0:0:0:
448,192,123786,128,0,123870:0:0:0:0:
64,192,123786,128,0,123870:0:0:0:0:
64,192,123953,128,0,124370:0:0:0:0:
192,192,123953,1,0,0:0:0:0:
448,192,123953,1,0,0:0:0:0:
320,192,124036,1,0,0:0:0:0:
192,192,124120,1,0,0:0:0:0:
448,192,124120,1,0,0:0:0:0:
192,192,124286,128,0,124536:0:0:0:0:
448,192,124286,1,0,0:0:0:0:
320,192,124370,1,0,0:0:0:0:
64,192,124453,128,0,124870:0:0:0:0:
448,192,124453,1,0,0:0:0:0:
320,192,124536,128,0,124703:0:0:0:0:
448,192,124620,128,0,124870:0:0:0:0:
192,192,124620,1,0,0:0:0:0:
192,192,124786,128,0,125036:0:0:0:0:
320,192,124786,1,0,0:0:0:0:
448,192,124953,1,0,0:0:0:0:
320,192,124953,128,0,125203:0:0:0:0:
64,192,125120,128,0,125203:0:0:0:0:
192,192,125120,1,0,0:0:0:0:
448,192,125120,128,0,125203:0:0:0:0:
448,192,125286,128,0,125536:0:0:0:0:
320,192,125286,1,0,0:0:0:0:
64,192,125286,1,0,0:0:0:0:
192,192,125370,1,0,0:0:0:0:
64,192,125453,1,0,0:0:0:0:
320,192,125453,128,0,125620:0:0:0:0:
192,192,125536,128,0,125786:0:0:0:0:
448,192,125620,1,0,0:0:0:0:
64,192,125620,128,0,125703:0:0:0:0:
320,192,125703,128,0,125953:0:0:0:0:
64,192,125786,1,0,0:0:0:0:
448,192,125786,128,0,125870:0:0:0:0:
192,192,125870,128,0,126036:0:0:0:0:
64,192,125953,128,0,126203:0:0:0:0:
448,192,125953,128,0,126120:0:0:0:0:
320,192,126120,128,0,126286:0:0:0:0:
192,192,126120,1,0,0:0:0:0:
448,192,126203,1,0,0:0:0:0:
64,192,126286,1,0,0:0:0:0:
192,192,126286,128,0,126536:0:0:0:0:
320,192,126370,128,0,126536:0:0:0:0:
64,192,126453,128,0,126536:0:0:0:0:
448,192,126453,128,0,126536:0:0:0:0:
64,192,126620,128,0,126870:0:0:0:0:
448,192,126620,128,0,126870:0:0:0:0:
320,192,126620,128,0,126786:0:0:0:0:
192,192,126620,1,0,0:0:0:0:
320,192,126870,1,0,0:0:0:0:
448,192,126953,128,0,127286:0:0:0:0:
192,192,126953,128,0,127203:0:0:0:0:
64,192,126953,128,0,127286:0:0:0:0:
320,192,127286,1,0,0:0:0:0:
192,192,127286,1,0,0:0:0:0:
192,192,127620,128,0,128203:0:0:0:0:
320,192,127620,128,0,128203:0:0:0:0:
64,192,127620,128,0,128203:0:0:0:0:
448,192,127620,128,0,128203:0:0:0:0:
64,192,128286,128,0,128870:0:0:0:0:
192,192,128286,128,0,128703:0:0:0:0:
320,192,128286,128,0,128536:0:0:0:0:
448,192,128286,128,0,128536:0:0:0:0:
448,192,128620,1,0,0:0:0:0:
320,192,128620,128,0,128703:0:0:0:0:
320,192,128786,1,0,0:0:0:0:
448,192,128786,128,0,129203:0:0:0:0:
192,192,128786,128,0,128870:0:0:0:0:
192,192,128953,1,0,0:0:0:0:
320,192,128953,128,0,129203:0:0:0:0:
64,192,128953,128,0,129036:0:0:0:0:
64,192,129120,1,0,0:0:0:0:
192,192,129120,128,0,129203:0:0:0:0:
448,192,129286,128,0,129370:0:0:0:0:
64,192,129286,128,0,129370:0:0:0:0:
192,192,129286,1,0,0:0:0:0:
320,192,129286,128,0,129536:0:0:0:0:
192,192,129453,128,0,129536:0:0:0:0:
64,192,129620,128,0,129703:0:0:0:0:
192,192,129620,128,0,129870:0:0:0:0:
448,192,129620,1,0,0:0:0:0:
320,192,129703,1,0,0:0:0:0:
448,192,129786,128,0,129870:0:0:0:0:
320,192,129953,128,0,130203:0:0:0:0:
64,192,129953,1,0,0:0:0:0:
448,192,129953,1,0,0:0:0:0:
64,192,130120,128,0,130370:0:0:0:0:
192,192,130120,1,0,0:0:0:0:
448,192,130286,128,0,130370:0:0:0:0:
192,192,130286,128,0,130370:0:0:0:0:
320,192,130370,128,0,130536:0:0:0:0:
448,192,130453,1,0,0:0:0:0:
192,192,130453,128,0,130620:0:0:0:0:
64,192,130536,128,0,130703:0:0:0:0:
320,192,130620,1,0,0:0:0:0:
448,192,130620,128,0,130703:0:0:0:0:
192,192,130703,128,0,130870:0:0:0:0:
320,192,130786,128,0,130953:0:0:0:0:
64,192,130786,1,0,0:0:0:0:
448,192,130870,128,0,131036:0:0:0:0:
64,192,130953,128,0,131036:0:0:0:0:
192,192,130953,1,0,0:0:0:0:
320,192,131036,128,0,131203:0:0:0:0:
192,192,131120,128,0,131286:0:0:0:0:
448,192,131120,1,0,0:0:0:0:
64,192,131203,128,0,131286:0:0:0:0:
448,192,131286,128,0,131536:0:0:0:0:
320,192,131286,1,0,0:0:0:0:
64,192,131453,1,0,0:0:0:0:
192,192,131453,128,0,131703:0:0:0:0:
320,192,131620,128,0,131870:0:0:0:0:
448,192,131620,1,0,0:0:0:0:
192,192,131786,1,0,0:0:0:0:
64,192,131786,128,0,131953:0:0:0:0:
192,192,131953,1,0,0:0:0:0:
448,192,131953,128,0,132203:0:0:0:0:
320,192,131953,128,0,132036:0:0:0:0:
64,192,132120,128,0,132203:0:0:0:0:
64,192,132286,1,0,0:0:0:0:
192,192,132286,128,0,132536:0:0:0:0:
448,192,132286,1,0,0:0:0:0:
320,192,132370,1,0,0:0:0:0:
448,192,132453,128,0,132536:0:0:0:0:
64,192,132453,128,0,132536:0:0:0:0:
192,192,132620,1,0,0:0:0:0:
448,192,132620,128,0,132870:0:0:0:0:
320,192,132620,128,0,132703:0:0:0:0:
192,192,132786,128,0,132870:0:0:0:0:
64,192,132786,128,0,133036:0:0:0:0:
320,192,132953,128,0,133036:0:0:0:0:
448,192,132953,1,0,0:0:0:0:
192,192,133036,128,0,133203:0:0:0:0:
320,192,133120,128,0,133286:0:0:0:0:
64,192,133120,1,0,0:0:0:0:
448,192,133203,128,0,133370:0:0:0:0:
64,192,133286,128,0,133370:0:0:0:0:
192,192,133286,1,0,0:0:0:0:
320,192,133370,128,0,133536:0:0:0:0:
448,192,133453,1,0,0:0:0:0:
192,192,133453,128,0,133620:0:0:0:0:
64,192,133536,128,0,133703:0:0:0:0:
320,192,133620,1,0,0:0:0:0:
448,192,133620,128,0,133703:0:0:0:0:
192,192,133703,128,0,133870:0:0:0:0:
64,192,133786,1,0,0:0:0:0:
320,192,133786,128,0,133953:0:0:0:0:
448,192,133870,128,0,133953:0:0:0:0:
64,192,133953,128,0,134203:0:0:0:0:
192,192,133953,1,0,0:0:0:0:
448,192,134120,1,0,0:0:0:0:
320,192,134120,128,0,134370:0:0:0:0:
192,192,134286,128,0,134536:0:0:0:0:
64,192,134286,1,0,0:0:0:0:
448,192,134453,128,0,134703:0:0:0:0:
320,192,134453,1,0,0:0:0:0:
64,192,134620,128,0,134703:0:0:0:0:
192,192,134620,128,0,134786:0:0:0:0:
320,192,134703,128,0,134870:0:0:0:0:
448,192,134786,128,0,134870:0:0:0:0:
64,192,134786,128,0,134953:0:0:0:0:
192,192,134870,128,0,135036:0:0:0:0:
448,192,134953,128,0,135120:0:0:0:0:
320,192,134953,128,0,135036:0:0:0:0:
64,192,135036,128,0,135203:0:0:0:0:
192,192,135120,128,0,135203:0:0:0:0:
320,192,135120,128,0,135286:0:0:0:0:
448,192,135203,128,0,135370:0:0:0:0:
64,192,135286,128,0,135370:0:0:0:0:
192,192,135286,128,0,135453:0:0:0:0:
320,192,135370,128,0,135536:0:0:0:0:
448,192,135453,128,0,135536:0:0:0:0:
64,192,135453,128,0,135703:0:0:0:0:
192,192,135536,128,0,135620:0:0:0:0:
448,192,135620,128,0,135786:0:0:0:0:
320,192,135620,128,0,135703:0:0:0:0:
192,192,135703,128,0,135870:0:0:0:0:
320,192,135786,128,0,135953:0:0:0:0:
64,192,135786,128,0,135870:0:0:0:0:
448,192,135870,128,0,136036:0:0:0:0:
192,192,135953,128,0,136036:0:0:0:0:
64,192,135953,128,0,136120:0:0:0:0:
320,192,136036,128,0,136203:0:0:0:0:
448,192,136120,128,0,136203:0:0:0:0:
192,192,136120,128,0,136286:0:0:0:0:
64,192,136203,128,0,136370:0:0:0:0:
320,192,136286,128,0,136370:0:0:0:0:
448,192,136286,128,0,136453:0:0:0:0:
192,192,136370,128,0,136536:0:0:0:0:
320,192,136453,128,0,136620:0:0:0:0:
64,192,136453,128,0,136536:0:0:0:0:
448,192,136536,128,0,136703:0:0:0:0:
192,192,136620,128,0,136703:0:0:0:0:
64,192,136620,128,0,136786:0:0:0:0:
320,192,136703,128,0,136870:0:0:0:0:
448,192,136786,128,0,136870:0:0:0:0:
192,192,136786,128,0,136953:0:0:0:0:
64,192,136870,128,0,137036:0:0:0:0:
448,192,136953,128,0,137120:0:0:0:0:
320,192,136953,128,0,137036:0:0:0:0:
192,192,137036,128,0,137203:0:0:0:0:
320,192,137120,128,0,137203:0:0:0:0:
64,192,137120,128,0,137203:0:0:0:0:
448,192,137203,128,0,137536:0:0:0:0:
192,192,137286,128,0,137536:0:0:0:0:
320,192,137286,128,0,137536:0:0:0:0:
64,192,137286,128,0,137536:0:0:0:0:
64,192,137620,1,0,0:0:0:0:
192,192,137620,128,0,137703:0:0:0:0:
448,192,137620,128,0,138036:0:0:0:0:
320,192,137620,128,0,137870:0:0:0:0:
64,192,137786,1,0,0:0:0:0:
192,192,137786,1,0,0:0:0:0:
192,192,137953,1,0,0:0:0:0:
320,192,137953,1,0,0:0:0:0:
64,192,137953,128,0,138203:0:0:0:0:
320,192,138120,1,0,0:0:0:0:
448,192,138120,1,0,0:0:0:0:
192,192,138120,128,0,138203:0:0:0:0:
448,192,138286,128,0,138703:0:0:0:0:
64,192,138286,128,0,138536:0:0:0:0:
192,192,138286,128,0,138536:0:0:0:0:
320,192,138286,128,0,138536:0:0:0:0:
64,192,138620,128,0,138703:0:0:0:0:
192,192,138620,1,0,0:0:0:0:
320,192,138620,128,0,138703:0:0:0:0:
64,192,138786,128,0,139203:0:0:0:0:
192,192,138786,128,0,139036:0:0:0:0:
320,192,138786,128,0,139036:0:0:0:0:
448,192,138786,128,0,139036:0:0:0:0:
448,192,139120,128,0,139203:0:0:0:0:
192,192,139120,128,0,139203:0:0:0:0:
320,192,139120,1,0,0:0:0:0:
64,192,139286,128,0,139703:0:0:0:0:
192,192,139286,128,0,139453:0:0:0:0:
320,192,139286,128,0,139370:0:0:0:0:
448,192,139286,1,0,0:0:0:0:
320,192,139453,1,0,0:0:0:0:
448,192,139453,128,0,139703:0:0:0:0:
192,192,139620,1,0,0:0:0:0:
320,192,139620,128,0,139786:0:0:0:0:
64,192,139786,1,0,0:0:0:0:
192,192,139786,128,0,140036:0:0:0:0:
448,192,139786,1,0,0:0:0:0:
320,192,139870,128,0,139953:0:0:0:0:
448,192,139953,128,0,140120:0:0:0:0:
64,192,139953,128,0,140036:0:0:0:0:
64,192,140120,128,0,140286:0:0:0:0:
192,192,140120,128,0,140203:0:0:0:0:
320,192,140120,1,0,0:0:0:0:
320,192,140286,128,0,140370:0:0:0:0:
448,192,140286,128,0,140453:0:0:0:0:
192,192,140286,1,0,0:0:0:0:
320,192,140453,1,0,0:0:0:0:
64,192,140453,128,0,140620:0:0:0:0:
192,192,140453,128,0,140536:0:0:0:0:
320,192,140620,128,0,140786:0:0:0:0:
448,192,140620,128,0,140703:0:0:0:0:
192,192,140620,1,0,0:0:0:0:
192,192,140786,128,0,140953:0:0:0:0:
64,192,140786,128,0,140870:0:0:0:0:
448,192,140786,1,0,0:0:0:0:
320,192,140953,128,0,141120:0:0:0:0:
448,192,140953,128,0,141036:0:0:0:0:
64,192,140953,1,0,0:0:0:0:
192,192,141120,128,0,141370:0:0:0:0:
64,192,141120,128,0,141203:0:0:0:0:
448,192,141120,1,0,0:0:0:0:
320,192,141286,128,0,141536:0:0:0:0:
448,192,141286,128,0,141370:0:0:0:0:
64,192,141286,1,0,0:0:0:0:
64,192,141453,128,0,141703:0:0:0:0:
192,192,141453,128,0,141536:0:0:0:0:
448,192,141453,128,0,141536:0:0:0:0:
320,192,141620,128,0,141703:0:0:0:0:
448,192,141620,128,0,141870:0:0:0:0:
192,192,141620,128,0,141703:0:0:0:0:
192,192,141786,128,0,142036:0:0:0:0:
64,192,141786,128,0,141870:0:0:0:0:
320,192,141786,128,0,141953:0:0:0:0:
448,192,141953,128,0,142120:0:0:0:0:
64,192,141953,128,0,142036:0:0:0:0:
320,192,142036,128,0,142203:0:0:0:0:
64,192,142120,128,0,142286:0:0:0:0:
192,192,142120,128,0,142203:0:0:0:0:
448,192,142203,128,0,142370:0:0:0:0:
192,192,142286,128,0,142453:0:0:0:0:
320,192,142286,128,0,142370:0:0:0:0:
64,192,142370,128,0,142536:0:0:0:0:
320,192,142453,128,0,142536:0:0:0:0:
448,192,142453,128,0,142536:0:0:0:0:
192,192,142536,128,0,142620:0:0:0:0:
448,192,142620,1,0,0:0:0:0:
320,192,142620,128,0,142953:0:0:0:0:
64,192,142620,1,0,0:0:0:0:
192,192,142703,1,0,0:0:0:0:
64,192,142786,1,0,0:0:0:0:
448,192,142786,128,0,142870:0:0:0:0:
192,192,142870,128,0,143036:0:0:0:0:
64,192,142953,128,0,143036:0:0:0:0:
448,192,142953,1,0,0:0:0:0:
320,192,143036,128,0,143203:0:0:0:0:
448,192,143120,128,0,143286:0:0:0:0:
192,192,143120,1,0,0:0:0:0:
64,192,143203,128,0,143453:0:0:0:0:
192,192,143286,128,0,143370:0:0:0:0:
448,192,143370,128,0,143620:0:0:0:0:
320,192,143453,128,0,143536:0:0:0:0:
64,192,143536,128,0,143786:0:0:0:0:
192,192,143620,128,0,143703:0:0:0:0:
448,192,143703,128,0,143870:0:0:0:0:
320,192,143786,128,0,143870:0:0:0:0:
64,192,143870,128,0,144036:0:0:0:0:
448,192,143953,128,0,144036:0:0:0:0:
192,192,143953,128,0,144036:0:0:0:0:
320,192,144036,128,0,144203:0:0:0:0:
192,192,144120,128,0,144286:0:0:0:0:
448,192,144120,1,0,0:0:0:0:
64,192,144203,128,0,144370:0:0:0:0:
320,192,144286,1,0,0:0:0:0:
448,192,144286,128,0,144453:0:0:0:0:
192,192,144370,128,0,144536:0:0:0:0:
320,192,144453,128,0,144620:0:0:0:0:
64,192,144453,1,0,0:0:0:0:
448,192,144536,128,0,144703:0:0:0:0:
64,192,144620,128,0,144786:0:0:0:0:
192,192,144620,1,0,0:0:0:0:
320,192,144703,128,0,144786:0:0:0:0:
448,192,144786,1,0,0:0:0:0:
192,192,144786,128,0,144953:0:0:0:0:
64,192,144870,1,0,0:0:0:0:
320,192,144953,128,0,145120:0:0:0:0:
448,192,144953,1,0,0:0:0:0:
192,192,145036,128,0,145203:0:0:0:0:
64,192,145120,128,0,145203:0:0:0:0:
448,192,145120,128,0,145203:0:0:0:0:
320,192,145203,1,0,0:0:0:0:
192,192,145286,128,0,145370:0:0:0:0:
64,192,145286,1,0,0:0:0:0:
448,192,145286,128,0,145370:0:0:0:0:
320,192,145370,128,0,145536:0:0:0:0:
192,192,145453,128,0,145620:0:0:0:0:
448,192,145453,1,0,0:0:0:0:
64,192,145536,128,0,145703:0:0:0:0:
320,192,145620,128,0,145703:0:0:0:0:
448,192,145620,1,0,0:0:0:0:
192,192,145703,128,0,145870:0:0:0:0:
320,192,145786,128,0,145953:0:0:0:0:
64,192,145786,1,0,0:0:0:0:
448,192,145870,128,0,146036:0:0:0:0:
192,192,145953,1,0,0:0:0:0:
64,192,145953,128,0,146036:0:0:0:0:
320,192,146036,128,0,146120:0:0:0:0:
192,192,146120,128,0,146203:0:0:0:0:
448,192,146120,1,0,0:0:0:0:
64,192,146120,1,0,0:0:0:0:
320,192,146203,128,0,146286:0:0:0:0:
64,192,146286,128,0,146370:0:0:0:0:
448,192,146286,128,0,146370:0:0:0:0:
192,192,146370,128,0,146536:0:0:0:0:
448,192,146453,128,0,146703:0:0:0:0:
64,192,146453,1,0,0:0:0:0:
320,192,146536,128,0,146620:0:0:0:0:
192,192,146620,128,0,146870:0:0:0:0:
64,192,146620,1,0,0:0:0:0:
320,192,146703,1,0,0:0:0:0:
448,192,146786,128,0,146953:0:0:0:0:
64,192,146786,128,0,146870:0:0:0:0:
320,192,146870,128,0,147036:0:0:0:0:
192,192,146953,128,0,147203:0:0:0:0:
64,192,146953,1,0,0:0:0:0:
448,192,147036,1,0,0:0:0:0:
320,192,147120,128,0,147286:0:0:0:0:
64,192,147120,128,0,147203:0:0:0:0:
448,192,147203,128,0,147286:0:0:0:0:
64,192,147286,128,0,147370:0:0:0:0:
192,192,147286,1,0,0:0:0:0:
320,192,147370,128,0,147453:0:0:0:0:
448,192,147370,1,0,0:0:0:0:
192,192,147453,128,0,147536:0:0:0:0:
64,192,147453,1,0,0:0:0:0:
448,192,147536,128,0,147620:0:0:0:0:
320,192,147536,1,0,0:0:0:0:
64,192,147620,128,0,147703:0:0:0:0:
192,192,147661,1,0,0:0:0:0:
320,192,147703,128,0,147786:0:0:0:0:
448,192,147745,1,0,0:0:0:0:
64,192,147786,1,0,0:0:0:0:
64,192,147953,128,0,148453:0:0:0:0:
192,192,147953,128,0,148286:0:0:0:0:
320,192,147953,128,0,148120:0:0:0:0:
448,192,147953,1,0,0:0:0:0:
320,192,148286,1,0,0:0:0:0:
448,192,148286,1,0,0:0:0:0:
448,192,148453,128,0,148870:0:0:0:0:
192,192,148453,1,0,0:0:0:0:
320,192,148453,1,0,0:0:0:0:
320,192,148620,128,0,148870:0:0:0:0:
64,192,148620,1,0,0:0:0:0:
192,192,148620,1,0,0:0:0:0:
64,192,148786,128,0,148870:0:0:0:0:
192,192,148786,1,0,0:0:0:0:
64,192,148953,128,0,149203:0:0:0:0:
320,192,148953,128,0,149370:0:0:0:0:
192,192,148953,128,0,149370:0:0:0:0:
448,192,148953,128,0,149203:0:0:0:0:
64,192,149286,128,0,149536:0:0:0:0:
448,192,149286,128,0,149536:0:0:0:0:
192,192,149453,128,0,149536:0:0:0:0:
320,192,149453,128,0,149536:0:0:0:0:
192,192,149620,128,0,150120:0:0:0:0:
320,192,149620,128,0,149953:0:0:0:0:
448,192,149620,128,0,149786:0:0:0:0:
64,192,149620,128,0,150286:0:0:0:0:
448,192,149953,1,0,0:0:0:0:
320,192,150120,1,0,0:0:0:0:
448,192,150120,128,0,150203:0:0:0:0:
192,192,150286,1,0,0:0:0:0:
320,192,150286,128,0,150370:0:0:0:0:
448,192,150286,1,0,0:0:0:0:
64,192,150453,1,0,0:0:0:0:
192,192,150453,128,0,150536:0:0:0:0:
448,192,150453,128,0,150536:0:0:0:0:
320,192,150453,1,0,0:0:0:0:
320,192,150620,128,0,150786:0:0:0:0:
448,192,150620,128,0,150661:0:0:0:0:
64,192,150620,1,0,0:0:0:0:
192,192,150620,1,0,0:0:0:0:
192,192,150786,128,0,150953:0:0:0:0:
64,192,150786,128,0,150828:0:0:0:0:
448,192,150786,1,0,0:0:0:0:
320,192,150953,128,0,151120:0:0:0:0:
448,192,150953,128,0,150995:0:0:0:0:
64,192,150953,1,0,0:0:0:0:
448,192,151120,1,0,0:0:0:0:
192,192,151120,128,0,151286:0:0:0:0:
64,192,151120,128,0,151161:0:0:0:0:
320,192,151286,128,0,151328:0:0:0:0:
448,192,151286,128,0,151453:0:0:0:0:
64,192,151286,1,0,0:0:0:0:
64,192,151453,128,0,151620:0:0:0:0:
192,192,151453,128,0,151495:0:0:0:0:
320,192,151453,1,0,0:0:0:0:
320,192,151620,128,0,151661:0:0:0:0:
448,192,151620,128,0,151786:0:0:0:0:
192,192,151620,1,0,0:0:0:0:
64,192,151786,128,0,151953:0:0:0:0:
192,192,151786,128,0,151828:0:0:0:0:
320,192,151786,1,0,0:0:0:0:
448,192,151953,128,0,152203:0:0:0:0:
192,192,151953,128,0,152036:0:0:0:0:
320,192,151953,128,0,151995:0:0:0:0:
320,192,152120,128,0,152370:0:0:0:0:
64,192,152120,128,0,152203:0:0:0:0:
192,192,152286,128,0,152536:0:0:0:0:
64,192,152286,1,0,0:0:0:0:
448,192,152286,128,0,152370:0:0:0:0:
64,192,152453,128,0,152703:0:0:0:0:
448,192,152453,1,0,0:0:0:0:
320,192,152453,128,0,152536:0:0:0:0:
448,192,152620,128,0,152870:0:0:0:0:
320,192,152620,1,0,0:0:0:0:
192,192,152620,128,0,152703:0:0:0:0:
320,192,152786,128,0,153036:0:0:0:0:
64,192,152786,128,0,152870:0:0:0:0:
192,192,152953,128,0,153203:0:0:0:0:
64,192,152953,1,0,0:0:0:0:
448,192,152953,128,0,153036:0:0:0:0:
64,192,153120,128,0,153370:0:0:0:0:
448,192,153120,1,0,0:0:0:0:
320,192,153120,128,0,153203:0:0:0:0:
192,192,153286,128,0,153370:0:0:0:0:
448,192,153286,128,0,153536:0:0:0:0:
320,192,153370,1,0,0:0:0:0:
64,192,153453,128,0,153703:0:0:0:0:
192,192,153453,1,0,0:0:0:0:
320,192,153536,128,0,153620:0:0:0:0:
448,192,153620,128,0,153870:0:0:0:0:
192,192,153620,1,0,0:0:0:0:
320,192,153703,1,0,0:0:0:0:
192,192,153786,128,0,153870:0:0:0:0:
64,192,153786,128,0,153870:0:0:0:0:
320,192,153870,1,0,0:0:0:0:
448,192,153953,128,0,154120:0:0:0:0:
192,192,153953,1,0,0:0:0:0:
64,192,153995,1,0,0:0:0:0:
192,192,154120,128,0,154245:0:0:0:0:
64,192,154203,128,0,154453:0:0:0:0:
320,192,154203,1,0,0:0:0:0:
448,192,154245,1,0,0:0:0:0:
320,192,154370,128,0,154495:0:0:0:0:
192,192,154453,128,0,154536:0:0:0:0:
448,192,154453,1,0,0:0:0:0:
64,192,154536,128,0,154703:0:0:0:0:
320,192,154620,128,0,154703:0:0:0:0:
448,192,154620,1,0,0:0:0:0:
192,192,154703,128,0,154870:0:0:0:0:
448,192,154786,128,0,154870:0:0:0:0:
64,192,154786,1,0,0:0:0:0:
320,192,154870,128,0,155036:0:0:0:0:
64,192,154953,128,0,155036:0:0:0:0:
448,192,154953,1,0,0:0:0:0:
192,192,155036,128,0,155203:0:0:0:0:
448,192,155120,128,0,155203:0:0:0:0:
64,192,155120,1,0,0:0:0:0:
320,192,155203,128,0,155370:0:0:0:0:
64,192,155286,128,0,155453:0:0:0:0:
192,192,155342,128,0,155398:0:0:0:0:
448,192,155370,128,0,155536:0:0:0:0:
320,192,155453,128,0,155509:0:0:0:0:
192,192,155509,128,0,155675:0:0:0:0:
64,192,155564,128,0,155620:0:0:0:0:
320,192,155620,128,0,155786:0:0:0:0:
448,192,155675,128,0,155731:0:0:0:0:
64,192,155731,128,0,155898:0:0:0:0:
192,192,155786,128,0,155842:0:0:0:0:
320,192,155842,128,0,155953:0:0:0:0:
448,192,155898,128,0,155953:0:0:0:0:
64,192,155953,1,0,0:0:0:0:
192,192,155953,128,0,156120:0:0:0:0:
320,192,156036,128,0,156286:0:0:0:0:
448,192,156120,128,0,156203:0:0:0:0:
64,192,156120,1,0,0:0:0:0:
192,192,156203,128,0,156370:0:0:0:0:
64,192,156286,128,0,156453:0:0:0:0:
448,192,156286,1,0,0:0:0:0:
320,192,156370,1,0,0:0:0:0:
448,192,156453,128,0,156536:0:0:0:0:
192,192,156453,1,0,0:0:0:0:
64,192,156536,1,0,0:0:0:0:
320,192,156620,1,0,0:0:0:0:
448,192,156620,1,0,0:0:0:0:
192,192,156703,1,0,0:0:0:0:
64,192,156703,1,0,0:0:0:0:
320,192,156786,1,0,0:0:0:0:
448,192,156786,1,0,0:0:0:0:
64,192,156870,1,0,0:0:0:0:
192,192,156870,1,0,0:0:0:0:
320,192,156953,1,0,0:0:0:0:
448,192,156953,1,0,0:0:0:0:
64,192,157036,1,0,0:0:0:0:
192,192,157036,1,0,0:0:0:0:
320,192,157120,1,0,0:0:0:0:
448,192,157120,1,0,0:0:0:0:
64,192,157203,1,0,0:0:0:0:
192,192,157203,1,0,0:0:0:0:
448,192,157286,128,0,157370:0:0:0:0:
320,192,157286,128,0,157370:0:0:0:0:
192,192,157370,128,0,157453:0:0:0:0:
64,192,157370,128,0,157453:0:0:0:0:
448,192,157453,128,0,157536:0:0:0:0:
320,192,157453,128,0,157536:0:0:0:0:
192,192,157536,128,0,157620:0:0:0:0:
64,192,157536,128,0,157620:0:0:0:0:
448,192,157620,128,0,157703:0:0:0:0:
320,192,157620,128,0,157703:0:0:0:0:
192,192,157703,128,0,157786:0:0:0:0:
64,192,157703,128,0,157786:0:0:0:0:
448,192,157786,128,0,157870:0:0:0:0:
320,192,157786,128,0,157870:0:0:0:0:
192,192,157870,128,0,157953:0:0:0:0:
64,192,157870,128,0,157953:0:0:0:0:
448,192,157953,128,0,158078:0:0:0:0:
320,192,157953,128,0,158078:0:0:0:0:
192,192,158036,128,0,158161:0:0:0:0:
64,192,158036,128,0,158161:0:0:0:0:
448,192,158120,128,0,158245:0:0:0:0:
320,192,158120,128,0,158245:0:0:0:0:
192,192,158203,128,0,158328:0:0:0:0:
64,192,158203,128,0,158328:0:0:0:0:
448,192,158286,128,0,158411:0:0:0:0:
320,192,158286,128,0,158411:0:0:0:0:
192,192,158370,128,0,158495:0:0:0:0:
64,192,158370,128,0,158495:0:0:0:0:
448,192,158453,128,0,158578:0:0:0:0:
320,192,158453,128,0,158578:0:0:0:0:
64,192,158536,128,0,158620:0:0:0:0:
192,192,158536,128,0,158620:0:0:0:0:
320,192,158620,128,0,166495:0:0:0:0:
448,192,158620,128,0,166578:0:0:0:0:
64,192,161536,128,0,166578:0:0:0:0:
192,192,161536,1,0,0:0:0:0:
192,192,162953,128,0,166536:0:0:0:0:
320,192,166536,1,0,0:0:0:0:
192,192,166578,1,0,0:0:0:0:
64,192,166620,1,0,0:0:0:0:
448,192,166620,1,0,0:0:0:0:
320,192,167266,1,0,0:0:0:0:
448,192,167286,1,0,0:0:0:0:
64,192,167286,1,0,0:0:0:0:
192,192,167286,1,0,0:0:0:0:
320,192,167828,1,0,0:0:0:0:
192,192,167891,1,0,0:0:0:0:
448,192,167953,1,0,0:0:0:0:
64,192,167953,1,0,0:0:0:0:
192,192,169203,1,0,0:0:0:0:
320,192,169245,1,0,0:0:0:0:
448,192,169286,1,0,0:0:0:0:
64,192,169286,1,0,0:0:0:0:
320,192,169870,1,0,0:0:0:0:
192,192,169911,1,0,0:0:0:0:
448,192,169953,1,0,0:0:0:0:
64,192,169953,1,0,0:0:0:0:
192,192,170495,1,0,0:0:0:0:
320,192,170557,1,0,0:0:0:0:
448,192,170620,1,0,0:0:0:0:
64,192,170620,1,0,0:0:0:0:
320,192,171203,1,0,0:0:0:0:
192,192,171245,1,0,0:0:0:0:
448,192,171286,128,0,171786:0:0:0:0:
64,192,171286,128,0,171786:0:0:0:0:
320,192,171786,1,0,0:0:0:0:
64,192,171953,1,0,0:0:0:0:
192,192,171953,1,0,0:0:0:0:
448,192,171953,1,0,0:0:0:0:
320,192,172120,1,0,0:0:0:0:
64,192,172286,1,0,0:0:0:0:
448,192,172453,1,0,0:0:0:0:
192,192,172620,1,0,0:0:0:0:
192,192,172786,1,0,0:0:0:0:
320,192,172953,1,0,0:0:0:0:
448,192,172953,1,0,0:0:0:0:
320,192,173120,1,0,0:0:0:0:
192,192,173120,1,0,0:0:0:0:
448,192,173286,128,0,173620:0:0:0:0:
64,192,173286,128,0,173620:0:0:0:0:
192,192,173620,1,0,0:0:0:0:
320,192,173786,1,0,0:0:0:0:
64,192,173953,128,0,174286:0:0:0:0:
448,192,173953,128,0,174286:0:0:0:0:
192,192,174286,1,0,0:0:0:0:
320,192,174286,1,0,0:0:0:0:
192,192,174453,1,0,0:0:0:0:
320,192,174453,1,0,0:0:0:0:
64,192,174620,128,0,174870:0:0:0:0:
192,192,174620,128,0,174870:0:0:0:0:
448,192,174620,1,0,0:0:0:0:
448,192,174786,128,0,174870:0:0:0:0:
64,192,174953,1,0,0:0:0:0:
320,192,174953,128,0,175203:0:0:0:0:
448,192,174953,128,0,175203:0:0:0:0:
64,192,175120,128,0,175203:0:0:0:0:
448,192,175286,1,0,0:0:0:0:
64,192,175286,1,0,0:0:0:0:
320,192,175286,128,0,175536:0:0:0:0:
192,192,175286,128,0,175536:0:0:0:0:
64,192,175453,128,0,175536:0:0:0:0:
448,192,175453,128,0,175536:0:0:0:0:
320,192,175620,1,0,0:0:0:0:
192,192,175620,1,0,0:0:0:0:
448,192,175620,128,0,175870:0:0:0:0:
64,192,175620,128,0,175870:0:0:0:0:
192,192,175786,128,0,175870:0:0:0:0:
320,192,175786,128,0,175870:0:0:0:0:
192,192,175953,128,0,176203:0:0:0:0:
64,192,175953,128,0,176203:0:0:0:0:
448,192,175953,128,0,176036:0:0:0:0:
320,192,175953,128,0,176036:0:0:0:0:
320,192,176120,128,0,176203:0:0:0:0:
448,192,176120,128,0,176203:0:0:0:0:
192,192,176286,128,0,176370:0:0:0:0:
64,192,176286,128,0,176370:0:0:0:0:
448,192,176286,128,0,176536:0:0:0:0:
320,192,176286,128,0,176536:0:0:0:0:
64,192,176453,128,0,176536:0:0:0:0:
192,192,176453,128,0,176536:0:0:0:0:
320,192,176620,128,0,176745:0:0:0:0:
192,192,176620,128,0,176745:0:0:0:0:
448,192,176620,128,0,176911:0:0:0:0:
64,192,176620,128,0,176911:0:0:0:0:
192,192,176786,128,0,176911:0:0:0:0:
320,192,176786,128,0,176911:0:0:0:0:
448,192,176953,128,0,177078:0:0:0:0:
64,192,176953,128,0,177078:0:0:0:0:
320,192,176953,128,0,177245:0:0:0:0:
192,192,176953,128,0,177245:0:0:0:0:
64,192,177120,128,0,177245:0:0:0:0:
448,192,177120,128,0,177245:0:0:0:0:
64,192,177286,128,0,177536:0:0:0:0:
192,192,177286,128,0,177536:0:0:0:0:
320,192,177286,128,0,177536:0:0:0:0:
448,192,177286,128,0,177536:0:0:0:0:
320,192,177599,1,0,0:0:0:0:
448,192,177620,1,0,0:0:0:0:
320,192,177932,1,0,0:0:0:0:
192,192,177953,1,0,0:0:0:0:
64,192,178266,1,0,0:0:0:0:
448,192,178286,1,0,0:0:0:0:
320,192,178599,1,0,0:0:0:0:
192,192,178620,1,0,0:0:0:0:
320,192,178911,1,0,0:0:0:0:
448,192,178932,1,0,0:0:0:0:
64,192,179245,1,0,0:0:0:0:
320,192,179266,1,0,0:0:0:0:
192,192,179599,1,0,0:0:0:0:
64,192,179620,1,0,0:0:0:0:
448,192,179620,1,0,0:0:0:0:
192,192,179932,1,0,0:0:0:0:
320,192,179953,1,0,0:0:0:0:
64,192,180266,1,0,0:0:0:0:
448,192,180286,1,0,0:0:0:0:
320,192,180620,1,0,0:0:0:0:
192,192,180641,1,0,0:0:0:0:
320,192,180870,1,0,0:0:0:0:
64,192,180953,1,0,0:0:0:0:
448,192,180953,1,0,0:0:0:0:
192,192,181245,1,0,0:0:0:0:
448,192,181266,1,0,0:0:0:0:
64,192,181599,1,0,0:0:0:0:
320,192,181620,1,0,0:0:0:0:
64,192,181953,1,0,0:0:0:0:
192,192,182120,1,0,0:0:0:0:
320,192,182286,1,0,0:0:0:0:
448,192,182453,1,0,0:0:0:0:
320,192,182599,1,0,0:0:0:0:
64,192,182620,1,0,0:0:0:0:
64,192,183286,1,0,0:0:0:0:
192,192,183286,1,0,0:0:0:0:
320,192,183620,1,0,0:0:0:0:
320,192,183786,1,0,0:0:0:0:
64,192,183953,1,0,0:0:0:0:
192,192,183953,1,0,0:0:0:0:
64,192,184620,1,0,0:0:0:0:
448,192,184620,1,0,0:0:0:0:
192,192,184953,1,0,0:0:0:0:
192,192,185120,1,0,0:0:0:0:
320,192,185286,1,0,0:0:0:0:
448,192,185286,1,0,0:0:0:0:
320,192,185953,1,0,0:0:0:0:
448,192,185953,1,0,0:0:0:0:
192,192,186286,1,0,0:0:0:0:
192,192,186453,1,0,0:0:0:0:
320,192,186620,1,0,0:0:0:0:
448,192,186641,1,0,0:0:0:0:
320,192,186953,1,0,0:0:0:0:
192,192,186974,1,0,0:0:0:0:
320,192,187286,1,0,0:0:0:0:
448,192,187307,1,0,0:0:0:0:
192,192,187620,1,0,0:0:0:0:
192,192,187786,1,0,0:0:0:0:
448,192,187953,1,0,0:0:0:0:
64,192,187953,1,0,0:0:0:0:
320,192,187953,1,0,0:0:0:0:
64,192,188620,1,0,0:0:0:0:
192,192,188620,1,0,0:0:0:0:
64,192,188953,1,0,0:0:0:0:
192,192,188953,1,0,0:0:0:0:
320,192,189120,1,0,0:0:0:0:
448,192,189286,1,0,0:0:0:0:
320,192,189286,1,0,0:0:0:0:
320,192,189953,1,0,0:0:0:0:
448,192,189953,1,0,0:0:0:0:
64,192,189953,1,0,0:0:0:0:
192,192,190286,1,0,0:0:0:0:
192,192,190453,5,0,0:0:0:0:
192,192,190620,128,0,190870:0:0:0:0:
320,192,190620,1,0,0:0:0:0:
64,192,190620,1,0,0:0:0:0:
448,192,190620,1,0,0:0:0:0:
320,192,190953,128,0,191203:0:0:0:0:
64,192,190953,1,0,0:0:0:0:
448,192,190953,1,0,0:0:0:0:
192,192,190953,1,0,0:0:0:0:
64,192,191286,1,0,0:0:0:0:
448,192,191286,1,0,0:0:0:0:
192,192,191286,1,0,0:0:0:0:
320,192,191286,1,0,0:0:0:0:
192,192,191620,128,0,192203:0:0:0:0:
64,192,191620,128,0,192203:0:0:0:0:
320,192,191620,128,0,192203:0:0:0:0:
448,192,191620,128,0,192203:0:0:0:0:
64,192,192286,1,0,0:0:0:0:
192,192,192286,128,0,192370:0:0:0:0:
320,192,192370,1,0,0:0:0:0:
64,192,192453,1,0,0:0:0:0:
448,192,192453,128,0,192536:0:0:0:0:
192,192,192536,1,0,0:0:0:0:
448,192,192620,1,0,0:0:0:0:
320,192,192620,128,0,192703:0:0:0:0:
64,192,192620,128,0,192703:0:0:0:0:
192,192,192703,128,0,192870:0:0:0:0:
448,192,192786,128,0,192870:0:0:0:0:
64,192,192786,1,0,0:0:0:0:
320,192,192870,128,0,193036:0:0:0:0:
448,192,192953,1,0,0:0:0:0:
64,192,192953,128,0,193036:0:0:0:0:
192,192,193036,128,0,193203:0:0:0:0:
448,192,193120,128,0,193203:0:0:0:0:
64,192,193120,1,0,0:0:0:0:
320,192,193203,128,0,193370:0:0:0:0:
192,192,193286,128,0,193703:0:0:0:0:
64,192,193286,128,0,193370:0:0:0:0:
448,192,193370,1,0,0:0:0:0:
64,192,193453,1,0,0:0:0:0:
320,192,193453,1,0,0:0:0:0:
448,192,193536,1,0,0:0:0:0:
320,192,193620,128,0,193786:0:0:0:0:
64,192,193620,128,0,193703:0:0:0:0:
448,192,193703,128,0,193953:0:0:0:0:
192,192,193786,1,0,0:0:0:0:
64,192,193786,1,0,0:0:0:0:
320,192,193870,128,0,193953:0:0:0:0:
192,192,193953,128,0,194370:0:0:0:0:
64,192,193953,128,0,194036:0:0:0:0:
320,192,194036,1,0,0:0:0:0:
448,192,194120,1,0,0:0:0:0:
64,192,194120,1,0,0:0:0:0:
320,192,194203,128,0,194286:0:0:0:0:
64,192,194286,128,0,194370:0:0:0:0:
448,192,194286,128,0,194453:0:0:0:0:
320,192,194370,128,0,194536:0:0:0:0:
192,192,194453,128,0,194536:0:0:0:0:
64,192,194453,128,0,194620:0:0:0:0:
448,192,194536,128,0,194703:0:0:0:0:
320,192,194620,128,0,194703:0:0:0:0:
192,192,194620,128,0,194786:0:0:0:0:
64,192,194703,128,0,194870:0:0:0:0:
320,192,194786,128,0,194953:0:0:0:0:
448,192,194786,128,0,194870:0:0:0:0:
192,192,194870,128,0,195036:0:0:0:0:
64,192,194953,128,0,195036:0:0:0:0:
448,192,194953,128,0,195120:0:0:0:0:
320,192,195036,128,0,195203:0:0:0:0:
192,192,195120,128,0,195203:0:0:0:0:
64,192,195120,128,0,195203:0:0:0:0:
448,192,195203,128,0,195370:0:0:0:0:
192,192,195286,128,0,195370:0:0:0:0:
64,192,195286,1,0,0:0:0:0:
320,192,195370,128,0,195536:0:0:0:0:
448,192,195453,1,0,0:0:0:0:
64,192,195453,128,0,195536:0:0:0:0:
192,192,195536,128,0,195703:0:0:0:0:
448,192,195620,128,0,195703:0:0:0:0:
64,192,195620,1,0,0:0:0:0:
320,192,195703,128,0,195870:0:0:0:0:
448,192,195786,1,0,0:0:0:0:
64,192,195786,128,0,195870:0:0:0:0:
192,192,195870,128,0,196036:0:0:0:0:
448,192,195953,128,0,196036:0:0:0:0:
320,192,195953,128,0,196370:0:0:0:0:
64,192,196036,1,0,0:0:0:0:
192,192,196120,1,0,0:0:0:0:
448,192,196120,1,0,0:0:0:0:
64,192,196203,1,0,0:0:0:0:
192,192,196286,128,0,196453:0:0:0:0:
448,192,196286,128,0,196370:0:0:0:0:
64,192,196370,128,0,196620:0:0:0:0:
448,192,196453,1,0,0:0:0:0:
320,192,196453,1,0,0:0:0:0:
192,192,196536,128,0,196620:0:0:0:0:
448,192,196620,128,0,196703:0:0:0:0:
320,192,196620,128,0,197036:0:0:0:0:
192,192,196703,1,0,0:0:0:0:
448,192,196786,1,0,0:0:0:0:
64,192,196786,1,0,0:0:0:0:
192,192,196870,1,0,0:0:0:0:
64,192,196953,128,0,197120:0:0:0:0:
448,192,196953,128,0,197036:0:0:0:0:
192,192,197036,128,0,197203:0:0:0:0:
320,192,197120,128,0,197203:0:0:0:0:
448,192,197120,128,0,197286:0:0:0:0:
64,192,197203,128,0,197370:0:0:0:0:
192,192,197286,128,0,197370:0:0:0:0:
320,192,197286,128,0,197453:0:0:0:0:
448,192,197370,128,0,197536:0:0:0:0:
64,192,197453,128,0,197536:0:0:0:0:
192,192,197453,128,0,197620:0:0:0:0:
320,192,197536,128,0,197703:0:0:0:0:
448,192,197620,128,0,197703:0:0:0:0:
64,192,197620,128,0,197786:0:0:0:0:
192,192,197703,128,0,197870:0:0:0:0:
320,192,197786,128,0,197953:0:0:0:0:
448,192,197786,128,0,197870:0:0:0:0:
64,192,197870,128,0,197953:0:0:0:0:
192,192,197953,128,0,198120:0:0:0:0:
448,192,197953,1,0,0:0:0:0:
320,192,198036,128,0,198203:0:0:0:0:
64,192,198120,128,0,198286:0:0:0:0:
448,192,198120,1,0,0:0:0:0:
192,192,198203,128,0,198370:0:0:0:0:
448,192,198286,128,0,198453:0:0:0:0:
320,192,198286,1,0,0:0:0:0:
64,192,198370,128,0,198536:0:0:0:0:
320,192,198453,128,0,198620:0:0:0:0:
192,192,198453,1,0,0:0:0:0:
448,192,198620,128,0,198703:0:0:0:0:
192,192,198620,128,0,198786:0:0:0:0:
64,192,198620,1,0,0:0:0:0:
320,192,198703,128,0,198870:0:0:0:0:
448,192,198786,128,0,198953:0:0:0:0:
64,192,198786,1,0,0:0:0:0:
192,192,198870,1,0,0:0:0:0:
64,192,198953,128,0,199036:0:0:0:0:
320,192,198953,128,0,199120:0:0:0:0:
192,192,199036,128,0,199203:0:0:0:0:
64,192,199120,128,0,199286:0:0:0:0:
448,192,199120,1,0,0:0:0:0:
320,192,199203,1,0,0:0:0:0:
448,192,199286,128,0,199370:0:0:0:0:
192,192,199286,128,0,199453:0:0:0:0:
320,192,199370,128,0,199536:0:0:0:0:
448,192,199453,128,0,199620:0:0:0:0:
64,192,199453,1,0,0:0:0:0:
192,192,199536,1,0,0:0:0:0:
64,192,199620,128,0,199703:0:0:0:0:
320,192,199620,128,0,199786:0:0:0:0:
192,192,199703,128,0,199870:0:0:0:0:
64,192,199786,128,0,199953:0:0:0:0:
448,192,199786,1,0,0:0:0:0:
320,192,199870,1,0,0:0:0:0:
448,192,199953,128,0,200036:0:0:0:0:
192,192,199953,128,0,200120:0:0:0:0:
320,192,200036,128,0,200203:0:0:0:0:
448,192,200120,128,0,200286:0:0:0:0:
64,192,200120,1,0,0:0:0:0:
192,192,200203,1,0,0:0:0:0:
320,192,200286,128,0,200453:0:0:0:0:
64,192,200286,128,0,200370:0:0:0:0:
192,192,200370,128,0,200536:0:0:0:0:
64,192,200453,128,0,200620:0:0:0:0:
448,192,200453,1,0,0:0:0:0:
320,192,200536,1,0,0:0:0:0:
448,192,200620,128,0,200703:0:0:0:0:
192,192,200620,128,0,200786:0:0:0:0:
320,192,200703,128,0,200870:0:0:0:0:
448,192,200786,128,0,200953:0:0:0:0:
64,192,200786,1,0,0:0:0:0:
192,192,200870,1,0,0:0:0:0:
64,192,200953,128,0,201036:0:0:0:0:
320,192,200953,128,0,201120:0:0:0:0:
192,192,201036,128,0,201203:0:0:0:0:
64,192,201120,128,0,201203:0:0:0:0:
448,192,201120,1,0,0:0:0:0:
448,192,201286,128,0,201536:0:0:0:0:
64,192,201286,128,0,201536:0:0:0:0:
320,192,201286,128,0,201453:0:0:0:0:
192,192,201286,1,0,0:0:0:0:
320,192,201536,1,0,0:0:0:0:
64,192,201620,128,0,201870:0:0:0:0:
192,192,201620,128,0,201786:0:0:0:0:
448,192,201620,128,0,201870:0:0:0:0:
192,192,201870,1,0,0:0:0:0:
320,192,201953,128,0,202120:0:0:0:0:
448,192,201953,128,0,202203:0:0:0:0:
64,192,201953,128,0,202203:0:0:0:0:
320,192,202203,1,0,0:0:0:0:
64,192,202286,128,0,202536:0:0:0:0:
192,192,202286,128,0,202536:0:0:0:0:
448,192,202286,128,0,202536:0:0:0:0:
192,192,202620,128,0,203536:0:0:0:0:
320,192,202620,128,0,203203:0:0:0:0:
448,192,202620,128,0,203870:0:0:0:0:
64,192,202620,128,0,203870:0:0:0:0:
320,192,203286,128,0,203870:0:0:0:0:
192,192,203620,128,0,203870:0:0:0:0:
448,192,203953,128,0,204036:0:0:0:0:
64,192,203953,128,0,204203:0:0:0:0:
320,192,204036,128,0,204120:0:0:0:0:
192,192,204120,128,0,204203:0:0:0:0:
448,192,204120,1,0,0:0:0:0:
320,192,204203,128,0,204286:0:0:0:0:
448,192,204286,128,0,204453:0:0:0:0:
64,192,204286,128,0,204370:0:0:0:0:
192,192,204370,128,0,204453:0:0:0:0:
320,192,204453,128,0,204620:0:0:0:0:
64,192,204453,1,0,0:0:0:0:
448,192,204536,128,0,204703:0:0:0:0:
192,192,204620,128,0,204786:0:0:0:0:
64,192,204620,1,0,0:0:0:0:
320,192,204703,128,0,204870:0:0:0:0:
64,192,204786,128,0,204953:0:0:0:0:
448,192,204786,1,0,0:0:0:0:
192,192,204870,128,0,204953:0:0:0:0:
448,192,204953,128,0,205203:0:0:0:0:
320,192,204953,1,0,0:0:0:0:
320,192,205120,128,0,205203:0:0:0:0:
64,192,205120,1,0,0:0:0:0:
192,192,205203,128,0,205286:0:0:0:0:
64,192,205286,128,0,205453:0:0:0:0:
448,192,205286,128,0,205370:0:0:0:0:
320,192,205370,128,0,205453:0:0:0:0:
192,192,205453,128,0,205620:0:0:0:0:
448,192,205453,1,0,0:0:0:0:
64,192,205536,128,0,205703:0:0:0:0:
320,192,205620,128,0,205786:0:0:0:0:
448,192,205620,1,0,0:0:0:0:
192,192,205703,128,0,205870:0:0:0:0:
448,192,205786,128,0,205953:0:0:0:0:
64,192,205786,1,0,0:0:0:0:
320,192,205870,128,0,205953:0:0:0:0:
192,192,205953,1,0,0:0:0:0:
64,192,205953,128,0,206203:0:0:0:0:
192,192,206120,128,0,206370:0:0:0:0:
320,192,206120,1,0,0:0:0:0:
448,192,206120,128,0,206203:0:0:0:0:
320,192,206286,128,0,206536:0:0:0:0:
64,192,206286,1,0,0:0:0:0:
448,192,206286,1,0,0:0:0:0:
448,192,206453,128,0,206703:0:0:0:0:
192,192,206453,1,0,0:0:0:0:
64,192,206453,128,0,206536:0:0:0:0:
192,192,206620,128,0,206703:0:0:0:0:
64,192,206620,1,0,0:0:0:0:
320,192,206703,128,0,206870:0:0:0:0:
64,192,206786,128,0,206870:0:0:0:0:
448,192,206786,1,0,0:0:0:0:
192,192,206870,128,0,207036:0:0:0:0:
448,192,206953,128,0,207036:0:0:0:0:
64,192,206953,1,0,0:0:0:0:
320,192,207036,128,0,207203:0:0:0:0:
64,192,207120,128,0,207203:0:0:0:0:
192,192,207120,1,0,0:0:0:0:
448,192,207203,128,0,207370:0:0:0:0:
192,192,207286,128,0,207370:0:0:0:0:
64,192,207286,1,0,0:0:0:0:
320,192,207370,128,0,207536:0:0:0:0:
64,192,207453,128,0,207536:0:0:0:0:
448,192,207453,1,0,0:0:0:0:
192,192,207536,128,0,207703:0:0:0:0:
448,192,207620,128,0,207786:0:0:0:0:
320,192,207620,1,0,0:0:0:0:
64,192,207703,128,0,207870:0:0:0:0:
320,192,207786,128,0,207870:0:0:0:0:
192,192,207786,1,0,0:0:0:0:
448,192,207870,128,0,208064:0:0:0:0:
64,192,207953,128,0,208120:0:0:0:0:
192,192,208009,128,0,208064:0:0:0:0:
320,192,208064,128,0,208231:0:0:0:0:
448,192,208120,128,0,208175:0:0:0:0:
192,192,208175,128,0,208342:0:0:0:0:
64,192,208231,128,0,208286:0:0:0:0:
448,192,208286,128,0,208453:0:0:0:0:
320,192,208342,128,0,208398:0:0:0:0:
192,192,208398,128,0,208564:0:0:0:0:
64,192,208453,128,0,208509:0:0:0:0:
320,192,208509,128,0,208620:0:0:0:0:
448,192,208564,128,0,208620:0:0:0:0:
192,192,208620,128,0,208786:0:0:0:0:
64,192,208620,1,0,0:0:0:0:
320,192,208703,128,0,208870:0:0:0:0:
448,192,208786,128,0,208870:0:0:0:0:
64,192,208786,1,0,0:0:0:0:
192,192,208870,1,0,0:0:0:0:
448,192,208953,1,0,0:0:0:0:
320,192,208953,128,0,209120:0:0:0:0:
64,192,208953,1,0,0:0:0:0:
192,192,209036,128,0,209203:0:0:0:0:
64,192,209120,128,0,209203:0:0:0:0:
448,192,209120,1,0,0:0:0:0:
320,192,209203,1,0,0:0:0:0:
448,192,209286,128,0,209370:0:0:0:0:
64,192,209286,128,0,209370:0:0:0:0:
192,192,209370,128,0,209536:0:0:0:0:
64,192,209453,1,0,0:0:0:0:
448,192,209453,128,0,209536:0:0:0:0:
320,192,209536,128,0,209703:0:0:0:0:
64,192,209620,128,0,209786:0:0:0:0:
192,192,209620,1,0,0:0:0:0:
448,192,209703,128,0,209870:0:0:0:0:
192,192,209786,128,0,209953:0:0:0:0:
320,192,209786,1,0,0:0:0:0:
64,192,209870,1,0,0:0:0:0:
320,192,209953,128,0,210120:0:0:0:0:
448,192,209953,1,0,0:0:0:0:
64,192,210036,128,0,210203:0:0:0:0:
192,192,210036,1,0,0:0:0:0:
448,192,210120,128,0,210203:0:0:0:0:
192,192,210203,128,0,210370:0:0:0:0:
320,192,210203,1,0,0:0:0:0:
448,192,210286,128,0,210370:0:0:0:0:
64,192,210286,1,0,0:0:0:0:
320,192,210370,128,0,210536:0:0:0:0:
64,192,210453,128,0,210536:0:0:0:0:
192,192,210453,1,0,0:0:0:0:
448,192,210536,128,0,210703:0:0:0:0:
192,192,210620,128,0,210703:0:0:0:0:
64,192,210620,1,0,0:0:0:0:
320,192,210703,128,0,210870:0:0:0:0:
448,192,210786,1,0,0:0:0:0:
64,192,210786,128,0,210870:0:0:0:0:
192,192,210870,128,0,211036:0:0:0:0:
448,192,210953,128,0,211120:0:0:0:0:
320,192,210953,1,0,0:0:0:0:
64,192,211036,128,0,211203:0:0:0:0:
192,192,211120,1,0,0:0:0:0:
320,192,211120,128,0,211286:0:0:0:0:
448,192,211203,1,0,0:0:0:0:
192,192,211286,128,0,211453:0:0:0:0:
64,192,211286,1,0,0:0:0:0:
448,192,211370,128,0,211536:0:0:0:0:
320,192,211370,128,0,211453:0:0:0:0:
64,192,211453,128,0,211620:0:0:0:0:
320,192,211536,128,0,211703:0:0:0:0:
192,192,211536,128,0,211620:0:0:0:0:
448,192,211620,128,0,211703:0:0:0:0:
192,192,211703,128,0,211870:0:0:0:0:
64,192,211703,128,0,211786:0:0:0:0:
448,192,211786,128,0,211870:0:0:0:0:
320,192,211786,128,0,211870:0:0:0:0:
64,192,211953,128,0,212370:0:0:0:0:
320,192,211953,128,0,212203:0:0:0:0:
448,192,211953,128,0,212203:0:0:0:0:
192,192,211953,1,0,0:0:0:0:
448,192,212286,128,0,212703:0:0:0:0:
320,192,212286,1,0,0:0:0:0:
192,192,212286,128,0,212370:0:0:0:0:
320,192,212453,128,0,212786:0:0:0:0:
192,192,212453,1,0,0:0:0:0:
64,192,212453,128,0,212536:0:0:0:0:
192,192,212620,128,0,212786:0:0:0:0:
64,192,212620,1,0,0:0:0:0:
64,192,212786,1,0,0:0:0:0:
448,192,212786,1,0,0:0:0:0:
64,192,212953,128,0,213203:0:0:0:0:
192,192,212953,128,0,213203:0:0:0:0:
448,192,212953,128,0,213370:0:0:0:0:
320,192,212953,1,0,0:0:0:0:
320,192,213286,128,0,213370:0:0:0:0:
192,192,213286,1,0,0:0:0:0:
64,192,213286,128,0,213703:0:0:0:0:
448,192,213453,128,0,213536:0:0:0:0:
320,192,213453,1,0,0:0:0:0:
192,192,213453,128,0,213870:0:0:0:0:
448,192,213620,1,0,0:0:0:0:
320,192,213620,128,0,214036:0:0:0:0:
448,192,213786,128,0,214203:0:0:0:0:
64,192,213786,128,0,213870:0:0:0:0:
192,192,213953,128,0,214036:0:0:0:0:
64,192,213953,1,0,0:0:0:0:
320,192,214120,128,0,214203:0:0:0:0:
192,192,214120,1,0,0:0:0:0:
64,192,214120,128,0,214203:0:0:0:0:
448,192,214286,128,0,214536:0:0:0:0:
192,192,214286,128,0,214536:0:0:0:0:
320,192,214286,1,0,0:0:0:0:
64,192,214286,128,0,214536:0:0:0:0:
448,192,214620,128,0,214786:0:0:0:0:
320,192,214620,128,0,214703:0:0:0:0:
64,192,214620,128,0,214786:0:0:0:0:
192,192,214703,1,0,0:0:0:0:
320,192,214786,1,0,0:0:0:0:
448,192,214870,128,0,215036:0:0:0:0:
192,192,214870,1,0,0:0:0:0:
320,192,214953,128,0,215120:0:0:0:0:
64,192,214953,1,0,0:0:0:0:
192,192,215036,128,0,215203:0:0:0:0:
64,192,215120,128,0,215203:0:0:0:0:
448,192,215120,1,0,0:0:0:0:
320,192,215203,1,0,0:0:0:0:
192,192,215286,128,0,215370:0:0:0:0:
64,192,215286,128,0,215453:0:0:0:0:
448,192,215286,128,0,215453:0:0:0:0:
320,192,215370,1,0,0:0:0:0:
192,192,215453,1,0,0:0:0:0:
64,192,215536,128,0,215703:0:0:0:0:
320,192,215536,1,0,0:0:0:0:
192,192,215620,128,0,215786:0:0:0:0:
448,192,215620,1,0,0:0:0:0:
320,192,215703,128,0,215870:0:0:0:0:
448,192,215786,128,0,215870:0:0:0:0:
64,192,215786,1,0,0:0:0:0:
192,192,215870,1,0,0:0:0:0:
448,192,215953,128,0,216120:0:0:0:0:
320,192,215953,128,0,216036:0:0:0:0:
64,192,215953,128,0,216120:0:0:0:0:
192,192,216036,1,0,0:0:0:0:
320,192,216120,1,0,0:0:0:0:
448,192,216203,128,0,216370:0:0:0:0:
192,192,216203,1,0,0:0:0:0:
320,192,216286,128,0,216453:0:0:0:0:
64,192,216286,1,0,0:0:0:0:
192,192,216370,128,0,216536:0:0:0:0:
64,192,216453,128,0,216536:0:0:0:0:
448,192,216453,1,0,0:0:0:0:
320,192,216536,1,0,0:0:0:0:
192,192,216620,128,0,216703:0:0:0:0:
64,192,216620,128,0,216786:0:0:0:0:
448,192,216620,128,0,216786:0:0:0:0:
320,192,216703,1,0,0:0:0:0:
192,192,216786,1,0,0:0:0:0:
64,192,216870,128,0,217036:0:0:0:0:
320,192,216870,1,0,0:0:0:0:
192,192,216953,128,0,217120:0:0:0:0:
448,192,216953,1,0,0:0:0:0:
320,192,217036,128,0,217203:0:0:0:0:
448,192,217120,128,0,217203:0:0:0:0:
64,192,217120,1,0,0:0:0:0:
192,192,217203,1,0,0:0:0:0:
448,192,217286,128,0,217453:0:0:0:0:
64,192,217286,128,0,217453:0:0:0:0:
320,192,217286,128,0,217370:0:0:0:0:
192,192,217370,128,0,217411:0:0:0:0:
320,192,217453,128,0,217495:0:0:0:0:
192,192,217536,128,0,217578:0:0:0:0:
448,192,217536,128,0,217703:0:0:0:0:
64,192,217620,128,0,217661:0:0:0:0:
320,192,217620,128,0,217786:0:0:0:0:
192,192,217703,128,0,217870:0:0:0:0:
64,192,217786,128,0,217870:0:0:0:0:
448,192,217786,1,0,0:0:0:0:
320,192,217870,1,0,0:0:0:0:
448,192,217953,128,0,218120:0:0:0:0:
192,192,217953,128,0,218036:0:0:0:0:
64,192,217953,128,0,218120:0:0:0:0:
320,192,218036,128,0,218078:0:0:0:0:
192,192,218120,128,0,218161:0:0:0:0:
320,192,218203,128,0,218245:0:0:0:0:
64,192,218203,128,0,218370:0:0:0:0:
448,192,218286,128,0,218328:0:0:0:0:
192,192,218286,128,0,218453:0:0:0:0:
320,192,218370,128,0,218536:0:0:0:0:
448,192,218453,128,0,218536:0:0:0:0:
64,192,218453,1,0,0:0:0:0:
192,192,218536,1,0,0:0:0:0:
448,192,218620,128,0,218786:0:0:0:0:
64,192,218620,128,0,218786:0:0:0:0:
320,192,218620,128,0,218703:0:0:0:0:
192,192,218703,128,0,218745:0:0:0:0:
320,192,218786,128,0,218828:0:0:0:0:
192,192,218870,128,0,218911:0:0:0:0:
448,192,218870,128,0,219036:0:0:0:0:
64,192,218953,128,0,218995:0:0:0:0:
320,192,218953,128,0,219120:0:0:0:0:
192,192,219036,128,0,219203:0:0:0:0:
64,192,219120,128,0,219203:0:0:0:0:
448,192,219120,1,0,0:0:0:0:
320,192,219203,1,0,0:0:0:0:
448,192,219286,128,0,219411:0:0:0:0:
64,192,219286,128,0,219578:0:0:0:0:
192,192,219370,1,0,0:0:0:0:
320,192,219453,128,0,219661:0:0:0:0:
448,192,219453,1,0,0:0:0:0:
192,192,219536,128,0,219578:0:0:0:0:
448,192,219620,128,0,219661:0:0:0:0:
64,192,219620,1,0,0:0:0:0:
192,192,219703,128,0,219911:0:0:0:0:
320,192,219703,1,0,0:0:0:0:
64,192,219786,128,0,219828:0:0:0:0:
448,192,219786,1,0,0:0:0:0:
320,192,219870,128,0,219911:0:0:0:0:
64,192,219953,128,0,220231:0:0:0:0:
448,192,219953,128,0,220203:0:0:0:0:
192,192,219995,1,0,0:0:0:0:
320,192,220120,128,0,220286:0:0:0:0:
192,192,220203,128,0,220286:0:0:0:0:
448,192,220286,128,0,220564:0:0:0:0:
64,192,220286,128,0,220536:0:0:0:0:
320,192,220328,1,0,0:0:0:0:
192,192,220453,128,0,220620:0:0:0:0:
320,192,220536,128,0,220620:0:0:0:0:
64,192,220620,128,0,220898:0:0:0:0:
448,192,220620,128,0,220870:0:0:0:0:
192,192,220661,1,0,0:0:0:0:
320,192,220786,128,0,220953:0:0:0:0:
192,192,220870,128,0,220953:0:0:0:0:
448,192,220953,128,0,221203:0:0:0:0:
64,192,220953,128,0,221203:0:0:0:0:
320,192,220995,1,0,0:0:0:0:
192,192,221120,128,0,221203:0:0:0:0:
320,192,221203,128,0,221286:0:0:0:0:
192,192,221286,128,0,221453:0:0:0:0:
64,192,221286,128,0,221370:0:0:0:0:
448,192,221286,1,0,0:0:0:0:
320,192,221370,128,0,221536:0:0:0:0:
448,192,221453,128,0,221620:0:0:0:0:
64,192,221453,1,0,0:0:0:0:
192,192,221536,128,0,221703:0:0:0:0:
64,192,221620,128,0,221786:0:0:0:0:
320,192,221620,1,0,0:0:0:0:
448,192,221703,128,0,221870:0:0:0:0:
320,192,221786,128,0,221870:0:0:0:0:
192,192,221786,1,0,0:0:0:0:
64,192,221870,1,0,0:0:0:0:
320,192,221953,128,0,222120:0:0:0:0:
448,192,221953,128,0,222036:0:0:0:0:
192,192,222036,128,0,222203:0:0:0:0:
64,192,222120,128,0,222286:0:0:0:0:
448,192,222120,1,0,0:0:0:0:
320,192,222203,128,0,222370:0:0:0:0:
448,192,222286,128,0,222370:0:0:0:0:
192,192,222286,128,0,222453:0:0:0:0:
64,192,222370,128,0,222536:0:0:0:0:
320,192,222453,1,0,0:0:0:0:
448,192,222453,1,0,0:0:0:0:
192,192,222536,1,0,0:0:0:0:
320,192,222620,128,0,222786:0:0:0:0:
64,192,222620,128,0,222870:0:0:0:0:
448,192,222620,128,0,222870:0:0:0:0:
320,192,222870,128,0,222953:0:0:0:0:
448,192,222953,128,0,223203:0:0:0:0:
192,192,222953,128,0,223120:0:0:0:0:
64,192,222953,128,0,223203:0:0:0:0:
192,192,223203,128,0,223286:0:0:0:0:
64,192,223286,128,0,223536:0:0:0:0:
448,192,223286,128,0,223536:0:0:0:0:
320,192,223286,128,0,223453:0:0:0:0:
320,192,223536,128,0,223620:0:0:0:0:
448,192,223620,128,0,223870:0:0:0:0:
192,192,223620,128,0,223786:0:0:0:0:
64,192,223620,128,0,223870:0:0:0:0:
192,192,223870,128,0,223953:0:0:0:0:
320,192,223953,128,0,227286:0:0:0:0:
64,192,223953,128,0,227266:0:0:0:0:
448,192,223953,128,0,227266:0:0:0:0:
64,192,227953,5,0,0:0:0:0:
448,192,227953,1,0,0:0:0:0:
192,192,227953,128,0,228620:0:0:0:0:
320,192,228286,128,0,228620:0:0:0:0:
448,192,228286,128,0,228370:0:0:0:0:
448,192,228620,1,0,0:0:0:0:
64,192,228620,1,0,0:0:0:0:
448,192,229286,1,0,0:0:0:0:
64,192,229286,1,0,0:0:0:0:
320,192,229286,128,0,229953:0:0:0:0:
192,192,229620,128,0,229953:0:0:0:0:
64,192,229620,128,0,229703:0:0:0:0:
64,192,229953,1,0,0:0:0:0:
448,192,229953,1,0,0:0:0:0:
64,192,230620,1,0,0:0:0:0:
192,192,230620,128,0,231286:0:0:0:0:
320,192,230620,1,0,0:0:0:0:
448,192,230953,128,0,231286:0:0:0:0:
320,192,230953,128,0,231036:0:0:0:0:
64,192,231286,1,0,0:0:0:0:
320,192,231286,1,0,0:0:0:0:
448,192,231953,1,0,0:0:0:0:
320,192,231953,128,0,232620:0:0:0:0:
192,192,231953,1,0,0:0:0:0:
64,192,232286,128,0,232620:0:0:0:0:
192,192,232286,128,0,232370:0:0:0:0:
192,192,232620,1,0,0:0:0:0:
448,192,232620,1,0,0:0:0:0:
64,192,233286,1,0,0:0:0:0:
448,192,233286,1,0,0:0:0:0:
192,192,233286,128,0,233953:0:0:0:0:
320,192,233620,128,0,233953:0:0:0:0:
448,192,233620,128,0,233703:0:0:0:0:
64,192,233953,1,0,0:0:0:0:
448,192,233953,1,0,0:0:0:0:
64,192,234620,1,0,0:0:0:0:
448,192,234620,1,0,0:0:0:0:
320,192,234620,128,0,235286:0:0:0:0:
192,192,234953,128,0,235286:0:0:0:0:
64,192,234953,128,0,235036:0:0:0:0:
64,192,235286,1,0,0:0:0:0:
448,192,235286,1,0,0:0:0:0:
64,192,235786,128,0,235870:0:0:0:0:
64,192,235953,128,0,237203:0:0:0:0:
192,192,236286,128,0,237203:0:0:0:0:
448,192,236620,128,0,237203:0:0:0:0:
320,192,236953,128,0,237203:0:0:0:0:
64,192,237286,128,0,237849:0:0:0:0:
448,192,237286,128,0,237911:0:0:0:0:
192,192,237286,128,0,237870:0:0:0:0:
320,192,237286,128,0,237891:0:0:0:0:
64,192,237891,1,0,0:0:0:0:
192,192,237911,1,0,0:0:0:0:
320,192,237932,1,0,0:0:0:0:
448,192,237953,1,0,0:0:0:0:
