osu file format v14

[General]
AudioFilename: audio.mp3
AudioLeadIn: 0
PreviewTime: 39174
Countdown: 0
SampleSet: Soft
StackLeniency: 0.7
Mode: 3
LetterboxInBreaks: 0
SpecialStyle: 0
WidescreenStoryboard: 0

[Editor]
Bookmarks: 82531,170495
DistanceSpacing: 1
BeatDivisor: 4
GridSize: 32
TimelineZoom: 3.899998

[Metadata]
Title:Hana ni Bourei
TitleUnicode:花に亡霊
Artist:Yorushika
ArtistUnicode:ヨルシカ
Creator:emO_Oticon
Version:A midsummer's memory
Source:泣きたい私は猫をかぶる
Tags:ヨルシカ 花に亡霊 泣きたい私は猫をかぶる A Whisker Away n-buna suis yorushika hana ni bourei ghost in a flower japanese rock pop anime j-rock jrock j-pop jpop
BeatmapID:2414760
BeatmapSetID:1157124

[Difficulty]
HPDrainRate:8
CircleSize:7
OverallDifficulty:3
ApproachRate:5
SliderMultiplier:1.4
SliderTickRate:1

[Events]
//Background and Video events
0,0,"76316346_p0.jpg",0,0
//Break Periods
//Storyboard Layer 0 (Background)
//Storyboard Layer 1 (Fail)
//Storyboard Layer 2 (Pass)
//Storyboard Layer 3 (Foreground)
//Storyboard Layer 4 (Overlay)
//Storyboard Sound Samples

[TimingPoints]
1287,333.333333333333,4,2,0,5,1,0

[HitObjects]
256,192,1287,128,0,1620:0:0:0:0:
475,192,1287,128,0,1370:0:0:0:0:
36,192,1287,128,0,1370:0:0:0:0:
402,192,1620,1,0,0:0:0:0:
475,192,1786,128,0,2120:0:0:0:0:
109,192,1786,1,0,0:0:0:0:
329,192,1953,128,0,2286:0:0:0:0:
256,192,1953,1,0,0:0:0:0:
182,192,2120,128,0,2453:0:0:0:0:
402,192,2120,1,0,0:0:0:0:
36,192,2286,128,0,2620:0:0:0:0:
256,192,2286,1,0,0:0:0:0:
475,192,2286,128,0,2453:0:0:0:0:
109,192,2453,1,0,0:0:0:0:
329,192,2453,128,0,2620:0:0:0:0:
475,192,2620,128,0,2953:0:0:0:0:
256,192,2620,128,0,2703:0:0:0:0:
329,192,2953,128,0,3120:0:0:0:0:
36,192,2953,128,0,3120:0:0:0:0:
256,192,2953,1,0,0:0:0:0:
182,192,3120,128,0,3286:0:0:0:0:
475,192,3120,128,0,3286:0:0:0:0:
256,192,3286,128,0,3453:0:0:0:0:
109,192,3286,1,0,0:0:0:0:
36,192,3786,1,0,0:0:0:0:
36,192,3953,128,0,4286:0:0:0:0:
329,192,3953,128,0,4036:0:0:0:0:
475,192,3953,128,0,4036:0:0:0:0:
182,192,4120,128,0,4453:0:0:0:0:
256,192,4120,1,0,0:0:0:0:
329,192,4286,128,0,4620:0:0:0:0:
109,192,4286,1,0,0:0:0:0:
475,192,4453,128,0,4786:0:0:0:0:
36,192,4453,128,0,4786:0:0:0:0:
256,192,4453,1,0,0:0:0:0:
182,192,4620,128,0,4953:0:0:0:0:
402,192,4620,1,0,0:0:0:0:
329,192,4786,128,0,4953:0:0:0:0:
256,192,4786,1,0,0:0:0:0:
109,192,4953,128,0,5286:0:0:0:0:
256,192,5120,128,0,5286:0:0:0:0:
475,192,5120,128,0,5286:0:0:0:0:
329,192,5286,128,0,5370:0:0:0:0:
182,192,5286,128,0,5370:0:0:0:0:
475,192,5453,128,0,5620:0:0:0:0:
36,192,5453,128,0,5620:0:0:0:0:
402,192,5620,128,0,5786:0:0:0:0:
109,192,5620,128,0,5786:0:0:0:0:
256,192,5620,1,0,0:0:0:0:
182,192,5786,128,0,5953:0:0:0:0:
329,192,5786,128,0,5953:0:0:0:0:
109,192,5870,128,0,6036:0:0:0:0:
402,192,5870,128,0,6036:0:0:0:0:
475,192,5953,128,0,6120:0:0:0:0:
36,192,5953,128,0,6120:0:0:0:0:
256,192,5953,1,0,0:0:0:0:
475,192,6453,1,0,0:0:0:0:
475,192,6620,128,0,6953:0:0:0:0:
36,192,6620,128,0,6703:0:0:0:0:
182,192,6620,128,0,6703:0:0:0:0:
329,192,6786,128,0,7120:0:0:0:0:
256,192,6786,1,0,0:0:0:0:
182,192,6953,128,0,7286:0:0:0:0:
402,192,6953,1,0,0:0:0:0:
36,192,7120,128,0,7453:0:0:0:0:
475,192,7120,128,0,7453:0:0:0:0:
256,192,7120,1,0,0:0:0:0:
329,192,7286,128,0,7620:0:0:0:0:
109,192,7286,1,0,0:0:0:0:
182,192,7453,128,0,7620:0:0:0:0:
256,192,7453,1,0,0:0:0:0:
402,192,7620,128,0,7953:0:0:0:0:
109,192,7620,128,0,7786:0:0:0:0:
256,192,7786,128,0,7953:0:0:0:0:
36,192,7786,128,0,7953:0:0:0:0:
182,192,7953,1,0,0:0:0:0:
329,192,7953,1,0,0:0:0:0:
182,192,8120,128,0,8286:0:0:0:0:
329,192,8120,128,0,8286:0:0:0:0:
402,192,8203,128,0,8370:0:0:0:0:
109,192,8203,128,0,8370:0:0:0:0:
36,192,8286,128,0,8453:0:0:0:0:
475,192,8286,128,0,8453:0:0:0:0:
109,192,8453,128,0,8620:0:0:0:0:
402,192,8453,128,0,8620:0:0:0:0:
182,192,8536,128,0,8703:0:0:0:0:
329,192,8536,128,0,8703:0:0:0:0:
256,192,8620,128,0,8786:0:0:0:0:
329,192,9120,1,0,0:0:0:0:
329,192,9286,128,0,9620:0:0:0:0:
36,192,9286,128,0,9620:0:0:0:0:
182,192,9620,128,0,9953:0:0:0:0:
475,192,9620,128,0,9953:0:0:0:0:
36,192,9953,128,0,10286:0:0:0:0:
329,192,9953,128,0,10286:0:0:0:0:
109,192,10286,128,0,10620:0:0:0:0:
402,192,10286,128,0,10620:0:0:0:0:
256,192,10620,128,0,10953:0:0:0:0:
182,192,10620,128,0,10703:0:0:0:0:
329,192,10620,128,0,10703:0:0:0:0:
182,192,10953,128,0,11370:0:0:0:0:
329,192,10953,128,0,11370:0:0:0:0:
109,192,10953,128,0,11036:0:0:0:0:
402,192,10953,128,0,11036:0:0:0:0:
475,192,11286,128,0,11370:0:0:0:0:
36,192,11286,128,0,11370:0:0:0:0:
256,192,11953,128,0,12286:0:0:0:0:
36,192,11953,128,0,12036:0:0:0:0:
475,192,11953,128,0,12036:0:0:0:0:
109,192,12286,1,0,0:0:0:0:
36,192,12453,128,0,12786:0:0:0:0:
402,192,12453,1,0,0:0:0:0:
182,192,12620,128,0,12953:0:0:0:0:
256,192,12620,1,0,0:0:0:0:
329,192,12786,128,0,13120:0:0:0:0:
109,192,12786,1,0,0:0:0:0:
475,192,12953,128,0,13286:0:0:0:0:
256,192,12953,1,0,0:0:0:0:
36,192,12953,128,0,13120:0:0:0:0:
402,192,13120,1,0,0:0:0:0:
182,192,13120,128,0,13286:0:0:0:0:
36,192,13286,128,0,13620:0:0:0:0:
256,192,13286,128,0,13370:0:0:0:0:
182,192,13620,128,0,13786:0:0:0:0:
475,192,13620,128,0,13786:0:0:0:0:
256,192,13620,1,0,0:0:0:0:
329,192,13786,128,0,13953:0:0:0:0:
36,192,13786,128,0,13953:0:0:0:0:
256,192,13953,128,0,14120:0:0:0:0:
402,192,13953,1,0,0:0:0:0:
475,192,14453,1,0,0:0:0:0:
475,192,14620,128,0,14953:0:0:0:0:
182,192,14620,128,0,14703:0:0:0:0:
36,192,14620,128,0,14703:0:0:0:0:
329,192,14786,128,0,15120:0:0:0:0:
256,192,14786,1,0,0:0:0:0:
182,192,14953,128,0,15286:0:0:0:0:
402,192,14953,1,0,0:0:0:0:
36,192,15120,128,0,15286:0:0:0:0:
475,192,15120,128,0,15286:0:0:0:0:
256,192,15120,1,0,0:0:0:0:
109,192,15286,128,0,15620:0:0:0:0:
402,192,15286,128,0,15620:0:0:0:0:
182,192,15620,128,0,15953:0:0:0:0:
329,192,15620,128,0,15953:0:0:0:0:
256,192,15953,128,0,16120:0:0:0:0:
36,192,15953,128,0,16120:0:0:0:0:
475,192,15953,128,0,16120:0:0:0:0:
109,192,16120,128,0,16286:0:0:0:0:
402,192,16120,128,0,16286:0:0:0:0:
182,192,16286,128,0,16453:0:0:0:0:
329,192,16286,128,0,16453:0:0:0:0:
256,192,16453,128,0,16620:0:0:0:0:
329,192,16536,128,0,16703:0:0:0:0:
182,192,16536,128,0,16703:0:0:0:0:
109,192,16620,128,0,16786:0:0:0:0:
402,192,16620,128,0,16786:0:0:0:0:
36,192,16620,1,0,0:0:0:0:
475,192,16620,1,0,0:0:0:0:
36,192,17120,1,0,0:0:0:0:
36,192,17286,128,0,17620:0:0:0:0:
475,192,17286,128,0,17370:0:0:0:0:
329,192,17286,128,0,17370:0:0:0:0:
182,192,17453,128,0,17786:0:0:0:0:
256,192,17453,1,0,0:0:0:0:
329,192,17620,128,0,17953:0:0:0:0:
109,192,17620,1,0,0:0:0:0:
475,192,17786,128,0,18120:0:0:0:0:
36,192,17786,128,0,18120:0:0:0:0:
256,192,17786,1,0,0:0:0:0:
182,192,17953,128,0,18286:0:0:0:0:
402,192,17953,1,0,0:0:0:0:
329,192,18120,128,0,18453:0:0:0:0:
256,192,18120,1,0,0:0:0:0:
109,192,18286,128,0,18453:0:0:0:0:
475,192,18286,128,0,18453:0:0:0:0:
256,192,18620,128,0,18953:0:0:0:0:
402,192,18620,128,0,18786:0:0:0:0:
36,192,18620,128,0,18953:0:0:0:0:
475,192,18620,128,0,18953:0:0:0:0:
329,192,18786,128,0,18953:0:0:0:0:
182,192,18786,128,0,19120:0:0:0:0:
109,192,18953,128,0,19286:0:0:0:0:
402,192,18953,128,0,19120:0:0:0:0:
329,192,19120,128,0,19453:0:0:0:0:
475,192,19120,128,0,19286:0:0:0:0:
36,192,19120,128,0,19453:0:0:0:0:
256,192,19286,128,0,19620:0:0:0:0:
402,192,19286,128,0,19453:0:0:0:0:
182,192,19453,128,0,19786:0:0:0:0:
475,192,19453,128,0,19620:0:0:0:0:
402,192,19620,128,0,19786:0:0:0:0:
109,192,19620,128,0,19786:0:0:0:0:
329,192,19703,128,0,19870:0:0:0:0:
36,192,19703,128,0,19870:0:0:0:0:
475,192,19953,128,0,20453:0:0:0:0:
182,192,19953,128,0,20453:0:0:0:0:
329,192,20286,128,0,20620:0:0:0:0:
36,192,20286,128,0,20620:0:0:0:0:
475,192,20620,128,0,20953:0:0:0:0:
182,192,20620,128,0,20953:0:0:0:0:
402,192,20953,128,0,21286:0:0:0:0:
109,192,20953,128,0,21286:0:0:0:0:
256,192,21286,128,0,21620:0:0:0:0:
329,192,21286,128,0,21370:0:0:0:0:
182,192,21286,128,0,21370:0:0:0:0:
329,192,21620,128,0,21953:0:0:0:0:
182,192,21620,128,0,21953:0:0:0:0:
402,192,21620,128,0,21703:0:0:0:0:
109,192,21620,128,0,21703:0:0:0:0:
36,192,21953,128,0,22036:0:0:0:0:
475,192,21953,128,0,22036:0:0:0:0:
109,192,21953,128,0,22286:0:0:0:0:
402,192,21953,128,0,22286:0:0:0:0:
36,192,22286,128,0,22953:0:0:0:0:
475,192,22286,128,0,22953:0:0:0:0:
182,192,22286,128,0,22370:0:0:0:0:
329,192,22286,128,0,22370:0:0:0:0:
256,192,22953,128,0,23286:0:0:0:0:
182,192,22953,128,0,23036:0:0:0:0:
329,192,22953,128,0,23036:0:0:0:0:
182,192,23286,128,0,23620:0:0:0:0:
329,192,23286,128,0,23620:0:0:0:0:
109,192,23286,128,0,23370:0:0:0:0:
402,192,23286,128,0,23370:0:0:0:0:
109,192,23620,128,0,23953:0:0:0:0:
402,192,23620,128,0,23953:0:0:0:0:
36,192,23620,128,0,23703:0:0:0:0:
475,192,23620,128,0,23703:0:0:0:0:
182,192,23953,128,0,24286:0:0:0:0:
36,192,23953,128,0,24036:0:0:0:0:
475,192,23953,128,0,24036:0:0:0:0:
329,192,23953,128,0,24286:0:0:0:0:
36,192,24286,128,0,24620:0:0:0:0:
475,192,24286,128,0,24620:0:0:0:0:
109,192,24286,128,0,24370:0:0:0:0:
402,192,24286,128,0,24370:0:0:0:0:
256,192,24620,128,0,25286:0:0:0:0:
182,192,24620,128,0,24703:0:0:0:0:
329,192,24620,128,0,24703:0:0:0:0:
182,192,25203,128,0,25286:0:0:0:0:
329,192,25203,128,0,25286:0:0:0:0:
109,192,25245,128,0,25286:0:0:0:0:
402,192,25245,128,0,25286:0:0:0:0:
36,192,25286,128,0,26286:0:0:0:0:
475,192,25286,128,0,26286:0:0:0:0:
109,192,26620,128,0,26870:0:0:0:0:
36,192,26620,128,0,26703:0:0:0:0:
182,192,26620,128,0,26661:0:0:0:0:
256,192,26620,1,0,0:0:0:0:
329,192,26620,128,0,26786:0:0:0:0:
475,192,26620,128,0,26661:0:0:0:0:
182,192,26786,128,0,27036:0:0:0:0:
36,192,26786,128,0,27203:0:0:0:0:
402,192,26786,128,0,26953:0:0:0:0:
109,192,26953,128,0,27453:0:0:0:0:
475,192,26953,128,0,27120:0:0:0:0:
329,192,26953,128,0,26995:0:0:0:0:
182,192,27120,128,0,27453:0:0:0:0:
402,192,27120,128,0,27286:0:0:0:0:
256,192,27286,128,0,27370:0:0:0:0:
329,192,27286,128,0,27453:0:0:0:0:
36,192,27286,128,0,27453:0:0:0:0:
475,192,27286,128,0,27328:0:0:0:0:
402,192,27453,128,0,27703:0:0:0:0:
475,192,27453,128,0,27953:0:0:0:0:
256,192,27453,128,0,27786:0:0:0:0:
329,192,27620,128,0,27953:0:0:0:0:
182,192,27620,128,0,27953:0:0:0:0:
36,192,27620,128,0,27661:0:0:0:0:
402,192,27786,128,0,27953:0:0:0:0:
109,192,27786,128,0,27953:0:0:0:0:
36,192,27953,128,0,28286:0:0:0:0:
256,192,27953,128,0,28286:0:0:0:0:
402,192,29286,128,0,29536:0:0:0:0:
475,192,29286,128,0,29370:0:0:0:0:
329,192,29286,128,0,29328:0:0:0:0:
256,192,29286,1,0,0:0:0:0:
182,192,29286,128,0,29453:0:0:0:0:
36,192,29286,128,0,29328:0:0:0:0:
329,192,29453,128,0,29703:0:0:0:0:
475,192,29453,128,0,29870:0:0:0:0:
109,192,29453,128,0,29620:0:0:0:0:
402,192,29620,128,0,30120:0:0:0:0:
36,192,29620,128,0,29786:0:0:0:0:
182,192,29620,128,0,29661:0:0:0:0:
329,192,29786,128,0,30120:0:0:0:0:
109,192,29786,128,0,29953:0:0:0:0:
182,192,29953,128,0,30120:0:0:0:0:
475,192,29953,128,0,30120:0:0:0:0:
36,192,29953,128,0,29995:0:0:0:0:
109,192,30120,128,0,30370:0:0:0:0:
36,192,30120,128,0,30620:0:0:0:0:
256,192,30120,128,0,30453:0:0:0:0:
182,192,30286,128,0,30620:0:0:0:0:
329,192,30286,128,0,30620:0:0:0:0:
475,192,30286,128,0,30328:0:0:0:0:
109,192,30453,128,0,30620:0:0:0:0:
402,192,30453,128,0,30620:0:0:0:0:
475,192,30620,128,0,30953:0:0:0:0:
256,192,30620,128,0,30953:0:0:0:0:
109,192,31161,128,0,31286:0:0:0:0:
402,192,31161,128,0,31286:0:0:0:0:
182,192,31203,128,0,31286:0:0:0:0:
329,192,31203,128,0,31286:0:0:0:0:
256,192,31286,128,0,31620:0:0:0:0:
36,192,31286,128,0,31620:0:0:0:0:
475,192,31286,128,0,31620:0:0:0:0:
36,192,31953,128,0,32286:0:0:0:0:
182,192,31953,128,0,32036:0:0:0:0:
329,192,31953,128,0,31995:0:0:0:0:
109,192,32120,128,0,32453:0:0:0:0:
256,192,32120,128,0,32203:0:0:0:0:
402,192,32120,128,0,32161:0:0:0:0:
182,192,32286,128,0,32620:0:0:0:0:
329,192,32286,128,0,32370:0:0:0:0:
475,192,32286,128,0,32328:0:0:0:0:
402,192,32453,128,0,32536:0:0:0:0:
256,192,32453,128,0,32620:0:0:0:0:
36,192,32453,128,0,32495:0:0:0:0:
475,192,32620,128,0,32953:0:0:0:0:
329,192,32620,128,0,32703:0:0:0:0:
109,192,32620,128,0,32661:0:0:0:0:
402,192,32786,128,0,33120:0:0:0:0:
256,192,32786,128,0,32870:0:0:0:0:
109,192,32786,128,0,32828:0:0:0:0:
329,192,32953,128,0,33286:0:0:0:0:
182,192,32953,128,0,33036:0:0:0:0:
36,192,32953,128,0,32995:0:0:0:0:
256,192,33120,128,0,33286:0:0:0:0:
109,192,33120,128,0,33203:0:0:0:0:
36,192,33286,128,0,33620:0:0:0:0:
475,192,33286,128,0,33620:0:0:0:0:
402,192,33286,1,0,0:0:0:0:
182,192,33286,1,0,0:0:0:0:
109,192,33620,128,0,33953:0:0:0:0:
402,192,33620,128,0,33953:0:0:0:0:
256,192,33620,128,0,33786:0:0:0:0:
182,192,33786,128,0,33953:0:0:0:0:
329,192,33786,128,0,33953:0:0:0:0:
256,192,33953,128,0,34286:0:0:0:0:
36,192,33953,128,0,34286:0:0:0:0:
475,192,33953,128,0,34286:0:0:0:0:
182,192,34286,128,0,34411:0:0:0:0:
329,192,34286,128,0,34411:0:0:0:0:
182,192,34453,128,0,34620:0:0:0:0:
329,192,34453,128,0,34620:0:0:0:0:
256,192,34620,128,0,35036:0:0:0:0:
109,192,34620,128,0,35036:0:0:0:0:
402,192,34620,128,0,34703:0:0:0:0:
475,192,34620,128,0,34661:0:0:0:0:
36,192,34620,1,0,0:0:0:0:
329,192,34953,128,0,35370:0:0:0:0:
182,192,34953,128,0,35370:0:0:0:0:
475,192,34953,128,0,35036:0:0:0:0:
402,192,34953,1,0,0:0:0:0:
36,192,34953,1,0,0:0:0:0:
256,192,35286,128,0,35703:0:0:0:0:
402,192,35286,128,0,35703:0:0:0:0:
36,192,35286,128,0,35370:0:0:0:0:
475,192,35286,1,0,0:0:0:0:
109,192,35286,1,0,0:0:0:0:
329,192,35620,128,0,36036:0:0:0:0:
475,192,35620,128,0,36036:0:0:0:0:
109,192,35620,128,0,35703:0:0:0:0:
36,192,35620,1,0,0:0:0:0:
182,192,35620,1,0,0:0:0:0:
256,192,35953,128,0,36370:0:0:0:0:
402,192,35953,128,0,36370:0:0:0:0:
182,192,35953,128,0,36036:0:0:0:0:
109,192,35953,1,0,0:0:0:0:
36,192,35953,1,0,0:0:0:0:
329,192,36286,128,0,36703:0:0:0:0:
182,192,36286,128,0,36703:0:0:0:0:
109,192,36286,128,0,36370:0:0:0:0:
36,192,36286,1,0,0:0:0:0:
475,192,36286,1,0,0:0:0:0:
109,192,36620,128,0,37036:0:0:0:0:
256,192,36620,128,0,37036:0:0:0:0:
402,192,36620,128,0,37036:0:0:0:0:
475,192,36620,128,0,36703:0:0:0:0:
36,192,36620,1,0,0:0:0:0:
36,192,36953,128,0,37286:0:0:0:0:
182,192,36953,128,0,37286:0:0:0:0:
329,192,36953,128,0,37286:0:0:0:0:
475,192,36953,128,0,37286:0:0:0:0:
109,192,37286,1,0,0:0:0:0:
256,192,37286,1,0,0:0:0:0:
402,192,37286,1,0,0:0:0:0:
475,192,37620,128,0,37953:0:0:0:0:
256,192,37620,128,0,37661:0:0:0:0:
329,192,37953,128,0,38286:0:0:0:0:
182,192,37953,128,0,37995:0:0:0:0:
109,192,38286,128,0,38328:0:0:0:0:
36,192,38620,128,0,38953:0:0:0:0:
182,192,38620,128,0,38661:0:0:0:0:
109,192,38953,128,0,39286:0:0:0:0:
256,192,38953,128,0,38995:0:0:0:0:
475,192,39286,128,0,39453:0:0:0:0:
182,192,39286,128,0,39620:0:0:0:0:
329,192,39286,128,0,39328:0:0:0:0:
402,192,39453,128,0,39620:0:0:0:0:
329,192,39620,128,0,39786:0:0:0:0:
36,192,39620,128,0,39953:0:0:0:0:
256,192,39786,128,0,39953:0:0:0:0:
109,192,39953,128,0,40120:0:0:0:0:
402,192,39953,128,0,40286:0:0:0:0:
329,192,39953,128,0,40120:0:0:0:0:
182,192,39953,1,0,0:0:0:0:
475,192,39953,1,0,0:0:0:0:
182,192,40120,128,0,40286:0:0:0:0:
475,192,40120,128,0,40453:0:0:0:0:
36,192,40120,128,0,40161:0:0:0:0:
256,192,40120,1,0,0:0:0:0:
256,192,40286,128,0,40453:0:0:0:0:
109,192,40286,128,0,40328:0:0:0:0:
329,192,40286,1,0,0:0:0:0:
182,192,40453,128,0,40495:0:0:0:0:
329,192,40453,128,0,40620:0:0:0:0:
36,192,40453,128,0,40620:0:0:0:0:
402,192,40453,1,0,0:0:0:0:
475,192,40620,128,0,40786:0:0:0:0:
109,192,40620,128,0,40786:0:0:0:0:
402,192,40620,128,0,40953:0:0:0:0:
256,192,40620,128,0,40661:0:0:0:0:
182,192,40620,128,0,40953:0:0:0:0:
36,192,40786,128,0,40953:0:0:0:0:
329,192,40786,128,0,40953:0:0:0:0:
475,192,40953,128,0,41120:0:0:0:0:
109,192,40953,128,0,41036:0:0:0:0:
256,192,40953,128,0,41036:0:0:0:0:
182,192,41036,128,0,41203:0:0:0:0:
329,192,41036,128,0,41120:0:0:0:0:
402,192,41120,128,0,41286:0:0:0:0:
36,192,41120,128,0,41203:0:0:0:0:
109,192,41203,128,0,41370:0:0:0:0:
256,192,41203,128,0,41286:0:0:0:0:
329,192,41286,128,0,41453:0:0:0:0:
475,192,41286,128,0,41370:0:0:0:0:
36,192,41370,128,0,41536:0:0:0:0:
182,192,41370,128,0,41453:0:0:0:0:
256,192,41453,128,0,41620:0:0:0:0:
402,192,41453,128,0,41536:0:0:0:0:
109,192,41536,128,0,41620:0:0:0:0:
329,192,41620,128,0,41786:0:0:0:0:
182,192,41620,128,0,41786:0:0:0:0:
36,192,41620,128,0,41786:0:0:0:0:
475,192,41620,128,0,41786:0:0:0:0:
402,192,41786,128,0,41953:0:0:0:0:
256,192,41786,128,0,41953:0:0:0:0:
109,192,41786,128,0,41953:0:0:0:0:
475,192,41953,128,0,42286:0:0:0:0:
182,192,41953,128,0,42120:0:0:0:0:
329,192,42036,128,0,42078:0:0:0:0:
402,192,42120,128,0,42453:0:0:0:0:
109,192,42120,128,0,42286:0:0:0:0:
256,192,42203,128,0,42245:0:0:0:0:
329,192,42286,128,0,42620:0:0:0:0:
36,192,42286,128,0,42453:0:0:0:0:
182,192,42370,128,0,42411:0:0:0:0:
256,192,42453,128,0,42620:0:0:0:0:
475,192,42453,128,0,42620:0:0:0:0:
402,192,42620,128,0,42786:0:0:0:0:
109,192,42620,128,0,42953:0:0:0:0:
182,192,42620,128,0,42786:0:0:0:0:
36,192,42620,1,0,0:0:0:0:
329,192,42786,128,0,42953:0:0:0:0:
36,192,42786,128,0,43120:0:0:0:0:
475,192,42786,128,0,42828:0:0:0:0:
256,192,42786,1,0,0:0:0:0:
256,192,42953,128,0,43120:0:0:0:0:
402,192,42953,128,0,42995:0:0:0:0:
182,192,42953,1,0,0:0:0:0:
329,192,43120,128,0,43161:0:0:0:0:
182,192,43120,128,0,43286:0:0:0:0:
475,192,43120,128,0,43286:0:0:0:0:
109,192,43120,1,0,0:0:0:0:
36,192,43286,128,0,43453:0:0:0:0:
402,192,43286,128,0,43453:0:0:0:0:
109,192,43286,128,0,43620:0:0:0:0:
256,192,43286,128,0,43328:0:0:0:0:
329,192,43286,128,0,43620:0:0:0:0:
475,192,43453,128,0,43620:0:0:0:0:
182,192,43453,128,0,43620:0:0:0:0:
36,192,43620,128,0,43786:0:0:0:0:
402,192,43620,128,0,43703:0:0:0:0:
256,192,43620,128,0,43703:0:0:0:0:
329,192,43703,128,0,43870:0:0:0:0:
182,192,43703,128,0,43786:0:0:0:0:
109,192,43786,128,0,43953:0:0:0:0:
475,192,43786,128,0,43870:0:0:0:0:
402,192,43870,128,0,44036:0:0:0:0:
256,192,43870,128,0,43953:0:0:0:0:
182,192,43953,128,0,44120:0:0:0:0:
36,192,43953,128,0,44036:0:0:0:0:
475,192,44036,128,0,44203:0:0:0:0:
329,192,44036,128,0,44120:0:0:0:0:
256,192,44120,128,0,44286:0:0:0:0:
109,192,44120,128,0,44203:0:0:0:0:
402,192,44203,128,0,44286:0:0:0:0:
329,192,44286,128,0,44453:0:0:0:0:
36,192,44286,128,0,44453:0:0:0:0:
182,192,44286,128,0,44453:0:0:0:0:
475,192,44286,128,0,44453:0:0:0:0:
109,192,44453,128,0,44620:0:0:0:0:
256,192,44453,128,0,44620:0:0:0:0:
402,192,44453,128,0,44620:0:0:0:0:
182,192,44620,128,0,44953:0:0:0:0:
36,192,44620,128,0,44786:0:0:0:0:
329,192,44620,128,0,44703:0:0:0:0:
475,192,44620,128,0,44661:0:0:0:0:
256,192,44786,128,0,45120:0:0:0:0:
475,192,44786,128,0,44953:0:0:0:0:
402,192,44786,128,0,44870:0:0:0:0:
109,192,44786,128,0,44828:0:0:0:0:
329,192,44953,128,0,45286:0:0:0:0:
36,192,44953,128,0,45120:0:0:0:0:
109,192,44953,128,0,45036:0:0:0:0:
402,192,44953,128,0,44995:0:0:0:0:
475,192,45120,128,0,45286:0:0:0:0:
182,192,45120,128,0,45286:0:0:0:0:
402,192,45120,128,0,45203:0:0:0:0:
109,192,45120,128,0,45161:0:0:0:0:
36,192,45286,128,0,45620:0:0:0:0:
256,192,45286,128,0,45453:0:0:0:0:
109,192,45286,128,0,45453:0:0:0:0:
329,192,45453,128,0,45786:0:0:0:0:
475,192,45453,128,0,45786:0:0:0:0:
182,192,45453,128,0,45620:0:0:0:0:
402,192,45453,128,0,45620:0:0:0:0:
256,192,45620,128,0,45953:0:0:0:0:
109,192,45620,128,0,45786:0:0:0:0:
36,192,45786,128,0,45953:0:0:0:0:
402,192,45786,128,0,45953:0:0:0:0:
329,192,45953,128,0,46286:0:0:0:0:
475,192,45953,128,0,46120:0:0:0:0:
182,192,45953,128,0,46036:0:0:0:0:
109,192,45953,128,0,45995:0:0:0:0:
256,192,46120,128,0,46453:0:0:0:0:
36,192,46120,128,0,46286:0:0:0:0:
109,192,46120,128,0,46203:0:0:0:0:
402,192,46120,128,0,46161:0:0:0:0:
182,192,46286,128,0,46620:0:0:0:0:
475,192,46286,128,0,46453:0:0:0:0:
402,192,46286,128,0,46370:0:0:0:0:
109,192,46286,128,0,46328:0:0:0:0:
36,192,46453,128,0,46620:0:0:0:0:
329,192,46453,128,0,46620:0:0:0:0:
109,192,46453,128,0,46536:0:0:0:0:
402,192,46453,128,0,46495:0:0:0:0:
475,192,46620,128,0,46953:0:0:0:0:
256,192,46620,128,0,46786:0:0:0:0:
402,192,46620,128,0,46786:0:0:0:0:
109,192,46620,128,0,46786:0:0:0:0:
182,192,46786,128,0,46953:0:0:0:0:
36,192,46786,128,0,46953:0:0:0:0:
329,192,46786,128,0,46953:0:0:0:0:
402,192,46953,128,0,47286:0:0:0:0:
256,192,46953,128,0,47120:0:0:0:0:
109,192,46953,128,0,47286:0:0:0:0:
36,192,47120,128,0,47286:0:0:0:0:
475,192,47120,128,0,47286:0:0:0:0:
329,192,47120,128,0,47453:0:0:0:0:
182,192,47120,128,0,47453:0:0:0:0:
256,192,47286,128,0,47620:0:0:0:0:
109,192,47453,128,0,47620:0:0:0:0:
402,192,47453,128,0,47620:0:0:0:0:
475,192,47453,128,0,47536:0:0:0:0:
36,192,47453,128,0,47495:0:0:0:0:
36,192,47620,128,0,47786:0:0:0:0:
329,192,47620,128,0,47786:0:0:0:0:
182,192,47620,128,0,47703:0:0:0:0:
475,192,47620,128,0,47661:0:0:0:0:
402,192,47786,1,0,0:0:0:0:
109,192,47786,1,0,0:0:0:0:
182,192,47870,1,0,0:0:0:0:
329,192,47870,1,0,0:0:0:0:
475,192,47953,128,0,48620:0:0:0:0:
36,192,47953,128,0,48620:0:0:0:0:
109,192,47953,1,0,0:0:0:0:
402,192,47953,1,0,0:0:0:0:
256,192,47953,128,0,48286:0:0:0:0:
329,192,48286,128,0,48620:0:0:0:0:
182,192,48286,128,0,48620:0:0:0:0:
109,192,48286,128,0,48620:0:0:0:0:
402,192,48286,128,0,48620:0:0:0:0:
256,192,48620,128,0,48953:0:0:0:0:
109,192,48953,128,0,49620:0:0:0:0:
182,192,48953,128,0,49620:0:0:0:0:
329,192,48953,128,0,49620:0:0:0:0:
402,192,48953,128,0,49620:0:0:0:0:
36,192,48953,128,0,49620:0:0:0:0:
475,192,48953,128,0,49620:0:0:0:0:
256,192,49620,128,0,49953:0:0:0:0:
329,192,49953,128,0,50286:0:0:0:0:
36,192,49953,128,0,50120:0:0:0:0:
182,192,49953,128,0,50120:0:0:0:0:
402,192,49953,128,0,49995:0:0:0:0:
475,192,49953,128,0,50036:0:0:0:0:
256,192,50120,128,0,50453:0:0:0:0:
109,192,50120,128,0,50286:0:0:0:0:
402,192,50120,128,0,50203:0:0:0:0:
475,192,50120,128,0,50161:0:0:0:0:
182,192,50286,128,0,50620:0:0:0:0:
36,192,50286,128,0,50453:0:0:0:0:
475,192,50286,128,0,50370:0:0:0:0:
402,192,50286,128,0,50328:0:0:0:0:
402,192,50453,128,0,50536:0:0:0:0:
329,192,50453,128,0,50495:0:0:0:0:
475,192,50453,1,0,0:0:0:0:
109,192,50453,128,0,50620:0:0:0:0:
402,192,50620,128,0,50953:0:0:0:0:
329,192,50620,128,0,50786:0:0:0:0:
256,192,50620,1,0,0:0:0:0:
475,192,50620,1,0,0:0:0:0:
36,192,50620,128,0,50786:0:0:0:0:
182,192,50786,128,0,50953:0:0:0:0:
475,192,50786,128,0,51120:0:0:0:0:
109,192,50786,1,0,0:0:0:0:
256,192,50786,1,0,0:0:0:0:
256,192,50953,128,0,51120:0:0:0:0:
109,192,50953,128,0,50995:0:0:0:0:
329,192,50953,1,0,0:0:0:0:
182,192,51120,128,0,51161:0:0:0:0:
329,192,51120,128,0,51286:0:0:0:0:
36,192,51120,128,0,51286:0:0:0:0:
402,192,51120,1,0,0:0:0:0:
475,192,51286,128,0,51453:0:0:0:0:
109,192,51286,128,0,51453:0:0:0:0:
402,192,51286,128,0,51620:0:0:0:0:
256,192,51286,128,0,51328:0:0:0:0:
182,192,51286,128,0,51620:0:0:0:0:
36,192,51453,128,0,51620:0:0:0:0:
329,192,51453,128,0,51620:0:0:0:0:
475,192,51620,128,0,51786:0:0:0:0:
109,192,51620,128,0,51703:0:0:0:0:
256,192,51620,128,0,51703:0:0:0:0:
182,192,51703,128,0,51870:0:0:0:0:
329,192,51703,128,0,51786:0:0:0:0:
402,192,51786,128,0,51953:0:0:0:0:
36,192,51786,128,0,51870:0:0:0:0:
109,192,51870,128,0,52036:0:0:0:0:
256,192,51870,128,0,51953:0:0:0:0:
329,192,51953,128,0,52120:0:0:0:0:
475,192,51953,128,0,52036:0:0:0:0:
36,192,52036,128,0,52203:0:0:0:0:
182,192,52036,128,0,52120:0:0:0:0:
256,192,52120,128,0,52286:0:0:0:0:
402,192,52120,128,0,52203:0:0:0:0:
109,192,52203,128,0,52286:0:0:0:0:
329,192,52286,128,0,52453:0:0:0:0:
182,192,52286,128,0,52453:0:0:0:0:
36,192,52286,128,0,52453:0:0:0:0:
475,192,52286,128,0,52453:0:0:0:0:
402,192,52453,128,0,52620:0:0:0:0:
256,192,52453,128,0,52620:0:0:0:0:
109,192,52453,128,0,52620:0:0:0:0:
475,192,52620,128,0,52953:0:0:0:0:
182,192,52620,128,0,52786:0:0:0:0:
329,192,52703,128,0,52745:0:0:0:0:
402,192,52786,128,0,53120:0:0:0:0:
109,192,52786,128,0,52953:0:0:0:0:
256,192,52870,128,0,52911:0:0:0:0:
329,192,52953,128,0,53286:0:0:0:0:
36,192,52953,128,0,53120:0:0:0:0:
182,192,53036,128,0,53078:0:0:0:0:
256,192,53120,128,0,53286:0:0:0:0:
475,192,53120,128,0,53286:0:0:0:0:
402,192,53286,128,0,53453:0:0:0:0:
109,192,53286,128,0,53620:0:0:0:0:
182,192,53286,128,0,53453:0:0:0:0:
36,192,53286,1,0,0:0:0:0:
329,192,53453,128,0,53620:0:0:0:0:
36,192,53453,128,0,53786:0:0:0:0:
475,192,53453,128,0,53495:0:0:0:0:
256,192,53453,1,0,0:0:0:0:
256,192,53620,128,0,53786:0:0:0:0:
402,192,53620,128,0,53661:0:0:0:0:
182,192,53620,1,0,0:0:0:0:
329,192,53786,128,0,53828:0:0:0:0:
182,192,53786,128,0,53953:0:0:0:0:
475,192,53786,128,0,53953:0:0:0:0:
109,192,53786,1,0,0:0:0:0:
36,192,53953,128,0,54120:0:0:0:0:
402,192,53953,128,0,54120:0:0:0:0:
109,192,53953,128,0,54286:0:0:0:0:
256,192,53953,128,0,53995:0:0:0:0:
329,192,53953,128,0,54286:0:0:0:0:
475,192,54120,128,0,54286:0:0:0:0:
182,192,54120,128,0,54286:0:0:0:0:
36,192,54286,128,0,54453:0:0:0:0:
402,192,54286,128,0,54370:0:0:0:0:
256,192,54286,128,0,54370:0:0:0:0:
329,192,54370,128,0,54536:0:0:0:0:
182,192,54370,128,0,54453:0:0:0:0:
109,192,54453,128,0,54620:0:0:0:0:
475,192,54453,128,0,54536:0:0:0:0:
402,192,54536,128,0,54703:0:0:0:0:
256,192,54536,128,0,54620:0:0:0:0:
182,192,54620,128,0,54786:0:0:0:0:
36,192,54620,128,0,54703:0:0:0:0:
475,192,54703,128,0,54870:0:0:0:0:
329,192,54703,128,0,54786:0:0:0:0:
256,192,54786,128,0,54953:0:0:0:0:
109,192,54786,128,0,54870:0:0:0:0:
402,192,54870,128,0,54953:0:0:0:0:
329,192,54953,128,0,55120:0:0:0:0:
36,192,54953,128,0,55120:0:0:0:0:
182,192,54953,128,0,55120:0:0:0:0:
475,192,54953,128,0,55120:0:0:0:0:
109,192,55120,128,0,55286:0:0:0:0:
256,192,55120,128,0,55286:0:0:0:0:
402,192,55120,128,0,55286:0:0:0:0:
182,192,55286,128,0,55620:0:0:0:0:
36,192,55286,128,0,55453:0:0:0:0:
329,192,55286,128,0,55370:0:0:0:0:
475,192,55286,128,0,55328:0:0:0:0:
256,192,55453,128,0,55786:0:0:0:0:
475,192,55453,128,0,55620:0:0:0:0:
402,192,55453,128,0,55536:0:0:0:0:
109,192,55453,128,0,55495:0:0:0:0:
329,192,55620,128,0,55953:0:0:0:0:
36,192,55620,128,0,55786:0:0:0:0:
109,192,55620,128,0,55703:0:0:0:0:
402,192,55620,128,0,55661:0:0:0:0:
475,192,55786,128,0,55953:0:0:0:0:
182,192,55786,128,0,55953:0:0:0:0:
402,192,55786,128,0,55870:0:0:0:0:
109,192,55786,128,0,55828:0:0:0:0:
36,192,55953,128,0,56120:0:0:0:0:
256,192,55953,128,0,56120:0:0:0:0:
109,192,56036,128,0,56203:0:0:0:0:
329,192,56036,128,0,56203:0:0:0:0:
182,192,56120,128,0,56286:0:0:0:0:
402,192,56120,128,0,56286:0:0:0:0:
475,192,56286,128,0,56453:0:0:0:0:
256,192,56286,128,0,56453:0:0:0:0:
329,192,56286,128,0,56370:0:0:0:0:
109,192,56286,128,0,56370:0:0:0:0:
36,192,56286,128,0,56453:0:0:0:0:
182,192,56370,128,0,56536:0:0:0:0:
402,192,56370,128,0,56536:0:0:0:0:
109,192,56453,128,0,56620:0:0:0:0:
329,192,56453,128,0,56620:0:0:0:0:
256,192,56536,128,0,56703:0:0:0:0:
475,192,56536,128,0,56953:0:0:0:0:
36,192,56536,128,0,56703:0:0:0:0:
182,192,56620,128,0,56870:0:0:0:0:
402,192,56620,128,0,56870:0:0:0:0:
329,192,56703,128,0,56786:0:0:0:0:
109,192,56703,128,0,56786:0:0:0:0:
36,192,56786,128,0,56953:0:0:0:0:
256,192,56786,128,0,56953:0:0:0:0:
329,192,56870,128,0,57036:0:0:0:0:
109,192,56870,128,0,57036:0:0:0:0:
182,192,56953,128,0,57120:0:0:0:0:
402,192,56953,128,0,57120:0:0:0:0:
256,192,57036,128,0,57286:0:0:0:0:
475,192,57036,128,0,57286:0:0:0:0:
36,192,57036,128,0,57203:0:0:0:0:
109,192,57120,128,0,57203:0:0:0:0:
329,192,57120,128,0,57286:0:0:0:0:
182,192,57203,128,0,57286:0:0:0:0:
402,192,57203,128,0,57286:0:0:0:0:
36,192,57286,128,0,57620:0:0:0:0:
109,192,57286,128,0,57453:0:0:0:0:
329,192,57370,1,0,0:0:0:0:
182,192,57453,128,0,57620:0:0:0:0:
256,192,57453,1,0,0:0:0:0:
475,192,57453,128,0,57495:0:0:0:0:
329,192,57536,1,0,0:0:0:0:
475,192,57620,128,0,57953:0:0:0:0:
402,192,57620,128,0,57786:0:0:0:0:
109,192,57620,1,0,0:0:0:0:
256,192,57703,1,0,0:0:0:0:
329,192,57786,128,0,57953:0:0:0:0:
36,192,57786,128,0,57828:0:0:0:0:
182,192,57786,1,0,0:0:0:0:
256,192,57870,1,0,0:0:0:0:
36,192,57953,128,0,58286:0:0:0:0:
109,192,57953,128,0,58120:0:0:0:0:
402,192,57953,1,0,0:0:0:0:
329,192,58036,1,0,0:0:0:0:
182,192,58120,128,0,58286:0:0:0:0:
256,192,58120,1,0,0:0:0:0:
475,192,58120,128,0,58161:0:0:0:0:
329,192,58203,1,0,0:0:0:0:
475,192,58286,128,0,58620:0:0:0:0:
402,192,58286,128,0,58453:0:0:0:0:
109,192,58286,1,0,0:0:0:0:
182,192,58370,1,0,0:0:0:0:
329,192,58453,128,0,58620:0:0:0:0:
256,192,58453,1,0,0:0:0:0:
36,192,58453,128,0,58495:0:0:0:0:
182,192,58536,1,0,0:0:0:0:
109,192,58620,128,0,58870:0:0:0:0:
36,192,58620,128,0,58870:0:0:0:0:
256,192,58620,1,0,0:0:0:0:
402,192,58620,1,0,0:0:0:0:
182,192,58953,128,0,59203:0:0:0:0:
109,192,58953,128,0,59203:0:0:0:0:
329,192,58953,1,0,0:0:0:0:
475,192,58953,1,0,0:0:0:0:
182,192,59286,128,0,59536:0:0:0:0:
256,192,59286,128,0,59536:0:0:0:0:
402,192,59286,128,0,59536:0:0:0:0:
475,192,59286,1,0,0:0:0:0:
36,192,59286,128,0,59536:0:0:0:0:
329,192,59286,1,0,0:0:0:0:
256,192,59620,128,0,59870:0:0:0:0:
329,192,59620,128,0,59870:0:0:0:0:
475,192,59620,128,0,59870:0:0:0:0:
109,192,59620,128,0,59870:0:0:0:0:
402,192,59620,1,0,0:0:0:0:
36,192,59620,1,0,0:0:0:0:
36,192,59953,128,0,60620:0:0:0:0:
402,192,59953,128,0,60953:0:0:0:0:
109,192,59953,128,0,60953:0:0:0:0:
182,192,59953,128,0,60620:0:0:0:0:
256,192,59953,128,0,60953:0:0:0:0:
329,192,59953,128,0,60620:0:0:0:0:
475,192,59953,128,0,60620:0:0:0:0:
182,192,61286,128,0,61453:0:0:0:0:
256,192,61286,128,0,61536:0:0:0:0:
329,192,61286,128,0,61453:0:0:0:0:
109,192,61286,128,0,61370:0:0:0:0:
475,192,61286,128,0,61328:0:0:0:0:
36,192,61286,128,0,61328:0:0:0:0:
402,192,61286,128,0,61370:0:0:0:0:
36,192,61620,128,0,61953:0:0:0:0:
402,192,61620,128,0,61786:0:0:0:0:
475,192,61620,128,0,61703:0:0:0:0:
256,192,61620,1,0,0:0:0:0:
329,192,61703,128,0,61870:0:0:0:0:
182,192,61703,1,0,0:0:0:0:
109,192,61786,128,0,62120:0:0:0:0:
256,192,61786,128,0,61953:0:0:0:0:
475,192,61870,128,0,62036:0:0:0:0:
182,192,61953,128,0,62286:0:0:0:0:
402,192,61953,128,0,62120:0:0:0:0:
329,192,62036,128,0,62203:0:0:0:0:
256,192,62120,128,0,62286:0:0:0:0:
36,192,62120,1,0,0:0:0:0:
475,192,62120,1,0,0:0:0:0:
109,192,62286,128,0,62453:0:0:0:0:
329,192,62286,128,0,62453:0:0:0:0:
475,192,62286,128,0,62328:0:0:0:0:
36,192,62286,128,0,62328:0:0:0:0:
182,192,62453,128,0,62620:0:0:0:0:
402,192,62453,128,0,62620:0:0:0:0:
36,192,62453,1,0,0:0:0:0:
475,192,62453,1,0,0:0:0:0:
475,192,62620,128,0,62953:0:0:0:0:
109,192,62620,128,0,62786:0:0:0:0:
256,192,62620,1,0,0:0:0:0:
36,192,62620,128,0,62703:0:0:0:0:
182,192,62703,128,0,62870:0:0:0:0:
329,192,62703,1,0,0:0:0:0:
402,192,62786,128,0,63120:0:0:0:0:
256,192,62786,128,0,62953:0:0:0:0:
36,192,62870,128,0,63036:0:0:0:0:
109,192,62953,128,0,63120:0:0:0:0:
329,192,62953,128,0,63120:0:0:0:0:
182,192,63036,128,0,63203:0:0:0:0:
256,192,63120,128,0,63286:0:0:0:0:
475,192,63120,1,0,0:0:0:0:
36,192,63120,1,0,0:0:0:0:
109,192,63286,128,0,63328:0:0:0:0:
36,192,63286,1,0,0:0:0:0:
475,192,63286,1,0,0:0:0:0:
182,192,63286,128,0,63370:0:0:0:0:
329,192,63286,128,0,63370:0:0:0:0:
402,192,63286,128,0,63328:0:0:0:0:
256,192,63453,128,0,63620:0:0:0:0:
36,192,63453,128,0,63786:0:0:0:0:
475,192,63453,128,0,63786:0:0:0:0:
182,192,63620,128,0,63786:0:0:0:0:
329,192,63620,128,0,63786:0:0:0:0:
109,192,63786,128,0,63953:0:0:0:0:
402,192,63786,128,0,63953:0:0:0:0:
256,192,63786,128,0,63953:0:0:0:0:
36,192,63953,128,0,64536:0:0:0:0:
182,192,63953,128,0,64120:0:0:0:0:
329,192,64036,128,0,64203:0:0:0:0:
109,192,64120,128,0,64453:0:0:0:0:
475,192,64120,128,0,64286:0:0:0:0:
256,192,64120,1,0,0:0:0:0:
402,192,64203,1,0,0:0:0:0:
182,192,64286,128,0,64370:0:0:0:0:
329,192,64286,1,0,0:0:0:0:
256,192,64370,1,0,0:0:0:0:
475,192,64453,128,0,65120:0:0:0:0:
329,192,64453,128,0,64620:0:0:0:0:
182,192,64536,128,0,64703:0:0:0:0:
402,192,64620,128,0,65036:0:0:0:0:
36,192,64620,128,0,64786:0:0:0:0:
256,192,64620,1,0,0:0:0:0:
109,192,64703,1,0,0:0:0:0:
329,192,64786,128,0,64953:0:0:0:0:
182,192,64786,1,0,0:0:0:0:
256,192,64870,1,0,0:0:0:0:
182,192,64953,128,0,65036:0:0:0:0:
36,192,64953,128,0,65036:0:0:0:0:
182,192,65120,128,0,65203:0:0:0:0:
256,192,65120,128,0,65203:0:0:0:0:
329,192,65120,1,0,0:0:0:0:
109,192,65120,1,0,0:0:0:0:
36,192,65286,128,0,65370:0:0:0:0:
329,192,65286,128,0,65370:0:0:0:0:
109,192,65370,1,0,0:0:0:0:
402,192,65370,1,0,0:0:0:0:
182,192,65453,128,0,65536:0:0:0:0:
475,192,65453,128,0,65536:0:0:0:0:
256,192,65536,1,0,0:0:0:0:
329,192,65620,128,0,65786:0:0:0:0:
36,192,65620,128,0,65786:0:0:0:0:
109,192,65703,1,0,0:0:0:0:
402,192,65703,1,0,0:0:0:0:
182,192,65786,128,0,65953:0:0:0:0:
475,192,65786,128,0,65953:0:0:0:0:
256,192,65870,1,0,0:0:0:0:
36,192,65953,1,0,0:0:0:0:
329,192,65953,1,0,0:0:0:0:
402,192,65953,1,0,0:0:0:0:
109,192,65953,1,0,0:0:0:0:
402,192,66120,128,0,66203:0:0:0:0:
475,192,66120,128,0,66203:0:0:0:0:
256,192,66120,128,0,66203:0:0:0:0:
109,192,66120,1,0,0:0:0:0:
36,192,66286,1,0,0:0:0:0:
329,192,66286,128,0,66370:0:0:0:0:
402,192,66286,128,0,66370:0:0:0:0:
182,192,66286,128,0,66370:0:0:0:0:
329,192,66453,128,0,66536:0:0:0:0:
256,192,66453,128,0,66536:0:0:0:0:
109,192,66453,128,0,66536:0:0:0:0:
475,192,66453,1,0,0:0:0:0:
475,192,66620,128,0,66953:0:0:0:0:
109,192,66620,128,0,66786:0:0:0:0:
36,192,66620,128,0,66703:0:0:0:0:
256,192,66620,1,0,0:0:0:0:
182,192,66703,128,0,66870:0:0:0:0:
329,192,66703,1,0,0:0:0:0:
402,192,66786,128,0,67120:0:0:0:0:
256,192,66786,128,0,66953:0:0:0:0:
36,192,66870,128,0,67036:0:0:0:0:
329,192,66953,128,0,67286:0:0:0:0:
109,192,66953,128,0,67120:0:0:0:0:
182,192,67036,128,0,67203:0:0:0:0:
256,192,67120,128,0,67286:0:0:0:0:
475,192,67120,1,0,0:0:0:0:
402,192,67286,128,0,67453:0:0:0:0:
182,192,67286,128,0,67453:0:0:0:0:
36,192,67286,128,0,67328:0:0:0:0:
475,192,67286,128,0,67328:0:0:0:0:
329,192,67453,128,0,67620:0:0:0:0:
109,192,67453,128,0,67620:0:0:0:0:
36,192,67453,1,0,0:0:0:0:
475,192,67453,1,0,0:0:0:0:
36,192,67620,128,0,67953:0:0:0:0:
402,192,67620,128,0,67786:0:0:0:0:
256,192,67620,1,0,0:0:0:0:
475,192,67620,128,0,67703:0:0:0:0:
329,192,67703,128,0,67870:0:0:0:0:
182,192,67703,1,0,0:0:0:0:
109,192,67786,128,0,68120:0:0:0:0:
256,192,67786,128,0,67953:0:0:0:0:
475,192,67870,128,0,68036:0:0:0:0:
402,192,67953,128,0,68120:0:0:0:0:
182,192,67953,128,0,68286:0:0:0:0:
329,192,68036,128,0,68203:0:0:0:0:
256,192,68120,128,0,68286:0:0:0:0:
36,192,68120,1,0,0:0:0:0:
402,192,68286,128,0,68328:0:0:0:0:
109,192,68286,128,0,68328:0:0:0:0:
36,192,68286,1,0,0:0:0:0:
475,192,68286,1,0,0:0:0:0:
109,192,68453,128,0,68620:0:0:0:0:
475,192,68453,128,0,68786:0:0:0:0:
36,192,68453,128,0,68786:0:0:0:0:
402,192,68453,128,0,68620:0:0:0:0:
256,192,68620,128,0,68786:0:0:0:0:
182,192,68620,128,0,68786:0:0:0:0:
329,192,68620,128,0,68786:0:0:0:0:
109,192,68786,128,0,68953:0:0:0:0:
402,192,68786,128,0,68953:0:0:0:0:
36,192,68953,128,0,69120:0:0:0:0:
182,192,68953,128,0,69120:0:0:0:0:
329,192,68953,128,0,69120:0:0:0:0:
475,192,68953,128,0,69120:0:0:0:0:
109,192,69120,128,0,69286:0:0:0:0:
256,192,69120,128,0,69286:0:0:0:0:
402,192,69120,128,0,69286:0:0:0:0:
182,192,69286,128,0,69453:0:0:0:0:
329,192,69286,128,0,69453:0:0:0:0:
475,192,69286,128,0,69453:0:0:0:0:
36,192,69286,128,0,69453:0:0:0:0:
109,192,69620,1,0,0:0:0:0:
329,192,69620,1,0,0:0:0:0:
475,192,69620,1,0,0:0:0:0:
402,192,69620,1,0,0:0:0:0:
36,192,69703,1,0,0:0:0:0:
182,192,69703,1,0,0:0:0:0:
256,192,69703,1,0,0:0:0:0:
329,192,69786,1,0,0:0:0:0:
475,192,69786,1,0,0:0:0:0:
109,192,69786,1,0,0:0:0:0:
402,192,69870,1,0,0:0:0:0:
182,192,69870,1,0,0:0:0:0:
256,192,69870,1,0,0:0:0:0:
36,192,69953,1,0,0:0:0:0:
329,192,69953,1,0,0:0:0:0:
109,192,69953,1,0,0:0:0:0:
475,192,69953,1,0,0:0:0:0:
329,192,70286,128,0,70453:0:0:0:0:
402,192,70286,128,0,70370:0:0:0:0:
182,192,70286,128,0,70370:0:0:0:0:
109,192,70286,128,0,70328:0:0:0:0:
36,192,70286,128,0,70453:0:0:0:0:
475,192,70286,1,0,0:0:0:0:
256,192,70370,128,0,70536:0:0:0:0:
402,192,70453,128,0,70620:0:0:0:0:
182,192,70453,128,0,70495:0:0:0:0:
109,192,70453,128,0,70620:0:0:0:0:
475,192,70453,128,0,70495:0:0:0:0:
329,192,70536,128,0,70703:0:0:0:0:
36,192,70536,128,0,70703:0:0:0:0:
182,192,70620,128,0,70786:0:0:0:0:
256,192,70620,128,0,70661:0:0:0:0:
475,192,70620,128,0,70786:0:0:0:0:
109,192,70703,128,0,70870:0:0:0:0:
402,192,70703,128,0,70870:0:0:0:0:
36,192,70786,128,0,70828:0:0:0:0:
256,192,70786,128,0,70953:0:0:0:0:
329,192,70786,128,0,70828:0:0:0:0:
475,192,70870,128,0,71036:0:0:0:0:
182,192,70870,128,0,71036:0:0:0:0:
329,192,70953,128,0,71120:0:0:0:0:
402,192,70953,128,0,71036:0:0:0:0:
109,192,70953,128,0,71036:0:0:0:0:
36,192,70953,128,0,71120:0:0:0:0:
256,192,71036,128,0,71203:0:0:0:0:
109,192,71120,128,0,71286:0:0:0:0:
182,192,71120,128,0,71203:0:0:0:0:
402,192,71120,128,0,71286:0:0:0:0:
475,192,71120,128,0,71203:0:0:0:0:
36,192,71203,128,0,71286:0:0:0:0:
329,192,71203,128,0,71286:0:0:0:0:
475,192,71286,128,0,71370:0:0:0:0:
182,192,71286,128,0,71370:0:0:0:0:
256,192,71286,128,0,71370:0:0:0:0:
36,192,71453,128,0,71536:0:0:0:0:
256,192,71453,128,0,71536:0:0:0:0:
329,192,71453,128,0,71495:0:0:0:0:
402,192,71453,1,0,0:0:0:0:
109,192,71453,128,0,71536:0:0:0:0:
402,192,71620,128,0,71661:0:0:0:0:
182,192,71620,128,0,71703:0:0:0:0:
329,192,71620,128,0,71703:0:0:0:0:
109,192,71620,128,0,71703:0:0:0:0:
475,192,71620,1,0,0:0:0:0:
182,192,71786,128,0,71870:0:0:0:0:
402,192,71786,128,0,71870:0:0:0:0:
475,192,71786,1,0,0:0:0:0:
256,192,71786,128,0,71870:0:0:0:0:
36,192,71786,128,0,71828:0:0:0:0:
329,192,71953,128,0,72286:0:0:0:0:
109,192,71953,128,0,72036:0:0:0:0:
36,192,71953,1,0,0:0:0:0:
182,192,72036,128,0,72120:0:0:0:0:
475,192,72036,128,0,72120:0:0:0:0:
256,192,72120,128,0,72453:0:0:0:0:
36,192,72120,128,0,72203:0:0:0:0:
402,192,72120,128,0,72203:0:0:0:0:
109,192,72203,128,0,72286:0:0:0:0:
182,192,72286,128,0,72620:0:0:0:0:
475,192,72286,128,0,72370:0:0:0:0:
36,192,72370,128,0,72453:0:0:0:0:
402,192,72370,128,0,72453:0:0:0:0:
109,192,72453,128,0,72536:0:0:0:0:
329,192,72453,128,0,72620:0:0:0:0:
475,192,72536,128,0,72620:0:0:0:0:
36,192,72620,128,0,72786:0:0:0:0:
256,192,72620,128,0,72786:0:0:0:0:
402,192,72620,128,0,72786:0:0:0:0:
109,192,72620,1,0,0:0:0:0:
109,192,72786,128,0,72953:0:0:0:0:
329,192,72786,128,0,72953:0:0:0:0:
475,192,72786,128,0,72953:0:0:0:0:
182,192,72953,128,0,73286:0:0:0:0:
402,192,72953,128,0,73036:0:0:0:0:
256,192,72953,1,0,0:0:0:0:
329,192,73036,128,0,73120:0:0:0:0:
36,192,73036,128,0,73120:0:0:0:0:
256,192,73120,128,0,73453:0:0:0:0:
475,192,73120,128,0,73203:0:0:0:0:
109,192,73120,128,0,73203:0:0:0:0:
402,192,73203,128,0,73286:0:0:0:0:
329,192,73286,128,0,73620:0:0:0:0:
36,192,73286,128,0,73370:0:0:0:0:
109,192,73370,128,0,73453:0:0:0:0:
475,192,73370,128,0,73453:0:0:0:0:
182,192,73453,128,0,73620:0:0:0:0:
402,192,73453,128,0,73536:0:0:0:0:
36,192,73536,128,0,73620:0:0:0:0:
256,192,73620,128,0,73703:0:0:0:0:
402,192,73620,128,0,73661:0:0:0:0:
475,192,73620,1,0,0:0:0:0:
109,192,73620,128,0,73661:0:0:0:0:
182,192,73786,128,0,73953:0:0:0:0:
329,192,73786,128,0,73953:0:0:0:0:
36,192,73786,128,0,74120:0:0:0:0:
475,192,73786,128,0,74120:0:0:0:0:
109,192,73953,128,0,74286:0:0:0:0:
256,192,73953,128,0,74120:0:0:0:0:
402,192,73953,128,0,74286:0:0:0:0:
182,192,74120,128,0,74286:0:0:0:0:
329,192,74120,128,0,74286:0:0:0:0:
256,192,74286,128,0,74620:0:0:0:0:
36,192,74286,128,0,74620:0:0:0:0:
475,192,74286,128,0,74620:0:0:0:0:
402,192,74453,128,0,74620:0:0:0:0:
182,192,74453,128,0,74620:0:0:0:0:
109,192,74620,128,0,74953:0:0:0:0:
329,192,74620,1,0,0:0:0:0:
402,192,74703,1,0,0:0:0:0:
182,192,74786,128,0,75120:0:0:0:0:
36,192,74786,1,0,0:0:0:0:
475,192,74786,128,0,74828:0:0:0:0:
402,192,74870,1,0,0:0:0:0:
256,192,74953,128,0,75286:0:0:0:0:
329,192,74953,128,0,74995:0:0:0:0:
36,192,74953,1,0,0:0:0:0:
475,192,75036,1,0,0:0:0:0:
402,192,75120,128,0,75453:0:0:0:0:
36,192,75120,1,0,0:0:0:0:
109,192,75203,1,0,0:0:0:0:
329,192,75286,128,0,75620:0:0:0:0:
182,192,75286,128,0,75328:0:0:0:0:
475,192,75286,1,0,0:0:0:0:
109,192,75370,1,0,0:0:0:0:
256,192,75453,128,0,75786:0:0:0:0:
36,192,75453,128,0,75495:0:0:0:0:
475,192,75453,1,0,0:0:0:0:
109,192,75536,1,0,0:0:0:0:
36,192,75620,128,0,75786:0:0:0:0:
475,192,75620,128,0,75786:0:0:0:0:
182,192,75620,128,0,75661:0:0:0:0:
109,192,75786,128,0,75953:0:0:0:0:
402,192,75786,128,0,75953:0:0:0:0:
36,192,75953,128,0,76120:0:0:0:0:
329,192,75953,128,0,76120:0:0:0:0:
256,192,75953,128,0,76036:0:0:0:0:
182,192,76036,128,0,76203:0:0:0:0:
475,192,76036,128,0,76203:0:0:0:0:
402,192,76120,128,0,76203:0:0:0:0:
109,192,76120,128,0,76203:0:0:0:0:
329,192,76203,128,0,76370:0:0:0:0:
36,192,76203,128,0,76370:0:0:0:0:
256,192,76203,128,0,76286:0:0:0:0:
475,192,76286,128,0,76453:0:0:0:0:
182,192,76286,128,0,76453:0:0:0:0:
109,192,76370,128,0,76453:0:0:0:0:
402,192,76370,128,0,76453:0:0:0:0:
36,192,76453,128,0,76620:0:0:0:0:
329,192,76453,128,0,76620:0:0:0:0:
256,192,76453,128,0,76536:0:0:0:0:
109,192,76620,1,0,0:0:0:0:
182,192,76620,1,0,0:0:0:0:
402,192,76620,1,0,0:0:0:0:
475,192,76620,1,0,0:0:0:0:
475,192,76786,128,0,77036:0:0:0:0:
256,192,76786,128,0,77036:0:0:0:0:
182,192,76786,128,0,76828:0:0:0:0:
109,192,76786,1,0,0:0:0:0:
329,192,76786,1,0,0:0:0:0:
36,192,76786,1,0,0:0:0:0:
402,192,76786,128,0,76870:0:0:0:0:
36,192,76953,1,0,0:0:0:0:
329,192,76953,128,0,77036:0:0:0:0:
402,192,76953,128,0,77203:0:0:0:0:
182,192,76953,128,0,77203:0:0:0:0:
109,192,76953,128,0,76995:0:0:0:0:
329,192,77120,128,0,77203:0:0:0:0:
256,192,77120,128,0,77203:0:0:0:0:
109,192,77120,128,0,77203:0:0:0:0:
36,192,77120,128,0,77161:0:0:0:0:
475,192,77120,1,0,0:0:0:0:
182,192,77286,128,0,77620:0:0:0:0:
402,192,77286,128,0,77370:0:0:0:0:
475,192,77286,1,0,0:0:0:0:
329,192,77370,128,0,77453:0:0:0:0:
36,192,77370,128,0,77453:0:0:0:0:
256,192,77453,128,0,77786:0:0:0:0:
475,192,77453,128,0,77536:0:0:0:0:
109,192,77453,128,0,77536:0:0:0:0:
402,192,77536,128,0,77620:0:0:0:0:
329,192,77620,128,0,77953:0:0:0:0:
36,192,77620,128,0,77703:0:0:0:0:
475,192,77703,128,0,77786:0:0:0:0:
109,192,77703,128,0,77786:0:0:0:0:
402,192,77786,128,0,77870:0:0:0:0:
182,192,77786,128,0,77953:0:0:0:0:
36,192,77870,128,0,77953:0:0:0:0:
475,192,77953,128,0,78120:0:0:0:0:
256,192,77953,128,0,78120:0:0:0:0:
109,192,77953,128,0,78120:0:0:0:0:
402,192,77953,1,0,0:0:0:0:
402,192,78120,128,0,78286:0:0:0:0:
182,192,78120,128,0,78286:0:0:0:0:
36,192,78120,128,0,78286:0:0:0:0:
329,192,78286,128,0,78620:0:0:0:0:
109,192,78286,128,0,78370:0:0:0:0:
256,192,78286,1,0,0:0:0:0:
182,192,78370,128,0,78453:0:0:0:0:
475,192,78370,128,0,78453:0:0:0:0:
256,192,78453,128,0,78786:0:0:0:0:
36,192,78453,128,0,78536:0:0:0:0:
402,192,78453,128,0,78536:0:0:0:0:
109,192,78536,128,0,78620:0:0:0:0:
182,192,78620,128,0,78953:0:0:0:0:
475,192,78620,128,0,78703:0:0:0:0:
402,192,78703,128,0,78786:0:0:0:0:
36,192,78703,128,0,78786:0:0:0:0:
329,192,78786,128,0,78953:0:0:0:0:
109,192,78786,128,0,78870:0:0:0:0:
475,192,78870,128,0,78953:0:0:0:0:
256,192,78953,128,0,79036:0:0:0:0:
109,192,78953,128,0,78995:0:0:0:0:
36,192,78953,1,0,0:0:0:0:
402,192,78953,128,0,78995:0:0:0:0:
329,192,79120,128,0,79286:0:0:0:0:
182,192,79120,128,0,79286:0:0:0:0:
475,192,79120,128,0,79453:0:0:0:0:
36,192,79120,128,0,79453:0:0:0:0:
402,192,79286,128,0,79620:0:0:0:0:
256,192,79286,128,0,79453:0:0:0:0:
109,192,79286,128,0,79620:0:0:0:0:
329,192,79453,128,0,79620:0:0:0:0:
182,192,79453,128,0,79620:0:0:0:0:
256,192,79620,128,0,79870:0:0:0:0:
475,192,79620,128,0,79870:0:0:0:0:
36,192,79620,128,0,79870:0:0:0:0:
109,192,79786,128,0,79870:0:0:0:0:
329,192,79786,128,0,79870:0:0:0:0:
182,192,79786,128,0,79870:0:0:0:0:
402,192,79786,128,0,79870:0:0:0:0:
402,192,79953,128,0,80203:0:0:0:0:
475,192,79953,128,0,80203:0:0:0:0:
256,192,79953,128,0,79995:0:0:0:0:
182,192,79953,1,0,0:0:0:0:
329,192,80286,128,0,80536:0:0:0:0:
402,192,80286,128,0,80536:0:0:0:0:
182,192,80286,128,0,80328:0:0:0:0:
109,192,80286,1,0,0:0:0:0:
329,192,80620,128,0,80870:0:0:0:0:
256,192,80620,128,0,80870:0:0:0:0:
109,192,80620,128,0,80870:0:0:0:0:
36,192,80620,1,0,0:0:0:0:
475,192,80620,128,0,80870:0:0:0:0:
182,192,80620,1,0,0:0:0:0:
256,192,80953,128,0,81203:0:0:0:0:
182,192,80953,128,0,81203:0:0:0:0:
36,192,80953,128,0,81203:0:0:0:0:
402,192,80953,128,0,81203:0:0:0:0:
109,192,80953,1,0,0:0:0:0:
475,192,80953,1,0,0:0:0:0:
475,192,81286,128,0,81953:0:0:0:0:
109,192,81286,128,0,82120:0:0:0:0:
329,192,81286,128,0,82286:0:0:0:0:
256,192,81286,128,0,82453:0:0:0:0:
182,192,81286,128,0,82286:0:0:0:0:
36,192,81286,128,0,81953:0:0:0:0:
402,192,81286,128,0,82120:0:0:0:0:
182,192,82620,128,0,82953:0:0:0:0:
36,192,82620,128,0,82953:0:0:0:0:
475,192,82620,128,0,82953:0:0:0:0:
329,192,82620,128,0,82953:0:0:0:0:
36,192,83120,128,0,83453:0:0:0:0:
256,192,83120,1,0,0:0:0:0:
109,192,83286,128,0,83620:0:0:0:0:
329,192,83286,1,0,0:0:0:0:
182,192,83453,128,0,83786:0:0:0:0:
402,192,83453,1,0,0:0:0:0:
256,192,83620,128,0,83953:0:0:0:0:
475,192,83620,1,0,0:0:0:0:
329,192,83786,128,0,83953:0:0:0:0:
109,192,83953,128,0,84286:0:0:0:0:
402,192,83953,128,0,84286:0:0:0:0:
36,192,83953,1,0,0:0:0:0:
182,192,84286,128,0,84620:0:0:0:0:
475,192,84286,128,0,84620:0:0:0:0:
329,192,84286,1,0,0:0:0:0:
402,192,84453,128,0,84620:0:0:0:0:
109,192,84453,128,0,84620:0:0:0:0:
36,192,84620,128,0,84953:0:0:0:0:
329,192,84620,128,0,84953:0:0:0:0:
256,192,84620,1,0,0:0:0:0:
256,192,85120,1,0,0:0:0:0:
475,192,85286,128,0,85620:0:0:0:0:
329,192,85286,1,0,0:0:0:0:
402,192,85453,128,0,85786:0:0:0:0:
256,192,85453,1,0,0:0:0:0:
329,192,85620,128,0,85953:0:0:0:0:
182,192,85620,1,0,0:0:0:0:
256,192,85786,128,0,86120:0:0:0:0:
109,192,85786,1,0,0:0:0:0:
182,192,85953,128,0,86120:0:0:0:0:
109,192,85953,128,0,86286:0:0:0:0:
402,192,85953,128,0,86286:0:0:0:0:
36,192,85953,1,0,0:0:0:0:
36,192,86120,128,0,86286:0:0:0:0:
475,192,86120,128,0,86286:0:0:0:0:
182,192,86286,128,0,86536:0:0:0:0:
329,192,86286,128,0,86536:0:0:0:0:
256,192,86453,128,0,86620:0:0:0:0:
36,192,86620,1,0,0:0:0:0:
475,192,86620,1,0,0:0:0:0:
182,192,86786,128,0,86953:0:0:0:0:
329,192,86786,128,0,86953:0:0:0:0:
36,192,86953,128,0,87120:0:0:0:0:
475,192,86953,128,0,87120:0:0:0:0:
256,192,86953,1,0,0:0:0:0:
402,192,87120,128,0,87286:0:0:0:0:
109,192,87120,128,0,87286:0:0:0:0:
182,192,87203,128,0,87370:0:0:0:0:
329,192,87203,128,0,87370:0:0:0:0:
256,192,87286,128,0,87453:0:0:0:0:
182,192,87786,1,0,0:0:0:0:
36,192,87953,128,0,88286:0:0:0:0:
256,192,87953,1,0,0:0:0:0:
109,192,88120,128,0,88453:0:0:0:0:
329,192,88120,1,0,0:0:0:0:
182,192,88286,128,0,88620:0:0:0:0:
402,192,88286,1,0,0:0:0:0:
475,192,88620,128,0,88953:0:0:0:0:
256,192,88620,1,0,0:0:0:0:
402,192,88786,128,0,89120:0:0:0:0:
182,192,88786,1,0,0:0:0:0:
329,192,88953,128,0,89286:0:0:0:0:
109,192,88953,1,0,0:0:0:0:
256,192,89120,128,0,89286:0:0:0:0:
36,192,89120,1,0,0:0:0:0:
36,192,89286,128,0,89453:0:0:0:0:
475,192,89286,128,0,89453:0:0:0:0:
402,192,89453,128,0,89620:0:0:0:0:
109,192,89453,128,0,89620:0:0:0:0:
182,192,89536,128,0,89703:0:0:0:0:
329,192,89536,128,0,89703:0:0:0:0:
256,192,89620,128,0,89786:0:0:0:0:
36,192,89620,1,0,0:0:0:0:
475,192,89620,1,0,0:0:0:0:
329,192,89786,128,0,89953:0:0:0:0:
182,192,89786,128,0,89953:0:0:0:0:
402,192,89870,128,0,90036:0:0:0:0:
109,192,89870,128,0,90036:0:0:0:0:
475,192,89953,128,0,90036:0:0:0:0:
36,192,89953,128,0,90036:0:0:0:0:
256,192,89953,1,0,0:0:0:0:
109,192,90120,128,0,90286:0:0:0:0:
402,192,90120,128,0,90286:0:0:0:0:
329,192,90286,128,0,90620:0:0:0:0:
182,192,90286,128,0,90620:0:0:0:0:
256,192,90453,128,0,90786:0:0:0:0:
402,192,90620,128,0,90953:0:0:0:0:
109,192,90620,128,0,90953:0:0:0:0:
182,192,90953,128,0,91286:0:0:0:0:
36,192,90953,128,0,91286:0:0:0:0:
329,192,90953,128,0,91120:0:0:0:0:
256,192,91120,128,0,91453:0:0:0:0:
402,192,91120,128,0,91286:0:0:0:0:
329,192,91286,128,0,91620:0:0:0:0:
109,192,91286,128,0,91620:0:0:0:0:
475,192,91286,128,0,91453:0:0:0:0:
402,192,91453,128,0,91620:0:0:0:0:
475,192,91620,128,0,91953:0:0:0:0:
182,192,91620,128,0,91953:0:0:0:0:
36,192,91620,128,0,91953:0:0:0:0:
256,192,91953,128,0,92286:0:0:0:0:
329,192,92286,128,0,92620:0:0:0:0:
182,192,92286,128,0,92620:0:0:0:0:
36,192,92286,128,0,92328:0:0:0:0:
475,192,92286,128,0,92328:0:0:0:0:
109,192,92453,1,0,0:0:0:0:
402,192,92453,1,0,0:0:0:0:
475,192,92620,128,0,92703:0:0:0:0:
36,192,92620,128,0,92703:0:0:0:0:
475,192,93286,128,0,93620:0:0:0:0:
329,192,93286,128,0,93328:0:0:0:0:
182,192,93286,1,0,0:0:0:0:
402,192,93453,128,0,93786:0:0:0:0:
256,192,93453,128,0,93495:0:0:0:0:
109,192,93453,1,0,0:0:0:0:
329,192,93620,128,0,93953:0:0:0:0:
182,192,93620,128,0,93661:0:0:0:0:
36,192,93620,1,0,0:0:0:0:
256,192,93786,128,0,94120:0:0:0:0:
109,192,93786,128,0,93828:0:0:0:0:
475,192,93786,1,0,0:0:0:0:
182,192,93953,128,0,94120:0:0:0:0:
36,192,93953,128,0,93995:0:0:0:0:
402,192,93953,1,0,0:0:0:0:
402,192,94120,128,0,94286:0:0:0:0:
109,192,94120,128,0,94286:0:0:0:0:
182,192,94286,128,0,94536:0:0:0:0:
475,192,94286,128,0,94536:0:0:0:0:
329,192,94453,128,0,94620:0:0:0:0:
36,192,94453,128,0,94620:0:0:0:0:
182,192,94620,128,0,94870:0:0:0:0:
475,192,94620,128,0,94870:0:0:0:0:
256,192,94620,1,0,0:0:0:0:
402,192,94620,1,0,0:0:0:0:
109,192,94620,1,0,0:0:0:0:
109,192,94953,128,0,95203:0:0:0:0:
402,192,94953,128,0,95203:0:0:0:0:
256,192,94953,1,0,0:0:0:0:
109,192,95286,128,0,95620:0:0:0:0:
402,192,95286,128,0,95620:0:0:0:0:
256,192,95286,1,0,0:0:0:0:
36,192,95286,1,0,0:0:0:0:
475,192,95286,1,0,0:0:0:0:
36,192,95786,128,0,96120:0:0:0:0:
182,192,95786,128,0,95828:0:0:0:0:
329,192,95786,1,0,0:0:0:0:
109,192,95953,128,0,96286:0:0:0:0:
256,192,95953,128,0,95995:0:0:0:0:
402,192,95953,1,0,0:0:0:0:
182,192,96120,128,0,96453:0:0:0:0:
329,192,96120,128,0,96161:0:0:0:0:
475,192,96120,1,0,0:0:0:0:
256,192,96286,128,0,96620:0:0:0:0:
402,192,96286,128,0,96328:0:0:0:0:
36,192,96286,1,0,0:0:0:0:
329,192,96453,128,0,96620:0:0:0:0:
475,192,96453,128,0,96495:0:0:0:0:
109,192,96453,1,0,0:0:0:0:
475,192,96620,128,0,96953:0:0:0:0:
36,192,96620,128,0,96953:0:0:0:0:
329,192,96786,128,0,97120:0:0:0:0:
182,192,96786,128,0,97120:0:0:0:0:
475,192,97120,1,0,0:0:0:0:
36,192,97120,1,0,0:0:0:0:
475,192,97286,128,0,97453:0:0:0:0:
36,192,97286,128,0,97453:0:0:0:0:
256,192,97495,128,0,97536:0:0:0:0:
36,192,97620,128,0,97786:0:0:0:0:
475,192,97620,128,0,97786:0:0:0:0:
182,192,97786,1,0,0:0:0:0:
329,192,97786,1,0,0:0:0:0:
256,192,97953,128,0,97995:0:0:0:0:
36,192,97953,128,0,98120:0:0:0:0:
475,192,97953,128,0,98120:0:0:0:0:
109,192,97953,128,0,98120:0:0:0:0:
402,192,97953,128,0,98120:0:0:0:0:
182,192,98203,1,0,0:0:0:0:
329,192,98203,1,0,0:0:0:0:
256,192,98328,128,0,98370:0:0:0:0:
475,192,98453,128,0,98786:0:0:0:0:
329,192,98453,128,0,98495:0:0:0:0:
182,192,98453,1,0,0:0:0:0:
402,192,98620,128,0,98953:0:0:0:0:
256,192,98620,128,0,98661:0:0:0:0:
109,192,98620,1,0,0:0:0:0:
329,192,98786,128,0,99120:0:0:0:0:
36,192,98786,1,0,0:0:0:0:
182,192,98786,128,0,98828:0:0:0:0:
256,192,98953,128,0,99120:0:0:0:0:
475,192,98953,1,0,0:0:0:0:
109,192,98953,128,0,98995:0:0:0:0:
36,192,99120,128,0,99453:0:0:0:0:
182,192,99120,128,0,99161:0:0:0:0:
402,192,99120,1,0,0:0:0:0:
109,192,99286,128,0,99620:0:0:0:0:
256,192,99286,128,0,99328:0:0:0:0:
475,192,99286,1,0,0:0:0:0:
182,192,99453,128,0,99786:0:0:0:0:
402,192,99453,128,0,99495:0:0:0:0:
329,192,99453,1,0,0:0:0:0:
256,192,99620,128,0,99786:0:0:0:0:
475,192,99620,128,0,99661:0:0:0:0:
36,192,99620,1,0,0:0:0:0:
402,192,99786,128,0,99870:0:0:0:0:
109,192,99786,128,0,99870:0:0:0:0:
109,192,99953,128,0,100036:0:0:0:0:
402,192,99953,128,0,100036:0:0:0:0:
256,192,100120,128,0,100286:0:0:0:0:
109,192,100120,128,0,100203:0:0:0:0:
402,192,100120,128,0,100203:0:0:0:0:
182,192,100286,128,0,100453:0:0:0:0:
329,192,100286,128,0,100453:0:0:0:0:
109,192,100370,128,0,100536:0:0:0:0:
402,192,100370,128,0,100536:0:0:0:0:
36,192,100453,128,0,100620:0:0:0:0:
475,192,100453,128,0,100620:0:0:0:0:
256,192,100453,1,0,0:0:0:0:
402,192,100620,128,0,100786:0:0:0:0:
109,192,100620,128,0,100786:0:0:0:0:
182,192,100703,128,0,100870:0:0:0:0:
329,192,100703,128,0,100870:0:0:0:0:
256,192,100786,128,0,100870:0:0:0:0:
256,192,100953,128,0,100995:0:0:0:0:
109,192,101120,128,0,101286:0:0:0:0:
402,192,101120,128,0,101286:0:0:0:0:
256,192,101120,1,0,0:0:0:0:
182,192,101286,128,0,101620:0:0:0:0:
329,192,101286,128,0,101620:0:0:0:0:
36,192,101286,128,0,101620:0:0:0:0:
475,192,101286,128,0,101620:0:0:0:0:
256,192,101620,128,0,101786:0:0:0:0:
109,192,101620,128,0,101786:0:0:0:0:
402,192,101620,128,0,101786:0:0:0:0:
182,192,101786,128,0,101870:0:0:0:0:
36,192,101786,128,0,101870:0:0:0:0:
329,192,101786,128,0,101870:0:0:0:0:
475,192,101786,128,0,101870:0:0:0:0:
36,192,101953,128,0,102120:0:0:0:0:
329,192,101953,128,0,102120:0:0:0:0:
182,192,101953,128,0,102120:0:0:0:0:
475,192,101953,128,0,102120:0:0:0:0:
402,192,102286,128,0,102453:0:0:0:0:
109,192,102286,128,0,102453:0:0:0:0:
182,192,102453,1,0,0:0:0:0:
329,192,102453,1,0,0:0:0:0:
402,192,102620,1,0,0:0:0:0:
109,192,102620,1,0,0:0:0:0:
182,192,102786,1,0,0:0:0:0:
329,192,102786,1,0,0:0:0:0:
256,192,102953,1,0,0:0:0:0:
402,192,102953,1,0,0:0:0:0:
36,192,103120,1,0,0:0:0:0:
182,192,103120,1,0,0:0:0:0:
109,192,103286,128,0,103370:0:0:0:0:
402,192,103286,128,0,103328:0:0:0:0:
329,192,103286,1,0,0:0:0:0:
256,192,103453,1,0,0:0:0:0:
329,192,103620,128,0,103703:0:0:0:0:
36,192,103620,128,0,103661:0:0:0:0:
475,192,103620,128,0,103703:0:0:0:0:
402,192,103620,1,0,0:0:0:0:
182,192,103786,1,0,0:0:0:0:
36,192,103953,128,0,104036:0:0:0:0:
256,192,103953,128,0,104036:0:0:0:0:
402,192,103953,128,0,103995:0:0:0:0:
329,192,103953,1,0,0:0:0:0:
182,192,104432,1,0,0:0:0:0:
329,192,104432,1,0,0:0:0:0:
109,192,104474,1,0,0:0:0:0:
256,192,104474,1,0,0:0:0:0:
402,192,104474,1,0,0:0:0:0:
182,192,104620,1,0,0:0:0:0:
329,192,104620,1,0,0:0:0:0:
475,192,104620,1,0,0:0:0:0:
36,192,104620,1,0,0:0:0:0:
109,192,104786,1,0,0:0:0:0:
402,192,104786,1,0,0:0:0:0:
36,192,104786,1,0,0:0:0:0:
475,192,104786,1,0,0:0:0:0:
256,192,104786,1,0,0:0:0:0:
109,192,104953,1,0,0:0:0:0:
182,192,104953,1,0,0:0:0:0:
329,192,104953,1,0,0:0:0:0:
402,192,104953,1,0,0:0:0:0:
256,192,105286,128,0,105453:0:0:0:0:
109,192,105286,128,0,105536:0:0:0:0:
36,192,105286,128,0,105370:0:0:0:0:
182,192,105286,128,0,105328:0:0:0:0:
402,192,105286,128,0,105370:0:0:0:0:
475,192,105286,1,0,0:0:0:0:
329,192,105370,128,0,105536:0:0:0:0:
36,192,105453,128,0,105870:0:0:0:0:
182,192,105453,128,0,105703:0:0:0:0:
475,192,105453,128,0,105620:0:0:0:0:
402,192,105536,128,0,105703:0:0:0:0:
109,192,105620,128,0,105953:0:0:0:0:
256,192,105620,128,0,105786:0:0:0:0:
329,192,105703,128,0,105870:0:0:0:0:
182,192,105786,128,0,106120:0:0:0:0:
475,192,105786,128,0,105953:0:0:0:0:
402,192,105870,128,0,106036:0:0:0:0:
36,192,105953,128,0,106120:0:0:0:0:
256,192,105953,128,0,106036:0:0:0:0:
109,192,106036,128,0,106203:0:0:0:0:
329,192,106036,128,0,106203:0:0:0:0:
475,192,106120,128,0,106453:0:0:0:0:
402,192,106120,128,0,106370:0:0:0:0:
256,192,106120,128,0,106286:0:0:0:0:
182,192,106203,128,0,106370:0:0:0:0:
329,192,106286,128,0,106620:0:0:0:0:
36,192,106286,128,0,106453:0:0:0:0:
109,192,106370,128,0,106536:0:0:0:0:
256,192,106453,128,0,106620:0:0:0:0:
402,192,106453,128,0,106620:0:0:0:0:
182,192,106536,128,0,106620:0:0:0:0:
36,192,106620,128,0,106953:0:0:0:0:
109,192,106620,128,0,106953:0:0:0:0:
475,192,106620,128,0,106953:0:0:0:0:
256,192,107286,1,0,0:0:0:0:
256,192,107953,128,0,108120:0:0:0:0:
402,192,107953,128,0,108203:0:0:0:0:
475,192,107953,128,0,108036:0:0:0:0:
329,192,107953,128,0,107995:0:0:0:0:
109,192,107953,128,0,108036:0:0:0:0:
36,192,107953,1,0,0:0:0:0:
182,192,108036,128,0,108203:0:0:0:0:
475,192,108120,128,0,108536:0:0:0:0:
329,192,108120,128,0,108370:0:0:0:0:
36,192,108120,128,0,108286:0:0:0:0:
109,192,108203,128,0,108370:0:0:0:0:
402,192,108286,128,0,108620:0:0:0:0:
256,192,108286,128,0,108453:0:0:0:0:
182,192,108370,128,0,108536:0:0:0:0:
329,192,108453,128,0,108786:0:0:0:0:
36,192,108453,128,0,108620:0:0:0:0:
109,192,108536,128,0,108703:0:0:0:0:
475,192,108620,128,0,108786:0:0:0:0:
256,192,108620,128,0,108703:0:0:0:0:
402,192,108703,128,0,108870:0:0:0:0:
182,192,108703,128,0,108870:0:0:0:0:
36,192,108786,128,0,109120:0:0:0:0:
109,192,108786,128,0,109036:0:0:0:0:
256,192,108786,128,0,108953:0:0:0:0:
329,192,108870,128,0,109036:0:0:0:0:
182,192,108953,128,0,109286:0:0:0:0:
475,192,108953,128,0,109120:0:0:0:0:
402,192,109036,128,0,109203:0:0:0:0:
256,192,109120,128,0,109286:0:0:0:0:
109,192,109120,128,0,109286:0:0:0:0:
329,192,109203,128,0,109286:0:0:0:0:
475,192,109286,128,0,109620:0:0:0:0:
402,192,109286,128,0,109620:0:0:0:0:
36,192,109286,128,0,109620:0:0:0:0:
182,192,109620,1,0,0:0:0:0:
329,192,109620,1,0,0:0:0:0:
109,192,109703,1,0,0:0:0:0:
256,192,109703,1,0,0:0:0:0:
182,192,109786,1,0,0:0:0:0:
36,192,109786,1,0,0:0:0:0:
109,192,109870,1,0,0:0:0:0:
256,192,109870,1,0,0:0:0:0:
182,192,109953,128,0,110286:0:0:0:0:
475,192,109953,128,0,110286:0:0:0:0:
329,192,109953,1,0,0:0:0:0:
475,192,110620,128,0,110953:0:0:0:0:
329,192,110620,128,0,110703:0:0:0:0:
182,192,110620,128,0,110661:0:0:0:0:
402,192,110786,128,0,111120:0:0:0:0:
256,192,110786,128,0,110870:0:0:0:0:
109,192,110786,128,0,110828:0:0:0:0:
329,192,110953,128,0,111286:0:0:0:0:
182,192,110953,128,0,111036:0:0:0:0:
36,192,110953,128,0,110995:0:0:0:0:
109,192,111120,128,0,111203:0:0:0:0:
256,192,111120,128,0,111286:0:0:0:0:
36,192,111286,128,0,111620:0:0:0:0:
182,192,111286,128,0,111370:0:0:0:0:
475,192,111286,128,0,111328:0:0:0:0:
402,192,111286,1,0,0:0:0:0:
109,192,111453,128,0,111786:0:0:0:0:
256,192,111453,128,0,111536:0:0:0:0:
402,192,111453,128,0,111495:0:0:0:0:
182,192,111620,128,0,111953:0:0:0:0:
329,192,111620,128,0,111703:0:0:0:0:
475,192,111620,128,0,111661:0:0:0:0:
256,192,111786,128,0,111953:0:0:0:0:
402,192,111786,128,0,111870:0:0:0:0:
475,192,111953,128,0,112286:0:0:0:0:
36,192,111953,128,0,112286:0:0:0:0:
109,192,111953,1,0,0:0:0:0:
329,192,111953,1,0,0:0:0:0:
402,192,111953,1,0,0:0:0:0:
402,192,112286,128,0,112620:0:0:0:0:
109,192,112286,128,0,112620:0:0:0:0:
256,192,112286,128,0,112453:0:0:0:0:
329,192,112453,128,0,112620:0:0:0:0:
182,192,112453,128,0,112620:0:0:0:0:
256,192,112620,128,0,112953:0:0:0:0:
475,192,112620,128,0,112953:0:0:0:0:
36,192,112620,128,0,112953:0:0:0:0:
329,192,112953,128,0,113078:0:0:0:0:
182,192,112953,128,0,113078:0:0:0:0:
329,192,113120,128,0,113286:0:0:0:0:
182,192,113120,128,0,113286:0:0:0:0:
256,192,113286,128,0,113703:0:0:0:0:
402,192,113286,128,0,113703:0:0:0:0:
109,192,113286,128,0,113370:0:0:0:0:
36,192,113286,128,0,113328:0:0:0:0:
475,192,113286,1,0,0:0:0:0:
182,192,113620,128,0,114036:0:0:0:0:
329,192,113620,128,0,114036:0:0:0:0:
36,192,113620,128,0,113703:0:0:0:0:
475,192,113620,128,0,113661:0:0:0:0:
109,192,113620,1,0,0:0:0:0:
256,192,113953,128,0,114370:0:0:0:0:
109,192,113953,128,0,114370:0:0:0:0:
475,192,113953,128,0,114036:0:0:0:0:
402,192,113953,128,0,113995:0:0:0:0:
36,192,113953,1,0,0:0:0:0:
182,192,114286,128,0,114703:0:0:0:0:
36,192,114286,128,0,114703:0:0:0:0:
402,192,114286,128,0,114370:0:0:0:0:
475,192,114286,1,0,0:0:0:0:
329,192,114286,128,0,114328:0:0:0:0:
256,192,114620,128,0,115036:0:0:0:0:
109,192,114620,128,0,115036:0:0:0:0:
329,192,114620,128,0,114703:0:0:0:0:
475,192,114620,128,0,114661:0:0:0:0:
402,192,114620,1,0,0:0:0:0:
182,192,114953,128,0,115370:0:0:0:0:
329,192,114953,128,0,115370:0:0:0:0:
36,192,114953,128,0,115036:0:0:0:0:
402,192,114953,128,0,114995:0:0:0:0:
475,192,114953,1,0,0:0:0:0:
402,192,115286,128,0,115703:0:0:0:0:
256,192,115286,128,0,115703:0:0:0:0:
475,192,115286,128,0,115328:0:0:0:0:
109,192,115286,128,0,115703:0:0:0:0:
36,192,115286,128,0,115370:0:0:0:0:
475,192,115620,128,0,116036:0:0:0:0:
329,192,115620,128,0,116036:0:0:0:0:
182,192,115620,128,0,116036:0:0:0:0:
36,192,115620,128,0,116036:0:0:0:0:
402,192,115953,128,0,116036:0:0:0:0:
256,192,115953,128,0,116036:0:0:0:0:
109,192,115953,128,0,116036:0:0:0:0:
402,192,116120,1,0,0:0:0:0:
256,192,116141,1,0,0:0:0:0:
329,192,116286,1,0,0:0:0:0:
475,192,116286,128,0,116328:0:0:0:0:
182,192,116307,1,0,0:0:0:0:
256,192,116453,1,0,0:0:0:0:
109,192,116474,1,0,0:0:0:0:
182,192,116620,1,0,0:0:0:0:
402,192,116620,128,0,116661:0:0:0:0:
36,192,116641,1,0,0:0:0:0:
109,192,116786,1,0,0:0:0:0:
256,192,116807,1,0,0:0:0:0:
329,192,116953,128,0,116995:0:0:0:0:
182,192,116953,1,0,0:0:0:0:
475,192,116953,1,0,0:0:0:0:
109,192,117120,1,0,0:0:0:0:
36,192,117120,1,0,0:0:0:0:
402,192,117120,1,0,0:0:0:0:
256,192,117203,1,0,0:0:0:0:
329,192,117203,1,0,0:0:0:0:
402,192,117286,1,0,0:0:0:0:
36,192,117286,128,0,117328:0:0:0:0:
109,192,117286,1,0,0:0:0:0:
475,192,117286,128,0,117328:0:0:0:0:
329,192,117453,1,0,0:0:0:0:
182,192,117474,1,0,0:0:0:0:
109,192,117620,128,0,117911:0:0:0:0:
402,192,117620,128,0,117911:0:0:0:0:
475,192,117620,128,0,117786:0:0:0:0:
182,192,117620,128,0,117703:0:0:0:0:
329,192,117620,128,0,117703:0:0:0:0:
36,192,117620,128,0,117786:0:0:0:0:
256,192,117786,1,0,0:0:0:0:
36,192,117953,128,0,118120:0:0:0:0:
475,192,117953,128,0,117995:0:0:0:0:
256,192,117953,1,0,0:0:0:0:
402,192,117953,1,0,0:0:0:0:
109,192,118120,128,0,118286:0:0:0:0:
329,192,118120,1,0,0:0:0:0:
402,192,118120,128,0,118161:0:0:0:0:
182,192,118286,128,0,118453:0:0:0:0:
475,192,118286,128,0,118328:0:0:0:0:
402,192,118286,1,0,0:0:0:0:
36,192,118453,1,0,0:0:0:0:
402,192,118453,128,0,118495:0:0:0:0:
329,192,118453,1,0,0:0:0:0:
109,192,118620,128,0,118870:0:0:0:0:
182,192,118620,128,0,118745:0:0:0:0:
256,192,118620,128,0,118661:0:0:0:0:
329,192,118620,1,0,0:0:0:0:
475,192,118703,128,0,118828:0:0:0:0:
402,192,118703,128,0,118953:0:0:0:0:
36,192,118703,128,0,118745:0:0:0:0:
329,192,118786,128,0,118870:0:0:0:0:
182,192,118870,128,0,119120:0:0:0:0:
256,192,118870,128,0,118995:0:0:0:0:
475,192,118953,128,0,119203:0:0:0:0:
109,192,118953,128,0,118995:0:0:0:0:
36,192,118953,128,0,119036:0:0:0:0:
402,192,119036,128,0,119120:0:0:0:0:
256,192,119120,128,0,119286:0:0:0:0:
329,192,119120,128,0,119203:0:0:0:0:
109,192,119120,1,0,0:0:0:0:
182,192,119203,128,0,119245:0:0:0:0:
329,192,119286,128,0,119453:0:0:0:0:
109,192,119286,128,0,119453:0:0:0:0:
402,192,119286,128,0,119620:0:0:0:0:
475,192,119286,1,0,0:0:0:0:
36,192,119286,1,0,0:0:0:0:
182,192,119453,128,0,119620:0:0:0:0:
475,192,119453,128,0,119620:0:0:0:0:
36,192,119453,128,0,119620:0:0:0:0:
256,192,119453,1,0,0:0:0:0:
256,192,119620,128,0,119786:0:0:0:0:
329,192,119620,1,0,0:0:0:0:
109,192,119661,128,0,119745:0:0:0:0:
402,192,119703,128,0,119786:0:0:0:0:
36,192,119745,128,0,119911:0:0:0:0:
329,192,119786,128,0,119953:0:0:0:0:
182,192,119828,128,0,119911:0:0:0:0:
475,192,119870,128,0,119953:0:0:0:0:
109,192,119911,128,0,120078:0:0:0:0:
402,192,119953,128,0,120120:0:0:0:0:
256,192,119995,128,0,120078:0:0:0:0:
36,192,120036,1,0,0:0:0:0:
182,192,120078,128,0,120245:0:0:0:0:
329,192,120078,1,0,0:0:0:0:
475,192,120120,128,0,120286:0:0:0:0:
109,192,120161,1,0,0:0:0:0:
402,192,120203,1,0,0:0:0:0:
256,192,120245,128,0,120286:0:0:0:0:
329,192,120286,128,0,120453:0:0:0:0:
36,192,120286,128,0,120453:0:0:0:0:
402,192,120453,128,0,120620:0:0:0:0:
256,192,120453,128,0,120620:0:0:0:0:
109,192,120453,128,0,120620:0:0:0:0:
475,192,120453,1,0,0:0:0:0:
182,192,120453,1,0,0:0:0:0:
475,192,120620,128,0,120745:0:0:0:0:
182,192,120620,128,0,120745:0:0:0:0:
36,192,120703,1,0,0:0:0:0:
329,192,120703,128,0,120745:0:0:0:0:
402,192,120786,128,0,120911:0:0:0:0:
109,192,120786,128,0,120911:0:0:0:0:
256,192,120870,128,0,120911:0:0:0:0:
475,192,120870,1,0,0:0:0:0:
329,192,120953,128,0,121078:0:0:0:0:
36,192,120953,128,0,121078:0:0:0:0:
402,192,121036,1,0,0:0:0:0:
182,192,121036,128,0,121078:0:0:0:0:
256,192,121120,128,0,121203:0:0:0:0:
475,192,121120,128,0,121245:0:0:0:0:
109,192,121203,128,0,121245:0:0:0:0:
36,192,121203,1,0,0:0:0:0:
402,192,121286,128,0,121536:0:0:0:0:
329,192,121286,128,0,121411:0:0:0:0:
256,192,121286,128,0,121328:0:0:0:0:
182,192,121286,1,0,0:0:0:0:
36,192,121370,128,0,121495:0:0:0:0:
475,192,121370,128,0,121411:0:0:0:0:
109,192,121370,128,0,121620:0:0:0:0:
182,192,121453,128,0,121536:0:0:0:0:
329,192,121536,128,0,121786:0:0:0:0:
256,192,121536,128,0,121661:0:0:0:0:
36,192,121620,128,0,121870:0:0:0:0:
475,192,121620,128,0,121703:0:0:0:0:
402,192,121620,128,0,121661:0:0:0:0:
109,192,121703,128,0,121786:0:0:0:0:
256,192,121786,128,0,121953:0:0:0:0:
182,192,121786,128,0,121870:0:0:0:0:
402,192,121786,1,0,0:0:0:0:
329,192,121870,128,0,121953:0:0:0:0:
182,192,121953,128,0,122120:0:0:0:0:
402,192,121953,128,0,122120:0:0:0:0:
109,192,121953,128,0,122286:0:0:0:0:
475,192,121953,1,0,0:0:0:0:
329,192,122120,128,0,122286:0:0:0:0:
36,192,122120,128,0,122286:0:0:0:0:
475,192,122120,128,0,122286:0:0:0:0:
256,192,122120,1,0,0:0:0:0:
256,192,122286,128,0,122453:0:0:0:0:
182,192,122286,1,0,0:0:0:0:
402,192,122328,128,0,122411:0:0:0:0:
109,192,122370,128,0,122453:0:0:0:0:
475,192,122411,128,0,122578:0:0:0:0:
182,192,122453,128,0,122620:0:0:0:0:
329,192,122495,128,0,122578:0:0:0:0:
36,192,122536,128,0,122620:0:0:0:0:
402,192,122578,128,0,122745:0:0:0:0:
109,192,122620,128,0,122786:0:0:0:0:
256,192,122661,128,0,122745:0:0:0:0:
475,192,122703,1,0,0:0:0:0:
182,192,122745,1,0,0:0:0:0:
329,192,122745,128,0,122911:0:0:0:0:
36,192,122786,128,0,122953:0:0:0:0:
402,192,122828,1,0,0:0:0:0:
109,192,122870,1,0,0:0:0:0:
256,192,122911,128,0,122953:0:0:0:0:
182,192,122953,128,0,123120:0:0:0:0:
475,192,122953,128,0,123120:0:0:0:0:
109,192,123120,128,0,123286:0:0:0:0:
256,192,123120,128,0,123286:0:0:0:0:
402,192,123120,128,0,123286:0:0:0:0:
329,192,123120,1,0,0:0:0:0:
36,192,123120,1,0,0:0:0:0:
36,192,123286,128,0,123453:0:0:0:0:
182,192,123286,1,0,0:0:0:0:
475,192,123286,128,0,123453:0:0:0:0:
256,192,123370,1,0,0:0:0:0:
109,192,123370,128,0,123536:0:0:0:0:
329,192,123453,1,0,0:0:0:0:
182,192,123453,128,0,123620:0:0:0:0:
402,192,123536,1,0,0:0:0:0:
475,192,123536,128,0,123703:0:0:0:0:
36,192,123620,128,0,123786:0:0:0:0:
256,192,123620,128,0,123661:0:0:0:0:
109,192,123703,128,0,123870:0:0:0:0:
329,192,123703,128,0,123745:0:0:0:0:
182,192,123786,128,0,123953:0:0:0:0:
475,192,123786,128,0,123953:0:0:0:0:
402,192,123786,128,0,123828:0:0:0:0:
329,192,123870,128,0,123911:0:0:0:0:
36,192,123953,128,0,124370:0:0:0:0:
109,192,123953,128,0,124203:0:0:0:0:
402,192,123953,1,0,0:0:0:0:
256,192,123953,128,0,124120:0:0:0:0:
329,192,124036,128,0,124203:0:0:0:0:
182,192,124120,128,0,124370:0:0:0:0:
402,192,124120,128,0,124286:0:0:0:0:
256,192,124286,128,0,124578:0:0:0:0:
109,192,124286,128,0,124578:0:0:0:0:
475,192,124286,128,0,124370:0:0:0:0:
402,192,124370,128,0,124453:0:0:0:0:
182,192,124453,128,0,124578:0:0:0:0:
36,192,124453,128,0,124578:0:0:0:0:
329,192,124453,128,0,124536:0:0:0:0:
36,192,124620,128,0,124786:0:0:0:0:
475,192,124620,128,0,124786:0:0:0:0:
329,192,124620,1,0,0:0:0:0:
402,192,124703,128,0,124870:0:0:0:0:
256,192,124703,1,0,0:0:0:0:
329,192,124786,128,0,124953:0:0:0:0:
182,192,124786,1,0,0:0:0:0:
36,192,124870,128,0,125036:0:0:0:0:
109,192,124870,1,0,0:0:0:0:
256,192,124953,128,0,124995:0:0:0:0:
475,192,124953,128,0,125120:0:0:0:0:
182,192,125036,128,0,125078:0:0:0:0:
402,192,125036,128,0,125203:0:0:0:0:
109,192,125120,128,0,125161:0:0:0:0:
36,192,125120,128,0,125286:0:0:0:0:
329,192,125120,128,0,125286:0:0:0:0:
182,192,125203,128,0,125245:0:0:0:0:
402,192,125286,128,0,125536:0:0:0:0:
475,192,125286,128,0,125703:0:0:0:0:
256,192,125286,128,0,125453:0:0:0:0:
182,192,125370,128,0,125536:0:0:0:0:
109,192,125453,128,0,125620:0:0:0:0:
329,192,125453,128,0,125703:0:0:0:0:
36,192,125620,128,0,125786:0:0:0:0:
256,192,125620,128,0,125870:0:0:0:0:
402,192,125620,128,0,125870:0:0:0:0:
109,192,125703,128,0,125870:0:0:0:0:
475,192,125786,128,0,126036:0:0:0:0:
182,192,125786,128,0,125953:0:0:0:0:
329,192,125786,128,0,126036:0:0:0:0:
256,192,125953,128,0,126120:0:0:0:0:
402,192,125953,128,0,126120:0:0:0:0:
36,192,125953,1,0,0:0:0:0:
182,192,126036,128,0,126203:0:0:0:0:
109,192,126120,128,0,126245:0:0:0:0:
475,192,126120,128,0,126203:0:0:0:0:
36,192,126161,128,0,126328:0:0:0:0:
402,192,126203,128,0,126286:0:0:0:0:
256,192,126286,128,0,126370:0:0:0:0:
182,192,126286,1,0,0:0:0:0:
329,192,126286,1,0,0:0:0:0:
109,192,126370,1,0,0:0:0:0:
402,192,126370,1,0,0:0:0:0:
36,192,126453,1,0,0:0:0:0:
475,192,126453,1,0,0:0:0:0:
329,192,126536,1,0,0:0:0:0:
182,192,126536,1,0,0:0:0:0:
402,192,126620,1,0,0:0:0:0:
109,192,126620,1,0,0:0:0:0:
475,192,126620,128,0,127286:0:0:0:0:
36,192,126620,128,0,127286:0:0:0:0:
256,192,126620,128,0,126953:0:0:0:0:
329,192,126953,128,0,127286:0:0:0:0:
182,192,126953,128,0,127286:0:0:0:0:
109,192,126953,128,0,127286:0:0:0:0:
402,192,126953,128,0,127286:0:0:0:0:
256,192,127286,128,0,127620:0:0:0:0:
109,192,127620,128,0,128286:0:0:0:0:
182,192,127620,128,0,128286:0:0:0:0:
329,192,127620,128,0,128286:0:0:0:0:
402,192,127620,128,0,128286:0:0:0:0:
36,192,127620,128,0,128286:0:0:0:0:
475,192,127620,128,0,128286:0:0:0:0:
256,192,128286,128,0,128620:0:0:0:0:
182,192,128620,128,0,128745:0:0:0:0:
475,192,128620,128,0,128786:0:0:0:0:
329,192,128620,128,0,128786:0:0:0:0:
36,192,128620,128,0,128703:0:0:0:0:
109,192,128620,1,0,0:0:0:0:
402,192,128620,1,0,0:0:0:0:
256,192,128786,128,0,128911:0:0:0:0:
402,192,128786,128,0,128953:0:0:0:0:
109,192,128786,128,0,128870:0:0:0:0:
36,192,128786,128,0,128828:0:0:0:0:
182,192,128786,1,0,0:0:0:0:
329,192,128953,128,0,129078:0:0:0:0:
475,192,128953,128,0,129120:0:0:0:0:
109,192,128953,128,0,128995:0:0:0:0:
256,192,128953,1,0,0:0:0:0:
182,192,128953,128,0,129036:0:0:0:0:
36,192,128953,1,0,0:0:0:0:
256,192,129120,128,0,129203:0:0:0:0:
182,192,129120,128,0,129161:0:0:0:0:
109,192,129120,1,0,0:0:0:0:
329,192,129120,1,0,0:0:0:0:
402,192,129120,128,0,129245:0:0:0:0:
36,192,129120,128,0,129286:0:0:0:0:
109,192,129286,128,0,129536:0:0:0:0:
182,192,129286,128,0,129411:0:0:0:0:
256,192,129286,128,0,129328:0:0:0:0:
329,192,129286,1,0,0:0:0:0:
475,192,129370,128,0,129495:0:0:0:0:
36,192,129370,128,0,129411:0:0:0:0:
402,192,129370,128,0,129620:0:0:0:0:
329,192,129453,128,0,129536:0:0:0:0:
182,192,129536,128,0,129786:0:0:0:0:
256,192,129536,128,0,129661:0:0:0:0:
475,192,129620,128,0,129870:0:0:0:0:
109,192,129620,128,0,129661:0:0:0:0:
36,192,129620,128,0,129703:0:0:0:0:
402,192,129703,128,0,129786:0:0:0:0:
256,192,129786,128,0,129953:0:0:0:0:
329,192,129786,128,0,129870:0:0:0:0:
109,192,129786,1,0,0:0:0:0:
182,192,129870,128,0,129953:0:0:0:0:
329,192,129953,128,0,130120:0:0:0:0:
109,192,129953,128,0,130120:0:0:0:0:
402,192,129953,128,0,130286:0:0:0:0:
36,192,129953,1,0,0:0:0:0:
182,192,130120,128,0,130286:0:0:0:0:
475,192,130120,128,0,130286:0:0:0:0:
36,192,130120,128,0,130286:0:0:0:0:
256,192,130120,1,0,0:0:0:0:
256,192,130286,128,0,130453:0:0:0:0:
329,192,130286,1,0,0:0:0:0:
109,192,130328,128,0,130411:0:0:0:0:
402,192,130370,128,0,130453:0:0:0:0:
36,192,130411,128,0,130578:0:0:0:0:
329,192,130453,128,0,130620:0:0:0:0:
182,192,130495,128,0,130578:0:0:0:0:
475,192,130536,128,0,130620:0:0:0:0:
109,192,130578,128,0,130745:0:0:0:0:
402,192,130620,128,0,130786:0:0:0:0:
256,192,130661,128,0,130745:0:0:0:0:
36,192,130661,1,0,0:0:0:0:
329,192,130703,1,0,0:0:0:0:
182,192,130745,128,0,130911:0:0:0:0:
475,192,130786,128,0,130953:0:0:0:0:
109,192,130828,1,0,0:0:0:0:
402,192,130870,1,0,0:0:0:0:
256,192,130911,128,0,130953:0:0:0:0:
329,192,130953,128,0,131120:0:0:0:0:
36,192,130953,128,0,131120:0:0:0:0:
109,192,130953,1,0,0:0:0:0:
402,192,131120,128,0,131286:0:0:0:0:
256,192,131120,128,0,131286:0:0:0:0:
109,192,131120,128,0,131286:0:0:0:0:
182,192,131120,1,0,0:0:0:0:
475,192,131286,128,0,131411:0:0:0:0:
182,192,131286,128,0,131411:0:0:0:0:
36,192,131370,1,0,0:0:0:0:
329,192,131370,128,0,131411:0:0:0:0:
402,192,131453,128,0,131578:0:0:0:0:
109,192,131453,128,0,131578:0:0:0:0:
475,192,131536,1,0,0:0:0:0:
256,192,131536,128,0,131578:0:0:0:0:
329,192,131620,128,0,131745:0:0:0:0:
36,192,131620,128,0,131745:0:0:0:0:
402,192,131703,1,0,0:0:0:0:
182,192,131703,128,0,131745:0:0:0:0:
256,192,131786,128,0,131870:0:0:0:0:
475,192,131786,128,0,131911:0:0:0:0:
36,192,131870,1,0,0:0:0:0:
109,192,131870,128,0,131911:0:0:0:0:
402,192,131953,128,0,132203:0:0:0:0:
329,192,131953,128,0,132078:0:0:0:0:
256,192,131953,128,0,131995:0:0:0:0:
182,192,131953,1,0,0:0:0:0:
36,192,132036,128,0,132161:0:0:0:0:
475,192,132036,128,0,132078:0:0:0:0:
109,192,132036,128,0,132286:0:0:0:0:
182,192,132120,128,0,132203:0:0:0:0:
329,192,132203,128,0,132453:0:0:0:0:
256,192,132203,128,0,132328:0:0:0:0:
36,192,132286,128,0,132536:0:0:0:0:
475,192,132286,128,0,132370:0:0:0:0:
402,192,132286,128,0,132328:0:0:0:0:
109,192,132370,128,0,132453:0:0:0:0:
256,192,132453,128,0,132620:0:0:0:0:
182,192,132453,128,0,132536:0:0:0:0:
402,192,132453,1,0,0:0:0:0:
329,192,132536,128,0,132620:0:0:0:0:
475,192,132620,1,0,0:0:0:0:
182,192,132620,128,0,132786:0:0:0:0:
402,192,132620,128,0,132786:0:0:0:0:
109,192,132620,128,0,132953:0:0:0:0:
36,192,132620,1,0,0:0:0:0:
329,192,132786,128,0,132953:0:0:0:0:
36,192,132786,128,0,132953:0:0:0:0:
475,192,132786,128,0,132953:0:0:0:0:
256,192,132786,1,0,0:0:0:0:
256,192,132953,128,0,133120:0:0:0:0:
182,192,132953,1,0,0:0:0:0:
402,192,132995,128,0,133078:0:0:0:0:
109,192,133036,128,0,133120:0:0:0:0:
475,192,133078,128,0,133245:0:0:0:0:
182,192,133120,128,0,133286:0:0:0:0:
329,192,133161,128,0,133245:0:0:0:0:
36,192,133203,128,0,133286:0:0:0:0:
402,192,133245,128,0,133411:0:0:0:0:
109,192,133286,128,0,133453:0:0:0:0:
256,192,133328,128,0,133411:0:0:0:0:
475,192,133328,1,0,0:0:0:0:
182,192,133370,1,0,0:0:0:0:
329,192,133411,128,0,133578:0:0:0:0:
36,192,133453,128,0,133620:0:0:0:0:
402,192,133495,1,0,0:0:0:0:
109,192,133536,1,0,0:0:0:0:
256,192,133578,128,0,133620:0:0:0:0:
182,192,133620,128,0,133786:0:0:0:0:
475,192,133620,128,0,133786:0:0:0:0:
109,192,133786,128,0,133953:0:0:0:0:
256,192,133786,128,0,133953:0:0:0:0:
402,192,133786,128,0,133953:0:0:0:0:
329,192,133786,1,0,0:0:0:0:
36,192,133786,1,0,0:0:0:0:
36,192,133953,128,0,134120:0:0:0:0:
182,192,133953,1,0,0:0:0:0:
475,192,133953,128,0,134120:0:0:0:0:
329,192,133953,128,0,133995:0:0:0:0:
256,192,134036,1,0,0:0:0:0:
109,192,134036,128,0,134203:0:0:0:0:
329,192,134120,1,0,0:0:0:0:
182,192,134120,128,0,134286:0:0:0:0:
402,192,134203,1,0,0:0:0:0:
475,192,134203,128,0,134370:0:0:0:0:
36,192,134286,128,0,134453:0:0:0:0:
256,192,134286,128,0,134328:0:0:0:0:
109,192,134370,128,0,134536:0:0:0:0:
329,192,134370,128,0,134411:0:0:0:0:
182,192,134453,128,0,134620:0:0:0:0:
475,192,134453,128,0,134620:0:0:0:0:
402,192,134453,128,0,134495:0:0:0:0:
329,192,134536,128,0,134578:0:0:0:0:
256,192,134620,128,0,134786:0:0:0:0:
109,192,134620,1,0,0:0:0:0:
402,192,134620,1,0,0:0:0:0:
329,192,134703,128,0,134870:0:0:0:0:
182,192,134703,128,0,134870:0:0:0:0:
36,192,134703,1,0,0:0:0:0:
475,192,134703,1,0,0:0:0:0:
402,192,134786,128,0,134953:0:0:0:0:
109,192,134786,128,0,134953:0:0:0:0:
182,192,134953,128,0,135036:0:0:0:0:
36,192,134953,128,0,135120:0:0:0:0:
329,192,134953,128,0,135036:0:0:0:0:
475,192,134953,128,0,135120:0:0:0:0:
256,192,134953,128,0,135120:0:0:0:0:
402,192,135036,128,0,135203:0:0:0:0:
109,192,135036,128,0,135203:0:0:0:0:
329,192,135120,128,0,135286:0:0:0:0:
182,192,135120,128,0,135286:0:0:0:0:
36,192,135203,128,0,135453:0:0:0:0:
475,192,135203,128,0,135453:0:0:0:0:
256,192,135203,128,0,135703:0:0:0:0:
109,192,135286,128,0,135370:0:0:0:0:
402,192,135286,128,0,135370:0:0:0:0:
329,192,135370,128,0,135536:0:0:0:0:
182,192,135370,128,0,135620:0:0:0:0:
109,192,135453,128,0,135536:0:0:0:0:
402,192,135453,128,0,135620:0:0:0:0:
36,192,135536,128,0,135703:0:0:0:0:
475,192,135536,128,0,135703:0:0:0:0:
109,192,135620,128,0,135786:0:0:0:0:
329,192,135620,128,0,135786:0:0:0:0:
182,192,135703,128,0,135870:0:0:0:0:
402,192,135703,128,0,135870:0:0:0:0:
256,192,135786,128,0,135953:0:0:0:0:
475,192,135786,128,0,135953:0:0:0:0:
36,192,135786,128,0,135953:0:0:0:0:
109,192,135870,128,0,135953:0:0:0:0:
329,192,135870,128,0,135953:0:0:0:0:
402,192,135953,128,0,136120:0:0:0:0:
182,192,135953,1,0,0:0:0:0:
109,192,136036,1,0,0:0:0:0:
475,192,136036,128,0,136203:0:0:0:0:
329,192,136036,1,0,0:0:0:0:
36,192,136120,1,0,0:0:0:0:
256,192,136120,1,0,0:0:0:0:
182,192,136203,1,0,0:0:0:0:
329,192,136286,128,0,136453:0:0:0:0:
256,192,136286,1,0,0:0:0:0:
36,192,136286,1,0,0:0:0:0:
182,192,136370,1,0,0:0:0:0:
402,192,136370,128,0,136536:0:0:0:0:
109,192,136453,1,0,0:0:0:0:
475,192,136453,1,0,0:0:0:0:
36,192,136536,1,0,0:0:0:0:
109,192,136620,128,0,136786:0:0:0:0:
329,192,136620,1,0,0:0:0:0:
36,192,136703,128,0,136870:0:0:0:0:
182,192,136703,1,0,0:0:0:0:
402,192,136703,1,0,0:0:0:0:
256,192,136786,1,0,0:0:0:0:
475,192,136786,1,0,0:0:0:0:
329,192,136870,1,0,0:0:0:0:
182,192,136953,128,0,137120:0:0:0:0:
256,192,136953,1,0,0:0:0:0:
475,192,136953,1,0,0:0:0:0:
329,192,137036,1,0,0:0:0:0:
109,192,137036,128,0,137203:0:0:0:0:
402,192,137120,1,0,0:0:0:0:
329,192,137203,1,0,0:0:0:0:
36,192,137286,128,0,137536:0:0:0:0:
109,192,137286,128,0,137536:0:0:0:0:
256,192,137286,128,0,137536:0:0:0:0:
402,192,137286,128,0,137536:0:0:0:0:
475,192,137286,1,0,0:0:0:0:
475,192,137620,1,0,0:0:0:0:
182,192,137620,128,0,137703:0:0:0:0:
109,192,137620,128,0,137703:0:0:0:0:
329,192,137620,128,0,137661:0:0:0:0:
329,192,137786,1,0,0:0:0:0:
475,192,137786,1,0,0:0:0:0:
109,192,137786,1,0,0:0:0:0:
182,192,137786,1,0,0:0:0:0:
475,192,137953,1,0,0:0:0:0:
36,192,137953,128,0,138036:0:0:0:0:
329,192,137953,1,0,0:0:0:0:
182,192,137953,128,0,138036:0:0:0:0:
256,192,137953,128,0,138036:0:0:0:0:
402,192,137953,128,0,137995:0:0:0:0:
182,192,138120,1,0,0:0:0:0:
256,192,138120,1,0,0:0:0:0:
36,192,138120,1,0,0:0:0:0:
402,192,138120,1,0,0:0:0:0:
109,192,138286,128,0,138536:0:0:0:0:
402,192,138286,1,0,0:0:0:0:
36,192,138286,1,0,0:0:0:0:
256,192,138286,128,0,138536:0:0:0:0:
329,192,138286,128,0,138536:0:0:0:0:
475,192,138286,128,0,138536:0:0:0:0:
109,192,138620,128,0,138703:0:0:0:0:
256,192,138620,128,0,138703:0:0:0:0:
329,192,138620,128,0,138703:0:0:0:0:
475,192,138620,128,0,138703:0:0:0:0:
256,192,138786,1,0,0:0:0:0:
109,192,138786,1,0,0:0:0:0:
402,192,138786,128,0,138870:0:0:0:0:
329,192,138953,128,0,139036:0:0:0:0:
182,192,138953,1,0,0:0:0:0:
36,192,138953,1,0,0:0:0:0:
256,192,139120,128,0,139203:0:0:0:0:
109,192,139120,1,0,0:0:0:0:
402,192,139120,1,0,0:0:0:0:
402,192,139286,128,0,139370:0:0:0:0:
182,192,139286,1,0,0:0:0:0:
475,192,139286,1,0,0:0:0:0:
329,192,139286,1,0,0:0:0:0:
36,192,139286,1,0,0:0:0:0:
256,192,139370,1,0,0:0:0:0:
329,192,139453,128,0,139536:0:0:0:0:
109,192,139453,1,0,0:0:0:0:
182,192,139536,1,0,0:0:0:0:
256,192,139620,128,0,139661:0:0:0:0:
329,192,139620,1,0,0:0:0:0:
36,192,139620,1,0,0:0:0:0:
475,192,139620,1,0,0:0:0:0:
402,192,139786,1,0,0:0:0:0:
329,192,139828,1,0,0:0:0:0:
182,192,139828,1,0,0:0:0:0:
109,192,139870,1,0,0:0:0:0:
256,192,139953,1,0,0:0:0:0:
36,192,139953,1,0,0:0:0:0:
475,192,139953,128,0,140078:0:0:0:0:
402,192,139953,1,0,0:0:0:0:
329,192,140036,1,0,0:0:0:0:
36,192,140120,128,0,140245:0:0:0:0:
109,192,140120,1,0,0:0:0:0:
256,192,140120,1,0,0:0:0:0:
182,192,140203,1,0,0:0:0:0:
475,192,140286,128,0,140411:0:0:0:0:
256,192,140286,1,0,0:0:0:0:
402,192,140286,1,0,0:0:0:0:
329,192,140370,1,0,0:0:0:0:
36,192,140453,128,0,140578:0:0:0:0:
256,192,140453,1,0,0:0:0:0:
109,192,140453,1,0,0:0:0:0:
182,192,140536,1,0,0:0:0:0:
402,192,140620,128,0,140745:0:0:0:0:
329,192,140620,1,0,0:0:0:0:
475,192,140620,128,0,140745:0:0:0:0:
256,192,140620,128,0,140703:0:0:0:0:
109,192,140620,1,0,0:0:0:0:
182,192,140703,128,0,140786:0:0:0:0:
109,192,140786,128,0,140911:0:0:0:0:
36,192,140786,128,0,140911:0:0:0:0:
256,192,140786,128,0,140870:0:0:0:0:
329,192,140870,128,0,140953:0:0:0:0:
402,192,140953,128,0,141078:0:0:0:0:
475,192,140953,128,0,141078:0:0:0:0:
256,192,140953,128,0,141036:0:0:0:0:
182,192,141036,128,0,141120:0:0:0:0:
109,192,141120,128,0,141245:0:0:0:0:
36,192,141120,128,0,141245:0:0:0:0:
256,192,141120,128,0,141203:0:0:0:0:
329,192,141203,128,0,141286:0:0:0:0:
182,192,141286,128,0,141453:0:0:0:0:
402,192,141286,128,0,141453:0:0:0:0:
475,192,141286,128,0,141453:0:0:0:0:
256,192,141370,128,0,141536:0:0:0:0:
329,192,141453,128,0,141620:0:0:0:0:
36,192,141453,128,0,141620:0:0:0:0:
109,192,141453,128,0,141620:0:0:0:0:
182,192,141536,128,0,141703:0:0:0:0:
256,192,141620,128,0,141786:0:0:0:0:
402,192,141620,128,0,141786:0:0:0:0:
475,192,141620,128,0,141786:0:0:0:0:
329,192,141703,128,0,141870:0:0:0:0:
36,192,141786,128,0,141953:0:0:0:0:
109,192,141786,128,0,141953:0:0:0:0:
182,192,141786,128,0,141953:0:0:0:0:
256,192,141870,128,0,142036:0:0:0:0:
402,192,141953,128,0,142203:0:0:0:0:
475,192,141953,128,0,142286:0:0:0:0:
329,192,141953,128,0,142120:0:0:0:0:
182,192,142036,128,0,142203:0:0:0:0:
109,192,142036,128,0,142120:0:0:0:0:
256,192,142120,128,0,142286:0:0:0:0:
36,192,142120,128,0,142286:0:0:0:0:
329,192,142203,128,0,142370:0:0:0:0:
109,192,142203,128,0,142370:0:0:0:0:
402,192,142286,128,0,142453:0:0:0:0:
182,192,142286,128,0,142453:0:0:0:0:
475,192,142370,128,0,142536:0:0:0:0:
256,192,142370,128,0,142536:0:0:0:0:
36,192,142370,128,0,142620:0:0:0:0:
329,192,142453,128,0,142620:0:0:0:0:
109,192,142453,128,0,142620:0:0:0:0:
402,192,142536,128,0,142620:0:0:0:0:
182,192,142536,128,0,142620:0:0:0:0:
475,192,142620,128,0,142786:0:0:0:0:
256,192,142620,128,0,142703:0:0:0:0:
36,192,142703,128,0,142828:0:0:0:0:
182,192,142703,128,0,142786:0:0:0:0:
256,192,142786,128,0,142911:0:0:0:0:
402,192,142786,128,0,142870:0:0:0:0:
475,192,142870,128,0,142953:0:0:0:0:
109,192,142870,128,0,142953:0:0:0:0:
402,192,142953,128,0,143036:0:0:0:0:
36,192,142953,128,0,143036:0:0:0:0:
182,192,142953,128,0,143036:0:0:0:0:
329,192,143036,128,0,143120:0:0:0:0:
109,192,143036,128,0,143120:0:0:0:0:
256,192,143036,128,0,143120:0:0:0:0:
475,192,143036,128,0,143120:0:0:0:0:
182,192,143120,128,0,143203:0:0:0:0:
402,192,143120,128,0,143203:0:0:0:0:
256,192,143203,128,0,143286:0:0:0:0:
475,192,143203,128,0,143286:0:0:0:0:
109,192,143203,128,0,143286:0:0:0:0:
36,192,143286,128,0,143536:0:0:0:0:
182,192,143286,1,0,0:0:0:0:
329,192,143286,128,0,143370:0:0:0:0:
256,192,143370,1,0,0:0:0:0:
402,192,143370,128,0,143453:0:0:0:0:
182,192,143453,128,0,143703:0:0:0:0:
109,192,143453,1,0,0:0:0:0:
329,192,143453,1,0,0:0:0:0:
475,192,143453,128,0,143536:0:0:0:0:
402,192,143536,1,0,0:0:0:0:
329,192,143620,128,0,143870:0:0:0:0:
36,192,143620,128,0,143703:0:0:0:0:
475,192,143620,1,0,0:0:0:0:
256,192,143620,1,0,0:0:0:0:
109,192,143703,128,0,143786:0:0:0:0:
475,192,143786,128,0,143953:0:0:0:0:
402,192,143786,1,0,0:0:0:0:
182,192,143786,128,0,143870:0:0:0:0:
256,192,143870,128,0,143953:0:0:0:0:
109,192,143870,1,0,0:0:0:0:
36,192,143870,128,0,144036:0:0:0:0:
402,192,143953,128,0,144036:0:0:0:0:
182,192,143953,1,0,0:0:0:0:
329,192,144036,128,0,144120:0:0:0:0:
475,192,144036,1,0,0:0:0:0:
109,192,144036,1,0,0:0:0:0:
256,192,144036,128,0,144370:0:0:0:0:
402,192,144120,1,0,0:0:0:0:
182,192,144120,128,0,144286:0:0:0:0:
329,192,144203,1,0,0:0:0:0:
109,192,144203,1,0,0:0:0:0:
475,192,144286,128,0,144453:0:0:0:0:
36,192,144286,128,0,144453:0:0:0:0:
402,192,144370,128,0,144536:0:0:0:0:
182,192,144370,128,0,144536:0:0:0:0:
329,192,144453,128,0,144620:0:0:0:0:
256,192,144536,128,0,144703:0:0:0:0:
36,192,144536,128,0,144703:0:0:0:0:
109,192,144536,1,0,0:0:0:0:
475,192,144536,1,0,0:0:0:0:
182,192,144620,128,0,144786:0:0:0:0:
402,192,144620,1,0,0:0:0:0:
109,192,144703,128,0,144870:0:0:0:0:
329,192,144703,1,0,0:0:0:0:
475,192,144703,128,0,144953:0:0:0:0:
36,192,144786,128,0,144953:0:0:0:0:
256,192,144786,1,0,0:0:0:0:
402,192,144786,128,0,144953:0:0:0:0:
182,192,144870,1,0,0:0:0:0:
329,192,144870,128,0,144953:0:0:0:0:
256,192,144953,128,0,144995:0:0:0:0:
109,192,144953,128,0,145036:0:0:0:0:
182,192,145120,128,0,145203:0:0:0:0:
329,192,145120,128,0,145161:0:0:0:0:
36,192,145286,128,0,145453:0:0:0:0:
329,192,145286,1,0,0:0:0:0:
109,192,145286,1,0,0:0:0:0:
475,192,145286,1,0,0:0:0:0:
256,192,145370,1,0,0:0:0:0:
182,192,145453,1,0,0:0:0:0:
109,192,145453,128,0,145620:0:0:0:0:
402,192,145453,128,0,145495:0:0:0:0:
475,192,145453,1,0,0:0:0:0:
329,192,145536,128,0,145578:0:0:0:0:
256,192,145620,128,0,145661:0:0:0:0:
182,192,145620,128,0,145786:0:0:0:0:
475,192,145620,128,0,145703:0:0:0:0:
36,192,145620,1,0,0:0:0:0:
402,192,145703,128,0,145786:0:0:0:0:
109,192,145703,128,0,145870:0:0:0:0:
329,192,145786,128,0,145870:0:0:0:0:
36,192,145786,128,0,145870:0:0:0:0:
475,192,145786,1,0,0:0:0:0:
256,192,145870,128,0,145953:0:0:0:0:
402,192,145870,1,0,0:0:0:0:
182,192,145953,128,0,146036:0:0:0:0:
36,192,145953,128,0,146203:0:0:0:0:
109,192,145953,128,0,146203:0:0:0:0:
475,192,145953,128,0,146120:0:0:0:0:
329,192,145953,1,0,0:0:0:0:
402,192,146036,128,0,146203:0:0:0:0:
256,192,146036,1,0,0:0:0:0:
329,192,146120,128,0,146286:0:0:0:0:
182,192,146120,1,0,0:0:0:0:
256,192,146203,128,0,146370:0:0:0:0:
475,192,146203,128,0,146245:0:0:0:0:
36,192,146286,128,0,146370:0:0:0:0:
109,192,146286,128,0,146370:0:0:0:0:
402,192,146286,128,0,146328:0:0:0:0:
182,192,146286,1,0,0:0:0:0:
329,192,146370,128,0,146411:0:0:0:0:
36,192,146453,128,0,146620:0:0:0:0:
109,192,146453,128,0,146620:0:0:0:0:
256,192,146453,128,0,146495:0:0:0:0:
475,192,146453,1,0,0:0:0:0:
182,192,146536,128,0,146703:0:0:0:0:
329,192,146536,128,0,146578:0:0:0:0:
256,192,146620,128,0,146786:0:0:0:0:
402,192,146620,128,0,146661:0:0:0:0:
329,192,146703,128,0,146870:0:0:0:0:
475,192,146703,128,0,146745:0:0:0:0:
109,192,146703,128,0,146745:0:0:0:0:
402,192,146786,128,0,146953:0:0:0:0:
182,192,146786,128,0,146828:0:0:0:0:
36,192,146786,128,0,146953:0:0:0:0:
256,192,146870,128,0,146911:0:0:0:0:
109,192,146870,128,0,147036:0:0:0:0:
182,192,146953,128,0,147120:0:0:0:0:
329,192,146953,128,0,147036:0:0:0:0:
475,192,146953,1,0,0:0:0:0:
36,192,147036,128,0,147120:0:0:0:0:
256,192,147036,128,0,147203:0:0:0:0:
402,192,147036,128,0,147120:0:0:0:0:
329,192,147120,128,0,147286:0:0:0:0:
109,192,147120,128,0,147203:0:0:0:0:
475,192,147120,128,0,147203:0:0:0:0:
402,192,147203,128,0,147286:0:0:0:0:
182,192,147203,128,0,147286:0:0:0:0:
36,192,147203,1,0,0:0:0:0:
256,192,147286,128,0,147328:0:0:0:0:
475,192,147286,128,0,147328:0:0:0:0:
109,192,147370,128,0,147411:0:0:0:0:
329,192,147370,128,0,147411:0:0:0:0:
402,192,147370,1,0,0:0:0:0:
36,192,147370,1,0,0:0:0:0:
256,192,147453,128,0,147495:0:0:0:0:
475,192,147453,128,0,147495:0:0:0:0:
182,192,147453,1,0,0:0:0:0:
109,192,147536,128,0,147578:0:0:0:0:
402,192,147536,128,0,147578:0:0:0:0:
36,192,147536,1,0,0:0:0:0:
329,192,147536,1,0,0:0:0:0:
256,192,147620,128,0,147786:0:0:0:0:
475,192,147620,128,0,147786:0:0:0:0:
182,192,147620,1,0,0:0:0:0:
36,192,147703,128,0,147745:0:0:0:0:
109,192,147703,1,0,0:0:0:0:
329,192,147703,1,0,0:0:0:0:
182,192,147786,128,0,147953:0:0:0:0:
402,192,147786,128,0,147953:0:0:0:0:
109,192,147870,1,0,0:0:0:0:
329,192,147870,1,0,0:0:0:0:
36,192,147953,128,0,148286:0:0:0:0:
256,192,147953,128,0,148286:0:0:0:0:
475,192,147953,128,0,148286:0:0:0:0:
109,192,148286,1,0,0:0:0:0:
182,192,148286,1,0,0:0:0:0:
329,192,148286,1,0,0:0:0:0:
402,192,148286,1,0,0:0:0:0:
36,192,148453,128,0,148495:0:0:0:0:
256,192,148453,128,0,148495:0:0:0:0:
475,192,148453,128,0,148495:0:0:0:0:
329,192,148453,1,0,0:0:0:0:
182,192,148620,128,0,148661:0:0:0:0:
256,192,148620,1,0,0:0:0:0:
402,192,148620,128,0,148661:0:0:0:0:
109,192,148786,128,0,148828:0:0:0:0:
182,192,148786,1,0,0:0:0:0:
329,192,148786,128,0,148828:0:0:0:0:
475,192,148786,128,0,148828:0:0:0:0:
402,192,148953,128,0,149203:0:0:0:0:
256,192,148953,128,0,149370:0:0:0:0:
182,192,148953,128,0,149536:0:0:0:0:
329,192,148953,128,0,149370:0:0:0:0:
109,192,148953,128,0,149203:0:0:0:0:
36,192,148953,128,0,149536:0:0:0:0:
475,192,148953,128,0,149203:0:0:0:0:
109,192,149286,128,0,149870:0:0:0:0:
402,192,149286,128,0,149536:0:0:0:0:
475,192,149286,128,0,149536:0:0:0:0:
256,192,149453,128,0,149703:0:0:0:0:
329,192,149453,128,0,149870:0:0:0:0:
182,192,149620,128,0,149870:0:0:0:0:
36,192,149620,128,0,150036:0:0:0:0:
402,192,149620,128,0,150036:0:0:0:0:
475,192,149620,128,0,150036:0:0:0:0:
256,192,149786,128,0,150036:0:0:0:0:
109,192,149953,128,0,150203:0:0:0:0:
182,192,149953,128,0,150203:0:0:0:0:
329,192,149953,128,0,150370:0:0:0:0:
36,192,150120,128,0,150370:0:0:0:0:
256,192,150120,128,0,150370:0:0:0:0:
402,192,150120,128,0,150203:0:0:0:0:
475,192,150120,128,0,150203:0:0:0:0:
109,192,150286,128,0,150370:0:0:0:0:
182,192,150286,128,0,150536:0:0:0:0:
475,192,150286,128,0,150536:0:0:0:0:
402,192,150286,128,0,150536:0:0:0:0:
256,192,150453,128,0,150536:0:0:0:0:
329,192,150453,128,0,150536:0:0:0:0:
36,192,150453,128,0,150536:0:0:0:0:
109,192,150453,128,0,150536:0:0:0:0:
36,192,150620,128,0,150786:0:0:0:0:
256,192,150620,128,0,150703:0:0:0:0:
475,192,150620,128,0,150703:0:0:0:0:
109,192,150620,128,0,150661:0:0:0:0:
329,192,150620,128,0,150661:0:0:0:0:
182,192,150703,128,0,150786:0:0:0:0:
402,192,150703,128,0,150786:0:0:0:0:
109,192,150786,128,0,150953:0:0:0:0:
329,192,150786,128,0,150870:0:0:0:0:
256,192,150870,128,0,150953:0:0:0:0:
475,192,150870,128,0,150953:0:0:0:0:
36,192,150870,1,0,0:0:0:0:
182,192,150953,128,0,151120:0:0:0:0:
402,192,150953,128,0,151036:0:0:0:0:
329,192,151036,128,0,151120:0:0:0:0:
36,192,151036,128,0,151120:0:0:0:0:
256,192,151120,128,0,151286:0:0:0:0:
109,192,151120,128,0,151203:0:0:0:0:
402,192,151120,128,0,151203:0:0:0:0:
182,192,151203,128,0,151286:0:0:0:0:
475,192,151203,128,0,151286:0:0:0:0:
329,192,151286,128,0,151370:0:0:0:0:
109,192,151286,128,0,151370:0:0:0:0:
36,192,151286,1,0,0:0:0:0:
402,192,151370,128,0,151453:0:0:0:0:
182,192,151370,128,0,151453:0:0:0:0:
475,192,151453,128,0,151536:0:0:0:0:
256,192,151453,128,0,151536:0:0:0:0:
36,192,151453,128,0,151536:0:0:0:0:
109,192,151536,128,0,151620:0:0:0:0:
329,192,151536,128,0,151620:0:0:0:0:
182,192,151620,128,0,151786:0:0:0:0:
402,192,151620,128,0,151786:0:0:0:0:
256,192,151703,128,0,151870:0:0:0:0:
475,192,151703,128,0,151870:0:0:0:0:
36,192,151703,128,0,151870:0:0:0:0:
329,192,151786,128,0,151953:0:0:0:0:
109,192,151786,128,0,151953:0:0:0:0:
402,192,151870,128,0,151953:0:0:0:0:
182,192,151870,128,0,151953:0:0:0:0:
475,192,151953,128,0,152120:0:0:0:0:
256,192,151953,128,0,152120:0:0:0:0:
36,192,151953,128,0,152036:0:0:0:0:
329,192,152036,128,0,152203:0:0:0:0:
109,192,152036,128,0,152120:0:0:0:0:
402,192,152120,128,0,152286:0:0:0:0:
182,192,152120,128,0,152203:0:0:0:0:
36,192,152120,128,0,152370:0:0:0:0:
256,192,152203,128,0,152370:0:0:0:0:
109,192,152203,128,0,152286:0:0:0:0:
475,192,152203,128,0,152370:0:0:0:0:
329,192,152286,128,0,152453:0:0:0:0:
182,192,152286,128,0,152453:0:0:0:0:
109,192,152370,128,0,152453:0:0:0:0:
402,192,152370,128,0,152453:0:0:0:0:
36,192,152453,128,0,152620:0:0:0:0:
256,192,152453,128,0,152536:0:0:0:0:
475,192,152453,128,0,152536:0:0:0:0:
182,192,152536,128,0,152620:0:0:0:0:
402,192,152536,128,0,152620:0:0:0:0:
109,192,152620,128,0,152786:0:0:0:0:
329,192,152620,128,0,152703:0:0:0:0:
256,192,152703,128,0,152786:0:0:0:0:
475,192,152703,128,0,152786:0:0:0:0:
182,192,152786,128,0,152953:0:0:0:0:
402,192,152786,128,0,152870:0:0:0:0:
329,192,152870,128,0,152953:0:0:0:0:
36,192,152870,1,0,0:0:0:0:
256,192,152953,128,0,153120:0:0:0:0:
475,192,152953,128,0,153036:0:0:0:0:
109,192,152953,1,0,0:0:0:0:
402,192,153036,128,0,153120:0:0:0:0:
36,192,153036,128,0,153120:0:0:0:0:
182,192,153036,1,0,0:0:0:0:
329,192,153120,128,0,153286:0:0:0:0:
109,192,153120,128,0,153203:0:0:0:0:
182,192,153203,128,0,153286:0:0:0:0:
402,192,153286,128,0,153370:0:0:0:0:
475,192,153286,128,0,153953:0:0:0:0:
256,192,153286,1,0,0:0:0:0:
36,192,153286,1,0,0:0:0:0:
329,192,153370,128,0,153453:0:0:0:0:
182,192,153370,1,0,0:0:0:0:
256,192,153453,128,0,153536:0:0:0:0:
402,192,153453,128,0,153870:0:0:0:0:
109,192,153453,1,0,0:0:0:0:
182,192,153536,128,0,153620:0:0:0:0:
329,192,153536,128,0,153786:0:0:0:0:
36,192,153536,1,0,0:0:0:0:
256,192,153620,128,0,153703:0:0:0:0:
109,192,153620,128,0,153703:0:0:0:0:
182,192,153703,128,0,153786:0:0:0:0:
256,192,153786,128,0,153870:0:0:0:0:
36,192,153786,1,0,0:0:0:0:
329,192,153870,128,0,153953:0:0:0:0:
109,192,153870,1,0,0:0:0:0:
36,192,153953,128,0,154120:0:0:0:0:
182,192,153953,128,0,154036:0:0:0:0:
402,192,153953,128,0,154036:0:0:0:0:
109,192,153995,128,0,154161:0:0:0:0:
256,192,154078,128,0,154161:0:0:0:0:
475,192,154078,128,0,154161:0:0:0:0:
182,192,154203,128,0,154328:0:0:0:0:
329,192,154203,128,0,154286:0:0:0:0:
256,192,154245,128,0,154370:0:0:0:0:
475,192,154286,128,0,154370:0:0:0:0:
36,192,154286,128,0,154370:0:0:0:0:
109,192,154411,128,0,154495:0:0:0:0:
329,192,154411,128,0,154578:0:0:0:0:
402,192,154453,128,0,154620:0:0:0:0:
182,192,154536,128,0,154620:0:0:0:0:
256,192,154620,128,0,154786:0:0:0:0:
36,192,154620,128,0,154786:0:0:0:0:
475,192,154620,128,0,154786:0:0:0:0:
109,192,154703,128,0,154870:0:0:0:0:
402,192,154703,128,0,154870:0:0:0:0:
182,192,154786,128,0,154953:0:0:0:0:
329,192,154786,128,0,154953:0:0:0:0:
256,192,154953,128,0,155036:0:0:0:0:
109,192,154953,128,0,155036:0:0:0:0:
402,192,154953,128,0,155036:0:0:0:0:
36,192,154953,128,0,155453:0:0:0:0:
475,192,154953,128,0,155453:0:0:0:0:
329,192,155036,128,0,155120:0:0:0:0:
182,192,155036,128,0,155120:0:0:0:0:
109,192,155120,128,0,155370:0:0:0:0:
402,192,155120,128,0,155370:0:0:0:0:
256,192,155120,128,0,155203:0:0:0:0:
182,192,155203,128,0,155286:0:0:0:0:
329,192,155203,128,0,155286:0:0:0:0:
256,192,155286,128,0,155870:0:0:0:0:
182,192,155370,128,0,155620:0:0:0:0:
329,192,155370,128,0,155620:0:0:0:0:
109,192,155453,128,0,155536:0:0:0:0:
402,192,155453,128,0,155536:0:0:0:0:
36,192,155536,128,0,155786:0:0:0:0:
475,192,155536,128,0,155786:0:0:0:0:
109,192,155620,128,0,155703:0:0:0:0:
402,192,155620,128,0,155703:0:0:0:0:
182,192,155703,128,0,155870:0:0:0:0:
329,192,155703,128,0,155870:0:0:0:0:
109,192,155786,128,0,155870:0:0:0:0:
402,192,155786,128,0,155870:0:0:0:0:
256,192,155953,128,0,156536:0:0:0:0:
329,192,155953,128,0,156120:0:0:0:0:
109,192,155953,128,0,156036:0:0:0:0:
36,192,155953,128,0,156120:0:0:0:0:
475,192,155953,128,0,156036:0:0:0:0:
182,192,156036,128,0,156453:0:0:0:0:
402,192,156036,128,0,156203:0:0:0:0:
109,192,156120,128,0,156370:0:0:0:0:
475,192,156120,128,0,156286:0:0:0:0:
36,192,156203,128,0,156286:0:0:0:0:
329,192,156203,128,0,156370:0:0:0:0:
402,192,156286,128,0,156453:0:0:0:0:
475,192,156370,128,0,156536:0:0:0:0:
36,192,156370,128,0,156536:0:0:0:0:
329,192,156453,128,0,156620:0:0:0:0:
109,192,156453,128,0,156620:0:0:0:0:
402,192,156536,128,0,156620:0:0:0:0:
182,192,156536,128,0,156620:0:0:0:0:
36,192,156620,128,0,157286:0:0:0:0:
475,192,156620,1,0,0:0:0:0:
109,192,156703,128,0,157203:0:0:0:0:
256,192,156703,1,0,0:0:0:0:
402,192,156703,1,0,0:0:0:0:
182,192,156786,128,0,157120:0:0:0:0:
329,192,156786,1,0,0:0:0:0:
475,192,156786,1,0,0:0:0:0:
256,192,156870,128,0,157036:0:0:0:0:
402,192,156870,1,0,0:0:0:0:
329,192,156953,1,0,0:0:0:0:
475,192,156953,1,0,0:0:0:0:
402,192,157036,1,0,0:0:0:0:
329,192,157120,1,0,0:0:0:0:
475,192,157120,1,0,0:0:0:0:
256,192,157203,1,0,0:0:0:0:
402,192,157203,1,0,0:0:0:0:
475,192,157286,128,0,157953:0:0:0:0:
182,192,157286,128,0,157328:0:0:0:0:
329,192,157286,128,0,157328:0:0:0:0:
402,192,157370,128,0,157870:0:0:0:0:
109,192,157370,128,0,157411:0:0:0:0:
256,192,157370,128,0,157411:0:0:0:0:
329,192,157453,128,0,157786:0:0:0:0:
182,192,157453,128,0,157495:0:0:0:0:
36,192,157453,128,0,157495:0:0:0:0:
256,192,157536,128,0,157703:0:0:0:0:
109,192,157536,128,0,157578:0:0:0:0:
36,192,157620,128,0,157661:0:0:0:0:
182,192,157620,128,0,157661:0:0:0:0:
109,192,157703,128,0,157745:0:0:0:0:
182,192,157786,128,0,157828:0:0:0:0:
36,192,157786,128,0,157828:0:0:0:0:
256,192,157870,128,0,157911:0:0:0:0:
109,192,157870,128,0,157911:0:0:0:0:
36,192,157953,128,0,158620:0:0:0:0:
182,192,157953,128,0,158036:0:0:0:0:
329,192,157953,128,0,158036:0:0:0:0:
109,192,158036,128,0,158536:0:0:0:0:
256,192,158036,128,0,158120:0:0:0:0:
402,192,158036,128,0,158120:0:0:0:0:
182,192,158120,128,0,158453:0:0:0:0:
329,192,158120,128,0,158203:0:0:0:0:
475,192,158120,128,0,158203:0:0:0:0:
256,192,158203,128,0,158370:0:0:0:0:
402,192,158203,128,0,158286:0:0:0:0:
329,192,158286,128,0,158370:0:0:0:0:
475,192,158286,128,0,158370:0:0:0:0:
402,192,158370,128,0,158453:0:0:0:0:
329,192,158453,128,0,158536:0:0:0:0:
475,192,158453,128,0,158536:0:0:0:0:
402,192,158536,128,0,158620:0:0:0:0:
256,192,158536,128,0,158620:0:0:0:0:
182,192,158620,128,0,161286:0:0:0:0:
329,192,158620,128,0,161286:0:0:0:0:
475,192,158620,128,0,161286:0:0:0:0:
109,192,158620,128,0,161286:0:0:0:0:
36,192,161536,128,0,162953:0:0:0:0:
256,192,162953,128,0,165286:0:0:0:0:
256,192,166536,5,0,0:0:0:0:
475,192,166536,1,0,0:0:0:0:
182,192,166578,1,0,0:0:0:0:
402,192,166578,1,0,0:0:0:0:
109,192,166620,1,0,0:0:0:0:
329,192,166620,1,0,0:0:0:0:
36,192,166620,1,0,0:0:0:0:
109,192,167203,1,0,0:0:0:0:
329,192,167203,1,0,0:0:0:0:
182,192,167245,1,0,0:0:0:0:
402,192,167245,1,0,0:0:0:0:
256,192,167286,1,0,0:0:0:0:
475,192,167286,1,0,0:0:0:0:
36,192,167286,1,0,0:0:0:0:
109,192,167828,1,0,0:0:0:0:
329,192,167828,1,0,0:0:0:0:
182,192,167911,1,0,0:0:0:0:
402,192,167911,1,0,0:0:0:0:
36,192,167953,1,0,0:0:0:0:
256,192,167953,1,0,0:0:0:0:
256,192,169203,1,0,0:0:0:0:
475,192,169203,1,0,0:0:0:0:
182,192,169245,1,0,0:0:0:0:
402,192,169245,1,0,0:0:0:0:
109,192,169286,1,0,0:0:0:0:
329,192,169286,1,0,0:0:0:0:
36,192,169286,1,0,0:0:0:0:
329,192,169870,1,0,0:0:0:0:
109,192,169870,1,0,0:0:0:0:
402,192,169911,1,0,0:0:0:0:
182,192,169911,1,0,0:0:0:0:
256,192,169953,1,0,0:0:0:0:
475,192,169953,1,0,0:0:0:0:
36,192,169953,1,0,0:0:0:0:
402,192,170495,1,0,0:0:0:0:
182,192,170495,1,0,0:0:0:0:
329,192,170578,1,0,0:0:0:0:
109,192,170578,1,0,0:0:0:0:
475,192,170620,1,0,0:0:0:0:
256,192,170620,1,0,0:0:0:0:
329,192,171161,1,0,0:0:0:0:
36,192,171161,1,0,0:0:0:0:
402,192,171182,1,0,0:0:0:0:
109,192,171182,1,0,0:0:0:0:
475,192,171203,1,0,0:0:0:0:
182,192,171203,1,0,0:0:0:0:
256,192,171286,128,0,171703:0:0:0:0:
256,192,171786,1,0,0:0:0:0:
36,192,171953,128,0,171995:0:0:0:0:
256,192,171953,1,0,0:0:0:0:
182,192,171953,1,0,0:0:0:0:
109,192,172120,1,0,0:0:0:0:
182,192,172286,1,0,0:0:0:0:
256,192,172453,1,0,0:0:0:0:
475,192,172453,1,0,0:0:0:0:
402,192,172620,1,0,0:0:0:0:
329,192,172786,1,0,0:0:0:0:
256,192,172953,1,0,0:0:0:0:
36,192,172953,1,0,0:0:0:0:
475,192,172953,1,0,0:0:0:0:
109,192,173120,1,0,0:0:0:0:
182,192,173286,128,0,173536:0:0:0:0:
475,192,173286,128,0,173536:0:0:0:0:
109,192,173661,128,0,173703:0:0:0:0:
329,192,173661,128,0,173703:0:0:0:0:
109,192,173786,128,0,173870:0:0:0:0:
329,192,173786,128,0,173870:0:0:0:0:
182,192,173953,128,0,174286:0:0:0:0:
402,192,173953,128,0,174286:0:0:0:0:
256,192,174286,128,0,174328:0:0:0:0:
256,192,174453,128,0,174536:0:0:0:0:
182,192,174620,128,0,174786:0:0:0:0:
329,192,174620,128,0,174786:0:0:0:0:
109,192,174953,128,0,175120:0:0:0:0:
402,192,174953,128,0,175120:0:0:0:0:
256,192,175286,1,0,0:0:0:0:
36,192,175286,128,0,175453:0:0:0:0:
475,192,175286,128,0,175453:0:0:0:0:
256,192,175620,1,0,0:0:0:0:
109,192,175620,128,0,175786:0:0:0:0:
402,192,175620,128,0,175786:0:0:0:0:
36,192,175953,128,0,176120:0:0:0:0:
329,192,175953,128,0,176120:0:0:0:0:
475,192,175953,128,0,176120:0:0:0:0:
182,192,175953,1,0,0:0:0:0:
256,192,175953,1,0,0:0:0:0:
109,192,176286,128,0,176453:0:0:0:0:
256,192,176286,128,0,176453:0:0:0:0:
402,192,176286,128,0,176453:0:0:0:0:
36,192,176286,1,0,0:0:0:0:
475,192,176286,1,0,0:0:0:0:
182,192,176620,128,0,176786:0:0:0:0:
36,192,176620,128,0,176786:0:0:0:0:
475,192,176620,128,0,176786:0:0:0:0:
256,192,176620,1,0,0:0:0:0:
329,192,176620,1,0,0:0:0:0:
475,192,176953,1,0,0:0:0:0:
36,192,176953,1,0,0:0:0:0:
109,192,176953,128,0,177120:0:0:0:0:
402,192,176953,128,0,177120:0:0:0:0:
256,192,176953,128,0,177120:0:0:0:0:
256,192,177286,128,0,177453:0:0:0:0:
182,192,177286,128,0,177453:0:0:0:0:
329,192,177286,128,0,177453:0:0:0:0:
109,192,177286,128,0,177453:0:0:0:0:
402,192,177286,128,0,177453:0:0:0:0:
36,192,177286,1,0,0:0:0:0:
475,192,177286,1,0,0:0:0:0:
109,192,177578,1,0,0:0:0:0:
256,192,177661,1,0,0:0:0:0:
256,192,177953,1,0,0:0:0:0:
329,192,178286,1,0,0:0:0:0:
329,192,178578,1,0,0:0:0:0:
475,192,178661,1,0,0:0:0:0:
402,192,178911,1,0,0:0:0:0:
329,192,179245,1,0,0:0:0:0:
329,192,179578,1,0,0:0:0:0:
182,192,179620,1,0,0:0:0:0:
182,192,179953,1,0,0:0:0:0:
109,192,180286,1,0,0:0:0:0:
36,192,180620,1,0,0:0:0:0:
36,192,180870,1,0,0:0:0:0:
182,192,180953,1,0,0:0:0:0:
256,192,181245,1,0,0:0:0:0:
329,192,181620,1,0,0:0:0:0:
475,192,181953,128,0,182120:0:0:0:0:
329,192,182120,128,0,182286:0:0:0:0:
182,192,182286,128,0,182453:0:0:0:0:
329,192,182453,128,0,182620:0:0:0:0:
109,192,182620,1,0,0:0:0:0:
182,192,183286,1,0,0:0:0:0:
109,192,183286,1,0,0:0:0:0:
329,192,183620,1,0,0:0:0:0:
329,192,183786,1,0,0:0:0:0:
109,192,183953,1,0,0:0:0:0:
182,192,183953,1,0,0:0:0:0:
182,192,184620,1,0,0:0:0:0:
109,192,184620,1,0,0:0:0:0:
256,192,184953,1,0,0:0:0:0:
256,192,185120,1,0,0:0:0:0:
329,192,185286,1,0,0:0:0:0:
402,192,185286,1,0,0:0:0:0:
329,192,185953,1,0,0:0:0:0:
402,192,185953,1,0,0:0:0:0:
256,192,186286,1,0,0:0:0:0:
256,192,186453,1,0,0:0:0:0:
182,192,186620,1,0,0:0:0:0:
109,192,186620,1,0,0:0:0:0:
256,192,186953,1,0,0:0:0:0:
182,192,187286,1,0,0:0:0:0:
109,192,187286,1,0,0:0:0:0:
256,192,187620,1,0,0:0:0:0:
256,192,187786,1,0,0:0:0:0:
329,192,187953,1,0,0:0:0:0:
402,192,187953,1,0,0:0:0:0:
329,192,188620,1,0,0:0:0:0:
402,192,188620,1,0,0:0:0:0:
329,192,188953,1,0,0:0:0:0:
402,192,188953,1,0,0:0:0:0:
256,192,189120,1,0,0:0:0:0:
109,192,189286,1,0,0:0:0:0:
182,192,189286,1,0,0:0:0:0:
182,192,189953,1,0,0:0:0:0:
109,192,189953,1,0,0:0:0:0:
329,192,189953,1,0,0:0:0:0:
256,192,190286,1,0,0:0:0:0:
256,192,190453,1,0,0:0:0:0:
182,192,190620,128,0,190953:0:0:0:0:
329,192,190953,128,0,191286:0:0:0:0:
475,192,191620,128,0,192203:0:0:0:0:
182,192,191620,128,0,192203:0:0:0:0:
109,192,191620,128,0,192203:0:0:0:0:
329,192,191620,128,0,192203:0:0:0:0:
402,192,191620,128,0,192203:0:0:0:0:
36,192,191620,128,0,192203:0:0:0:0:
256,192,191620,128,0,192203:0:0:0:0:
256,192,192286,1,0,0:0:0:0:
475,192,192286,1,0,0:0:0:0:
329,192,192370,1,0,0:0:0:0:
36,192,192370,1,0,0:0:0:0:
402,192,192453,1,0,0:0:0:0:
109,192,192453,1,0,0:0:0:0:
475,192,192536,1,0,0:0:0:0:
182,192,192536,1,0,0:0:0:0:
36,192,192620,128,0,192703:0:0:0:0:
256,192,192620,1,0,0:0:0:0:
329,192,192661,1,0,0:0:0:0:
109,192,192661,128,0,192745:0:0:0:0:
182,192,192703,128,0,192786:0:0:0:0:
402,192,192703,1,0,0:0:0:0:
256,192,192745,128,0,192828:0:0:0:0:
475,192,192745,1,0,0:0:0:0:
329,192,192786,128,0,192870:0:0:0:0:
402,192,192828,128,0,192911:0:0:0:0:
36,192,192828,1,0,0:0:0:0:
475,192,192870,128,0,192953:0:0:0:0:
109,192,192870,1,0,0:0:0:0:
182,192,192911,1,0,0:0:0:0:
256,192,192953,1,0,0:0:0:0:
36,192,192953,128,0,193036:0:0:0:0:
329,192,192995,1,0,0:0:0:0:
109,192,192995,128,0,193078:0:0:0:0:
402,192,193036,1,0,0:0:0:0:
182,192,193036,128,0,193120:0:0:0:0:
475,192,193078,1,0,0:0:0:0:
256,192,193078,128,0,193161:0:0:0:0:
329,192,193120,128,0,193203:0:0:0:0:
402,192,193161,128,0,193245:0:0:0:0:
36,192,193161,1,0,0:0:0:0:
475,192,193203,128,0,193286:0:0:0:0:
109,192,193203,1,0,0:0:0:0:
182,192,193245,1,0,0:0:0:0:
329,192,193286,128,0,193370:0:0:0:0:
402,192,193286,128,0,193953:0:0:0:0:
36,192,193286,128,0,193453:0:0:0:0:
256,192,193286,1,0,0:0:0:0:
475,192,193370,128,0,193453:0:0:0:0:
109,192,193370,128,0,193411:0:0:0:0:
182,192,193453,128,0,193620:0:0:0:0:
329,192,193453,128,0,193536:0:0:0:0:
256,192,193453,1,0,0:0:0:0:
475,192,193536,128,0,193620:0:0:0:0:
109,192,193536,128,0,193578:0:0:0:0:
329,192,193620,128,0,193703:0:0:0:0:
36,192,193620,128,0,193786:0:0:0:0:
256,192,193620,1,0,0:0:0:0:
475,192,193703,128,0,193786:0:0:0:0:
109,192,193703,128,0,193745:0:0:0:0:
329,192,193786,128,0,193870:0:0:0:0:
182,192,193786,128,0,193953:0:0:0:0:
256,192,193786,1,0,0:0:0:0:
475,192,193870,128,0,193953:0:0:0:0:
109,192,193870,128,0,193911:0:0:0:0:
256,192,193953,128,0,194120:0:0:0:0:
36,192,193953,128,0,194036:0:0:0:0:
329,192,193953,128,0,194036:0:0:0:0:
109,192,194036,128,0,194120:0:0:0:0:
402,192,194036,128,0,194120:0:0:0:0:
329,192,194120,128,0,194286:0:0:0:0:
182,192,194120,128,0,194203:0:0:0:0:
475,192,194120,128,0,194203:0:0:0:0:
36,192,194120,128,0,194286:0:0:0:0:
256,192,194203,128,0,194286:0:0:0:0:
402,192,194286,128,0,194453:0:0:0:0:
109,192,194286,128,0,194453:0:0:0:0:
182,192,194286,1,0,0:0:0:0:
475,192,194286,1,0,0:0:0:0:
329,192,194370,128,0,194536:0:0:0:0:
36,192,194370,128,0,194536:0:0:0:0:
256,192,194370,128,0,194411:0:0:0:0:
182,192,194453,1,0,0:0:0:0:
475,192,194453,1,0,0:0:0:0:
109,192,194536,128,0,194703:0:0:0:0:
402,192,194536,128,0,194703:0:0:0:0:
256,192,194536,128,0,194578:0:0:0:0:
182,192,194620,128,0,194786:0:0:0:0:
475,192,194620,128,0,194786:0:0:0:0:
329,192,194620,1,0,0:0:0:0:
36,192,194620,1,0,0:0:0:0:
256,192,194703,128,0,194745:0:0:0:0:
36,192,194786,128,0,194953:0:0:0:0:
329,192,194786,128,0,194953:0:0:0:0:
109,192,194786,1,0,0:0:0:0:
402,192,194786,1,0,0:0:0:0:
182,192,194870,128,0,194953:0:0:0:0:
475,192,194870,128,0,194953:0:0:0:0:
256,192,194870,1,0,0:0:0:0:
109,192,194953,128,0,195120:0:0:0:0:
402,192,194953,128,0,195120:0:0:0:0:
256,192,195036,1,0,0:0:0:0:
36,192,195120,1,0,0:0:0:0:
182,192,195120,128,0,195286:0:0:0:0:
475,192,195120,128,0,195286:0:0:0:0:
329,192,195120,1,0,0:0:0:0:
256,192,195203,1,0,0:0:0:0:
36,192,195286,128,0,195453:0:0:0:0:
329,192,195286,128,0,195453:0:0:0:0:
109,192,195286,1,0,0:0:0:0:
402,192,195286,1,0,0:0:0:0:
182,192,195370,128,0,195453:0:0:0:0:
256,192,195370,1,0,0:0:0:0:
109,192,195453,128,0,195620:0:0:0:0:
402,192,195453,128,0,195620:0:0:0:0:
475,192,195453,1,0,0:0:0:0:
256,192,195536,128,0,195620:0:0:0:0:
329,192,195536,1,0,0:0:0:0:
182,192,195620,128,0,195786:0:0:0:0:
475,192,195620,128,0,195786:0:0:0:0:
36,192,195620,1,0,0:0:0:0:
329,192,195703,128,0,195786:0:0:0:0:
402,192,195703,1,0,0:0:0:0:
256,192,195786,128,0,195953:0:0:0:0:
36,192,195786,128,0,195953:0:0:0:0:
109,192,195786,1,0,0:0:0:0:
402,192,195870,128,0,195953:0:0:0:0:
109,192,195953,128,0,196620:0:0:0:0:
182,192,195953,128,0,196036:0:0:0:0:
475,192,195953,128,0,196120:0:0:0:0:
329,192,195953,1,0,0:0:0:0:
402,192,196036,128,0,196078:0:0:0:0:
36,192,196036,128,0,196120:0:0:0:0:
182,192,196120,128,0,196203:0:0:0:0:
256,192,196120,1,0,0:0:0:0:
329,192,196120,128,0,196286:0:0:0:0:
36,192,196203,128,0,196286:0:0:0:0:
402,192,196203,128,0,196245:0:0:0:0:
182,192,196286,128,0,196370:0:0:0:0:
256,192,196286,1,0,0:0:0:0:
475,192,196286,128,0,196453:0:0:0:0:
36,192,196370,128,0,196453:0:0:0:0:
402,192,196370,128,0,196411:0:0:0:0:
256,192,196453,1,0,0:0:0:0:
182,192,196453,128,0,196536:0:0:0:0:
329,192,196453,128,0,196620:0:0:0:0:
402,192,196536,128,0,196578:0:0:0:0:
36,192,196536,128,0,196620:0:0:0:0:
182,192,196620,128,0,196703:0:0:0:0:
475,192,196620,128,0,196703:0:0:0:0:
109,192,196703,128,0,196786:0:0:0:0:
402,192,196703,128,0,196786:0:0:0:0:
256,192,196703,1,0,0:0:0:0:
475,192,196786,1,0,0:0:0:0:
329,192,196786,128,0,196870:0:0:0:0:
36,192,196786,128,0,196870:0:0:0:0:
182,192,196786,1,0,0:0:0:0:
402,192,196870,1,0,0:0:0:0:
256,192,196870,128,0,196953:0:0:0:0:
109,192,196870,1,0,0:0:0:0:
329,192,196953,1,0,0:0:0:0:
182,192,196953,128,0,197036:0:0:0:0:
475,192,196953,128,0,197036:0:0:0:0:
36,192,196953,1,0,0:0:0:0:
109,192,197036,128,0,197120:0:0:0:0:
256,192,197036,1,0,0:0:0:0:
402,192,197036,128,0,197120:0:0:0:0:
36,192,197120,128,0,197203:0:0:0:0:
329,192,197120,128,0,197203:0:0:0:0:
182,192,197120,1,0,0:0:0:0:
402,192,197203,128,0,197286:0:0:0:0:
256,192,197203,1,0,0:0:0:0:
109,192,197203,128,0,197286:0:0:0:0:
36,192,197286,128,0,197453:0:0:0:0:
475,192,197286,128,0,197453:0:0:0:0:
329,192,197286,1,0,0:0:0:0:
182,192,197286,1,0,0:0:0:0:
109,192,197370,128,0,197536:0:0:0:0:
402,192,197370,128,0,197536:0:0:0:0:
256,192,197370,128,0,197411:0:0:0:0:
329,192,197453,1,0,0:0:0:0:
182,192,197453,1,0,0:0:0:0:
256,192,197536,128,0,197703:0:0:0:0:
475,192,197536,128,0,197578:0:0:0:0:
36,192,197536,128,0,197578:0:0:0:0:
329,192,197620,128,0,197786:0:0:0:0:
182,192,197620,128,0,197786:0:0:0:0:
402,192,197620,1,0,0:0:0:0:
109,192,197620,1,0,0:0:0:0:
475,192,197703,128,0,197745:0:0:0:0:
36,192,197703,128,0,197745:0:0:0:0:
402,192,197786,1,0,0:0:0:0:
109,192,197786,1,0,0:0:0:0:
329,192,197870,1,0,0:0:0:0:
182,192,197870,1,0,0:0:0:0:
256,192,197953,128,0,198036:0:0:0:0:
109,192,197953,128,0,198120:0:0:0:0:
36,192,197953,128,0,198036:0:0:0:0:
402,192,197953,128,0,198036:0:0:0:0:
475,192,197953,128,0,198120:0:0:0:0:
182,192,198036,128,0,198203:0:0:0:0:
329,192,198036,128,0,198120:0:0:0:0:
402,192,198120,128,0,198286:0:0:0:0:
36,192,198120,128,0,198286:0:0:0:0:
109,192,198203,128,0,198370:0:0:0:0:
256,192,198203,128,0,198286:0:0:0:0:
475,192,198203,128,0,198370:0:0:0:0:
329,192,198286,128,0,198453:0:0:0:0:
36,192,198370,128,0,198536:0:0:0:0:
182,192,198370,128,0,198453:0:0:0:0:
402,192,198370,128,0,198536:0:0:0:0:
256,192,198453,128,0,198620:0:0:0:0:
475,192,198453,128,0,198620:0:0:0:0:
109,192,198536,128,0,198620:0:0:0:0:
182,192,198620,128,0,198953:0:0:0:0:
329,192,198620,128,0,198786:0:0:0:0:
402,192,198620,1,0,0:0:0:0:
36,192,198703,128,0,198786:0:0:0:0:
256,192,198703,1,0,0:0:0:0:
402,192,198786,128,0,198953:0:0:0:0:
475,192,198786,1,0,0:0:0:0:
109,192,198870,128,0,198953:0:0:0:0:
329,192,198870,1,0,0:0:0:0:
36,192,198953,128,0,199120:0:0:0:0:
475,192,198953,128,0,199120:0:0:0:0:
256,192,198953,128,0,199203:0:0:0:0:
329,192,199036,128,0,199120:0:0:0:0:
182,192,199036,1,0,0:0:0:0:
109,192,199120,128,0,199203:0:0:0:0:
402,192,199120,128,0,199203:0:0:0:0:
36,192,199203,1,0,0:0:0:0:
182,192,199203,128,0,199370:0:0:0:0:
475,192,199203,128,0,199370:0:0:0:0:
109,192,199286,128,0,199453:0:0:0:0:
402,192,199286,128,0,199453:0:0:0:0:
36,192,199370,128,0,199536:0:0:0:0:
329,192,199370,128,0,199536:0:0:0:0:
256,192,199453,128,0,199620:0:0:0:0:
182,192,199536,128,0,199703:0:0:0:0:
475,192,199536,128,0,199703:0:0:0:0:
109,192,199620,128,0,199786:0:0:0:0:
402,192,199620,128,0,199786:0:0:0:0:
36,192,199703,128,0,199870:0:0:0:0:
329,192,199703,128,0,199870:0:0:0:0:
256,192,199786,128,0,199953:0:0:0:0:
182,192,199870,128,0,200036:0:0:0:0:
109,192,199953,128,0,200120:0:0:0:0:
329,192,199953,128,0,200120:0:0:0:0:
36,192,200036,128,0,200203:0:0:0:0:
402,192,200036,128,0,200203:0:0:0:0:
475,192,200120,128,0,200286:0:0:0:0:
182,192,200120,128,0,200286:0:0:0:0:
256,192,200203,128,0,200370:0:0:0:0:
329,192,200286,128,0,200453:0:0:0:0:
36,192,200286,128,0,200453:0:0:0:0:
402,192,200370,128,0,200536:0:0:0:0:
109,192,200370,128,0,200536:0:0:0:0:
475,192,200453,128,0,200620:0:0:0:0:
182,192,200453,128,0,200620:0:0:0:0:
256,192,200536,128,0,200703:0:0:0:0:
329,192,200620,128,0,200786:0:0:0:0:
36,192,200620,128,0,200786:0:0:0:0:
402,192,200703,128,0,200870:0:0:0:0:
109,192,200703,128,0,200870:0:0:0:0:
256,192,200786,128,0,200953:0:0:0:0:
475,192,200786,128,0,200953:0:0:0:0:
182,192,200870,128,0,201036:0:0:0:0:
109,192,200953,128,0,201120:0:0:0:0:
402,192,200953,128,0,201120:0:0:0:0:
36,192,201036,128,0,201203:0:0:0:0:
329,192,201036,128,0,201203:0:0:0:0:
256,192,201120,128,0,201286:0:0:0:0:
109,192,201286,128,0,201370:0:0:0:0:
402,192,201286,128,0,201370:0:0:0:0:
36,192,201286,128,0,201453:0:0:0:0:
182,192,201286,128,0,201328:0:0:0:0:
475,192,201286,128,0,201453:0:0:0:0:
329,192,201286,128,0,201328:0:0:0:0:
182,192,201453,1,0,0:0:0:0:
329,192,201453,1,0,0:0:0:0:
182,192,201620,128,0,201786:0:0:0:0:
329,192,201620,128,0,201786:0:0:0:0:
109,192,201620,128,0,201703:0:0:0:0:
36,192,201620,128,0,201661:0:0:0:0:
402,192,201620,128,0,201703:0:0:0:0:
475,192,201620,128,0,201661:0:0:0:0:
36,192,201786,1,0,0:0:0:0:
475,192,201786,1,0,0:0:0:0:
256,192,201953,128,0,202120:0:0:0:0:
182,192,201953,128,0,202036:0:0:0:0:
329,192,201953,128,0,202036:0:0:0:0:
109,192,201953,128,0,201995:0:0:0:0:
402,192,201953,128,0,201995:0:0:0:0:
402,192,202120,1,0,0:0:0:0:
109,192,202120,1,0,0:0:0:0:
402,192,202286,128,0,202370:0:0:0:0:
109,192,202286,128,0,202370:0:0:0:0:
256,192,202286,128,0,202453:0:0:0:0:
475,192,202286,128,0,202328:0:0:0:0:
36,192,202286,128,0,202328:0:0:0:0:
182,192,202453,1,0,0:0:0:0:
329,192,202453,1,0,0:0:0:0:
256,192,202620,128,0,203120:0:0:0:0:
36,192,202620,128,0,203120:0:0:0:0:
475,192,202620,128,0,203120:0:0:0:0:
182,192,202620,128,0,202786:0:0:0:0:
109,192,202620,128,0,202703:0:0:0:0:
329,192,202620,128,0,202786:0:0:0:0:
402,192,202620,128,0,202703:0:0:0:0:
329,192,203286,128,0,203745:0:0:0:0:
182,192,203620,128,0,203870:0:0:0:0:
36,192,203953,128,0,204120:0:0:0:0:
329,192,203953,128,0,204120:0:0:0:0:
182,192,203953,128,0,204036:0:0:0:0:
475,192,203953,128,0,204036:0:0:0:0:
256,192,204036,128,0,204203:0:0:0:0:
402,192,204036,128,0,204203:0:0:0:0:
109,192,204036,128,0,204203:0:0:0:0:
475,192,204120,128,0,204286:0:0:0:0:
182,192,204120,128,0,204286:0:0:0:0:
329,192,204286,128,0,204411:0:0:0:0:
109,192,204286,128,0,204411:0:0:0:0:
256,192,204286,128,0,204328:0:0:0:0:
36,192,204286,128,0,204328:0:0:0:0:
182,192,204370,128,0,204495:0:0:0:0:
402,192,204370,128,0,204495:0:0:0:0:
475,192,204370,128,0,204411:0:0:0:0:
36,192,204453,128,0,204536:0:0:0:0:
256,192,204453,128,0,204536:0:0:0:0:
329,192,204536,128,0,204620:0:0:0:0:
109,192,204536,128,0,204620:0:0:0:0:
256,192,204620,128,0,204661:0:0:0:0:
182,192,204620,128,0,204745:0:0:0:0:
402,192,204620,128,0,204745:0:0:0:0:
475,192,204620,128,0,204661:0:0:0:0:
329,192,204703,128,0,204828:0:0:0:0:
109,192,204703,128,0,204828:0:0:0:0:
36,192,204703,128,0,204745:0:0:0:0:
256,192,204786,128,0,204870:0:0:0:0:
475,192,204786,128,0,204870:0:0:0:0:
182,192,204870,128,0,204953:0:0:0:0:
402,192,204870,128,0,204953:0:0:0:0:
256,192,204953,128,0,205203:0:0:0:0:
475,192,204953,128,0,205203:0:0:0:0:
36,192,204953,128,0,205203:0:0:0:0:
402,192,205036,128,0,205120:0:0:0:0:
109,192,205036,128,0,205120:0:0:0:0:
329,192,205120,128,0,205203:0:0:0:0:
182,192,205120,128,0,205203:0:0:0:0:
182,192,205286,128,0,205411:0:0:0:0:
402,192,205286,128,0,205411:0:0:0:0:
256,192,205286,128,0,205328:0:0:0:0:
475,192,205286,128,0,205328:0:0:0:0:
329,192,205370,128,0,205495:0:0:0:0:
109,192,205370,128,0,205495:0:0:0:0:
36,192,205370,128,0,205411:0:0:0:0:
256,192,205453,128,0,205536:0:0:0:0:
475,192,205453,128,0,205536:0:0:0:0:
402,192,205536,128,0,205620:0:0:0:0:
182,192,205536,128,0,205620:0:0:0:0:
256,192,205620,128,0,205661:0:0:0:0:
329,192,205620,128,0,205745:0:0:0:0:
109,192,205620,128,0,205745:0:0:0:0:
36,192,205620,128,0,205661:0:0:0:0:
182,192,205703,128,0,205828:0:0:0:0:
402,192,205703,128,0,205828:0:0:0:0:
475,192,205703,128,0,205745:0:0:0:0:
256,192,205786,128,0,205870:0:0:0:0:
36,192,205786,128,0,205870:0:0:0:0:
329,192,205870,128,0,205953:0:0:0:0:
109,192,205870,128,0,205953:0:0:0:0:
182,192,205953,128,0,206120:0:0:0:0:
475,192,205953,128,0,206120:0:0:0:0:
36,192,206120,128,0,206286:0:0:0:0:
256,192,206120,128,0,206203:0:0:0:0:
329,192,206203,128,0,206370:0:0:0:0:
182,192,206203,1,0,0:0:0:0:
109,192,206286,128,0,206453:0:0:0:0:
475,192,206286,1,0,0:0:0:0:
402,192,206370,128,0,206536:0:0:0:0:
256,192,206370,1,0,0:0:0:0:
182,192,206453,128,0,206620:0:0:0:0:
36,192,206453,1,0,0:0:0:0:
475,192,206536,128,0,206620:0:0:0:0:
109,192,206620,128,0,206786:0:0:0:0:
402,192,206620,128,0,206786:0:0:0:0:
36,192,206620,128,0,206703:0:0:0:0:
329,192,206620,128,0,206703:0:0:0:0:
256,192,206620,128,0,206661:0:0:0:0:
182,192,206703,128,0,206870:0:0:0:0:
475,192,206703,128,0,206870:0:0:0:0:
256,192,206786,128,0,206828:0:0:0:0:
329,192,206786,128,0,206953:0:0:0:0:
36,192,206786,128,0,206870:0:0:0:0:
402,192,206870,128,0,207036:0:0:0:0:
109,192,206870,128,0,206953:0:0:0:0:
36,192,206953,128,0,207120:0:0:0:0:
256,192,206953,128,0,207120:0:0:0:0:
475,192,206953,128,0,206995:0:0:0:0:
182,192,206953,128,0,206995:0:0:0:0:
109,192,207036,128,0,207203:0:0:0:0:
329,192,207036,128,0,207203:0:0:0:0:
182,192,207120,128,0,207286:0:0:0:0:
402,192,207120,128,0,207286:0:0:0:0:
36,192,207203,128,0,207245:0:0:0:0:
256,192,207203,128,0,207245:0:0:0:0:
475,192,207203,128,0,207245:0:0:0:0:
109,192,207286,128,0,207453:0:0:0:0:
329,192,207286,128,0,207453:0:0:0:0:
36,192,207370,128,0,207536:0:0:0:0:
256,192,207370,128,0,207536:0:0:0:0:
475,192,207370,128,0,207536:0:0:0:0:
402,192,207453,128,0,207495:0:0:0:0:
182,192,207453,128,0,207495:0:0:0:0:
109,192,207536,128,0,207703:0:0:0:0:
329,192,207536,128,0,207703:0:0:0:0:
256,192,207620,128,0,207786:0:0:0:0:
36,192,207620,128,0,207786:0:0:0:0:
475,192,207620,128,0,207786:0:0:0:0:
402,192,207703,128,0,207745:0:0:0:0:
182,192,207703,128,0,207745:0:0:0:0:
109,192,207786,128,0,207953:0:0:0:0:
329,192,207786,128,0,207953:0:0:0:0:
256,192,207870,128,0,207953:0:0:0:0:
36,192,207870,128,0,207953:0:0:0:0:
475,192,207870,128,0,207953:0:0:0:0:
182,192,207953,128,0,208036:0:0:0:0:
402,192,207953,128,0,208036:0:0:0:0:
36,192,208036,128,0,208120:0:0:0:0:
256,192,208036,128,0,208120:0:0:0:0:
475,192,208036,128,0,208120:0:0:0:0:
109,192,208120,128,0,208203:0:0:0:0:
329,192,208120,128,0,208203:0:0:0:0:
182,192,208203,128,0,208286:0:0:0:0:
402,192,208203,128,0,208286:0:0:0:0:
109,192,208286,128,0,208453:0:0:0:0:
256,192,208286,128,0,208370:0:0:0:0:
329,192,208286,128,0,208453:0:0:0:0:
36,192,208286,128,0,208370:0:0:0:0:
475,192,208286,128,0,208370:0:0:0:0:
182,192,208370,128,0,208536:0:0:0:0:
402,192,208370,128,0,208536:0:0:0:0:
256,192,208453,128,0,208620:0:0:0:0:
475,192,208453,128,0,208620:0:0:0:0:
36,192,208453,128,0,208536:0:0:0:0:
109,192,208536,128,0,208620:0:0:0:0:
329,192,208536,128,0,208620:0:0:0:0:
36,192,208620,128,0,209620:0:0:0:0:
182,192,208620,128,0,208745:0:0:0:0:
402,192,208620,128,0,208745:0:0:0:0:
329,192,208703,128,0,208828:0:0:0:0:
109,192,208786,128,0,209453:0:0:0:0:
256,192,208786,128,0,208911:0:0:0:0:
475,192,208786,128,0,208911:0:0:0:0:
402,192,208870,128,0,208995:0:0:0:0:
182,192,208953,128,0,209286:0:0:0:0:
329,192,208953,128,0,209078:0:0:0:0:
475,192,209036,128,0,209161:0:0:0:0:
256,192,209120,128,0,209286:0:0:0:0:
402,192,209120,128,0,209245:0:0:0:0:
475,192,209286,128,0,210453:0:0:0:0:
329,192,209286,128,0,209411:0:0:0:0:
182,192,209370,128,0,209495:0:0:0:0:
402,192,209453,128,0,210286:0:0:0:0:
256,192,209453,128,0,209578:0:0:0:0:
109,192,209536,128,0,209661:0:0:0:0:
329,192,209620,128,0,210120:0:0:0:0:
182,192,209620,128,0,209745:0:0:0:0:
36,192,209703,128,0,209828:0:0:0:0:
256,192,209786,128,0,209953:0:0:0:0:
109,192,209786,128,0,209911:0:0:0:0:
36,192,209953,128,0,210286:0:0:0:0:
182,192,209953,128,0,210078:0:0:0:0:
109,192,210120,128,0,210453:0:0:0:0:
256,192,210120,128,0,210245:0:0:0:0:
182,192,210286,128,0,210620:0:0:0:0:
329,192,210286,128,0,210411:0:0:0:0:
256,192,210453,128,0,210620:0:0:0:0:
402,192,210453,128,0,210578:0:0:0:0:
36,192,210453,128,0,210495:0:0:0:0:
475,192,210620,128,0,210953:0:0:0:0:
329,192,210620,128,0,210745:0:0:0:0:
36,192,210620,128,0,210745:0:0:0:0:
402,192,210786,128,0,211120:0:0:0:0:
256,192,210786,128,0,210911:0:0:0:0:
109,192,210786,128,0,210911:0:0:0:0:
329,192,210953,128,0,211286:0:0:0:0:
182,192,210953,128,0,211078:0:0:0:0:
36,192,210953,128,0,211078:0:0:0:0:
256,192,211120,128,0,211286:0:0:0:0:
109,192,211120,128,0,211245:0:0:0:0:
475,192,211120,128,0,211161:0:0:0:0:
36,192,211286,128,0,211620:0:0:0:0:
182,192,211286,128,0,211411:0:0:0:0:
475,192,211286,128,0,211411:0:0:0:0:
109,192,211453,128,0,211786:0:0:0:0:
256,192,211453,128,0,211578:0:0:0:0:
402,192,211453,128,0,211578:0:0:0:0:
182,192,211620,128,0,211953:0:0:0:0:
329,192,211620,128,0,211745:0:0:0:0:
475,192,211620,128,0,211745:0:0:0:0:
256,192,211786,128,0,211953:0:0:0:0:
402,192,211786,128,0,211911:0:0:0:0:
36,192,211786,128,0,211828:0:0:0:0:
36,192,211953,128,0,212286:0:0:0:0:
475,192,211953,128,0,212286:0:0:0:0:
109,192,211953,1,0,0:0:0:0:
329,192,211953,128,0,212036:0:0:0:0:
182,192,212036,1,0,0:0:0:0:
402,192,212036,128,0,212120:0:0:0:0:
256,192,212120,1,0,0:0:0:0:
109,192,212120,128,0,212203:0:0:0:0:
329,192,212203,1,0,0:0:0:0:
182,192,212203,128,0,212286:0:0:0:0:
256,192,212286,128,0,212620:0:0:0:0:
109,192,212286,1,0,0:0:0:0:
402,192,212286,1,0,0:0:0:0:
329,192,212453,128,0,212786:0:0:0:0:
182,192,212453,128,0,212786:0:0:0:0:
109,192,212453,1,0,0:0:0:0:
402,192,212453,1,0,0:0:0:0:
36,192,212453,128,0,212495:0:0:0:0:
475,192,212453,128,0,212495:0:0:0:0:
109,192,212620,128,0,212786:0:0:0:0:
402,192,212620,128,0,212786:0:0:0:0:
36,192,212620,1,0,0:0:0:0:
475,192,212620,1,0,0:0:0:0:
256,192,212786,128,0,212953:0:0:0:0:
36,192,212953,128,0,213203:0:0:0:0:
109,192,212953,128,0,213120:0:0:0:0:
182,192,212953,128,0,213036:0:0:0:0:
329,192,212953,128,0,213036:0:0:0:0:
402,192,212953,128,0,213120:0:0:0:0:
475,192,212953,128,0,213203:0:0:0:0:
256,192,213120,128,0,213453:0:0:0:0:
402,192,213286,128,0,213620:0:0:0:0:
109,192,213286,128,0,213620:0:0:0:0:
36,192,213286,128,0,213328:0:0:0:0:
475,192,213286,128,0,213328:0:0:0:0:
182,192,213453,128,0,213620:0:0:0:0:
329,192,213453,128,0,213620:0:0:0:0:
256,192,213620,128,0,213786:0:0:0:0:
36,192,213620,128,0,213661:0:0:0:0:
475,192,213620,128,0,213661:0:0:0:0:
182,192,213786,128,0,213953:0:0:0:0:
329,192,213786,128,0,213953:0:0:0:0:
36,192,213953,1,0,0:0:0:0:
402,192,213953,128,0,213995:0:0:0:0:
475,192,213953,128,0,213995:0:0:0:0:
109,192,213953,1,0,0:0:0:0:
256,192,213953,128,0,214161:0:0:0:0:
109,192,214120,128,0,214161:0:0:0:0:
36,192,214120,128,0,214161:0:0:0:0:
182,192,214120,128,0,214328:0:0:0:0:
475,192,214120,1,0,0:0:0:0:
329,192,214120,128,0,214161:0:0:0:0:
329,192,214286,128,0,214328:0:0:0:0:
36,192,214286,1,0,0:0:0:0:
256,192,214286,128,0,214536:0:0:0:0:
475,192,214286,1,0,0:0:0:0:
109,192,214370,1,0,0:0:0:0:
402,192,214370,1,0,0:0:0:0:
329,192,214453,128,0,214703:0:0:0:0:
182,192,214453,128,0,214703:0:0:0:0:
36,192,214453,1,0,0:0:0:0:
475,192,214453,1,0,0:0:0:0:
36,192,214620,128,0,214870:0:0:0:0:
256,192,214620,128,0,214870:0:0:0:0:
475,192,214620,128,0,214870:0:0:0:0:
402,192,214620,128,0,214703:0:0:0:0:
109,192,214620,128,0,214703:0:0:0:0:
182,192,214786,128,0,214870:0:0:0:0:
109,192,214786,128,0,214870:0:0:0:0:
402,192,214786,128,0,214870:0:0:0:0:
329,192,214786,128,0,214870:0:0:0:0:
36,192,214953,128,0,215120:0:0:0:0:
402,192,214953,128,0,215120:0:0:0:0:
475,192,214953,128,0,215036:0:0:0:0:
329,192,214953,128,0,214995:0:0:0:0:
182,192,214953,1,0,0:0:0:0:
109,192,215036,128,0,215203:0:0:0:0:
256,192,215036,128,0,215078:0:0:0:0:
475,192,215120,128,0,215286:0:0:0:0:
182,192,215120,128,0,215161:0:0:0:0:
402,192,215203,128,0,215370:0:0:0:0:
36,192,215203,128,0,215370:0:0:0:0:
256,192,215203,128,0,215245:0:0:0:0:
109,192,215286,128,0,215453:0:0:0:0:
329,192,215286,128,0,215328:0:0:0:0:
256,192,215370,128,0,215411:0:0:0:0:
475,192,215370,128,0,215536:0:0:0:0:
182,192,215453,128,0,215495:0:0:0:0:
402,192,215453,128,0,215620:0:0:0:0:
36,192,215453,128,0,215620:0:0:0:0:
256,192,215536,128,0,215620:0:0:0:0:
109,192,215536,128,0,215703:0:0:0:0:
329,192,215620,128,0,215786:0:0:0:0:
182,192,215703,128,0,215870:0:0:0:0:
475,192,215703,128,0,215870:0:0:0:0:
36,192,215703,128,0,215870:0:0:0:0:
256,192,215786,128,0,215870:0:0:0:0:
109,192,215786,128,0,215870:0:0:0:0:
402,192,215786,128,0,215870:0:0:0:0:
475,192,215953,128,0,216120:0:0:0:0:
109,192,215953,128,0,216120:0:0:0:0:
36,192,215953,128,0,216036:0:0:0:0:
182,192,215953,128,0,215995:0:0:0:0:
329,192,215953,1,0,0:0:0:0:
402,192,216036,128,0,216203:0:0:0:0:
256,192,216036,128,0,216078:0:0:0:0:
36,192,216120,128,0,216286:0:0:0:0:
329,192,216120,128,0,216161:0:0:0:0:
109,192,216203,128,0,216370:0:0:0:0:
475,192,216203,128,0,216370:0:0:0:0:
256,192,216203,128,0,216245:0:0:0:0:
402,192,216286,128,0,216453:0:0:0:0:
182,192,216286,128,0,216328:0:0:0:0:
256,192,216370,128,0,216411:0:0:0:0:
36,192,216370,128,0,216536:0:0:0:0:
329,192,216453,128,0,216495:0:0:0:0:
109,192,216453,128,0,216620:0:0:0:0:
475,192,216453,128,0,216620:0:0:0:0:
256,192,216536,128,0,216620:0:0:0:0:
402,192,216536,128,0,216620:0:0:0:0:
182,192,216620,128,0,216786:0:0:0:0:
329,192,216620,128,0,216786:0:0:0:0:
36,192,216703,1,0,0:0:0:0:
475,192,216703,1,0,0:0:0:0:
256,192,216786,128,0,216953:0:0:0:0:
109,192,216786,1,0,0:0:0:0:
402,192,216786,1,0,0:0:0:0:
182,192,216870,1,0,0:0:0:0:
329,192,216870,1,0,0:0:0:0:
475,192,216953,1,0,0:0:0:0:
36,192,216953,1,0,0:0:0:0:
402,192,217036,1,0,0:0:0:0:
109,192,217036,1,0,0:0:0:0:
256,192,217120,128,0,217286:0:0:0:0:
182,192,217120,1,0,0:0:0:0:
329,192,217120,1,0,0:0:0:0:
402,192,217203,1,0,0:0:0:0:
109,192,217203,1,0,0:0:0:0:
329,192,217286,128,0,217620:0:0:0:0:
109,192,217286,128,0,217370:0:0:0:0:
475,192,217286,1,0,0:0:0:0:
36,192,217286,1,0,0:0:0:0:
182,192,217370,128,0,217536:0:0:0:0:
256,192,217370,1,0,0:0:0:0:
402,192,217453,128,0,217786:0:0:0:0:
36,192,217453,128,0,217620:0:0:0:0:
475,192,217453,128,0,217495:0:0:0:0:
109,192,217453,1,0,0:0:0:0:
256,192,217536,128,0,217703:0:0:0:0:
475,192,217620,128,0,217953:0:0:0:0:
109,192,217620,128,0,217786:0:0:0:0:
182,192,217620,1,0,0:0:0:0:
329,192,217703,128,0,217870:0:0:0:0:
182,192,217786,128,0,217953:0:0:0:0:
36,192,217786,128,0,218120:0:0:0:0:
256,192,217786,1,0,0:0:0:0:
402,192,217870,128,0,218036:0:0:0:0:
329,192,217953,128,0,217995:0:0:0:0:
256,192,217953,128,0,218120:0:0:0:0:
109,192,217953,128,0,218286:0:0:0:0:
475,192,218036,128,0,218203:0:0:0:0:
329,192,218120,128,0,218286:0:0:0:0:
182,192,218120,128,0,218453:0:0:0:0:
402,192,218120,128,0,218161:0:0:0:0:
36,192,218203,128,0,218370:0:0:0:0:
402,192,218286,128,0,218453:0:0:0:0:
475,192,218286,128,0,218328:0:0:0:0:
256,192,218286,128,0,218620:0:0:0:0:
109,192,218370,128,0,218536:0:0:0:0:
475,192,218453,128,0,218620:0:0:0:0:
329,192,218453,128,0,218495:0:0:0:0:
36,192,218453,128,0,218495:0:0:0:0:
182,192,218536,128,0,218620:0:0:0:0:
402,192,218536,128,0,218620:0:0:0:0:
36,192,218620,128,0,218870:0:0:0:0:
329,192,218620,128,0,218870:0:0:0:0:
109,192,218620,1,0,0:0:0:0:
182,192,218703,1,0,0:0:0:0:
475,192,218703,1,0,0:0:0:0:
109,192,218786,128,0,218870:0:0:0:0:
256,192,218786,1,0,0:0:0:0:
402,192,218786,128,0,218953:0:0:0:0:
475,192,218870,128,0,218953:0:0:0:0:
182,192,218870,128,0,218953:0:0:0:0:
36,192,218953,128,0,219203:0:0:0:0:
329,192,218953,128,0,219203:0:0:0:0:
109,192,218953,1,0,0:0:0:0:
182,192,219036,1,0,0:0:0:0:
475,192,219036,1,0,0:0:0:0:
109,192,219120,128,0,219370:0:0:0:0:
402,192,219120,128,0,219370:0:0:0:0:
256,192,219120,1,0,0:0:0:0:
182,192,219203,128,0,219286:0:0:0:0:
475,192,219203,128,0,219286:0:0:0:0:
36,192,219286,128,0,219536:0:0:0:0:
329,192,219286,128,0,219536:0:0:0:0:
256,192,219286,128,0,219370:0:0:0:0:
475,192,219370,128,0,219453:0:0:0:0:
182,192,219370,128,0,219453:0:0:0:0:
109,192,219453,128,0,219620:0:0:0:0:
402,192,219453,128,0,219620:0:0:0:0:
256,192,219453,128,0,219536:0:0:0:0:
182,192,219536,128,0,219703:0:0:0:0:
475,192,219536,128,0,219703:0:0:0:0:
36,192,219620,128,0,219870:0:0:0:0:
256,192,219620,128,0,219703:0:0:0:0:
329,192,219620,128,0,219870:0:0:0:0:
109,192,219703,128,0,219870:0:0:0:0:
402,192,219703,128,0,219870:0:0:0:0:
475,192,219786,128,0,219870:0:0:0:0:
182,192,219786,128,0,219870:0:0:0:0:
256,192,219786,128,0,219870:0:0:0:0:
329,192,219953,128,0,220120:0:0:0:0:
402,192,219953,128,0,220203:0:0:0:0:
475,192,219953,128,0,220286:0:0:0:0:
256,192,219953,128,0,220036:0:0:0:0:
182,192,219953,128,0,219995:0:0:0:0:
109,192,219953,1,0,0:0:0:0:
109,192,220120,128,0,220203:0:0:0:0:
182,192,220120,128,0,220161:0:0:0:0:
36,192,220120,128,0,220245:0:0:0:0:
256,192,220120,1,0,0:0:0:0:
256,192,220286,128,0,220370:0:0:0:0:
329,192,220286,128,0,220328:0:0:0:0:
36,192,220286,128,0,220620:0:0:0:0:
109,192,220286,128,0,220536:0:0:0:0:
182,192,220286,128,0,220453:0:0:0:0:
402,192,220286,1,0,0:0:0:0:
475,192,220453,128,0,220578:0:0:0:0:
402,192,220453,128,0,220536:0:0:0:0:
329,192,220453,128,0,220495:0:0:0:0:
256,192,220453,1,0,0:0:0:0:
402,192,220620,128,0,220870:0:0:0:0:
329,192,220620,128,0,220786:0:0:0:0:
475,192,220620,128,0,220953:0:0:0:0:
256,192,220620,128,0,220703:0:0:0:0:
182,192,220620,128,0,220661:0:0:0:0:
109,192,220620,1,0,0:0:0:0:
36,192,220786,128,0,220911:0:0:0:0:
109,192,220786,128,0,220870:0:0:0:0:
182,192,220786,128,0,220828:0:0:0:0:
256,192,220786,1,0,0:0:0:0:
36,192,220953,128,0,221286:0:0:0:0:
109,192,220953,128,0,221203:0:0:0:0:
182,192,220953,128,0,221120:0:0:0:0:
256,192,220953,128,0,221036:0:0:0:0:
329,192,220953,128,0,220995:0:0:0:0:
402,192,220953,1,0,0:0:0:0:
475,192,221120,128,0,221245:0:0:0:0:
402,192,221120,128,0,221203:0:0:0:0:
329,192,221120,128,0,221161:0:0:0:0:
256,192,221120,1,0,0:0:0:0:
329,192,221286,128,0,221453:0:0:0:0:
402,192,221286,128,0,221870:0:0:0:0:
182,192,221286,1,0,0:0:0:0:
475,192,221370,128,0,221536:0:0:0:0:
109,192,221370,1,0,0:0:0:0:
182,192,221453,1,0,0:0:0:0:
329,192,221536,128,0,221703:0:0:0:0:
109,192,221536,1,0,0:0:0:0:
475,192,221620,128,0,221786:0:0:0:0:
36,192,221620,1,0,0:0:0:0:
109,192,221703,1,0,0:0:0:0:
329,192,221786,128,0,221953:0:0:0:0:
182,192,221786,1,0,0:0:0:0:
475,192,221870,128,0,221953:0:0:0:0:
36,192,221870,1,0,0:0:0:0:
182,192,221953,128,0,222120:0:0:0:0:
109,192,221953,128,0,222620:0:0:0:0:
256,192,221953,128,0,222036:0:0:0:0:
36,192,222036,128,0,222203:0:0:0:0:
329,192,222036,128,0,222120:0:0:0:0:
402,192,222120,128,0,222203:0:0:0:0:
182,192,222203,128,0,222370:0:0:0:0:
475,192,222203,128,0,222286:0:0:0:0:
256,192,222203,128,0,222286:0:0:0:0:
36,192,222286,128,0,222453:0:0:0:0:
329,192,222286,128,0,222453:0:0:0:0:
402,192,222286,128,0,222370:0:0:0:0:
475,192,222370,128,0,222453:0:0:0:0:
402,192,222453,128,0,222620:0:0:0:0:
182,192,222453,128,0,222620:0:0:0:0:
256,192,222453,128,0,222536:0:0:0:0:
329,192,222536,128,0,222620:0:0:0:0:
36,192,222620,128,0,223036:0:0:0:0:
475,192,222620,128,0,223036:0:0:0:0:
109,192,222953,128,0,223370:0:0:0:0:
402,192,222953,128,0,223370:0:0:0:0:
182,192,222953,128,0,223036:0:0:0:0:
329,192,222953,128,0,223036:0:0:0:0:
256,192,222953,128,0,223036:0:0:0:0:
36,192,223286,128,0,223370:0:0:0:0:
329,192,223286,128,0,223370:0:0:0:0:
182,192,223286,128,0,223370:0:0:0:0:
475,192,223286,128,0,223370:0:0:0:0:
256,192,223286,128,0,223703:0:0:0:0:
182,192,223620,128,0,224036:0:0:0:0:
329,192,223620,128,0,224036:0:0:0:0:
36,192,223620,128,0,223703:0:0:0:0:
109,192,223620,128,0,223703:0:0:0:0:
402,192,223620,128,0,223703:0:0:0:0:
475,192,223620,128,0,223703:0:0:0:0:
36,192,223953,128,0,227245:0:0:0:0:
109,192,223953,128,0,227266:0:0:0:0:
402,192,223953,128,0,227266:0:0:0:0:
475,192,223953,128,0,227245:0:0:0:0:
256,192,223953,128,0,227286:0:0:0:0:
109,192,227953,128,0,228286:0:0:0:0:
182,192,228286,128,0,228620:0:0:0:0:
402,192,228286,1,0,0:0:0:0:
329,192,228453,1,0,0:0:0:0:
256,192,228620,1,0,0:0:0:0:
402,192,229286,128,0,229620:0:0:0:0:
329,192,229620,128,0,229953:0:0:0:0:
109,192,229620,1,0,0:0:0:0:
182,192,229786,1,0,0:0:0:0:
256,192,229953,1,0,0:0:0:0:
36,192,230620,128,0,230953:0:0:0:0:
329,192,230620,128,0,230953:0:0:0:0:
109,192,230953,128,0,231286:0:0:0:0:
402,192,230953,128,0,231286:0:0:0:0:
182,192,230953,1,0,0:0:0:0:
256,192,231120,1,0,0:0:0:0:
329,192,231286,1,0,0:0:0:0:
475,192,231953,128,0,232286:0:0:0:0:
182,192,231953,128,0,232286:0:0:0:0:
402,192,232286,128,0,232620:0:0:0:0:
109,192,232286,128,0,232620:0:0:0:0:
329,192,232286,1,0,0:0:0:0:
256,192,232453,1,0,0:0:0:0:
182,192,232620,1,0,0:0:0:0:
36,192,233286,128,0,233620:0:0:0:0:
475,192,233286,128,0,233620:0:0:0:0:
109,192,233620,128,0,233953:0:0:0:0:
402,192,233620,128,0,233953:0:0:0:0:
182,192,233620,1,0,0:0:0:0:
256,192,233786,1,0,0:0:0:0:
329,192,233953,1,0,0:0:0:0:
402,192,234620,128,0,234953:0:0:0:0:
109,192,234620,128,0,234953:0:0:0:0:
36,192,234953,128,0,235286:0:0:0:0:
475,192,234953,128,0,235286:0:0:0:0:
329,192,234953,1,0,0:0:0:0:
256,192,235120,1,0,0:0:0:0:
182,192,235286,1,0,0:0:0:0:
36,192,235786,1,0,0:0:0:0:
36,192,235953,128,0,237828:0:0:0:0:
182,192,236120,1,0,0:0:0:0:
182,192,236286,128,0,237870:0:0:0:0:
475,192,236620,128,0,237953:0:0:0:0:
329,192,236786,1,0,0:0:0:0:
329,192,236953,128,0,237911:0:0:0:0:
109,192,237286,128,0,237849:0:0:0:0:
256,192,237286,128,0,237891:0:0:0:0:
402,192,237286,128,0,237932:0:0:0:0:
