osu file format v14

[General]
AudioFilename: audio.mp3
AudioLeadIn: 0
PreviewTime: 117887
Countdown: 0
SampleSet: Soft
StackLeniency: 0.7
Mode: 0
LetterboxInBreaks: 0
WidescreenStoryboard: 1

[Editor]
DistanceSpacing: 0.8
BeatDivisor: 12
GridSize: 32
TimelineZoom: 2.699999

[Metadata]
Title:Hana ni Bourei
TitleUnicode:花に亡霊
Artist:Yorushika
ArtistUnicode:ヨルシカ
Creator:HowRengar
Version:Insane
Source:A Whisker Away
Tags:Japanese Anime ghost in a flower n-buna netflix movie nakineko 泣きたい私は猫をかぶる nakitai watashi wa neko o kaburu 盗作 tosaku plagiarism Pop Jpop J-pop
BeatmapID:2669267
BeatmapSetID:1177614

[Difficulty]
HPDrainRate:5
CircleSize:4.4
OverallDifficulty:8
ApproachRate:9
SliderMultiplier:2.5
SliderTickRate:1

[Events]
//Background and Video events
0,0,"bg.png",0,0
//Break Periods
2,82823,91963
2,161767,166023
//Storyboard Layer 0 (Background)
//Storyboard Layer 1 (Fail)
//Storyboard Layer 2 (Pass)
//Storyboard Layer 3 (Foreground)
//Storyboard Layer 4 (Overlay)
//Storyboard Sound Samples

[TimingPoints]
-1371,666.666666666667,4,2,1,40,1,0
1295,-100,4,2,34,40,0,0
1629,-100,4,2,44,40,0,0
1962,-100,4,2,5,40,0,0
2629,-100,4,2,27,40,0,0
2962,-100,4,2,44,40,0,0
3295,-100,4,2,5,40,0,0
3962,-100,4,2,32,40,0,0
4295,-100,4,2,39,40,0,0
4629,-100,4,2,4,40,0,0
5295,-100,4,2,31,40,0,0
5629,-100,4,2,39,40,0,0
5962,-100,4,2,6,40,0,0
6629,-100,4,2,22,40,0,0
6962,-100,4,2,32,40,0,0
7295,-100,4,2,5,40,0,0
7962,-100,4,2,24,40,0,0
8295,-100,4,2,44,40,0,0
8629,-100,4,2,5,40,0,0
9295,-100,4,2,25,40,0,0
9629,-100,4,2,44,40,0,0
9962,-100,4,2,27,40,0,0
10295,-100,4,2,44,40,0,0
10629,-100,4,2,32,40,0,0
10962,-100,4,2,39,40,0,0
11295,-100,4,2,6,40,0,0
11962,-100,4,2,34,40,0,0
12295,-100,4,2,44,40,0,0
12629,-100,4,2,5,40,0,0
13295,-100,4,2,27,40,0,0
13629,-100,4,2,44,40,0,0
13962,-100,4,2,5,40,0,0
14629,-100,4,2,32,40,0,0
14962,-100,4,2,39,40,0,0
15295,-100,4,2,4,40,0,0
15962,-100,4,2,31,40,0,0
16295,-100,4,2,39,40,0,0
16629,-100,4,2,6,40,0,0
17295,-100,4,2,22,40,0,0
17629,-100,4,2,32,40,0,0
17962,-100,4,2,5,40,0,0
18629,-100,4,2,24,40,0,0
18962,-100,4,2,32,40,0,0
19295,-100,4,2,5,40,0,0
19962,-100,4,2,25,40,0,0
20295,-100,4,2,32,40,0,0
20629,-100,4,2,27,40,0,0
20962,-100,4,2,32,40,0,0
21296,-250,4,2,20,40,0,0
21629,-250,4,2,39,40,0,0
21962,-250,4,2,43,40,0,0
22295,-250,4,2,44,40,0,0
22962,-250,4,2,32,30,0,0
23295,-250,4,2,39,40,0,0
23629,-250,4,2,43,40,0,0
23962,-250,4,2,44,40,0,0
24295,-250,4,2,32,30,0,0
24629,-250,4,2,51,30,0,0
25213,-250,4,2,1,5,0,0
25296,-250,4,2,44,40,0,0
26546,-250,4,2,1,5,0,0
26629,681.818181818182,4,2,6,40,1,0
26629,-166.666666666667,4,2,6,40,0,0
27310,-166.666666666667,4,2,4,40,0,0
27992,652.173913043478,4,2,6,40,1,0
27992,-166.666666666667,4,2,6,40,0,0
29296,681.818181818182,4,2,6,40,1,0
29296,-166.666666666667,4,2,6,40,0,0
29977,-166.666666666667,4,2,4,40,0,0
30659,631.578947368421,4,2,6,40,1,0
30659,-166.666666666667,4,2,6,40,0,0
31185,-166.666666666667,4,2,51,40,0,0
31237,-166.666666666667,4,2,56,40,0,0
31290,666.666666666667,4,2,63,40,1,0
31290,-166.666666666667,4,2,63,40,0,0
31790,-166.666666666667,4,2,2,40,0,0
31956,-200,4,2,60,55,0,0
32040,-200,4,2,1,55,0,0
32456,-166.666666666667,4,2,61,55,0,0
32540,-166.666666666667,4,2,1,55,0,0
32956,-142.857142857143,4,2,56,55,0,0
33040,-142.857142857143,4,2,1,55,0,0
34873,-142.857142857143,4,2,1,5,0,0
34956,-142.857142857143,4,2,1,55,0,0
35206,-142.857142857143,4,2,1,5,0,0
35290,-125,4,2,1,57,0,0
35540,-125,4,2,1,5,0,0
35623,-125,4,2,1,57,0,0
35873,-125,4,2,1,5,0,0
35956,-111.111111111111,4,2,1,60,0,0
36206,-111.111111111111,4,2,1,5,0,0
36289,-111.111111111111,4,2,1,60,0,0
36539,-111.111111111111,4,2,1,5,0,0
36623,-99.9999999999999,4,2,1,62,0,0
36873,-99.9999999999999,4,2,1,5,0,0
36956,-99.9999999999999,4,2,1,62,0,0
37206,-99.9999999999999,4,2,1,5,0,0
37289,-99.9999999999999,4,2,1,65,0,0
37623,701.754385964912,4,2,67,45,1,0
37623,-99.9999999999999,4,2,67,45,0,0
37663,-99.9999999999999,4,2,68,45,0,0
37973,697.674418604651,4,2,67,45,1,0
37973,-99.9999999999999,4,2,67,45,0,0
38321,689.655172413793,4,2,63,45,1,0
38321,-99.9999999999999,4,2,63,45,0,0
38665,600,4,2,64,45,1,0
38665,-99.9999999999999,4,2,64,45,0,0
38964,652.173913043478,4,2,63,45,1,0
38964,-99.9999999999999,4,2,63,45,0,0
39290,666.666666666667,4,2,60,45,1,0
39290,-99.9999999999999,4,2,60,45,0,0
39455,-99.9999999999999,4,2,1,45,0,0
39622,-99.9999999999999,4,2,58,45,0,0
39788,-99.9999999999999,4,2,1,45,0,0
39956,666.666666666667,4,2,56,45,1,1
39956,-90.9090909090909,4,2,56,75,0,1
40038,-90.9090909090909,4,2,1,75,0,1
41955,-90.9090909090909,4,2,63,75,0,1
42122,-90.9090909090909,4,2,1,75,0,1
42622,-90.9090909090909,4,2,58,75,0,1
42705,-90.9090909090909,4,2,1,75,0,1
44622,-90.9090909090909,4,2,63,75,0,1
44788,-90.9090909090909,4,2,1,75,0,1
45288,-90.9090909090909,4,2,56,75,0,1
45372,-90.9090909090909,4,2,1,75,0,1
47956,-90.9090909090909,4,2,1,75,0,1
48206,-90.9090909090909,4,2,1,5,0,1
48289,-90.9090909090909,4,2,1,75,0,1
48331,-90.9090909090909,4,2,1,5,0,1
48956,-71.4285714285714,4,2,1,75,0,1
49623,-90.9090909090909,4,2,1,75,0,1
52622,-90.9090909090909,4,2,63,75,0,1
52788,-90.9090909090909,4,2,1,75,0,1
53288,-90.9090909090909,4,2,58,75,0,1
53372,-90.9090909090909,4,2,1,75,0,1
55288,-90.9090909090909,4,2,63,75,0,1
55455,-90.9090909090909,4,2,1,75,0,1
55955,-100,4,2,56,75,0,1
56038,-100,4,2,1,75,0,1
58623,-333.333333333333,4,2,1,75,0,1
58873,-333.333333333333,4,2,1,5,0,1
58956,-166.666666666667,4,2,1,75,0,1
59206,-166.666666666667,4,2,1,5,0,1
59289,-111.111111111111,4,2,1,75,0,1
59540,-111.111111111111,4,2,1,5,0,1
59623,-83.3333333333333,4,2,1,75,0,1
59873,-83.3333333333333,4,2,1,5,0,1
59956,-666.666666666667,4,2,1,65,0,0
61289,-100,4,2,1,65,0,0
61539,-100,4,2,1,5,0,0
61623,-100,4,2,1,65,0,0
69289,-76.9230769230769,4,2,1,65,0,0
69956,-52.6315789473684,4,2,1,65,0,0
69998,-52.6315789473684,4,2,1,5,0,0
70289,-83.3333333333333,4,2,1,65,0,0
70956,-100,4,2,1,65,0,0
79956,-200,4,2,1,65,0,0
80206,-200,4,2,1,5,0,0
80289,-125,4,2,1,65,0,0
80539,-125,4,2,1,5,0,0
80623,-90.9090909090909,4,2,1,65,0,0
80873,-90.9090909090909,4,2,1,5,0,0
80956,-71.4285714285714,4,2,1,65,0,0
81206,-71.4285714285714,4,2,1,5,0,0
81289,-1000,4,2,1,65,0,0
81623,-1000,4,2,1,55,0,0
81956,-1000,4,2,1,45,0,0
82289,-1000,4,2,1,35,0,0
82623,-1000,4,2,1,25,0,0
93289,-200,4,2,1,45,0,0
94623,-400,4,2,2,45,0,0
94705,-400,4,2,1,45,0,0
95956,-200,4,2,1,45,0,0
97289,-400,4,2,2,45,0,0
97372,-400,4,2,1,45,0,0
98623,-200,4,2,1,45,0,0
99956,-400,4,2,2,45,0,0
100038,-400,4,2,1,45,0,0
101289,-200,4,2,1,45,0,0
102455,-200,4,2,60,45,0,0
102622,-200,4,2,58,45,0,0
102788,-200,4,2,56,45,0,0
102955,-200,4,2,51,45,0,0
103122,-200,4,2,56,45,0,0
103289,-200,4,2,58,45,0,0
103455,-200,4,2,51,45,0,0
103622,-200,4,2,63,45,0,0
103788,-200,4,2,51,45,0,0
103956,-500,4,2,56,45,0,0
104038,-500,4,2,1,45,0,0
104623,-200,4,2,1,45,0,0
109622,-200,4,2,51,45,0,0
109705,-200,4,2,1,45,0,0
109955,-200,4,2,63,45,0,0
110123,-500,4,2,1,45,0,0
110623,-142.857142857143,4,2,1,55,0,0
113289,-200,4,2,1,55,0,0
113539,-200,4,2,1,5,0,0
113623,-200,4,2,1,55,0,0
113873,-200,4,2,1,5,0,0
113956,-125,4,2,1,57,0,0
114206,-125,4,2,1,5,0,0
114289,-125,4,2,1,57,0,0
114539,-125,4,2,1,5,0,0
114623,-90.909090909091,4,2,1,60,0,0
114873,-90.909090909091,4,2,1,5,0,0
114956,-90.909090909091,4,2,1,60,0,0
115206,-90.909090909091,4,2,1,5,0,0
115289,-71.4285714285714,4,2,1,62,0,0
115539,-71.4285714285714,4,2,1,5,0,0
115623,-71.4285714285714,4,2,1,62,0,0
115873,-71.4285714285714,4,2,1,5,0,0
115956,-71.4285714285714,4,2,1,65,0,0
116289,-71.4285714285714,4,2,67,45,0,0
116330,-71.4285714285714,4,2,68,45,0,0
116622,-71.4285714285714,4,2,67,45,0,0
116955,-71.4285714285714,4,2,63,45,0,0
117123,-100,4,2,1,65,0,0
117288,-100,4,2,64,65,0,0
117330,-100,4,2,1,65,0,0
117623,-100,4,2,63,65,0,0
117664,-100,4,2,1,5,0,0
117956,-100,4,2,60,65,0,0
118122,-100,4,2,1,65,0,0
118289,-100,4,2,58,65,0,0
118456,-100,4,2,1,65,0,0
118622,-90.9090909090909,4,2,56,75,0,1
118705,-90.9090909090909,4,2,1,75,0,1
120622,-90.9090909090909,4,2,63,75,0,1
120788,-90.9090909090909,4,2,1,75,0,1
121288,-90.9090909090909,4,2,58,75,0,1
121372,-90.9090909090909,4,2,1,75,0,1
123288,-90.9090909090909,4,2,63,75,0,1
123455,-90.9090909090909,4,2,1,75,0,1
123955,-90.9090909090909,4,2,56,75,0,1
124038,-90.9090909090909,4,2,1,75,0,1
124706,-90.9090909090909,4,2,1,5,0,1
124789,-90.9090909090909,4,2,1,75,0,1
126623,-90.9090909090909,4,2,1,75,0,1
126873,-90.9090909090909,4,2,1,5,0,1
126956,-90.9090909090909,4,2,1,75,0,1
126998,-90.9090909090909,4,2,1,5,0,1
127623,-71.4285714285714,4,2,1,75,0,1
128288,-90.9090909090909,4,2,1,75,0,1
131288,-90.9090909090909,4,2,63,75,0,1
131455,-90.9090909090909,4,2,1,75,0,1
131955,-90.9090909090909,4,2,58,75,0,1
132038,-90.9090909090909,4,2,1,75,0,1
133955,-90.9090909090909,4,2,63,75,0,1
134122,-90.9090909090909,4,2,1,75,0,1
134622,-100,4,2,56,75,0,1
134705,-100,4,2,1,75,0,1
137540,-100,4,2,1,5,0,1
137623,-100,4,2,1,75,0,1
139956,-90.9090909090909,4,2,1,75,0,1
146206,-90.9090909090909,4,2,1,5,0,1
146289,-90.9090909090909,4,2,1,75,0,1
146706,-90.9090909090909,4,2,1,5,0,1
146789,-90.9090909090909,4,2,1,75,0,1
147206,-90.9090909090909,4,2,1,5,0,1
147289,-90.9090909090909,4,2,1,75,0,1
149623,-142.857142857143,4,2,1,75,0,1
149873,-142.857142857143,4,2,1,5,0,1
149956,-90.909090909091,4,2,1,75,0,1
154123,-90.909090909091,4,2,1,5,0,1
154206,-90.909090909091,4,2,1,75,0,1
154373,-90.909090909091,4,2,1,5,0,1
154456,-90.909090909091,4,2,1,75,0,1
154539,-90.909090909091,4,2,1,5,0,1
154623,-90.909090909091,4,2,1,75,0,1
155623,-71.4285714285714,4,2,1,75,0,1
155873,-90.909090909091,4,2,1,5,0,1
155956,-90.909090909091,4,2,1,75,0,1
158622,-125,4,2,1,65,0,0
159289,-125,4,2,1,55,0,0
159956,-125,4,2,1,45,0,0
160623,-125,4,2,1,35,0,0
161289,-125,4,2,1,25,0,0
161623,-1000,4,2,1,45,0,0
166622,-250,4,2,6,45,0,0
167288,-250,4,2,4,45,0,0
167955,-250,4,2,6,45,0,0
169288,-250,4,2,6,45,0,0
169955,-250,4,2,4,45,0,0
170622,-250,4,2,6,45,0,0
171177,-250,4,2,51,45,0,0
171233,-250,4,2,56,45,0,0
171288,-250,4,2,63,45,0,0
171788,-250,4,2,1,45,0,0
171955,-250,4,2,63,45,0,0
174455,-250,4,2,1,45,0,0
174623,-142.857142857143,4,2,1,55,0,0
174873,-142.857142857143,4,2,1,5,0,0
174956,-142.857142857143,4,2,1,55,0,0
175206,-142.857142857143,4,2,1,5,0,0
175289,-111.111111111111,4,2,1,57,0,0
175539,-111.111111111111,4,2,1,5,0,0
175623,-111.111111111111,4,2,1,57,0,0
175873,-111.111111111111,4,2,1,5,0,0
175956,-90.909090909091,4,2,1,60,0,0
176206,-90.909090909091,4,2,1,5,0,0
176289,-90.909090909091,4,2,1,60,0,0
176539,-90.909090909091,4,2,1,5,0,0
176623,-76.9230769230769,4,2,1,62,0,0
176873,-76.9230769230769,4,2,1,5,0,0
176956,-76.9230769230769,4,2,1,62,0,0
177206,-76.9230769230769,4,2,1,5,0,0
177297,638.297872340426,4,2,1,65,1,0
177297,-76.9230769230769,4,2,1,65,0,0
177616,697.674418604651,4,2,67,45,1,0
177616,-76.9230769230769,4,2,67,45,0,0
177674,-76.9230769230769,4,2,68,45,0,0
177964,666.666666666667,4,2,67,45,1,0
177964,-76.9230769230769,4,2,67,45,0,0
178297,625,4,2,63,45,1,0
178297,-76.9230769230769,4,2,63,45,0,0
178609,666.666666666667,4,2,63,45,1,0
178664,-76.9230769230769,4,2,64,45,0,0
178942,-76.9230769230769,4,2,63,45,0,0
179275,-76.9230769230769,4,2,60,45,0,0
179609,681.818181818182,4,2,55,45,1,0
179609,-76.9230769230769,4,2,55,45,0,0
179665,-76.9230769230769,4,2,56,45,0,0
179949,-76.9230769230769,4,2,58,42,0,0
180290,-76.9230769230769,4,2,55,40,0,0
180631,-76.9230769230769,4,2,51,40,0,0
180972,625,4,2,53,35,1,0
180972,-76.9230769230769,4,2,53,35,0,0
181284,697.674418604651,4,2,48,35,1,0
181284,-76.9230769230769,4,2,48,35,0,0
181632,652.173913043478,4,2,46,35,1,0
181632,-76.9230769230769,4,2,46,35,0,0
181958,666.666666666667,4,2,44,35,1,0
181958,-76.9230769230769,4,2,44,35,0,0
182291,-76.9230769230769,4,2,43,35,0,0
182630,666.666666666667,4,2,41,35,1,0
182630,-250,4,2,41,35,0,0
182713,-250,4,2,1,35,0,0
191130,-250,4,2,1,5,0,0
191630,-71.4285714285714,4,2,49,80,0,1
191712,-71.4285714285714,4,2,1,80,0,1
192296,-83.3333333333333,4,2,48,80,0,1
192379,-83.3333333333333,4,2,1,80,0,1
192629,-83.3333333333333,4,2,46,80,0,1
192740,-83.3333333333333,4,2,1,80,0,1
192962,-83.3333333333333,4,2,44,80,0,1
193074,-83.3333333333333,4,2,1,80,0,1
193296,-71.4285714285714,4,2,1,80,0,1
193963,-83.3333333333333,4,2,1,80,0,1
195295,-83.3333333333333,4,2,63,80,0,1
195462,-83.3333333333333,4,2,1,80,0,1
195962,-83.3333333333333,4,2,58,80,0,1
196045,-83.3333333333333,4,2,1,80,0,1
197296,-71.4285714285714,4,2,1,80,0,1
197962,-83.3333333333333,4,2,63,80,0,1
198129,-83.3333333333333,4,2,1,80,0,1
198629,-83.3333333333333,4,2,56,80,0,1
198712,-83.3333333333333,4,2,1,80,0,1
201296,-200,4,2,1,80,0,1
201546,-200,4,2,1,5,0,1
201630,-125,4,2,1,80,0,1
201880,-125,4,2,1,5,0,1
201963,-90.9090909090909,4,2,1,80,0,1
202213,-90.9090909090909,4,2,1,5,0,1
202296,-71.4285714285714,4,2,1,80,0,1
202546,-71.4285714285714,4,2,1,5,0,1
202630,-666.666666666667,4,2,1,75,0,0
203963,-100,4,2,1,75,0,0
204213,-100,4,2,1,5,0,0
204296,-100,4,2,1,75,0,0
212213,-100,4,2,1,5,0,0
212296,-100,4,2,1,75,0,0
212671,-100,4,2,1,5,0,0
212963,-83.3333333333333,4,2,1,75,0,0
213630,-100,4,2,1,75,0,0
214880,-100,4,2,1,5,0,0
214963,-100,4,2,1,75,0,0
222630,-200,4,2,1,75,0,0
222880,-200,4,2,1,5,0,0
222963,-125,4,2,1,75,0,0
223213,-125,4,2,1,5,0,0
223295,-90.9090909090909,4,2,1,75,0,0
223546,-90.9090909090909,4,2,1,5,0,0
223630,-71.4285714285714,4,2,1,75,0,0
223880,-71.4285714285714,4,2,1,5,0,0
223963,-1000,4,2,1,65,0,0
224630,-1000,4,2,1,55,0,0
225296,-1000,4,2,1,45,0,0
225963,-1000,4,2,1,35,0,0
226630,-1000,4,2,1,25,0,0
227962,-100,4,2,34,40,0,0
228296,-100,4,2,44,40,0,0
228629,-100,4,2,5,40,0,0
229296,-100,4,2,27,40,0,0
229629,-100,4,2,44,40,0,0
229962,-100,4,2,5,40,0,0
230629,-100,4,2,32,40,0,0
230962,-100,4,2,39,40,0,0
231296,-100,4,2,4,40,0,0
231962,-100,4,2,31,40,0,0
232296,-100,4,2,39,40,0,0
232629,-100,4,2,6,40,0,0
233296,-100,4,2,22,40,0,0
233629,-100,4,2,32,40,0,0
233962,-100,4,2,5,40,0,0
234629,-100,4,2,24,40,0,0
234962,-100,4,2,44,40,0,0
235296,-100,4,2,5,40,0,0
235962,-100,4,2,25,40,0,0
236296,-100,4,2,44,40,0,0
236629,-100,4,2,27,40,0,0
236962,-100,4,2,44,40,0,0
237296,-500,4,2,20,45,0,0
237379,-500,4,2,1,45,0,0
237963,-500,4,2,1,5,0,0

[Colours]
Combo1 : 247,216,91
Combo2 : 219,135,79
Combo3 : 238,241,114
Combo4 : 119,149,225
Combo5 : 154,217,98

[HitObjects]
376,29,1295,5,2,0:0:0:0:
431,87,1629,1,2,0:0:0:0:
317,120,1962,1,2,0:0:0:0:
357,293,2629,5,2,0:0:0:0:
434,311,2963,1,2,0:0:0:0:
406,196,3296,1,2,0:0:0:0:
266,362,3962,5,2,0:0:0:0:
205,311,4295,1,2,0:0:0:0:
123,364,4629,1,2,0:0:0:0:
8,221,5295,5,2,0:0:0:0:
81,255,5629,1,2,0:0:0:0:
139,200,5962,1,2,0:0:0:0:
227,1,6629,5,2,0:0:0:0:
272,66,6962,1,2,0:0:0:0:
158,112,7295,1,2,0:0:0:0:
370,194,7962,5,2,0:0:0:0:
317,269,8295,1,2,0:0:0:0:
450,323,8628,1,2,0:0:0:0:
179,370,9295,5,2,0:0:0:0:
140,279,9629,1,2,0:0:0:0:
57,313,9962,5,2,0:0:0:0:
101,197,10296,1,2,0:0:0:0:
224,302,10629,5,2,0:0:0:0:
287,253,10962,1,2,0:0:0:0:
383,311,11295,1,2,0:0:0:0:
241,160,11962,5,2,0:0:0:0:
170,197,12295,1,2,0:0:0:0:
71,132,12629,1,2,0:0:0:0:
295,4,13295,5,2,0:0:0:0:
268,79,13629,1,2,0:0:0:0:
375,131,13962,1,2,0:0:0:0:
512,0,14629,5,2,0:0:0:0:
458,59,14962,1,2,0:0:0:0:
485,151,15295,1,2,0:0:0:0:
358,302,15962,5,2,0:0:0:0:
430,267,16295,1,2,0:0:0:0:
501,305,16629,1,2,0:0:0:0:
282,341,17295,5,2,0:0:0:0:
232,278,17629,1,2,0:0:0:0:
124,325,17962,1,2,0:0:0:0:
10,156,18629,5,2,0:0:0:0:
74,237,18963,1,2,0:0:0:0:
207,183,19296,1,2,0:0:0:0:
31,44,19962,5,2,0:0:0:0:
118,92,20295,1,2,0:0:0:0:
229,0,20629,5,2,0:0:0:0:
107,11,20962,1,2,0:0:0:0:
132,174,21295,5,2,0:0:0:0:
193,224,21629,1,2,0:0:0:0:
275,176,21962,1,2,0:0:0:0:
377,244,22295,2,0,L|367:344,1,100,2|0,0:0|0:0,0:0:0:0:
433,384,23295,1,2,0:0:0:0:
503,322,23629,1,2,0:0:0:0:
475,205,23962,2,0,P|471:180|467:155,1,50,2|0,2:0|0:0,0:0:0:0:
505,40,24629,2,0,P|461:34|420:47,1,87.5,2|0,0:0|0:0,0:0:0:0:
403,60,25295,6,0,B|342:92|295:43|295:43|336:56|366:34,1,187.5,2|0,0:0|0:0,0:0:0:0:
372,22,26629,5,2,0:0:0:0:
323,144,27310,1,2,0:0:0:0:
285,61,27992,1,2,0:0:0:0:
138,100,29296,5,2,0:0:0:0:
187,222,29977,1,2,0:0:0:0:
225,139,30659,1,2,0:0:0:0:
107,273,31185,6,0,L|90:269,2,12.4999996185303,2|2|2,0:0|0:0|0:0,0:0:0:0:
19,335,31790,1,2,0:3:0:0:
115,378,31956,6,0,P|145:370|176:365,1,62.5,10|0,0:2|0:0,0:0:0:0:
259,383,32456,2,0,P|259:345|243:312,1,74.9999977111817,10|0,0:2|0:0,0:0:0:0:
94,270,32956,2,0,B|177:302|172:217|255:227,1,174.999994659424,10|0,0:2|1:0,0:0:0:0:
372,300,33956,1,10,0:0:0:0:
459,250,34290,1,2,0:0:0:0:
388,78,34623,6,0,P|393:110|395:143,1,65.624997997284,0|0,1:0|0:0,0:0:0:0:
394,154,34956,2,0,P|366:173|334:176,1,65.624997997284,0|0,1:0|0:0,0:0:0:0:
322,189,35290,6,0,P|294:170|253:166,1,75,0|0,1:0|0:0,0:0:0:0:
236,178,35623,2,0,P|234:145|226:103,1,75,0|0,1:0|0:0,0:0:0:0:
221,80,35956,6,0,L|135:98,1,84.3749974250794,0|0,1:0|0:0,0:0:0:0:
113,106,36290,2,0,L|30:88,1,84.3749974250794,0|0,1:0|0:0,0:0:0:0:
15,46,36623,6,0,P|31:91|23:160,1,93.75,8|0,1:0|0:0,0:0:0:0:
53,175,36956,2,0,P|37:220|45:289,1,93.75,8|0,1:0|0:0,0:0:0:0:
65,305,37290,1,8,1:0:0:0:
174,240,37623,6,0,L|157:239,1,15.625,2|2,0:0|0:0,0:0:0:0:
65,305,37973,1,2,0:0:0:0:
136,361,38321,1,2,0:0:0:0:
268,246,38608,6,0,L|290:247,1,20.8333333333333,2|2,0:0|0:0,0:0:0:0:
351,341,38964,1,2,0:0:0:0:
267,380,39290,1,2,0:0:0:0:
349,327,39456,1,2,0:0:0:0:
446,384,39623,2,0,P|450:355|452:318,1,62.5,2|2,0:0|0:0,0:0:0:0:
512,188,39956,6,0,P|445:203|377:215,1,137.500004196167,6|0,1:2|0:0,0:0:0:0:
289,161,40456,1,2,1:0:0:0:
384,49,40623,2,0,P|381:83|378:117,1,68.7500020980836,10|2,0:1|0:0,0:0:0:0:
285,239,40956,2,0,P|281:204|278:170,1,68.7500020980836,2|8,0:0|0:0,0:0:0:0:
265,19,41290,2,0,P|221:71|155:57,1,137.500004196167,0|0,1:0|1:0,0:0:0:0:
0,0,41956,5,10,0:1:0:0:
0,116,42123,1,2,0:0:0:0:
140,169,42290,2,0,L|132:246,1,68.7500020980836,2|2,0:0|0:0,0:0:0:0:
32,302,42623,6,0,P|63:244|128:249,1,137.500004196167,2|0,1:0|0:0,0:0:0:0:
203,384,43123,1,2,1:0:0:0:
277,288,43290,2,0,P|242:292|209:298,1,68.7500020980836,10|2,0:1|0:0,0:0:0:0:
293,199,43623,2,0,P|327:202|361:207,1,68.7500020980836,2|8,0:0|0:0,0:0:0:0:
473,343,43956,2,0,P|484:276|492:207,1,137.500004196167,0|0,1:0|1:0,0:0:0:0:
435,0,44623,5,10,0:1:0:0:
499,94,44790,1,2,0:0:0:0:
351,80,44956,1,2,0:0:0:0:
229,200,45123,5,10,0:0:0:0:
227,206,45206,1,8,0:0:0:0:
225,212,45290,2,0,P|261:205|297:197,1,68.7500020980836,6|0,1:2|0:0,0:0:0:0:
357,87,45623,1,2,1:0:0:0:
299,191,45790,2,0,P|216:207|137:219,1,137.500004196167,2|2,0:0|0:0,0:0:0:0:
40,206,46290,1,2,0:0:0:0:
0,103,46456,1,10,0:0:0:0:
108,60,46623,6,0,P|110:94|111:128,1,68.7500020980836,2|0,1:0|0:0,0:0:0:0:
36,215,46956,1,2,1:0:0:0:
119,137,47123,2,0,P|114:46|110:-4,1,137.500004196167,2|2,0:0|0:0,0:0:0:0:
0,0,47623,1,10,0:3:0:0:
0,103,47790,1,4,0:3:0:0:
203,38,47956,6,0,P|251:28|310:18,1,103.125003147125,10|0,1:0|0:0,0:0:0:0:
324,18,48290,6,0,L|320:34,1,17.1875005245209,2|0,1:0|0:0,0:0:0:0:
191,239,48956,6,0,B|147:219|134:147|255:95|337:216,1,262.499991989136,6|0,1:0|1:0,0:0:0:0:
386,301,49623,2,0,B|387:316|401:332|401:332|419:322|426:310,1,68.7500020980836,8|0,0:1|0:0,0:0:0:0:
498,124,49956,5,10,0:1:0:0:
466,206,50123,1,10,0:3:0:0:
396,103,50290,1,6,0:3:0:0:
430,16,50457,1,6,0:3:0:0:
300,20,50623,6,0,L|465:5,1,137.500004196167,6|0,1:0|0:0,0:0:0:0:
234,101,51123,1,2,1:0:0:0:
99,81,51290,1,10,0:1:0:0:
165,0,51456,1,2,0:0:0:0:
87,71,51623,2,0,L|97:144,1,68.7500020980836,2|8,0:0|0:0,0:0:0:0:
50,253,51956,2,0,B|109:216|109:216|174:235,1,137.500004196167,0|0,1:0|1:0,0:0:0:0:
134,384,52623,5,10,0:1:0:0:
121,301,52790,1,2,0:0:0:0:
244,180,52956,1,2,0:0:0:0:
257,263,53123,1,2,0:0:0:0:
274,384,53290,6,0,P|337:374|417:359,1,137.500004196167,2|0,1:0|0:0,0:0:0:0:
490,245,53790,1,2,1:0:0:0:
375,184,53956,1,10,0:1:0:0:
461,152,54123,1,2,0:0:0:0:
371,259,54290,2,0,L|365:171,1,68.7500020980836,2|8,0:0|0:0,0:0:0:0:
490,23,54623,6,0,B|482:52|482:52|432:85|377:45,1,137.500004196167,0|0,1:0|1:0,0:0:0:0:
150,87,55290,2,0,P|182:71|226:67,1,68.7500020980836,10|2,0:1|0:0,0:0:0:0:
304,97,55623,1,2,0:0:0:0:
285,11,55790,1,2,0:0:0:0:
236,157,55956,6,0,P|243:222|250:283,1,125,2|0,1:2|0:0,0:0:0:0:
317,375,56456,1,2,1:0:0:0:
316,375,56623,2,0,P|254:370|193:359,1,125,10|0,0:1|0:0,0:0:0:0:
105,322,57123,1,8,0:0:0:0:
23,384,57290,2,0,L|4:260,2,125,0|0|8,1:0|1:0|0:1,0:0:0:0:
116,165,58290,5,0,0:0:0:0:
35,107,58456,1,8,0:0:0:0:
181,26,58623,6,0,L|212:20,1,28.1249991416931,0|0,1:0|0:0,0:0:0:0:
224,28,58956,6,0,L|160:39,1,56.2499982833863,0|0,1:0|0:0,0:0:0:0:
157,51,59290,6,0,L|251:34,1,84.3749974250794,2|0,1:0|0:0,0:0:0:0:
256,44,59623,6,0,L|129:66,1,112.499996566773,2|0,1:0|0:0,0:0:0:0:
185,66,59956,6,0,L|224:59,1,37.4999988555909,10|0,1:0|0:0,0:0:0:0:
503,55,61290,6,0,P|465:28|419:29,1,93.75,4|0,1:0|0:0,0:0:0:0:
408,40,61623,2,0,L|420:111,1,62.5,2|0,1:0|0:0,0:0:0:0:
507,155,61956,1,10,0:1:0:0:
397,50,62123,2,0,L|409:121,1,62.5,2|0,0:0|0:0,0:0:0:0:
419,214,62456,1,2,1:0:0:0:
321,180,62623,6,0,P|291:171|259:171,1,62.5,2|8,0:0|0:1,0:0:0:0:
175,237,62956,1,2,1:0:0:0:
260,190,63123,2,0,P|291:189|321:198,1,62.5,2|8,0:0|0:1,0:0:0:0:
394,304,63456,1,2,0:0:0:0:
265,350,63623,2,0,L|279:262,1,62.5,2|10,0:0|0:0,0:0:0:0:
309,93,63956,5,2,1:0:0:0:
185,111,64123,2,0,L|154:102,2,31.25,2|2|2,0:0|0:0|1:0,0:0:0:0:
241,2,64456,1,2,0:0:0:0:
117,20,64623,2,0,L|86:11,2,31.25,10|2|2,0:1|0:0|0:0,0:0:0:0:
254,6,64956,1,2,0:0:0:0:
309,93,65123,1,2,1:0:0:0:
154,102,65290,5,2,0:0:0:0:
200,213,65456,1,10,0:1:0:0:
150,293,65623,1,2,1:0:0:0:
196,359,65790,2,0,L|260:340,1,62.5,2|8,0:0|0:1,0:0:0:0:
105,212,66123,5,2,0:0:0:0:
95,210,66290,5,2,0:0:0:0:
85,208,66456,5,10,0:0:0:0:
0,342,66623,6,0,P|30:336|61:330,1,62.5,6|0,1:2|0:0,0:0:0:0:
150,293,66956,1,2,1:0:0:0:
15,354,67123,2,0,P|45:348|76:342,1,62.5,2|8,0:0|0:1,0:0:0:0:
201,194,67456,1,2,0:0:0:0:
325,272,67623,6,0,P|293:271|264:281,1,62.5,2|0,0:0|1:0,0:0:0:0:
211,376,67956,1,2,0:0:0:0:
270,297,68123,2,0,P|299:286|330:287,1,62.5,10|0,0:1|1:0,0:0:0:0:
408,354,68456,1,2,0:0:0:0:
435,250,68623,2,0,P|437:218|440:187,1,62.5,10|0,0:1|0:0,0:0:0:0:
492,71,68956,1,2,0:0:0:0:
376,18,69123,1,10,0:0:0:0:
249,134,69290,6,0,B|287:118|287:118|340:141,1,81.2499962806703,10|0,1:0|0:0,0:0:0:0:
334,271,69623,1,10,3:0:0:0:
332,279,69706,1,8,3:0:0:0:
330,287,69790,1,8,3:0:0:0:
252,223,69956,2,0,L|285:210,1,29.6874992072582,2|0,1:0|0:0,0:0:0:0:
491,107,70290,6,0,B|448:140|375:100|421:70|349:23|294:53,1,224.999993133545,6|8,1:0|0:0,0:0:0:0:
164,200,70956,2,0,P|133:205|104:196,1,62.5,8|0,0:0|1:0,0:0:0:0:
0,18,71290,5,8,0:1:0:0:
121,0,71456,1,8,0:3:0:0:
138,122,71623,1,4,0:3:0:0:
68,68,71790,1,4,0:3:0:0:
191,54,71956,6,0,P|225:56|269:58,1,62.5,6|0,1:0|0:0,0:0:0:0:
322,153,72290,1,2,1:0:0:0:
203,67,72456,2,0,P|237:69|281:71,1,62.5,2|8,0:0|0:1,0:0:0:0:
454,25,72790,1,2,0:0:0:0:
359,10,72956,6,0,B|352:41|352:41|371:73,1,62.5,2|0,0:0|1:0,0:0:0:0:
455,116,73290,1,2,0:0:0:0:
383,65,73456,2,0,B|367:38|367:38|374:7,1,62.5,10|0,0:1|1:0,0:0:0:0:
472,21,73790,1,2,0:0:0:0:
470,126,73956,2,0,L|460:188,1,62.5,10|2,0:1|0:0,0:0:0:0:
339,255,74290,2,0,L|329:193,1,62.5,2|10,0:0|0:0,0:0:0:0:
470,332,74623,5,2,1:0:0:0:
359,377,74790,2,0,L|323:368,2,31.25,2|2|2,0:0|0:0|0:0,0:0:0:0:
228,210,75123,5,2,0:0:0:0:
339,255,75290,2,0,L|375:246,2,31.25,10|2|2,0:1|0:0|0:0,0:0:0:0:
256,302,75623,1,2,0:0:0:0:
139,227,75790,1,2,1:0:0:0:
269,70,75956,5,2,0:0:0:0:
161,136,76123,1,10,0:1:0:0:
80,76,76290,1,2,1:0:0:0:
16,124,76456,2,0,P|19:156|23:187,1,62.5,2|8,0:0|0:1,0:0:0:0:
178,45,76790,5,2,0:0:0:0:
180,37,76956,5,2,0:0:0:0:
182,29,77123,5,10,0:0:0:0:
331,173,77290,6,0,B|303:158|303:158|259:174,1,62.5,6|0,1:2|0:0,0:0:0:0:
188,253,77623,1,2,1:0:0:0:
330,188,77790,2,0,B|302:173|302:173|274:184,1,62.5,2|8,0:0|0:1,0:0:0:0:
406,270,78123,1,2,0:0:0:0:
288,336,78290,6,0,L|295:261,1,62.5,2|0,0:0|1:0,0:0:0:0:
308,100,78623,1,2,0:0:0:0:
309,266,78790,2,0,L|303:328,1,62.5,10|0,0:1|1:0,0:0:0:0:
379,384,79123,1,2,0:0:0:0:
203,323,79290,2,0,P|172:329|141:336,1,62.5,10|2,0:1|0:0,0:0:0:0:
212,170,79623,2,0,P|242:177|273:183,1,62.5,2|10,0:0|0:0,0:0:0:0:
425,23,79956,6,0,P|411:41|404:64,1,46.875,10|0,1:3|0:0,0:0:0:0:
395,89,80290,6,0,P|414:120|420:157,1,75,8|0,1:3|0:0,0:0:0:0:
394,189,80623,6,0,P|435:160|482:175,1,103.125003147125,8|0,1:3|0:0,0:0:0:0:
510,206,80956,6,0,L|495:336,1,131.249995994568,10|0,1:3|0:0,0:0:0:0:
488,384,81290,6,0,L|439:377,1,50,10|2,1:3|0:0,0:0:0:0:
104,306,93290,6,0,L|67:296,2,31.25,0|0|0,1:0|0:0|0:0,0:0:0:0:
174,359,93790,2,0,L|245:346,1,62.5,0|0,1:0|0:0,0:0:0:0:
323,327,94290,1,8,0:0:0:0:
73,297,94623,6,0,L|104:306,1,31.25,6|0,0:0|0:0,0:0:0:0:
235,347,95290,1,8,0:0:0:0:
440,182,95956,6,0,L|477:172,2,31.25,0|0|0,1:0|0:0|0:0,0:0:0:0:
370,235,96456,2,0,L|299:222,1,62.5,0|0,1:0|0:0,0:0:0:0:
221,203,96956,1,8,0:0:0:0:
470,173,97289,6,0,L|439:181,1,31.25,6|0,0:0|0:0,0:0:0:0:
309,223,97956,1,8,0:0:0:0:
56,83,98623,6,0,P|42:90|29:99,2,31.25,0|0|0,1:0|0:0|0:0,0:0:0:0:
133,26,99123,2,0,P|163:22|193:31,1,62.5,0|0,1:0|0:0,0:0:0:0:
254,105,99623,1,8,0:0:0:0:
29,99,99956,6,0,P|42:90|56:83,1,31.25,6|0,0:2|0:2,0:0:0:0:
193,31,100623,1,8,0:0:0:0:
500,170,101290,6,0,B|468:176|468:176|439:154,1,62.5,0|0,1:0|0:0,0:0:0:0:
359,63,101790,1,0,1:0:0:0:
359,62,101956,2,0,P|360:93|358:124,1,62.5,0|8,0:0|0:0,0:0:0:0:
306,244,102456,1,2,0:0:0:0:
382,202,102623,5,2,0:2:0:0:
382,202,102790,1,2,0:0:0:0:
393,313,102956,5,2,0:0:0:0:
382,290,103123,1,2,0:0:0:0:
511,233,103290,5,2,0:0:0:0:
461,245,103456,1,2,0:0:0:0:
358,124,103623,5,2,0:0:0:0:
467,69,103790,1,2,0:0:0:0:
382,13,103956,2,0,L|339:18,1,37.5,2|8,0:2|0:0,0:0:0:0:
339,12,104540,1,8,0:0:0:0:
334,7,104623,2,0,L|340:40,2,31.25,8|8|0,0:0|0:3|1:0,0:0:0:0:
226,160,105290,5,0,1:0:0:0:
209,58,105790,1,8,0:0:0:0:
214,63,105873,1,8,0:0:0:0:
219,68,105956,2,0,L|261:61,2,31.25,8|0|0,0:0|0:0|0:0,0:0:0:0:
122,77,106456,1,0,1:0:0:0:
226,160,106623,1,8,0:0:0:0:
40,274,107956,5,0,1:0:0:0:
51,369,108456,1,8,0:0:0:0:
46,374,108539,1,8,0:0:0:0:
41,379,108623,2,0,L|-1:386,2,31.25,8|0|0,0:0|0:0|0:0,0:0:0:0:
141,362,109122,1,0,1:0:0:0:
40,274,109289,1,8,0:0:0:0:
167,214,109623,2,0,L|175:229,3,15.625,2|2|2|2,0:0|0:3|0:3|0:3,0:0:0:0:
184,241,109956,2,0,B|231:254|229:217|280:223,1,93.75,2|0,0:0|0:0,0:0:0:0:
359,281,110623,6,0,P|375:241|373:197,1,87.499997329712,2|0,1:0|0:0,0:0:0:0:
300,129,111123,1,2,0:0:0:0:
300,129,111290,2,0,P|291:108|288:87,1,43.749998664856,10|0,0:0|0:0,0:0:0:0:
400,39,111623,2,0,P|397:60|388:80,1,43.749998664856,0|10,0:0|0:0,0:0:0:0:
288,87,111956,2,0,L|198:79,1,87.499997329712,2|2,1:0|1:0,0:0:0:0:
182,78,112623,5,10,0:0:0:0:
211,195,112790,1,0,0:0:0:0:
139,249,112956,1,2,0:0:0:0:
122,258,113290,6,0,P|133:278|141:300,1,46.875,0|0,1:0|0:0,0:0:0:0:
159,314,113623,2,0,P|147:334|139:356,1,46.875,0|0,1:0|0:0,0:0:0:0:
132,384,113956,6,0,L|218:365,1,75,0|0,1:0|0:0,0:0:0:0:
231,360,114290,2,0,L|304:376,1,75,0|0,1:0|0:0,0:0:0:0:
338,384,114623,6,0,P|353:335|338:286,1,103.125003147125,0|0,1:0|0:0,0:0:0:0:
309,271,114956,2,0,P|294:222|309:173,1,103.125003147125,0|0,1:0|0:0,0:0:0:0:
379,157,115290,6,0,P|316:161|276:111,1,131.249995994568,8|0,1:0|0:0,0:0:0:0:
311,37,115623,2,0,P|373:32|413:82,1,131.249995994568,8|0,1:0|0:0,0:0:0:0:
345,97,115956,1,8,1:0:0:0:
193,0,116290,6,0,L|189:22,1,21.874999332428,2|2,0:0|0:0,0:0:0:0:
159,127,116623,1,2,0:0:0:0:
60,108,116956,1,2,0:0:0:0:
16,206,117123,5,0,1:0:0:0:
21,211,117206,1,0,1:0:0:0:
26,216,117290,2,0,P|71:207|114:225,1,93.75,10|0,0:3|0:0,0:0:0:0:
130,231,117623,2,0,L|126:250,1,15.625,0|0,1:0|0:0,0:0:0:0:
68,380,117956,5,10,0:1:0:0:
60,287,118123,1,10,0:3:0:0:
216,212,118290,1,6,0:3:0:0:
208,305,118457,1,6,0:3:0:0:
46,128,118623,6,0,L|189:114,1,137.500004196167,6|0,1:0|0:0,0:0:0:0:
288,107,119123,1,2,1:0:0:0:
410,17,119290,2,0,P|378:14|333:11,1,68.7500020980836,10|2,0:1|0:0,0:0:0:0:
285,119,119623,2,0,P|325:113|368:111,1,68.7500020980836,2|8,0:0|0:0,0:0:0:0:
496,100,119956,2,0,P|493:152|487:242,1,137.500004196167,0|0,1:0|1:0,0:0:0:0:
509,384,120623,5,10,0:1:0:0:
387,261,120790,1,2,0:0:0:0:
308,316,120956,2,0,L|317:393,1,68.7500020980836,2|2,0:0|0:0,0:0:0:0:
130,257,121290,6,0,B|121:202|175:176|175:176|199:191|206:219,1,137.500004196167,2|0,1:0|0:0,0:0:0:0:
217,287,121790,1,2,1:0:0:0:
85,365,121956,2,0,P|51:364|14:360,1,68.7500020980836,10|2,0:1|0:0,0:0:0:0:
0,214,122290,2,0,P|36:210|72:207,1,68.7500020980836,2|8,0:0|0:0,0:0:0:0:
217,287,122623,6,0,P|227:219|234:149,1,137.500004196167,0|0,1:0|1:0,0:0:0:0:
163,0,123290,5,10,0:1:0:0:
48,118,123456,1,2,0:0:0:0:
143,133,123623,1,2,0:0:0:0:
190,239,123790,5,10,0:0:0:0:
195,244,123873,1,8,0:0:0:0:
200,249,123956,2,0,P|224:245|272:236,1,68.7500020980836,6|0,1:2|0:0,0:0:0:0:
347,172,124290,1,2,0:0:0:0:
273,247,124456,2,0,P|223:255|136:270,1,137.500004196167,2|2,1:0|0:0,0:0:0:0:
49,208,124956,1,2,0:0:0:0:
110,376,125123,1,2,0:0:0:0:
266,364,125290,6,0,P|234:359|186:353,1,68.7500020980836,2|0,1:0|0:0,0:0:0:0:
37,310,125623,1,2,1:0:0:0:
196,343,125790,2,0,P|263:354|331:365,1,137.500004196167,2|2,0:0|0:0,0:0:0:0:
454,384,126290,1,10,0:3:0:0:
332,239,126456,1,4,0:3:0:0:
504,256,126623,2,0,P|489:292|435:272,1,103.125003147125,10|0,1:0|0:0,0:0:0:0:
430,261,126956,6,0,L|433:241,1,17.1875005245209,2|0,1:0|0:0,0:0:0:0:
495,19,127623,6,0,B|559:91|495:179|495:179|461:146|415:156,1,262.499991989136,6|0,1:0|1:0,0:0:0:0:
408,285,128290,2,0,B|420:301|420:301|432:278|429:255,1,68.7500020980836,8|0,0:1|0:0,0:0:0:0:
363,85,128623,1,10,0:1:0:0:
327,168,128790,1,10,0:3:0:0:
454,78,128956,1,6,0:3:0:0:
399,0,129123,1,6,0:3:0:0:
266,94,129290,6,0,B|209:83|161:76|161:76|191:107,1,137.500004196167,6|0,1:0|0:0,0:0:0:0:
234,180,129790,1,2,1:0:0:0:
394,180,129956,2,0,L|324:167,1,68.7500020980836,10|2,0:1|0:0,0:0:0:0:
227,272,130290,2,0,L|300:258,1,68.7500020980836,2|8,0:0|0:0,0:0:0:0:
492,155,130623,2,0,P|481:222|473:291,1,137.500004196167,0|0,1:0|1:0,0:0:0:0:
294,259,131290,5,10,0:1:0:0:
387,241,131456,1,2,0:0:0:0:
246,384,131623,1,2,0:0:0:0:
153,350,131789,1,10,0:0:0:0:
195,241,131956,6,0,B|213:188|189:150|189:150|191:171|179:191,1,137.500004196167,2|0,1:0|0:0,0:0:0:0:
87,269,132456,1,2,1:0:0:0:
23,166,132623,2,0,P|56:155|90:151,1,68.7500020980836,10|2,0:1|0:0,0:0:0:0:
241,110,132956,2,0,P|208:106|175:94,1,68.7500020980836,2|8,0:0|0:0,0:0:0:0:
16,0,133290,2,0,P|72:-9|76:64,1,137.500004196167,0|0,1:0|1:0,0:0:0:0:
22,281,133956,2,0,P|54:271|88:264,1,68.7500020980836,10|2,0:1|0:0,0:0:0:0:
175,318,134290,1,2,0:0:0:0:
279,227,134456,1,10,0:0:0:0:
176,188,134623,6,0,L|189:321,1,125,6|0,1:2|0:0,0:0:0:0:
264,379,135123,1,2,1:0:0:0:
264,379,135290,2,0,P|326:374|388:365,1,125,10|0,0:1|0:0,0:0:0:0:
472,331,135790,1,8,0:0:0:0:
419,245,135956,2,0,P|415:182|415:120,2,125,0|0|8,1:0|1:0|0:1,0:0:0:0:
427,253,136956,1,0,0:0:0:0:
258,197,137123,5,8,0:0:0:0:
253,192,137206,1,8,0:0:0:0:
248,187,137290,2,0,P|290:172|328:198,1,93.75,4|0,1:0|0:0,0:0:0:0:
335,213,137623,1,8,0:1:0:0:
501,175,137790,2,0,P|473:160|443:153,1,62.5,8|0,0:3|0:0,0:0:0:0:
342,229,138123,1,0,1:0:0:0:
392,66,138290,1,14,0:1:0:0:
396,50,138623,5,10,0:3:0:0:
297,95,138790,2,0,P|266:88|239:73,1,62.5,4|0,0:3|0:0,0:0:0:0:
166,9,139123,1,4,0:3:0:0:
136,196,139290,1,10,0:1:0:0:
247,257,139456,1,8,0:3:0:0:
179,318,139623,1,6,0:3:0:0:
68,257,139790,5,4,0:3:0:0:
63,262,139873,1,4,0:3:0:0:
58,267,139956,2,0,P|49:233|42:200,2,68.7500020980836,6|2|2,1:0|0:0|1:0,0:0:0:0:
247,257,140456,2,0,B|314:241|314:241|377:276,1,137.500004196167,2|0,0:0|0:0,0:0:0:0:
448,343,140956,1,2,0:0:0:0:
512,194,141123,2,0,B|471:190|445:210|445:210|424:186|387:176,1,137.500004196167,2|8,1:0|0:1,0:0:0:0:
247,257,141623,1,2,1:0:0:0:
296,176,141790,1,2,0:0:0:0:
179,112,141956,6,0,L|253:94,1,68.7500020980836,10|0,0:1|0:0,0:0:0:0:
283,7,142290,1,2,0:0:0:0:
186,119,142456,2,0,L|119:135,1,68.7500020980836,10|0,0:0|1:0,0:0:0:0:
10,65,142790,1,2,0:0:0:0:
13,217,142956,1,2,1:0:0:0:
20,203,143039,1,2,0:0:0:0:
8,192,143123,1,2,0:0:0:0:
80,289,143290,5,10,0:1:0:0:
152,216,143456,1,2,0:0:0:0:
179,377,143623,1,2,0:0:0:0:
165,296,143790,1,2,1:0:0:0:
244,329,143956,6,0,P|278:330|312:330,1,68.7500020980836,2|8,0:0|0:1,0:0:0:0:
334,165,144290,2,0,P|315:193|298:223,1,68.7500020980836,2|2,1:0|0:0,0:0:0:0:
494,324,144623,2,0,B|494:322|482:291|461:264|461:264|425:274|386:267,1,137.500004196167,10|0,0:1|0:0,0:0:0:0:
334,165,145123,1,8,0:0:0:0:
415,115,145290,6,0,B|432:145|432:145|424:179,1,68.7500020980836,6|2,1:2|0:0,0:0:0:0:
253,209,145623,2,0,B|237:180|237:180|245:146,1,68.7500020980836,2|0,1:0|0:0,0:0:0:0:
480,44,145956,6,0,B|412:22|412:22|378:35,1,103.125003147125,10|0,0:1|0:0,0:0:0:0:
366,43,146290,1,2,0:0:0:0:
245,146,146456,2,0,B|313:124|313:124|347:137,1,103.125003147125,2|0,1:0|0:0,0:0:0:0:
359,145,146790,1,10,0:1:0:0:
489,250,146956,2,0,B|421:228|421:228|387:241,1,103.125003147125,2|0,1:0|0:0,0:0:0:0:
375,249,147290,5,10,0:1:0:0:
425,316,147456,1,2,0:0:0:0:
475,383,147623,1,2,0:0:0:0:
360,257,147790,1,10,0:0:0:0:
231,338,147956,6,0,B|192:332|171:320|171:320|151:325|131:337|131:337|101:327,1,137.500004196167,6|8,1:2|0:1,0:0:0:0:
19,202,148456,1,8,0:3:0:0:
79,120,148623,1,4,0:3:0:0:
127,182,148790,1,4,0:3:0:0:
7,99,148956,6,0,P|75:90|142:78,1,137.500004196167,4|2,1:0|0:0,0:0:0:0:
255,25,149456,1,8,0:1:0:0:
327,175,149623,2,0,P|294:169|263:160,1,65.624997997284,2|0,1:0|0:0,0:0:0:0:
251,147,149956,5,10,0:1:0:0:
279,313,150123,1,10,0:1:0:0:
446,285,150290,1,10,0:1:0:0:
418,119,150456,1,8,0:1:0:0:
327,175,150623,5,6,1:0:0:0:
387,231,150790,1,2,0:0:0:0:
279,313,150956,1,2,1:0:0:0:
242,241,151123,1,2,0:0:0:0:
152,384,151290,2,0,P|186:380|219:373,1,68.7500020980836,10|2,0:1|0:0,0:0:0:0:
226,228,151623,2,0,P|192:220|158:217,1,68.7500020980836,2|2,0:0|1:0,0:0:0:0:
23,257,151956,6,0,P|16:223|18:189,1,68.7500020980836,2|8,0:0|0:1,0:0:0:0:
88,73,152290,1,2,1:0:0:0:
33,193,152456,2,0,P|31:227|37:260,1,68.7500020980836,2|8,0:0|0:1,0:0:0:0:
151,260,152790,2,0,P|157:226|155:192,1,68.7500020980836,2|0,0:0|0:0,0:0:0:0:
87,73,153123,2,0,P|121:66|156:64,1,68.7500020980836,10|0,0:0|1:0,0:0:0:0:
268,135,153456,5,2,0:0:0:0:
277,121,153540,1,2,0:0:0:0:
284,106,153623,1,2,1:0:0:0:
361,10,153790,5,2,0:0:0:0:
368,29,153873,1,2,0:0:0:0:
381,46,153956,2,0,B|415:37|415:37|452:57,1,68.7500020980836,10|0,0:1|0:0,0:0:0:0:
459,66,154206,2,0,P|446:97|437:131,1,68.7500020980836,2|0,0:0|0:0,0:0:0:0:
428,159,154456,2,0,P|435:174|441:190,1,34.3750010490418,2|0,1:0|0:0,0:0:0:0:
486,268,154623,6,0,P|444:220|395:259,1,137.500004196167,2|0,0:0|1:0,0:0:0:0:
397,262,155040,1,2,0:0:0:0:
399,267,155123,1,2,0:0:0:0:
401,272,155206,1,2,0:0:0:0:
403,277,155290,2,0,P|405:294|402:311,1,34.3750010490418,10|0,0:1|0:0,0:0:0:0:
370,384,155456,2,0,P|356:373|340:367,1,34.3750010490418,2|0,0:0|0:0,0:0:0:0:
221,362,155623,2,0,B|238:377|238:377|252:262,1,131.249995994568,2|0,0:0|0:0,0:0:0:0:
254,249,155956,6,0,L|217:258,1,34.3750010490418,2|2,1:0|0:0,0:0:0:0:
123,342,156123,2,0,P|135:276|94:224,1,137.500004196167,2|0,0:0|0:0,0:0:0:0:
0,141,156623,6,0,P|17:140|35:134,7,34.3750010490418,10|2|2|2|2|2|2|2,0:1|0:0|0:0|0:0|0:0|0:0|0:0|0:0,0:0:0:0:
111,50,157290,2,0,P|128:50|146:56,7,34.3750010490418,2|2|2|2|2|2|10|2,1:0|0:0|0:0|0:0|1:0|0:0|0:3|0:0,0:0:0:0:
178,150,157956,5,10,0:1:0:0:
204,140,158040,1,2,0:0:0:0:
228,121,158123,1,10,0:3:0:0:
247,92,158206,1,2,0:0:0:0:
282,76,158290,1,6,0:3:0:0:
320,90,158373,1,2,0:0:0:0:
339,130,158456,1,6,0:3:0:0:
318,173,158540,1,2,0:0:0:0:
269,182,158623,1,6,1:0:0:0:
256,192,158706,12,2,161567,0:0:0:0:
368,85,166623,5,2,0:0:0:0:
209,125,167290,1,2,0:0:0:0:
277,55,167956,1,2,0:0:0:0:
165,354,169290,5,2,0:0:0:0:
6,314,169957,1,2,0:0:0:0:
74,384,170623,1,2,0:0:0:0:
107,211,171178,2,0,L|105:226,2,8.33333333333333,2|2|2,0:0|0:0|0:0,0:0:0:0:
16,106,171790,5,8,0:0:0:0:
18,111,171873,1,8,0:0:0:0:
20,116,171956,1,0,1:0:0:0:
301,80,174456,5,8,0:0:0:0:
299,85,174539,1,8,0:0:0:0:
297,89,174623,6,0,P|312:118|324:149,1,65.624997997284,0|0,1:0|0:0,0:0:0:0:
333,165,174956,2,0,P|317:193|311:225,1,65.624997997284,0|0,1:0|0:0,0:0:0:0:
332,243,175290,6,0,P|296:220|246:224,1,84.3749974250794,0|0,1:0|0:0,0:0:0:0:
235,239,175623,2,0,P|193:239|158:216,1,84.3749974250794,0|0,1:0|0:0,0:0:0:0:
145,178,175956,6,0,P|159:226|144:275,1,103.125003147125,0|0,1:0|0:0,0:0:0:0:
115,299,176290,2,0,P|164:310|199:347,1,103.125003147125,0|0,1:0|0:0,0:0:0:0:
226,384,176623,6,0,B|274:350|274:350|343:369,1,121.874994421006,8|0,1:0|0:0,0:0:0:0:
377,339,176956,2,0,B|438:356|438:356|486:322,1,121.874994421006,8|0,1:0|0:0,0:0:0:0:
512,280,177297,1,8,1:0:0:0:
410,177,177616,6,0,L|414:206,1,27.0833320935568,2|2,0:0|0:0,0:0:0:0:
343,103,177964,1,2,0:0:0:0:
266,162,178297,1,2,0:0:0:0:
113,57,178609,6,0,L|117:29,1,20.8333333333333,2|2,0:0|0:0,0:0:0:0:
212,0,178942,1,2,0:0:0:0:
236,77,179275,1,2,0:0:0:0:
169,142,179609,2,0,L|174:172,1,27.0833320935568,2|2,0:0|0:0,0:0:0:0:
269,290,179949,5,2,0:0:0:0:
187,250,180290,1,2,0:0:0:0:
120,293,180631,1,2,0:0:0:0:
0,158,180915,2,0,L|28:150,1,27.0833320935568,2|2,0:0|0:0,0:0:0:0:
93,217,181284,1,2,0:0:0:0:
104,299,181632,1,2,0:0:0:0:
1,384,181958,5,2,0:0:0:0:
81,373,182291,1,2,0:0:0:0:
112,384,182630,6,0,L|163:378,1,50,2|0,0:0|0:0,0:0:0:0:
239,312,183296,2,0,L|288:317,1,50,2|0,0:0|0:0,0:0:0:0:
415,384,183963,2,0,L|365:378,2,50,2|0|2,0:0|0:0|0:0,0:0:0:0:
512,270,184963,1,0,0:0:0:0:
512,270,185130,1,0,0:0:0:0:
481,190,185296,6,0,L|430:184,1,50,2|0,0:0|0:0,0:0:0:0:
354,118,185962,2,0,L|304:123,1,50,2|0,0:0|0:0,0:0:0:0:
178,190,186629,2,0,L|227:184,2,50,2|0|2,0:0|0:0|0:0,0:0:0:0:
27,83,187630,1,0,0:0:0:0:
27,83,187796,1,0,0:0:0:0:
113,43,187963,6,0,P|119:67|120:92,1,50,2|0,0:0|0:0,0:0:0:0:
49,176,188630,2,0,P|42:200|41:225,1,50,2|0,0:0|0:0,0:0:0:0:
128,335,189296,2,0,P|126:310|120:285,2,50,2|0|2,0:0|0:0|0:0,0:0:0:0:
23,328,190296,1,0,0:0:0:0:
23,328,190463,1,0,0:0:0:0:
120,198,190630,5,2,0:0:0:0:
201,246,190963,2,0,L|229:250,1,25,2|0,0:0|0:0,0:0:0:0:
225,249,191630,6,0,B|182:200|195:120|265:100|265:100|299:134|292:170,1,262.499991989136,4|0,1:2|1:0,0:0:0:0:
307,322,192296,2,0,P|339:338|374:327,1,74.9999977111817,10|0,0:1|0:0,0:0:0:0:
445,259,192630,6,0,P|424:242|387:233,1,49.9999984741211,10|8,0:3|0:3,0:0:0:0:
360,162,192852,5,8,0:3:0:0:
340,157,192963,2,0,P|313:159|280:179,1,49.9999984741211,6|4,0:3|0:3,0:0:0:0:
215,232,193185,5,4,0:3:0:0:
225,249,193296,2,0,B|282:198|246:133|246:133|182:167,1,174.999994659424,6|0,1:0|0:0,0:0:0:0:
93,208,193796,1,2,1:0:0:0:
26,84,193963,2,0,P|60:70|98:72,1,74.9999977111817,10|0,0:1|0:0,0:0:0:0:
246,134,194296,2,0,P|280:147|318:145,1,74.9999977111817,2|8,0:0|0:0,0:0:0:0:
467,38,194630,2,0,B|453:15|420:4|420:4|380:42|406:87,1,149.999995422363,0|0,1:0|1:0,0:0:0:0:
459,309,195296,5,10,0:1:0:0:
503,221,195463,2,0,P|468:210|431:215,1,74.9999977111817,2|0,0:0|0:0,0:0:0:0:
351,366,195796,1,10,0:0:0:0:
276,295,195963,6,0,L|195:306,2,74.9999977111817,2|0|0,1:0|0:0|0:0,0:0:0:0:
355,255,196463,1,2,1:0:0:0:
235,210,196630,1,10,0:1:0:0:
300,97,196796,2,0,P|305:134|310:171,1,74.9999977111817,2|0,0:0|0:0,0:0:0:0:
201,305,197130,1,10,0:0:0:0:
151,190,197296,6,0,B|199:185|235:210|235:210|263:178|311:171,1,174.999994659424,0|0,1:0|1:0,0:0:0:0:
31,244,197963,2,0,P|20:208|19:170,1,74.9999977111817,10|2,0:1|0:0,0:0:0:0:
98,75,198296,1,2,0:0:0:0:
0,0,198463,1,10,0:0:0:0:
89,88,198630,6,0,L|264:59,1,149.999995422363,2|0,1:0|0:0,0:0:0:0:
406,5,199130,1,2,1:0:0:0:
495,85,199296,2,0,B|424:79|429:149|358:129,1,149.999995422363,10|0,0:1|0:0,0:0:0:0:
236,63,199796,1,8,0:0:0:0:
253,182,199963,2,0,P|261:262|265:331,2,149.999995422363,0|0|8,1:0|1:0|0:1,0:0:0:0:
244,173,200963,1,0,0:0:0:0:
356,275,201130,1,8,0:0:0:0:
101,308,201296,6,0,P|123:301|146:304,1,46.875,0|0,1:0|0:0,0:0:0:0:
158,315,201630,6,0,P|123:326|84:320,1,75,0|0,1:0|0:0,0:0:0:0:
71,302,201963,6,0,P|119:279|171:294,1,103.125003147125,2|0,1:0|0:0,0:0:0:0:
176,313,202296,6,0,P|118:341|60:315,1,131.249995994568,2|0,1:0|0:0,0:0:0:0:
5,254,202630,6,0,L|1:217,1,37.4999988555909,10|0,1:0|0:0,0:0:0:0:
5,78,203963,6,0,P|43:101|87:88,1,93.75,4|0,1:0|0:0,0:0:0:0:
99,77,204296,2,0,L|86:15,1,62.5,2|0,1:0|0:0,0:0:0:0:
87,177,204630,1,10,0:1:0:0:
111,64,204796,2,0,L|98:2,1,62.5,2|0,0:0|0:0,0:0:0:0:
5,78,205130,1,2,1:0:0:0:
198,133,205296,6,0,L|261:114,1,62.5,2|8,0:0|0:1,0:0:0:0:
379,155,205630,1,2,1:0:0:0:
254,132,205796,2,0,L|194:150,1,62.5,2|8,0:0|0:1,0:0:0:0:
87,177,206130,1,2,0:0:0:0:
59,262,206296,2,0,B|89:273|89:273|118:261,1,62.5,2|10,0:0|0:0,0:0:0:0:
254,132,206630,5,2,1:0:0:0:
339,269,206796,2,0,L|378:259,2,31.25,2|2|2,0:0|0:0|1:0,0:0:0:0:
223,374,207130,1,2,0:0:0:0:
228,379,207213,1,2,0:0:0:0:
233,384,207296,2,0,B|304:364,1,62.5,10|2,0:1|0:0,0:0:0:0:
409,351,207630,5,2,0:0:0:0:
510,384,207796,1,2,1:0:0:0:
482,262,207963,2,0,P|477:199|473:137,1,125,2|2,1:0|1:0,0:0:0:0:
472,127,208630,5,10,0:1:0:0:
395,162,208796,1,2,0:0:0:0:
312,0,208963,1,2,0:0:0:0:
389,35,209129,1,10,0:0:0:0:
318,127,209296,2,0,P|255:120|193:115,1,125,6|0,1:2|1:0,0:0:0:0:
60,141,209796,1,2,0:0:0:0:
54,28,209963,6,0,P|65:89|72:151,1,125,10|0,0:1|0:0,0:0:0:0:
29,258,210463,1,8,0:2:0:0:
174,260,210630,2,0,B|188:244|188:244|166:232|143:230,1,62.5,0|8,1:0|0:1,0:0:0:0:
19,373,210963,2,0,B|5:357|5:357|26:345|50:343,1,62.5,0|0,1:0|0:0,0:0:0:0:
214,367,211296,2,0,B|248:362|268:328|268:328|295:318|323:327,1,125,8|0,0:1|0:0,0:0:0:0:
408,384,211796,1,8,0:0:0:0:
469,242,211963,6,0,P|470:204|440:227,1,93.75,0|0,1:0|0:0,0:0:0:0:
449,243,212296,1,10,0:3:0:0:
512,104,212463,1,10,0:3:0:0:
341,50,212630,2,0,L|343:65,1,15.625,6|0,0:3|0:0,0:0:0:0:
459,345,212963,6,0,B|512:291|398:210|306:312,1,224.999993133545,4|8,1:0|0:1,0:0:0:0:
167,375,213630,2,0,P|155:346|152:315,1,62.5,0|0,1:0|0:0,0:0:0:0:
227,133,213963,5,8,0:1:0:0:
192,223,214130,1,8,0:3:0:0:
68,160,214296,1,4,0:3:0:0:
148,145,214463,1,4,0:3:0:0:
206,22,214630,6,0,L|107:9,1,93.75,6|0,1:0|0:0,0:0:0:0:
92,7,214963,2,0,B|77:35|77:35|88:73,1,62.5,2|0,1:0|0:0,0:0:0:0:
148,145,215296,1,10,0:1:0:0:
71,6,215463,2,0,B|56:34|56:34|67:72,1,62.5,2|0,0:0|0:0,0:0:0:0:
227,133,215796,1,2,1:0:0:0:
189,262,215963,6,0,L|109:251,1,62.5,2|8,0:0|0:1,0:0:0:0:
0,236,216296,1,2,1:0:0:0:
132,274,216463,2,0,L|193:282,1,62.5,2|8,0:0|0:1,0:0:0:0:
376,311,216796,1,2,0:0:0:0:
286,384,216963,2,0,P|283:352|283:321,1,62.5,2|10,0:0|0:0,0:0:0:0:
362,137,217296,5,2,1:0:0:0:
316,223,217463,2,0,L|280:214,2,31.25,2|2|2,0:0|0:0|1:0,0:0:0:0:
316,51,217796,1,2,0:0:0:0:
362,137,217963,2,0,L|398:128,2,31.25,10|2|2,0:1|0:0|0:0,0:0:0:0:
265,132,218296,1,2,0:0:0:0:
417,50,218463,1,2,1:0:0:0:
212,23,218630,5,2,0:0:0:0:
265,132,218796,1,10,0:1:0:0:
181,172,218963,1,2,1:0:0:0:
241,223,219130,1,2,0:0:0:0:
265,132,219296,5,10,0:1:0:0:
270,127,219463,5,2,0:0:0:0:
275,122,219630,5,2,0:0:0:0:
280,117,219796,5,2,0:0:0:0:
146,240,219963,6,0,P|114:243|85:234,1,62.5,6|0,1:2|0:0,0:0:0:0:
12,168,220296,1,2,1:0:0:0:
142,258,220463,2,0,P|111:261|81:253,1,62.5,2|8,0:0|0:1,0:0:0:0:
230,186,220796,1,2,0:0:0:0:
130,92,220963,6,0,L|124:160,1,62.5,2|0,0:0|1:0,0:0:0:0:
104,337,221296,1,2,0:0:0:0:
132,173,221463,2,0,L|137:110,1,62.5,10|0,0:1|1:0,0:0:0:0:
63,20,221796,1,2,0:0:0:0:
246,75,221963,2,0,L|321:62,1,62.5,10|2,0:1|0:0,0:0:0:0:
358,217,222296,2,0,L|283:204,1,62.5,2|10,0:0|0:0,0:0:0:0:
483,8,222630,6,0,P|489:30|490:53,1,46.875,2|0,1:0|0:0,0:0:0:0:
474,72,222963,6,0,P|461:106|458:144,1,75,0|0,1:0|0:0,0:0:0:0:
512,194,223296,6,0,P|468:168|418:176,1,103.125003147125,0|0,1:0|0:0,0:0:0:0:
358,217,223630,6,0,L|390:344,1,131.249995994568,2|0,1:0|0:0,0:0:0:0:
453,384,223963,6,0,L|502:372,1,50,10|0,1:0|0:0,0:0:0:0:
256,192,225380,12,0,226630,0:0:0:0:
136,355,227963,5,2,0:0:0:0:
81,297,228297,1,2,0:0:0:0:
153,199,228630,1,2,0:0:0:0:
89,9,229297,5,2,0:0:0:0:
132,76,229631,1,2,0:0:0:0:
247,29,229964,1,2,0:0:0:0:
301,208,230630,5,2,0:0:0:0:
267,138,230963,1,2,0:0:0:0:
347,84,231297,1,2,0:0:0:0:
476,180,231963,5,2,0:0:0:0:
461,259,232297,1,2,0:0:0:0:
484,335,232630,1,2,0:0:0:0:
285,383,233297,5,2,0:0:0:0:
264,307,233630,1,2,0:0:0:0:
158,242,233963,1,2,0:0:0:0:
120,57,234630,5,2,0:0:0:0:
201,114,234963,1,2,0:0:0:0:
337,67,235296,1,2,0:0:0:0:
39,218,235963,5,2,0:0:0:0:
134,193,236297,1,2,0:0:0:0:
137,384,236630,5,2,0:0:0:0:
104,270,236964,1,2,0:0:0:0:
263,290,237296,6,0,L|215:302,1,50,2|0,0:0|0:0,0:0:0:0:
