osu file format v14

[General]
AudioFilename: audio.mp3
AudioLeadIn: 0
PreviewTime: 117887
Countdown: 0
SampleSet: None
StackLeniency: 0.7
Mode: 0
LetterboxInBreaks: 0
WidescreenStoryboard: 1

[Editor]
DistanceSpacing: 1.2
BeatDivisor: 4
GridSize: 32
TimelineZoom: 1.099999

[Metadata]
Title:Hana ni Bourei
TitleUnicode:花に亡霊
Artist:Yorushika
ArtistUnicode:ヨルシカ
Creator:HowRengar
Version:Hard
Source:A Whisker Away
Tags:Japanese Anime ghost in a flower n-buna netflix movie nakineko 泣きたい私は猫をかぶる nakitai watashi wa neko o kaburu 盗作 tosaku plagiarism Pop Jpop J-pop
BeatmapID:2673671
BeatmapSetID:1177614

[Difficulty]
HPDrainRate:4.5
CircleSize:4
OverallDifficulty:6.5
ApproachRate:8
SliderMultiplier:2.1
SliderTickRate:1

[Events]
//Background and Video events
0,0,"bg.png",0,0
//Break Periods
2,82823,91963
2,161767,165873
2,177497,181880
//Storyboard Layer 0 (Background)
//Storyboard Layer 1 (Fail)
//Storyboard Layer 2 (Pass)
//Storyboard Layer 3 (Foreground)
//Storyboard Layer 4 (Overlay)
//Storyboard Sound Samples

[TimingPoints]
-1371,666.666666666667,4,2,1,40,1,0
1295,-133.333333333333,4,2,34,40,0,0
1629,-133.333333333333,4,2,44,40,0,0
1962,-133.333333333333,4,2,5,40,0,0
2629,-133.333333333333,4,2,27,40,0,0
2962,-133.333333333333,4,2,44,40,0,0
3295,-133.333333333333,4,2,5,40,0,0
3962,-133.333333333333,4,2,32,40,0,0
4295,-133.333333333333,4,2,39,40,0,0
4629,-133.333333333333,4,2,4,40,0,0
5295,-133.333333333333,4,2,31,40,0,0
5629,-133.333333333333,4,2,39,40,0,0
5962,-133.333333333333,4,2,6,40,0,0
6629,-133.333333333333,4,2,22,40,0,0
6962,-133.333333333333,4,2,32,40,0,0
7295,-133.333333333333,4,2,5,40,0,0
7962,-133.333333333333,4,2,24,40,0,0
8295,-133.333333333333,4,2,44,40,0,0
8629,-133.333333333333,4,2,5,40,0,0
9295,-133.333333333333,4,2,25,40,0,0
9629,-133.333333333333,4,2,44,40,0,0
9962,-133.333333333333,4,2,27,40,0,0
10295,-133.333333333333,4,2,44,40,0,0
10629,-133.333333333333,4,2,32,40,0,0
10962,-133.333333333333,4,2,39,40,0,0
11295,-133.333333333333,4,2,6,40,0,0
11962,-133.333333333333,4,2,34,40,0,0
12295,-133.333333333333,4,2,44,40,0,0
12629,-133.333333333333,4,2,5,40,0,0
13295,-133.333333333333,4,2,27,40,0,0
13629,-133.333333333333,4,2,44,40,0,0
13962,-133.333333333333,4,2,5,40,0,0
14629,-133.333333333333,4,2,32,40,0,0
14962,-133.333333333333,4,2,39,40,0,0
15295,-133.333333333333,4,2,4,40,0,0
15962,-133.333333333333,4,2,31,40,0,0
16295,-133.333333333333,4,2,39,40,0,0
16629,-133.333333333333,4,2,6,40,0,0
17295,-133.333333333333,4,2,22,40,0,0
17629,-133.333333333333,4,2,32,40,0,0
17962,-133.333333333333,4,2,5,40,0,0
18629,-133.333333333333,4,2,24,40,0,0
18962,-133.333333333333,4,2,32,40,0,0
19295,-133.333333333333,4,2,5,40,0,0
19962,-133.333333333333,4,2,25,40,0,0
20295,-133.333333333333,4,2,32,40,0,0
20629,-133.333333333333,4,2,27,40,0,0
20962,-133.333333333333,4,2,32,40,0,0
21296,-125,4,2,20,40,0,0
21629,-125,4,2,39,40,0,0
21962,-125,4,2,43,40,0,0
22295,-125,4,2,44,40,0,0
22962,-125,4,2,32,30,0,0
23295,-125,4,2,39,40,0,0
23629,-125,4,2,43,40,0,0
23962,-125,4,2,44,40,0,0
24295,-125,4,2,32,30,0,0
24629,-125,4,2,51,30,0,0
25213,-125,4,2,1,5,0,0
25295,-142.857142857143,4,2,44,40,0,0
26546,-125,4,2,1,5,0,0
26629,681.818181818182,4,2,6,40,1,0
26629,-111.111111111111,4,2,6,40,0,0
27310,-111.111111111111,4,2,4,40,0,0
27992,652.173913043478,4,2,6,40,1,0
27992,-111.111111111111,4,2,6,40,0,0
29296,681.818181818182,4,2,6,40,1,0
29296,-111.111111111111,4,2,6,40,0,0
29977,-111.111111111111,4,2,4,40,0,0
30659,631.578947368421,4,2,6,40,1,0
30659,-111.111111111111,4,2,6,40,0,0
31185,-111.111111111111,4,2,51,40,0,0
31237,-111.111111111111,4,2,56,40,0,0
31290,666.666666666667,4,2,63,40,1,0
31290,-111.111111111111,4,2,63,40,0,0
31956,-125,4,2,60,40,0,0
32040,-125,4,2,1,40,0,0
32456,-125,4,2,61,40,0,0
32540,-125,4,2,1,40,0,0
32956,-117.647058823529,4,2,56,40,0,0
33040,-117.647058823529,4,2,1,40,0,0
34623,-117.647058823529,4,2,1,55,0,0
34873,-117.647058823529,4,2,1,5,0,0
34956,-117.647058823529,4,2,1,55,0,0
35206,-117.647058823529,4,2,1,5,0,0
35290,-111.111111111111,4,2,1,57,0,0
35540,-111.111111111111,4,2,1,5,0,0
35623,-111.111111111111,4,2,1,57,0,0
35873,-111.111111111111,4,2,1,5,0,0
35956,-105.263157894737,4,2,1,60,0,0
36206,-105.263157894737,4,2,1,5,0,0
36289,-105.263157894737,4,2,1,60,0,0
36539,-105.263157894737,4,2,1,5,0,0
36623,-99.9999999999999,4,2,1,62,0,0
36956,-99.9999999999999,4,2,1,62,0,0
37289,-99.9999999999999,4,2,1,65,0,0
37623,701.754385964912,4,2,67,65,1,0
37973,697.674418604651,4,2,67,65,1,0
38321,689.655172413793,4,2,67,65,1,0
38665,600,4,2,67,65,1,0
38964,652.173913043478,4,2,67,65,1,0
39289,-99.9999999999999,4,2,60,45,0,0
39290,666.666666666667,4,2,60,45,1,0
39455,-99.9999999999999,4,2,1,45,0,0
39622,-99.9999999999999,4,2,58,45,0,0
39788,-99.9999999999999,4,2,1,45,0,0
39956,666.666666666667,4,2,56,75,1,1
39956,-90.9090909090909,4,2,56,75,0,1
40038,-90.9090909090909,4,2,1,75,0,1
41955,-90.9090909090909,4,2,63,75,0,1
42122,-90.9090909090909,4,2,1,75,0,1
42622,-90.9090909090909,4,2,58,75,0,1
42705,-90.9090909090909,4,2,1,75,0,1
44622,-90.9090909090909,4,2,63,75,0,1
44788,-90.9090909090909,4,2,1,75,0,1
45288,-90.9090909090909,4,2,56,75,0,1
45372,-90.9090909090909,4,2,1,75,0,1
48206,-90.9090909090909,4,2,1,5,0,1
48289,-90.9090909090909,4,2,1,75,0,1
52622,-90.9090909090909,4,2,63,75,0,1
52788,-90.9090909090909,4,2,1,75,0,1
53288,-90.9090909090909,4,2,58,75,0,1
53372,-90.9090909090909,4,2,1,75,0,1
55288,-90.9090909090909,4,2,63,75,0,1
55455,-90.9090909090909,4,2,1,75,0,1
55955,-90.9090909090909,4,2,56,75,0,1
56038,-90.9090909090909,4,2,1,75,0,1
58623,-125,4,2,1,75,0,1
58873,-125,4,2,1,5,0,1
58956,-117.647058823529,4,2,1,75,0,1
59206,-117.647058823529,4,2,1,5,0,1
59289,-111.111111111111,4,2,1,75,0,1
59540,-111.111111111111,4,2,1,5,0,1
59623,-100,4,2,1,75,0,1
59873,-100,4,2,1,5,0,1
59956,-200,4,2,1,65,0,0
61289,-100,4,2,1,65,0,0
69289,-90.9090909090909,4,2,1,65,0,0
69956,-76.9230769230769,4,2,1,65,0,0
70289,-90.9090909090909,4,2,1,65,0,0
70956,-100,4,2,1,65,0,0
79956,-142.857142857143,4,2,1,65,0,0
80206,-142.857142857143,4,2,1,5,0,0
80289,-125,4,2,1,65,0,0
80539,-125,4,2,1,5,0,0
80623,-90.9090909090909,4,2,1,65,0,0
80873,-90.9090909090909,4,2,1,5,0,0
80956,-83.3333333333333,4,2,1,65,0,0
81206,-83.3333333333333,4,2,1,5,0,0
81289,-200,4,2,1,65,0,0
81623,-200,4,2,1,55,0,0
81956,-200,4,2,1,45,0,0
82289,-200,4,2,1,35,0,0
82623,-200,4,2,1,25,0,0
93289,-125,4,2,1,45,0,0
94623,-200,4,2,2,45,0,0
94705,-200,4,2,1,45,0,0
95956,-125,4,2,1,45,0,0
97289,-200,4,2,2,45,0,0
97372,-200,4,2,1,45,0,0
98623,-125,4,2,1,45,0,0
99956,-200,4,2,2,45,0,0
100038,-200,4,2,1,45,0,0
101289,-125,4,2,1,45,0,0
102455,-125,4,2,60,45,0,0
102622,-125,4,2,58,45,0,0
102788,-125,4,2,56,45,0,0
102955,-125,4,2,51,45,0,0
103122,-125,4,2,56,45,0,0
103289,-125,4,2,58,45,0,0
103455,-125,4,2,51,45,0,0
103622,-125,4,2,63,45,0,0
103788,-125,4,2,51,45,0,0
103956,-133.333333333333,4,2,56,45,0,0
104038,-133.333333333333,4,2,1,45,0,0
104623,-125,4,2,1,45,0,0
109622,-125,4,2,51,45,0,0
109705,-125,4,2,1,45,0,0
109955,-125,4,2,63,45,0,0
110123,-133.333333333333,4,2,1,45,0,0
110623,-111.111111111111,4,2,1,55,0,0
113289,-125,4,2,1,55,0,0
113539,-125,4,2,1,5,0,0
113623,-125,4,2,1,55,0,0
113873,-125,4,2,1,5,0,0
113956,-111.111111111111,4,2,1,57,0,0
114206,-111.111111111111,4,2,1,5,0,0
114289,-111.111111111111,4,2,1,57,0,0
114539,-111.111111111111,4,2,1,5,0,0
114623,-90.909090909091,4,2,1,60,0,0
114873,-90.909090909091,4,2,1,5,0,0
114956,-90.909090909091,4,2,1,60,0,0
115206,-90.909090909091,4,2,1,5,0,0
115289,-83.3333333333333,4,2,1,62,0,0
115956,-83.3333333333333,4,2,1,65,0,0
117123,-100,4,2,1,65,0,0
117288,-100,4,2,64,65,0,0
117623,-100,4,2,63,65,0,0
117706,-100,4,2,1,65,0,0
117956,-100,4,2,60,65,0,0
118122,-100,4,2,1,65,0,0
118289,-100,4,2,58,65,0,0
118456,-100,4,2,1,65,0,0
118622,-90.9090909090909,4,2,56,75,0,1
118705,-90.9090909090909,4,2,1,75,0,1
120622,-90.9090909090909,4,2,63,75,0,1
120788,-90.9090909090909,4,2,1,75,0,1
121288,-90.9090909090909,4,2,58,75,0,1
121372,-90.9090909090909,4,2,1,75,0,1
123288,-90.9090909090909,4,2,63,75,0,1
123455,-90.9090909090909,4,2,1,75,0,1
123955,-90.9090909090909,4,2,56,75,0,1
124038,-90.9090909090909,4,2,1,75,0,1
126873,-90.9090909090909,4,2,1,5,0,1
126956,-90.9090909090909,4,2,1,75,0,1
131288,-90.9090909090909,4,2,63,75,0,1
131455,-90.9090909090909,4,2,1,75,0,1
131955,-90.9090909090909,4,2,58,75,0,1
132038,-90.9090909090909,4,2,1,75,0,1
133955,-90.9090909090909,4,2,63,75,0,1
134122,-90.9090909090909,4,2,1,75,0,1
134622,-90.9090909090909,4,2,56,75,0,1
134705,-90.9090909090909,4,2,1,75,0,1
147206,-90.9090909090909,4,2,1,5,0,1
147289,-90.9090909090909,4,2,1,75,0,1
158622,-117.647058823529,4,2,1,65,0,0
159289,-117.647058823529,4,2,1,55,0,0
159956,-117.647058823529,4,2,1,45,0,0
160623,-117.647058823529,4,2,1,35,0,0
161289,-117.647058823529,4,2,1,25,0,0
161623,-200,4,2,1,45,0,0
166622,-133.333333333333,4,2,6,45,0,0
167288,-133.333333333333,4,2,4,45,0,0
167955,-133.333333333333,4,2,6,45,0,0
169288,-133.333333333333,4,2,6,45,0,0
169955,-133.333333333333,4,2,4,45,0,0
170622,-133.333333333333,4,2,6,45,0,0
171177,-133.333333333333,4,2,51,45,0,0
171233,-133.333333333333,4,2,56,45,0,0
171288,-133.333333333333,4,2,63,45,0,0
171788,-133.333333333333,4,2,1,45,0,0
171955,-133.333333333333,4,2,63,45,0,0
174623,-125,4,2,1,55,0,0
174873,-125,4,2,1,5,0,0
174956,-125,4,2,1,55,0,0
175206,-125,4,2,1,5,0,0
175289,-105.263157894737,4,2,1,57,0,0
175539,-105.263157894737,4,2,1,5,0,0
175623,-105.263157894737,4,2,1,57,0,0
175873,-105.263157894737,4,2,1,5,0,0
175956,-95.2380952380952,4,2,1,60,0,0
176206,-95.2380952380952,4,2,1,5,0,0
176289,-95.2380952380952,4,2,1,60,0,0
176539,-95.2380952380952,4,2,1,5,0,0
176623,-83.3333333333333,4,2,1,62,0,0
177296,-83.3333333333333,4,2,1,65,0,0
177297,638.297872340426,4,2,1,65,1,0
177616,697.674418604651,4,2,67,45,1,0
177964,666.666666666667,4,2,67,45,1,0
178297,625,4,2,63,45,1,0
178609,666.666666666667,4,2,63,45,1,0
179609,681.818181818182,4,2,55,45,1,0
180972,625,4,2,53,35,1,0
181284,697.674418604651,4,2,53,35,1,0
181632,652.173913043478,4,2,46,35,1,0
181958,666.666666666667,4,2,44,35,1,0
182630,666.666666666667,4,2,41,35,1,0
182630,-153.846153846154,4,2,41,35,0,0
182713,-153.846153846154,4,2,1,35,0,0
191630,-83.3333333333333,4,2,49,80,0,1
191712,-83.3333333333333,4,2,1,80,0,1
192296,-83.3333333333333,4,2,48,80,0,1
192379,-83.3333333333333,4,2,1,80,0,1
192629,-83.3333333333333,4,2,46,80,0,1
192740,-83.3333333333333,4,2,1,80,0,1
192852,-83.3333333333333,4,2,1,80,0,1
192962,-83.3333333333333,4,2,44,80,0,1
193074,-83.3333333333333,4,2,1,80,0,1
193296,-83.3333333333333,4,2,1,80,0,1
195295,-83.3333333333333,4,2,63,80,0,1
195462,-83.3333333333333,4,2,1,80,0,1
195962,-83.3333333333333,4,2,58,80,0,1
196045,-83.3333333333333,4,2,1,80,0,1
197962,-83.3333333333333,4,2,63,80,0,1
198129,-83.3333333333333,4,2,1,80,0,1
198629,-83.3333333333333,4,2,56,80,0,1
198712,-83.3333333333333,4,2,1,80,0,1
201296,-125,4,2,1,80,0,1
201546,-125,4,2,1,5,0,1
201630,-111.111111111111,4,2,1,80,0,1
201880,-111.111111111111,4,2,1,5,0,1
201963,-90.9090909090909,4,2,1,80,0,1
202213,-90.9090909090909,4,2,1,5,0,1
202296,-83.3333333333333,4,2,1,80,0,1
202546,-83.3333333333333,4,2,1,5,0,1
202630,-200,4,2,1,75,0,0
203963,-100,4,2,1,75,0,0
212963,-83.3333333333333,4,2,1,75,0,0
213630,-100,4,2,1,75,0,0
222630,-125,4,2,1,75,0,0
222880,-125,4,2,1,5,0,0
222963,-111.111111111111,4,2,1,75,0,0
223213,-111.111111111111,4,2,1,5,0,0
223295,-90.9090909090909,4,2,1,75,0,0
223546,-90.9090909090909,4,2,1,5,0,0
223630,-83.3333333333333,4,2,1,75,0,0
223880,-83.3333333333333,4,2,1,5,0,0
223963,-200,4,2,1,65,0,0
224630,-200,4,2,1,55,0,0
225296,-200,4,2,1,45,0,0
225963,-200,4,2,1,35,0,0
226630,-200,4,2,1,25,0,0
227962,-100,4,2,34,40,0,0
228296,-100,4,2,44,40,0,0
228629,-100,4,2,5,40,0,0
229296,-100,4,2,27,40,0,0
229629,-100,4,2,44,40,0,0
229962,-100,4,2,5,40,0,0
230629,-100,4,2,32,40,0,0
230962,-100,4,2,39,40,0,0
231296,-100,4,2,4,40,0,0
231962,-100,4,2,31,40,0,0
232296,-100,4,2,39,40,0,0
232629,-100,4,2,6,40,0,0
233296,-100,4,2,22,40,0,0
233629,-100,4,2,32,40,0,0
233962,-100,4,2,5,40,0,0
234629,-100,4,2,24,40,0,0
234962,-100,4,2,44,40,0,0
235296,-100,4,2,5,40,0,0
235962,-100,4,2,25,40,0,0
236296,-100,4,2,44,40,0,0
236629,-100,4,2,27,40,0,0
236962,-100,4,2,44,40,0,0
237296,-200,4,2,20,30,0,0
237379,-200,4,2,1,30,0,0
237963,-200,4,2,1,5,0,0

[Colours]
Combo1 : 247,216,91
Combo2 : 219,135,79
Combo3 : 238,241,114
Combo4 : 119,149,225
Combo5 : 154,217,98

[HitObjects]
46,88,1295,5,2,0:0:0:0:
66,78,1629,1,2,0:0:0:0:
86,201,1962,1,2,0:0:0:0:
222,10,2629,5,2,0:0:0:0:
202,0,2963,1,2,0:0:0:0:
182,123,3296,1,2,0:0:0:0:
340,278,3962,5,2,0:0:0:0:
350,295,4295,1,2,0:0:0:0:
449,305,4629,1,2,0:0:0:0:
503,134,5295,5,2,0:0:0:0:
486,146,5629,1,2,0:0:0:0:
464,140,5962,1,2,0:0:0:0:
382,17,6629,5,2,0:0:0:0:
361,8,6962,1,2,0:0:0:0:
307,122,7295,1,2,0:0:0:0:
138,169,7962,5,2,0:0:0:0:
149,150,8295,1,2,0:0:0:0:
57,46,8629,1,2,0:0:0:0:
12,237,9295,5,2,0:0:0:0:
96,284,9629,1,2,0:0:0:0:
13,333,9962,5,2,0:0:0:0:
145,367,10295,1,2,0:0:0:0:
286,256,10629,5,2,0:0:0:0:
271,242,10962,1,2,0:0:0:0:
270,222,11295,1,2,0:0:0:0:
502,293,11962,5,2,0:0:0:0:
512,313,12296,1,2,0:0:0:0:
389,333,12629,1,2,0:0:0:0:
261,187,13296,5,2,0:0:0:0:
251,167,13630,1,2,0:0:0:0:
374,147,13963,1,2,0:0:0:0:
512,46,14629,5,2,0:0:0:0:
497,59,14962,1,2,0:0:0:0:
399,43,15296,1,2,0:0:0:0:
225,24,15962,5,2,0:0:0:0:
242,12,16296,1,2,0:0:0:0:
264,18,16629,1,2,0:0:0:0:
307,149,17296,5,2,0:0:0:0:
316,170,17629,1,2,0:0:0:0:
202,224,17962,1,2,0:0:0:0:
6,148,18629,5,2,0:0:0:0:
0,126,18962,1,2,0:0:0:0:
116,50,19296,1,2,0:0:0:0:
202,224,19962,5,2,0:0:0:0:
118,271,20296,1,2,0:0:0:0:
201,320,20629,5,2,0:0:0:0:
69,354,20962,1,2,0:0:0:0:
35,222,21295,5,2,0:0:0:0:
108,191,21629,1,2,0:0:0:0:
85,100,21962,1,2,0:0:0:0:
162,17,22295,2,0,L|335:41,1,168,2|0,0:0|0:0,0:0:0:0:
429,8,23295,5,2,0:0:0:0:
429,95,23628,1,2,0:0:0:0:
469,193,23961,2,0,P|429:179|389:191,1,84,2|0,0:0|0:0,0:0:0:0:
419,364,24629,2,0,B|449:317|428:265|428:265|421:295|400:313,1,147,2|0,0:0|0:0,0:0:0:0:
402,313,25295,6,0,B|320:325|280:266|280:266|257:334|178:345,1,275.624991588593,2|0,0:0|0:0,0:0:0:0:
163,341,26629,5,2,0:0:0:0:
65,266,27310,1,2,0:0:0:0:
0,329,27992,1,2,0:0:0:0:
139,201,29296,5,2,0:0:0:0:
237,126,29977,1,2,0:0:0:0:
302,189,30659,1,2,0:0:0:0:
327,100,31185,6,0,L|332:80,2,15.7499995193482,2|2|2,0:0|0:0|0:0,0:0:0:0:
485,147,31956,6,0,P|481:188|479:230,1,84,10|0,0:2|0:0,0:0:0:0:
506,311,32456,2,0,P|463:315|427:296,1,84,10|0,0:2|0:0,0:0:0:0:
355,228,32956,2,0,P|397:297|333:347,1,178.500003404617,10|0,0:2|1:0,0:0:0:0:
122,282,33956,1,10,0:0:0:0:
186,210,34290,1,2,0:0:0:0:
58,179,34623,6,0,P|55:145|46:113,1,66.9375012767315,0|0,1:0|0:0,0:0:0:0:
38,105,34956,2,0,P|69:114|102:110,1,66.9375012767315,0|0,1:0|0:0,0:0:0:0:
122,117,35290,6,0,P|152:105|195:102,1,70.8749978370667,0|0,1:0|0:0,0:0:0:0:
212,103,35623,2,0,L|202:180,1,70.8749978370667,0|0,1:0|0:0,0:0:0:0:
201,198,35956,6,0,P|229:221|265:218,1,74.8124980022908,0|0,1:0|0:0,0:0:0:0:
290,233,36290,2,0,P|253:230|225:253,1,74.8124980022908,0|0,1:0|0:0,0:0:0:0:
221,288,36623,5,8,1:0:0:0:
359,183,36956,1,8,1:0:0:0:
380,355,37290,1,8,1:0:0:0:
77,375,39290,5,2,0:0:0:0:
77,375,39456,1,2,0:0:0:0:
167,332,39623,2,0,L|161:384,1,52.5,2|2,0:0|0:0,0:0:0:0:
231,229,39956,6,0,B|176:248|176:248|125:221,1,115.50000352478,6|0,1:2|0:0,0:0:0:0:
47,181,40456,1,2,1:0:0:0:
23,248,40623,2,0,P|36:222|34:194,1,57.7500017623902,10|2,0:1|0:0,0:0:0:0:
87,103,40956,2,0,P|73:77|75:49,1,57.7500017623902,2|8,0:0|0:0,0:0:0:0:
245,16,41290,2,0,B|247:43|230:56|230:56|159:62,1,115.50000352478,0|0,1:0|1:0,0:0:0:0:
0,0,41956,5,10,0:1:0:0:
0,0,42123,1,2,0:0:0:0:
79,53,42290,1,2,0:0:0:0:
79,53,42456,1,2,0:0:0:0:
8,131,42623,6,0,P|11:188|17:246,1,115.50000352478,2|0,1:0|0:0,0:0:0:0:
26,337,43123,1,2,1:0:0:0:
108,284,43290,2,0,B|124:279|132:268|132:268|122:259|105:259,1,57.7500017623902,10|2,0:1|0:0,0:0:0:0:
153,360,43623,2,0,B|137:365|129:376|129:376|139:385|155:384,1,57.7500017623902,2|8,0:0|0:0,0:0:0:0:
281,346,43956,2,0,B|286:312|272:290|272:290|240:286|215:298,1,115.50000352478,0|0,1:0|1:0,0:0:0:0:
404,349,44623,2,0,P|402:320|411:292,1,57.7500017623902,10|2,0:1|0:0,0:0:0:0:
493,303,44956,1,2,0:0:0:0:
465,204,45123,5,10,0:0:0:0:
463,211,45206,1,8,0:0:0:0:
461,218,45290,2,0,P|403:213|346:206,1,115.50000352478,6|2,1:2|1:0,0:0:0:0:
252,160,45790,2,0,P|254:132|259:103,1,57.7500017623902,2|8,0:0|0:1,0:0:0:0:
317,24,46123,1,2,0:0:0:0:
359,109,46290,2,0,P|387:107|416:102,1,57.7500017623902,2|10,0:0|0:0,0:0:0:0:
307,16,46623,6,0,B|251:2|251:2|185:33,1,115.50000352478,2|2,1:0|1:0,0:0:0:0:
118,65,47123,2,0,B|105:38|105:38|111:4,1,57.7500017623902,2|8,0:0|0:1,0:0:0:0:
190,111,47456,1,2,0:0:0:0:
114,153,47623,2,0,P|107:181|103:209,1,57.7500017623902,10|4,0:3|0:3,0:0:0:0:
124,324,47956,6,0,P|97:296|37:300,1,86.6250026435853,10|0,1:0|0:0,0:0:0:0:
38,302,48290,1,2,1:0:0:0:
44,73,48956,6,0,B|104:99|117:46|133:64|144:17|202:30,1,173.250005287171,6|0,1:0|1:0,0:0:0:0:
212,159,49623,2,0,P|192:138|189:110,1,57.7500017623902,8|0,0:1|0:0,0:0:0:0:
282,9,49956,5,10,0:1:0:0:
315,84,50123,1,10,0:3:0:0:
450,31,50290,1,6,0:3:0:0:
366,20,50456,1,6,0:3:0:0:
309,96,50623,6,0,L|322:213,1,115.50000352478,6|0,1:0|0:0,0:0:0:0:
335,308,51123,1,2,1:0:0:0:
424,255,51290,2,0,B|436:245|450:242|450:242|436:243|421:236,1,57.7500017623902,10|2,0:1|0:0,0:0:0:0:
236,256,51623,2,0,B|224:266|210:269|210:269|224:268|238:274,1,57.7500017623902,2|8,0:0|0:0,0:0:0:0:
386,369,51956,2,0,P|338:344|295:378,1,115.50000352478,0|0,1:0|1:0,0:0:0:0:
40,363,52623,6,0,P|68:364|93:350,1,57.7500017623902,10|2,0:1|0:0,0:0:0:0:
158,279,52956,1,2,0:0:0:0:
158,279,53123,1,2,0:0:0:0:
42,198,53290,6,0,B|48:282|48:282|59:252,1,115.50000352478,2|0,1:0|0:0,0:0:0:0:
124,166,53790,1,2,1:0:0:0:
55,108,53956,2,0,P|27:116|0:122,1,57.7500017623902,10|2,0:1|0:0,0:0:0:0:
70,26,54290,2,0,P|98:31|125:40,1,57.7500017623902,2|8,0:0|0:0,0:0:0:0:
227,148,54623,2,0,B|203:127|193:101|193:101|204:76|225:54,1,115.50000352478,0|0,1:0|1:0,0:0:0:0:
511,0,55290,5,10,0:1:0:0:
463,74,55456,1,2,0:0:0:0:
359,15,55623,2,0,P|387:9|415:3,1,57.7500017623902,2|2,0:0|0:0,0:0:0:0:
473,83,55956,6,0,B|484:131|469:166|469:166|453:170|439:175,1,115.50000352478,2|0,1:2|0:0,0:0:0:0:
347,197,56456,1,2,1:0:0:0:
411,263,56623,2,0,B|453:291|503:269|503:269|485:261,1,115.50000352478,10|0,0:1|0:0,0:0:0:0:
406,362,57123,1,8,0:0:0:0:
296,359,57290,2,0,P|238:356|181:347,2,115.50000352478,0|0|8,1:0|1:0|0:1,0:0:0:0:
87,369,58290,2,0,B|79:341|79:341|90:305,1,57.7500017623902,0|8,0:0|0:0,0:0:0:0:
167,245,58623,6,0,P|173:214|167:183,1,63,0|0,1:0|0:0,0:0:0:0:
155,169,58956,2,0,L|84:180,1,66.9375012767315,0|0,1:0|0:0,0:0:0:0:
67,181,59290,2,0,P|61:150|67:108,1,70.8749978370667,2|0,1:0|0:0,0:0:0:0:
75,94,59623,2,0,L|152:81,1,78.75,2|0,1:0|0:0,0:0:0:0:
172,82,59956,6,0,P|189:45|152:62,1,105,10|0,1:0|0:0,0:0:0:0:
493,134,61290,6,0,P|520:90|512:40,1,105,4|2,1:0|1:0,0:0:0:0:
331,98,61956,1,10,0:1:0:0:
331,98,62123,2,0,P|322:47|350:4,1,105,2|2,0:0|1:0,0:0:0:0:
422,70,62623,2,0,L|411:126,1,52.5,2|8,0:0|0:1,0:0:0:0:
387,207,62956,1,2,1:0:0:0:
308,249,63122,2,0,L|318:300,1,52.5,2|8,0:0|0:1,0:0:0:0:
439,313,63456,2,0,L|458:264,2,52.5,2|2|10,0:0|0:0|0:0,0:0:0:0:
370,384,63956,5,2,1:0:0:0:
318,300,64123,2,0,L|290:306,2,26.25,2|2|2,0:0|0:0|1:0,0:0:0:0:
234,384,64456,1,2,0:0:0:0:
182,300,64623,2,0,L|154:306,2,26.25,10|2|2,0:1|0:0|0:0,0:0:0:0:
247,211,64956,2,0,P|253:185|250:159,1,52.5,2|2,0:0|1:0,0:0:0:0:
193,78,65290,6,0,L|137:91,1,52.5,2|10,0:0|0:1,0:0:0:0:
46,111,65623,1,2,1:0:0:0:
15,31,65790,1,2,0:0:0:0:
78,196,66123,6,0,L|135:180,2,52.5,2|2|10,0:0|0:0|0:0,0:0:0:0:
3,252,66623,2,0,B|-1:278|-1:278|12:310,1,52.5,6|0,1:2|0:0,0:0:0:0:
52,384,66956,1,2,1:0:0:0:
129,328,67123,2,0,B|155:308|155:308|223:329,1,105,2|2,0:0|0:0,0:0:0:0:
312,381,67623,6,0,P|322:357|324:331,1,52.5,2|0,0:0|1:0,0:0:0:0:
277,245,67956,1,2,0:0:0:0:
353,192,68123,2,0,P|336:144|351:94,1,105,10|2,0:1|0:0,0:0:0:0:
479,140,68623,2,0,P|454:149|429:143,1,52.5,10|0,0:1|0:0,0:0:0:0:
384,15,68956,2,0,P|359:5|334:11,1,52.5,2|10,0:0|0:0,0:0:0:0:
255,153,69290,5,10,1:0:0:0:
149,17,69623,1,10,3:0:0:0:
163,14,69706,1,8,3:0:0:0:
177,11,69790,1,8,3:0:0:0:
255,62,69956,1,2,1:0:0:0:
16,0,70290,6,0,B|49:33|29:75|29:75|38:84|38:84|16:121|35:162,1,173.250005287171,6|0,1:0|0:0,0:0:0:0:
158,124,70956,2,0,B|145:114|135:111|135:111|124:115|116:128,1,52.5,8|0,0:0|1:0,0:0:0:0:
103,224,71290,1,8,0:1:0:0:
190,204,71456,1,8,0:3:0:0:
163,289,71623,1,4,0:3:0:0:
163,289,71790,1,4,0:3:0:0:
169,379,71956,6,0,P|194:375|216:360,1,52.5,6|0,1:0|0:0,0:0:0:0:
277,291,72290,1,2,1:0:0:0:
314,382,72456,2,0,P|353:350|402:365,1,105,2|2,0:0|0:0,0:0:0:0:
498,384,72956,6,0,B|506:358|506:358|495:334,1,52.5,2|0,0:0|1:0,0:0:0:0:
419,267,73290,1,2,0:0:0:0:
512,222,73456,2,0,B|519:163,1,52.5,10|0,0:1|1:0,0:0:0:0:
437,96,73790,2,0,B|430:148,2,52.5,2|10|2,0:0|0:1|0:0,0:0:0:0:
503,29,74290,2,0,P|484:14|454:7,1,52.5,2|10,0:0|0:0,0:0:0:0:
366,34,74623,5,2,1:0:0:0:
319,115,74790,2,0,L|325:147,2,26.25,2|2|2,0:0|0:0|0:0,0:0:0:0:
260,39,75123,1,2,0:0:0:0:
213,120,75290,2,0,L|219:152,2,26.25,10|2|2,0:1|0:0|0:0,0:0:0:0:
155,40,75623,2,0,P|130:36|104:31,1,52.5,2|2,0:0|1:0,0:0:0:0:
0,0,75956,6,0,P|8:24|13:50,1,52.5,2|10,0:0|0:1,0:0:0:0:
12,145,76290,1,2,1:0:0:0:
96,187,76456,1,2,0:0:0:0:
50,355,76790,6,0,L|-2:339,2,52.5,2|2|2,0:0|0:0|0:0,0:0:0:0:
149,378,77290,6,0,B|154:351|154:351|143:321,1,52.5,6|0,1:2|0:0,0:0:0:0:
106,252,77623,1,2,1:0:0:0:
229,215,77790,2,0,B|207:263|207:263|230:315,1,105,2|2,0:0|0:0,0:0:0:0:
323,353,78290,6,0,L|388:349,1,52.5,2|0,0:0|1:0,0:0:0:0:
463,330,78623,1,2,0:0:0:0:
406,259,78790,2,0,L|301:265,1,105,10|2,0:1|0:0,0:0:0:0:
219,204,79290,2,0,P|220:177|223:151,1,52.5,10|2,0:1|0:0,0:0:0:0:
307,100,79623,2,0,P|305:73|302:47,1,52.5,2|10,0:0|0:0,0:0:0:0:
148,0,79956,6,0,P|143:27|141:54,1,55.1249983177186,10|0,1:3|0:0,0:0:0:0:
128,67,80290,2,0,P|130:100|134:138,1,63,8|0,1:3|0:0,0:0:0:0:
150,149,80623,6,0,P|143:191|139:234,1,86.6250026435853,8|0,1:3|0:0,0:0:0:0:
122,239,80956,2,0,P|113:286|109:333,1,94.499997116089,10|0,1:3|0:0,0:0:0:0:
109,356,81290,1,10,1:3:0:0:
256,192,81373,12,2,82623,0:0:0:0:
413,35,93290,6,0,P|399:73|412:112,1,84,0|0,1:0|0:0,0:0:0:0:
353,166,93790,2,0,P|367:204|354:243,1,84,0|0,1:0|0:0,0:0:0:0:
302,304,94290,1,8,0:0:0:0:
447,207,94623,2,0,L|511:200,1,52.5,6|0,0:0|0:0,0:0:0:0:
319,90,95290,1,8,0:0:0:0:
110,10,95956,6,0,B|124:50|124:50|110:94,1,84,0|0,1:0|0:0,0:0:0:0:
178,134,96456,2,0,B|165:173|165:173|179:213,1,84,0|0,1:0|0:0,0:0:0:0:
227,276,96956,1,8,0:0:0:0:
302,177,97290,2,0,B|281:175|281:175|274:178|274:178|249:175,1,52.5,6|0,0:0|0:0,0:0:0:0:
81,174,97956,1,8,0:0:0:0:
3,365,98623,6,0,P|44:353|85:348,1,84,0|0,1:0|0:0,0:0:0:0:
110,271,99123,2,0,P|146:291|179:316,1,84,0|0,1:0|0:0,0:0:0:0:
238,372,99623,1,8,0:0:0:0:
244,229,99956,2,0,P|252:257|256:287,1,52.5,6|0,0:2|0:2,0:0:0:0:
150,167,100623,1,8,0:0:0:0:
339,38,101290,6,0,P|380:34|422:27,1,84,0|0,1:0|0:0,0:0:0:0:
512,0,101790,1,0,1:0:0:0:
512,0,101956,2,0,P|517:34|495:85,1,84,0|8,0:0|0:0,0:0:0:0:
420,118,102456,1,2,0:0:0:0:
483,224,102623,6,0,P|491:204|491:183,1,42,2|2,0:2|0:0,0:0:0:0:
368,217,102956,5,2,0:0:0:0:
368,217,103123,1,2,0:0:0:0:
420,300,103290,5,2,0:0:0:0:
391,310,103456,1,2,0:0:0:0:
294,280,103623,5,2,0:0:0:0:
316,374,103790,1,2,0:0:0:0:
221,344,103956,6,0,L|145:327,1,78.7500030040742,2|0,0:2|0:0,0:0:0:0:
51,301,104456,2,0,L|27:309,2,19.6875007510186,8|8|8,0:0|0:0|0:0,0:0:0:0:
123,239,104790,1,8,0:3:0:0:
77,153,104956,1,0,1:0:0:0:
355,71,105290,5,0,1:0:0:0:
479,144,105790,2,0,L|506:137,2,21,8|8|8,0:0|0:0|0:0,0:0:0:0:
403,197,106123,2,0,L|412:281,1,84,0|0,0:0|1:0,0:0:0:0:
424,371,106623,1,8,0:0:0:0:
130,322,107956,5,0,1:0:0:0:
246,254,108456,2,0,L|273:247,2,21,8|8|8,0:0|0:0|0:0,0:0:0:0:
178,196,108789,2,0,L|187:112,1,84,0|0,0:0|1:0,0:0:0:0:
199,22,109289,1,8,0:0:0:0:
6,8,109623,6,0,L|13:31,3,21,2|2|2|2,0:0|0:3|0:3|0:3,0:0:0:0:
19,46,109956,2,0,P|45:25|95:88,1,126,2|0,0:0|0:0,0:0:0:0:
29,135,110623,6,0,P|32:187|36:229,1,94.499997116089,2|0,1:0|0:0,0:0:0:0:
64,318,111123,1,2,0:0:0:0:
64,318,111290,2,0,B|121:343|129:267|204:289,1,141.749995674133,10|10,0:0|0:0,0:0:0:0:
259,351,111956,1,2,1:0:0:0:
393,241,112290,1,2,1:0:0:0:
220,108,112623,2,0,B|216:132|216:132|218:135|218:135|214:154,2,47.2499985580445,10|0|2,0:0|0:0|0:0,0:0:0:0:
220,92,113290,6,0,P|250:85|281:89,1,63,0|0,1:0|0:0,0:0:0:0:
297,105,113623,2,0,P|327:111|358:107,1,63,0|0,1:0|0:0,0:0:0:0:
375,91,113956,6,0,L|365:168,1,70.8749978370667,0|0,1:0|0:0,0:0:0:0:
358,180,114290,2,0,L|368:257,1,70.8749978370667,0|0,1:0|0:0,0:0:0:0:
418,305,114623,6,0,P|390:282|341:288,1,86.6250026435853,0|0,1:0|0:0,0:0:0:0:
326,307,114956,2,0,P|284:314|250:289,1,86.6250026435853,0|0,1:0|0:0,0:0:0:0:
245,253,115290,5,8,1:0:0:0:
477,160,115623,1,8,1:0:0:0:
281,6,115956,1,8,1:0:0:0:
87,127,117123,5,0,1:0:0:0:
89,134,117206,1,0,1:0:0:0:
91,141,117289,1,10,0:3:0:0:
222,20,117623,2,0,L|156:14,1,52.5,0|0,1:0|0:0,0:0:0:0:
319,35,117956,5,10,0:1:0:0:
319,35,118123,1,10,0:3:0:0:
259,108,118290,1,6,0:3:0:0:
259,108,118457,1,6,0:3:0:0:
337,166,118623,6,0,B|393:188|427:151|427:151|400:143,1,115.50000352478,6|0,1:0|0:0,0:0:0:0:
256,215,119123,1,2,1:0:0:0:
337,261,119290,2,0,P|344:288|338:316,1,57.7500017623902,10|2,0:1|0:0,0:0:0:0:
219,384,119623,2,0,P|213:355|220:328,1,57.7500017623902,2|8,0:0|0:0,0:0:0:0:
338,316,119956,2,0,B|378:326|422:332|422:332|433:322|442:306,1,115.50000352478,0|0,1:0|1:0,0:0:0:0:
506,112,120623,5,10,0:1:0:0:
506,112,120790,1,2,0:0:0:0:
424,167,120956,1,2,0:0:0:0:
346,106,121123,1,2,0:0:0:0:
379,12,121290,6,0,P|324:7|244:13,1,115.50000352478,2|0,1:0|0:0,0:0:0:0:
160,70,121790,1,2,1:0:0:0:
168,0,121956,2,0,L|174:63,1,57.7500017623902,10|2,0:1|0:0,0:0:0:0:
259,103,122290,2,0,L|253:166,1,57.7500017623902,2|8,0:0|0:0,0:0:0:0:
193,268,122623,2,0,B|215:252|245:244|245:244|273:258|289:280,1,115.50000352478,0|0,1:0|1:0,0:0:0:0:
123,349,123290,1,10,0:1:0:0:
123,349,123457,1,2,0:0:0:0:
29,260,123623,2,0,L|90:247,1,57.7500017623902,2|10,0:0|0:0,0:0:0:0:
90,252,123873,1,8,0:0:0:0:
95,257,123956,6,0,B|79:221|79:221|97:141,1,115.50000352478,6|2,1:2|0:0,0:0:0:0:
203,75,124456,2,0,B|209:47|209:47|195:22,1,57.7500017623902,2|8,1:0|0:1,0:0:0:0:
113,58,124790,1,2,0:0:0:0:
188,161,124956,2,0,P|216:154|244:150,1,57.7500017623902,2|2,0:0|0:0,0:0:0:0:
358,87,125290,6,0,P|345:143|346:200,1,115.50000352478,2|2,1:0|1:0,0:0:0:0:
428,256,125790,2,0,P|436:283|436:312,1,57.7500017623902,2|8,0:0|0:1,0:0:0:0:
370,384,126123,1,2,0:0:0:0:
281,300,126290,2,0,L|349:295,1,57.7500017623902,10|4,0:3|0:3,0:0:0:0:
196,344,126623,2,0,P|183:301|194:260,1,86.6250026435853,10|0,1:0|0:0,0:0:0:0:
201,249,126956,1,2,1:0:0:0:
454,116,127623,6,0,B|472:182|384:200|332:125,1,173.250005287171,6|0,1:0|1:0,0:0:0:0:
285,48,128290,2,0,P|259:39|231:48,1,57.7500017623902,8|0,0:1|0:0,0:0:0:0:
172,121,128623,5,10,0:1:0:0:
218,201,128790,1,10,0:3:0:0:
172,282,128956,1,6,0:3:0:0:
126,202,129123,1,6,0:3:0:0:
231,209,129290,6,0,P|288:209|346:213,1,115.50000352478,6|0,1:0|0:0,0:0:0:0:
466,253,129790,1,2,1:0:0:0:
456,181,129956,2,0,P|450:209|456:237,1,57.7500017623902,10|2,0:1|0:0,0:0:0:0:
512,326,130290,2,0,P|517:354|511:382,1,57.7500017623902,2|8,0:0|0:0,0:0:0:0:
338,337,130623,2,0,P|388:322|404:372,1,115.50000352478,0|0,1:0|1:0,0:0:0:0:
144,374,131290,5,10,0:1:0:0:
120,291,131456,1,2,0:0:0:0:
233,269,131623,1,2,0:0:0:0:
257,186,131789,1,10,0:0:0:0:
179,131,131956,6,0,B|133:148|88:152|88:152|64:133,1,115.50000352478,2|0,1:0|0:0,0:0:0:0:
12,54,132456,1,2,1:0:0:0:
124,4,132623,2,0,B|131:21|133:33|133:33|130:44|118:56,1,57.7500017623902,10|2,0:1|0:0,0:0:0:0:
184,183,132956,2,0,B|172:170|169:159|169:159|171:148|178:130,1,57.7500017623902,2|8,0:0|0:0,0:0:0:0:
239,42,133290,2,0,B|266:25|294:29|294:29|315:50|345:53,1,115.50000352478,0|0,1:0|1:0,0:0:0:0:
512,0,133956,5,10,0:1:0:0:
444,63,134123,1,2,0:0:0:0:
512,126,134290,2,0,P|508:160|504:191,1,57.7500017623902,2|10,0:0|0:0,0:0:0:0:
365,234,134623,6,0,P|418:225|447:272,1,115.50000352478,6|0,1:2|0:0,0:0:0:0:
416,366,135123,1,2,1:0:0:0:
416,366,135290,2,0,B|331:338|366:336|286:367,1,115.50000352478,10|0,0:1|0:0,0:0:0:0:
205,384,135790,1,8,0:0:0:0:
235,281,135956,2,0,P|235:222|232:164,2,115.50000352478,0|0|8,1:0|1:0|0:1,0:0:0:0:
76,384,136956,2,0,P|48:375|20:370,1,57.7500017623902,0|8,0:0|0:0,0:0:0:0:
15,375,137206,1,8,0:0:0:0:
10,380,137290,6,0,P|15:328|22:251,1,115.50000352478,4|8,1:0|0:1,0:0:0:0:
20,169,137790,2,0,P|77:162|135:160,1,115.50000352478,8|0,0:3|1:0,0:0:0:0:
228,202,138290,1,14,0:1:0:0:
335,21,138623,5,10,0:3:0:0:
245,7,138790,2,0,P|246:33|253:71,1,57.7500017623902,4|0,0:3|0:0,0:0:0:0:
277,138,139123,1,4,0:3:0:0:
383,162,139290,1,10,0:1:0:0:
354,247,139456,1,8,0:3:0:0:
409,307,139623,1,6,0:3:0:0:
341,347,139790,5,4,0:3:0:0:
336,352,139873,1,4,0:3:0:0:
331,357,139956,2,0,B|302:361|302:361|271:346,2,57.7500017623902,6|2|2,1:0|0:0|1:0,0:0:0:0:
409,307,140456,2,0,B|414:262|414:262|424:244|424:244|427:194,1,115.50000352478,2|0,0:0|0:0,0:0:0:0:
440,65,140956,1,2,0:0:0:0:
490,130,141123,6,0,B|437:106|437:106|382:122,1,115.50000352478,2|8,1:0|0:1,0:0:0:0:
304,168,141623,2,0,B|290:143|290:143|294:107,1,57.7500017623902,2|2,1:0|0:0,0:0:0:0:
346,53,141956,2,0,B|360:28|360:28|356:-8,2,57.7500017623902,10|0|2,0:1|0:0|0:0,0:0:0:0:
255,40,142456,6,0,B|227:30|199:45|199:45|173:26|144:34,1,115.50000352478,10|2,0:0|0:0,0:0:0:0:
51,73,142956,2,0,L|18:66,2,28.8750008811951,2|2|2,1:0|0:0|0:0,0:0:0:0:
126,128,143290,1,10,0:1:0:0:
45,168,143456,1,2,0:0:0:0:
123,222,143623,1,2,0:0:0:0:
123,222,143790,1,2,1:0:0:0:
257,183,143956,6,0,B|229:174|229:174|200:178,1,57.7500017623902,2|8,0:0|0:1,0:0:0:0:
191,287,144290,2,0,B|219:296|219:296|248:292,1,57.7500017623902,2|2,1:0|0:0,0:0:0:0:
361,193,144623,2,0,B|334:243|334:243|354:298,1,115.50000352478,10|0,0:1|0:0,0:0:0:0:
512,384,145290,5,6,1:2:0:0:
512,384,145456,1,2,0:0:0:0:
459,298,145623,2,0,P|460:269|463:240,1,57.7500017623902,2|0,1:0|0:0,0:0:0:0:
361,193,145956,2,0,B|371:220|371:220|363:310,1,115.50000352478,10|2,0:1|0:0,0:0:0:0:
277,355,146456,2,0,B|267:328|267:328|275:238,1,115.50000352478,2|10,1:0|0:1,0:0:0:0:
199,185,146956,2,0,B|184:209|184:209|176:291,1,86.6250026435853,2|0,1:0|0:0,0:0:0:0:
177,287,147290,5,10,0:1:0:0:
93,271,147456,1,2,0:0:0:0:
9,255,147623,1,2,0:0:0:0:
77,355,147790,5,10,0:0:0:0:
96,255,147956,2,0,B|100:220|100:220|92:195|92:195|102:172|93:142,1,115.50000352478,6|8,1:2|0:1,0:0:0:0:
27,61,148456,2,0,B|25:43|19:25|19:25|26:-2,2,57.7500017623902,8|4|4,0:3|0:3|0:3,0:0:0:0:
133,49,148956,6,0,B|213:75|209:-15|290:5,1,173.250005287171,4|8,1:0|0:1,0:0:0:0:
338,102,149623,2,0,P|309:97|270:94,1,57.7500017623902,2|0,1:0|0:0,0:0:0:0:
430,60,149956,5,10,0:1:0:0:
472,152,150123,1,10,0:1:0:0:
380,194,150290,1,10,0:1:0:0:
338,102,150457,1,8,0:1:0:0:
490,160,150623,6,0,B|500:217|500:217|458:287,1,115.50000352478,6|2,1:0|1:0,0:0:0:0:
365,331,151123,1,2,0:0:0:0:
365,331,151290,2,0,B|360:359|360:359|374:384,2,57.7500017623902,10|2|2,0:1|0:0|0:0,0:0:0:0:
381,231,151790,1,2,1:0:0:0:
292,271,151956,6,0,P|263:275|234:277,1,57.7500017623902,2|8,0:0|0:1,0:0:0:0:
149,242,152290,1,2,1:0:0:0:
230,186,152456,2,0,P|258:181|287:178,1,57.7500017623902,2|8,0:0|0:1,0:0:0:0:
295,287,152790,2,0,P|266:291|237:292,1,57.7500017623902,2|0,0:0|0:0,0:0:0:0:
110,270,153123,6,0,P|109:241|108:212,1,57.7500017623902,10|0,0:0|1:0,0:0:0:0:
36,123,153456,2,0,L|4:118,2,28.8750008811951,2|2|2,0:0|0:0|1:0,0:0:0:0:
145,100,153789,1,2,0:0:0:0:
150,104,153873,1,2,0:0:0:0:
156,108,153956,2,0,P|200:104|242:99,2,86.6250026435853,10|2|2,0:1|0:0|1:0,0:0:0:0:
75,14,154623,6,0,B|107:-2|136:-2|136:-2|156:18|195:14,1,115.50000352478,2|0,0:0|1:0,0:0:0:0:
298,11,155123,2,0,L|327:-1,2,28.8750008811951,2|2|10,0:0|0:0|0:1,0:0:0:0:
242,99,155456,1,2,0:0:0:0:
351,94,155623,2,0,B|355:125|341:152|341:152|357:174|353:205,1,115.50000352478,2|2,0:0|1:0,0:0:0:0:
307,294,156123,6,0,B|359:317|359:317|408:286,1,115.50000352478,2|0,0:0|0:0,0:0:0:0:
464,201,156623,2,0,L|453:162,7,28.8750008811951,10|2|2|2|2|2|2|2,0:1|0:0|0:0|0:0|0:0|0:0|0:0|0:0,0:0:0:0:
447,146,157290,2,0,L|458:107,7,28.8750008811951,2|2|2|2|2|2|2|2,1:0|0:0|0:0|0:0|0:0|0:0|0:0|0:0,0:0:0:0:
465,91,157956,6,0,L|454:52,3,28.8750008811951,10|2|10|2,0:1|0:0|0:3|0:0,0:0:0:0:
443,37,158290,2,0,L|411:47,1,28.8750008811951,6|2,0:3|0:0,0:0:0:0:
389,57,158456,2,0,L|361:48,1,28.8750008811951,6|2,0:3|0:0,0:0:0:0:
329,39,158623,1,6,1:0:0:0:
256,192,158706,12,2,161567,0:0:0:0:
454,302,166623,5,2,0:0:0:0:
356,227,167290,1,2,0:0:0:0:
266,248,167956,1,2,0:0:0:0:
0,112,169290,5,2,0:0:0:0:
124,131,169956,1,2,0:0:0:0:
172,53,170623,1,2,0:0:0:0:
243,134,171178,2,0,L|220:128,2,13.125000500679,2|2|2,0:0|0:0|0:0,0:0:0:0:
342,42,171790,6,0,L|361:37,2,19.6875007510186,8|8|0,0:0|0:0|1:0,0:0:0:0:
342,42,174623,6,0,P|347:72|350:104,1,63,0|0,1:0|0:0,0:0:0:0:
366,119,174956,2,0,P|360:149|357:181,1,63,0|0,1:0|0:0,0:0:0:0:
357,207,175290,6,0,B|392:218|392:218|437:202,1,74.8124980022908,0|0,1:0|0:0,0:0:0:0:
453,191,175623,2,0,L|443:275,1,74.8124980022908,0|0,1:0|0:0,0:0:0:0:
512,295,175956,6,0,P|465:280|429:299,1,82.6874974765778,0|0,1:0|0:0,0:0:0:0:
403,325,176290,2,0,P|356:339|320:320,1,82.6874974765778,0|0,1:0|0:0,0:0:0:0:
304,308,176623,5,8,1:0:0:0:
76,376,176956,1,8,1:0:0:0:
130,146,177297,1,8,1:0:0:0:
105,116,182630,6,0,L|185:104,1,68.2499968757631,2|0,0:0|0:0,0:0:0:0:
274,69,183296,2,0,B|284:95|280:125|280:125|287:133,1,68.2499968757631,2|0,0:0|0:0,0:0:0:0:
383,174,183963,2,0,P|390:140|386:107,2,68.2499968757631,2|0|2,0:0|0:0|0:0,0:0:0:0:
306,238,184963,2,0,L|310:278,1,34.1249984378815
355,333,185296,6,0,P|392:317|427:311,1,68.2499968757631,2|0,0:0|0:0,0:0:0:0:
495,246,185963,2,0,P|456:238|420:224,1,68.2499968757631,2|0,0:0|0:0,0:0:0:0:
335,174,186630,2,0,L|342:248,2,68.2499968757631,2|0|2,0:0|0:0|0:0,0:0:0:0:
226,105,187630,2,0,L|215:142,1,34.1249984378815
155,184,187963,6,0,P|119:177|85:167,1,68.2499968757631,2|0,0:0|0:0,0:0:0:0:
4,215,188630,2,0,B|1:270|-9:249|16:287,1,68.2499968757631,2|0,0:0|0:0,0:0:0:0:
84,348,189296,2,0,P|104:313|109:283,2,68.2499968757631,2|0|2,0:0|0:0|0:0,0:0:0:0:
195,286,190296,2,0,P|211:288|227:295,1,34.1249984378815
299,324,190630,5,2,0:0:0:0:
350,119,190963,1,2,0:0:0:0:
350,119,191630,6,0,B|368:101|384:71|384:71|376:124|401:155|401:155|401:177|397:199,1,188.999994232178,4|0,1:2|1:0,0:0:0:0:
433,290,192296,2,0,P|403:283|373:291,1,62.9999980773926,10|0,0:1|0:0,0:0:0:0:
261,362,192630,6,0,P|241:379|221:389,2,41.9999987182618,10|8|8,0:3|0:3|0:3,0:0:0:0:
299,359,192963,2,0,P|316:372|339:380,2,41.9999987182618,6|4|4,0:3|0:3|0:3,0:0:0:0:
278,328,193296,6,0,L|272:202,1,125.999996154785,6|0,1:0|0:0,0:0:0:0:
267,100,193796,1,2,1:0:0:0:
358,149,193963,2,0,B|373:145|385:133|385:133|372:124|355:123,1,62.9999980773926,10|0,0:1|0:0,0:0:0:0:
179,131,194296,2,0,B|164:135|152:147|152:147|165:156|181:156,1,62.9999980773926,2|8,0:0|0:0,0:0:0:0:
314,26,194629,2,0,B|294:3|261:-8|261:-8|233:6|213:32,1,125.999996154785,0|0,1:0|1:0,0:0:0:0:
110,246,195296,5,10,0:1:0:0:
70,173,195463,2,0,L|2:185,1,62.9999980773926,2|0,0:0|0:0,0:0:0:0:
0,268,195796,1,10,0:0:0:0:
67,322,195963,6,0,L|76:394,2,62.9999980773926,2|0|0,1:0|0:0|0:0,0:0:0:0:
110,246,196463,1,2,1:0:0:0:
189,348,196630,1,10,0:1:0:0:
257,281,196796,2,0,B|311:242|277:246|371:272,1,125.999996154785,2|10,0:0|0:0,0:0:0:0:
460,377,197296,2,0,P|462:314|468:251,1,125.999996154785,0|0,1:0|1:0,0:0:0:0:
485,79,197963,5,10,0:1:0:0:
437,153,198129,1,2,0:0:0:0:
336,61,198296,2,0,P|364:67|398:76,1,62.9999980773926,2|10,0:0|0:0,0:0:0:0:
379,223,198630,6,0,B|321:228|327:175|263:187,1,125.999996154785,2|0,1:0|0:0,0:0:0:0:
188,240,199129,1,2,1:0:0:0:
188,240,199296,2,0,B|177:265|177:265|137:229|158:172,1,125.999996154785,10|0,0:1|0:0,0:0:0:0:
221,96,199796,1,8,0:0:0:0:
116,79,199963,2,0,B|75:75|16:91|41:98|-9:48,2,125.999996154785,0|0|8,1:0|1:0|0:1,0:0:0:0:
267,183,200963,2,0,P|299:186|328:175,1,62.9999980773926,0|8,0:0|0:0,0:0:0:0:
410,82,201296,6,0,P|402:117|414:154,1,63,0|0,1:0|0:0,0:0:0:0:
427,152,201630,2,0,P|431:188|414:234,1,70.8749978370667,0|0,1:0|0:0,0:0:0:0:
400,235,201963,2,0,P|390:276|411:312,1,86.6250026435853,2|0,1:0|0:0,0:0:0:0:
444,346,202296,2,0,P|418:316|345:323,1,94.499997116089,2|0,1:0|0:0,0:0:0:0:
343,325,202630,6,0,P|332:362|368:337,1,105,10|0,1:0|0:0,0:0:0:0:
38,370,203963,6,0,B|11:324|11:324|23:270,1,105,4|2,1:0|1:0,0:0:0:0:
211,338,204629,1,10,0:1:0:0:
211,338,204796,2,0,B|222:287|222:287|195:241,1,105,2|2,0:0|1:0,0:0:0:0:
115,305,205296,2,0,L|107:252,1,52.5,2|8,0:0|0:1,0:0:0:0:
90,156,205629,1,2,1:0:0:0:
199,89,205797,2,0,L|189:140,1,52.5,2|8,0:0|0:1,0:0:0:0:
81,165,206129,2,0,L|30:152,2,52.5,2|2|10,0:0|0:0|0:0,0:0:0:0:
198,151,206629,5,2,1:0:0:0:
117,57,206796,2,0,L|84:49,2,26.25,2|2|2,0:0|0:0|1:0,0:0:0:0:
221,63,207130,2,0,B|263:59|263:59|280:48|280:48|322:45,1,105,2|2,0:0|0:0,0:0:0:0:
429,17,207629,2,0,B|419:41|419:41|432:67,1,52.5,2|2,0:0|1:0,0:0:0:0:
482,143,207963,1,2,1:0:0:0:
287,233,208296,1,2,1:0:0:0:
466,364,208630,2,0,L|520:350,2,52.5,10|2|2,0:1|0:0|0:0,0:0:0:0:
381,303,209130,1,10,0:0:0:0:
305,368,209296,6,0,P|253:362|201:354,1,105,6|0,1:2|1:0,0:0:0:0:
88,294,209796,1,2,0:0:0:0:
112,384,209963,2,0,P|106:330|100:257,1,105,10|0,0:1|0:0,0:0:0:0:
112,181,210463,1,8,0:2:0:0:
191,233,210630,6,0,P|246:227|297:219,2,105,0|0|8,1:0|1:0|0:1,0:0:0:0:
7,108,211630,2,0,P|32:103|58:98,1,52.5,0|8,0:0|0:0,0:0:0:0:
164,0,211963,1,0,1:0:0:0:
152,12,212296,5,10,0:3:0:0:
152,103,212463,1,10,0:3:0:0:
259,37,212630,1,6,0:3:0:0:
374,152,212963,6,0,B|340:112|255:180|350:270,1,188.999994232178,4|8,1:0|0:1,0:0:0:0:
441,316,213630,2,0,B|454:324|460:335|460:335|460:347|452:358,1,52.5,0|0,1:0|0:0,0:0:0:0:
336,381,213963,1,8,0:1:0:0:
259,313,214129,1,8,0:3:0:0:
193,379,214296,1,4,0:3:0:0:
193,379,214463,1,4,0:3:0:0:
162,283,214629,6,0,P|159:255|156:228,1,52.5,6|0,1:0|0:0,0:0:0:0:
192,135,214963,2,0,P|152:108|93:123,1,105,2|10,1:0|0:1,0:0:0:0:
10,146,215463,2,0,B|2:120|2:120|13:96,1,52.5,2|0,0:0|0:0,0:0:0:0:
72,29,215796,1,2,1:0:0:0:
163,52,215963,6,0,P|190:49|218:46,1,52.5,2|8,0:0|0:1,0:0:0:0:
314,32,216296,1,2,1:0:0:0:
272,126,216463,2,0,P|248:130|220:133,1,52.5,2|8,0:0|0:1,0:0:0:0:
118,145,216796,1,2,0:0:0:0:
177,216,216963,2,0,P|181:241|185:267,1,52.5,2|10,0:0|0:0,0:0:0:0:
150,364,217296,5,2,1:0:0:0:
89,287,217463,2,0,L|57:283,2,26.25,2|2|2,0:0|0:0|1:0,0:0:0:0:
177,216,217796,1,2,0:0:0:0:
268,266,217963,2,0,L|300:262,2,26.25,10|2|2,0:1|0:0|0:0,0:0:0:0:
257,162,218296,2,0,P|261:137|266:110,1,52.5,2|2,0:0|1:0,0:0:0:0:
345,4,218629,6,0,P|353:28|358:54,1,52.5,2|10,0:0|0:1,0:0:0:0:
403,136,218963,1,2,1:0:0:0:
352,210,219129,1,2,0:0:0:0:
438,260,219296,2,0,L|493:243,1,52.5,10|2,0:1|0:0,0:0:0:0:
463,348,219630,2,0,L|515:331,1,52.5,2|2,0:0|0:0,0:0:0:0:
373,377,219963,6,0,B|348:367|348:367|323:374,1,52.5,6|0,1:2|0:0,0:0:0:0:
238,274,220296,1,2,1:0:0:0:
322,288,220463,2,0,B|273:303|273:303|222:283,1,105,2|0,0:0|0:0,0:0:0:0:
140,235,220963,6,0,L|132:287,1,52.5,2|0,0:0|1:0,0:0:0:0:
35,281,221296,1,2,0:0:0:0:
35,376,221463,2,0,L|49:271,1,105,10|2,0:1|0:0,0:0:0:0:
24,159,221963,2,0,P|49:154|75:158,1,52.5,10|2,0:1|0:0,0:0:0:0:
160,208,222296,2,0,P|185:212|211:208,1,52.5,2|10,0:0|0:0,0:0:0:0:
306,93,222630,6,0,P|291:129|301:168,1,63,2|0,1:0|0:0,0:0:0:0:
311,168,222963,2,0,P|326:200|320:235,1,70.8749978370667,0|0,1:0|0:0,0:0:0:0:
299,251,223296,2,0,P|300:293|346:326,1,86.6250026435853,0|0,1:0|0:0,0:0:0:0:
349,341,223630,2,0,P|379:312|433:323,1,94.499997116089,2|0,1:0|0:0,0:0:0:0:
449,342,223963,1,10,1:0:0:0:
256,192,224046,12,0,226630,0:0:0:0:
207,343,227963,5,2,0:0:0:0:
187,353,228297,1,2,0:0:0:0:
133,239,228630,1,2,0:0:0:0:
50,98,229297,5,2,0:0:0:0:
47,120,229631,1,2,0:0:0:0:
169,94,229964,1,2,0:0:0:0:
371,22,230630,5,2,0:0:0:0:
386,9,230963,1,2,0:0:0:0:
482,33,231297,1,2,0:0:0:0:
389,202,231963,5,2,0:0:0:0:
367,208,232296,1,2,0:0:0:0:
350,196,232630,1,2,0:0:0:0:
147,119,233297,5,2,0:0:0:0:
168,110,233630,1,2,0:0:0:0:
222,224,233963,1,2,0:0:0:0:
113,365,234630,5,2,0:0:0:0:
91,367,234963,1,2,0:0:0:0:
31,242,235297,1,2,0:0:0:0:
153,39,235963,5,2,0:0:0:0:
237,86,236296,1,2,0:0:0:0:
361,34,236630,5,2,0:0:0:0:
234,0,236963,1,2,0:0:0:0:
157,132,237296,6,0,L|176:239,1,105,2|0,0:0|0:0,0:0:0:0:
