osu file format v14

[General]
AudioFilename: audio.mp3
AudioLeadIn: 0
PreviewTime: 117887
Countdown: 0
SampleSet: Soft
StackLeniency: 0.7
Mode: 0
LetterboxInBreaks: 0
WidescreenStoryboard: 0

[Editor]
DistanceSpacing: 0.5
BeatDivisor: 12
GridSize: 32
TimelineZoom: 3.800004

[Metadata]
Title:Hana ni Bourei
TitleUnicode:花に亡霊
Artist:Yorushika
ArtistUnicode:ヨルシカ
Creator:HowRengar
Version:Blooming
Source:A Whisker Away
Tags:Japanese Anime ghost in a flower n-buna netflix movie nakineko 泣きたい私は猫をかぶる nakitai watashi wa neko o kaburu 盗作 tosaku plagiarism Pop Jpop J-pop
BeatmapID:2456014
BeatmapSetID:1177614

[Difficulty]
HPDrainRate:5.5
CircleSize:4.8
OverallDifficulty:8.5
ApproachRate:9
SliderMultiplier:3.2
SliderTickRate:1

[Events]
//Background and Video events
0,0,"bg.png",0,0
//Break Periods
2,82822,91963
2,161767,166022
//Storyboard Layer 0 (Background)
//Storyboard Layer 1 (Fail)
//Storyboard Layer 2 (Pass)
//Storyboard Layer 3 (Foreground)
//Storyboard Layer 4 (Overlay)
//Storyboard Sound Samples

[TimingPoints]
-1371,666.666666666667,4,2,1,40,1,0
1295,-100,4,2,34,40,0,0
1629,-100,4,2,44,40,0,0
1962,-100,4,2,5,40,0,0
2629,-100,4,2,27,40,0,0
2962,-100,4,2,44,40,0,0
3295,-100,4,2,5,40,0,0
3962,-100,4,2,32,40,0,0
4295,-100,4,2,39,40,0,0
4629,-100,4,2,4,40,0,0
5295,-100,4,2,31,40,0,0
5629,-100,4,2,39,40,0,0
5962,-100,4,2,6,40,0,0
6629,-100,4,2,22,40,0,0
6962,-100,4,2,32,40,0,0
7295,-100,4,2,5,40,0,0
7962,-100,4,2,24,40,0,0
8295,-100,4,2,44,40,0,0
8629,-100,4,2,5,40,0,0
9295,-100,4,2,25,40,0,0
9629,-100,4,2,44,40,0,0
9962,-100,4,2,27,40,0,0
10295,-100,4,2,44,40,0,0
10629,-100,4,2,32,40,0,0
10962,-100,4,2,39,40,0,0
11295,-100,4,2,6,40,0,0
11962,-100,4,2,34,40,0,0
12295,-100,4,2,44,40,0,0
12629,-100,4,2,5,40,0,0
13295,-100,4,2,27,40,0,0
13629,-100,4,2,44,40,0,0
13962,-100,4,2,5,40,0,0
14629,-100,4,2,32,40,0,0
14962,-100,4,2,39,40,0,0
15295,-100,4,2,4,40,0,0
15962,-100,4,2,31,40,0,0
16295,-100,4,2,39,40,0,0
16629,-100,4,2,6,40,0,0
17295,-100,4,2,22,40,0,0
17629,-100,4,2,32,40,0,0
17962,-100,4,2,5,40,0,0
18629,-100,4,2,24,40,0,0
18962,-100,4,2,32,40,0,0
19295,-100,4,2,5,40,0,0
19962,-100,4,2,25,40,0,0
20295,-100,4,2,32,40,0,0
20629,-100,4,2,27,40,0,0
20962,-100,4,2,32,40,0,0
21296,-250,4,2,20,40,0,0
21629,-250,4,2,39,40,0,0
21962,-250,4,2,43,40,0,0
22295,-250,4,2,44,40,0,0
22962,-250,4,2,32,30,0,0
23295,-250,4,2,39,40,0,0
23629,-250,4,2,43,40,0,0
23962,-250,4,2,44,40,0,0
24295,-250,4,2,32,30,0,0
24629,-250,4,2,51,30,0,0
25213,-250,4,2,1,5,0,0
25296,-250,4,2,44,40,0,0
26546,-250,4,2,1,5,0,0
26629,681.818181818182,4,2,6,40,1,0
26629,-166.666666666667,4,2,6,40,0,0
26685,-166.666666666667,4,2,1,5,0,0
27310,-166.666666666667,4,2,4,40,0,0
27367,-166.666666666667,4,2,1,5,0,0
27992,652.173913043478,4,2,6,40,1,0
27992,-166.666666666667,4,2,6,40,0,0
28046,-166.666666666667,4,2,1,5,0,0
29296,681.818181818182,4,2,6,40,1,0
29296,-166.666666666667,4,2,6,40,0,0
29352,-166.666666666667,4,2,1,5,0,0
29977,-166.666666666667,4,2,4,40,0,0
30034,-166.666666666667,4,2,1,5,0,0
30659,631.578947368421,4,2,6,40,1,0
30659,-166.666666666667,4,2,6,40,0,0
30711,-166.666666666667,4,2,1,5,0,0
31185,-166.666666666667,4,2,51,40,0,0
31237,-166.666666666667,4,2,56,40,0,0
31290,666.666666666667,4,2,63,40,1,0
31290,-166.666666666667,4,2,63,40,0,0
31790,-166.666666666667,4,2,2,40,0,0
31956,-200,4,2,60,55,0,0
32040,-200,4,2,1,55,0,0
32456,-166.666666666667,4,2,61,55,0,0
32540,-166.666666666667,4,2,1,55,0,0
32956,-142.857142857143,4,2,56,55,0,0
33040,-142.857142857143,4,2,1,55,0,0
34873,-142.857142857143,4,2,1,5,0,0
34956,-142.857142857143,4,2,1,55,0,0
35206,-142.857142857143,4,2,1,5,0,0
35290,-125,4,2,1,57,0,0
35540,-125,4,2,1,5,0,0
35623,-125,4,2,1,57,0,0
35873,-125,4,2,1,5,0,0
35956,-111.111111111111,4,2,1,60,0,0
36206,-111.111111111111,4,2,1,5,0,0
36289,-111.111111111111,4,2,1,60,0,0
36539,-111.111111111111,4,2,1,5,0,0
36623,-99.9999999999999,4,2,1,62,0,0
36873,-99.9999999999999,4,2,1,5,0,0
36956,-99.9999999999999,4,2,1,62,0,0
37206,-99.9999999999999,4,2,1,5,0,0
37289,-99.9999999999999,4,2,1,65,0,0
37623,701.754385964912,4,2,67,45,1,0
37623,-99.9999999999999,4,2,67,45,0,0
37663,-99.9999999999999,4,2,68,45,0,0
37973,697.674418604651,4,2,67,45,1,0
37973,-99.9999999999999,4,2,67,45,0,0
38321,689.655172413793,4,2,63,45,1,0
38321,-99.9999999999999,4,2,63,45,0,0
38665,600,4,2,64,45,1,0
38665,-99.9999999999999,4,2,64,45,0,0
38964,652.173913043478,4,2,63,45,1,0
38964,-99.9999999999999,4,2,63,45,0,0
39289,-99.9999999999999,4,2,60,45,0,0
39290,666.666666666667,4,2,60,45,1,0
39455,-99.9999999999999,4,2,1,45,0,0
39622,-99.9999999999999,4,2,58,45,0,0
39788,-99.9999999999999,4,2,1,45,0,0
39956,666.666666666667,4,2,56,75,1,1
39956,-90.9090909090909,4,2,56,75,0,1
40038,-90.9090909090909,4,2,1,75,0,1
41955,-90.9090909090909,4,2,63,75,0,1
42122,-90.9090909090909,4,2,1,75,0,1
42622,-90.9090909090909,4,2,58,75,0,1
42705,-90.9090909090909,4,2,1,75,0,1
44622,-90.9090909090909,4,2,63,75,0,1
44788,-90.9090909090909,4,2,1,75,0,1
45288,-90.9090909090909,4,2,56,75,0,1
45372,-90.9090909090909,4,2,1,75,0,1
46039,-90.9090909090909,4,2,1,5,0,1
46123,-90.9090909090909,4,2,1,75,0,1
47373,-90.9090909090909,4,2,1,5,0,1
47456,-90.9090909090909,4,2,1,75,0,1
47956,-90.9090909090909,4,2,1,75,0,1
48206,-90.9090909090909,4,2,1,5,0,1
48289,-90.9090909090909,4,2,1,75,0,1
48331,-90.9090909090909,4,2,1,5,0,1
48956,-71.4285714285714,4,2,1,75,0,1
49623,-90.9090909090909,4,2,1,75,0,1
52622,-90.9090909090909,4,2,63,75,0,1
52788,-90.9090909090909,4,2,1,75,0,1
53288,-90.9090909090909,4,2,58,75,0,1
53372,-90.9090909090909,4,2,1,75,0,1
55288,-90.9090909090909,4,2,63,75,0,1
55455,-90.9090909090909,4,2,1,75,0,1
55955,-100,4,2,56,75,0,1
56038,-100,4,2,1,75,0,1
58623,-333.333333333333,4,2,1,75,0,1
58956,-166.666666666667,4,2,1,75,0,1
59289,-111.111111111111,4,2,1,75,0,1
59623,-83.3333333333333,4,2,1,75,0,1
59956,-1000,4,2,1,65,0,0
61289,-100,4,2,1,65,0,0
61539,-100,4,2,1,5,0,0
61623,-100,4,2,1,65,0,0
69289,-76.9230769230769,4,2,1,65,0,0
69956,-52.6315789473684,4,2,1,65,0,0
69998,-52.6315789473684,4,2,1,5,0,0
70289,-83.3333333333333,4,2,1,65,0,0
70956,-100,4,2,1,65,0,0
79956,-200,4,2,1,65,0,0
80206,-200,4,2,1,5,0,0
80289,-125,4,2,1,65,0,0
80539,-125,4,2,1,5,0,0
80623,-90.9090909090909,4,2,1,65,0,0
80873,-90.9090909090909,4,2,1,5,0,0
80956,-71.4285714285714,4,2,1,65,0,0
81206,-71.4285714285714,4,2,1,5,0,0
81289,-1000,4,2,1,65,0,0
81623,-1000,4,2,1,55,0,0
81956,-1000,4,2,1,45,0,0
82289,-1000,4,2,1,35,0,0
82623,-1000,4,2,1,25,0,0
93289,-200,4,2,1,45,0,0
94623,-1000,4,2,2,45,0,0
94705,-1000,4,2,1,45,0,0
95956,-200,4,2,1,45,0,0
97289,-1000,4,2,2,45,0,0
97372,-1000,4,2,1,45,0,0
98623,-200,4,2,1,45,0,0
99956,-1000,4,2,2,45,0,0
100038,-1000,4,2,1,45,0,0
101289,-200,4,2,1,45,0,0
102455,-200,4,2,60,45,0,0
102622,-200,4,2,58,45,0,0
102788,-200,4,2,56,45,0,0
102955,-200,4,2,51,45,0,0
103122,-200,4,2,56,45,0,0
103289,-200,4,2,58,45,0,0
103455,-200,4,2,51,45,0,0
103622,-200,4,2,63,45,0,0
103788,-200,4,2,51,45,0,0
103956,-500,4,2,56,45,0,0
104038,-500,4,2,1,45,0,0
104623,-200,4,2,1,45,0,0
109622,-200,4,2,51,45,0,0
109705,-200,4,2,1,45,0,0
109955,-200,4,2,63,45,0,0
110123,-500,4,2,1,45,0,0
110623,-142.857142857143,4,2,1,55,0,0
113289,-200,4,2,1,55,0,0
113539,-200,4,2,1,5,0,0
113623,-200,4,2,1,55,0,0
113873,-200,4,2,1,5,0,0
113956,-125,4,2,1,57,0,0
114206,-125,4,2,1,5,0,0
114289,-125,4,2,1,57,0,0
114539,-125,4,2,1,5,0,0
114623,-90.909090909091,4,2,1,60,0,0
114873,-90.909090909091,4,2,1,5,0,0
114956,-90.909090909091,4,2,1,60,0,0
115206,-90.909090909091,4,2,1,5,0,0
115289,-71.4285714285714,4,2,1,62,0,0
115539,-71.4285714285714,4,2,1,5,0,0
115623,-71.4285714285714,4,2,1,62,0,0
115873,-71.4285714285714,4,2,1,5,0,0
115956,-71.4285714285714,4,2,1,65,0,0
116289,-71.4285714285714,4,2,67,45,0,0
116330,-71.4285714285714,4,2,68,45,0,0
116622,-71.4285714285714,4,2,67,45,0,0
116955,-71.4285714285714,4,2,63,45,0,0
117123,-100,4,2,1,65,0,0
117288,-100,4,2,64,65,0,0
117330,-100,4,2,1,65,0,0
117623,-100,4,2,63,65,0,0
117664,-100,4,2,1,5,0,0
117956,-100,4,2,60,65,0,0
118122,-100,4,2,1,65,0,0
118289,-100,4,2,58,65,0,0
118456,-100,4,2,1,65,0,0
118622,-90.9090909090909,4,2,56,75,0,1
118705,-90.9090909090909,4,2,1,75,0,1
120622,-90.9090909090909,4,2,63,75,0,1
120788,-90.9090909090909,4,2,1,75,0,1
121288,-90.9090909090909,4,2,58,75,0,1
121372,-90.9090909090909,4,2,1,75,0,1
123288,-90.9090909090909,4,2,63,75,0,1
123455,-90.9090909090909,4,2,1,75,0,1
123955,-90.9090909090909,4,2,56,75,0,1
124038,-90.9090909090909,4,2,1,75,0,1
124706,-90.9090909090909,4,2,1,5,0,1
124789,-90.9090909090909,4,2,1,75,0,1
126039,-90.9090909090909,4,2,1,5,0,1
126123,-90.9090909090909,4,2,1,75,0,1
126623,-90.9090909090909,4,2,1,75,0,1
126873,-90.9090909090909,4,2,1,5,0,1
126956,-90.9090909090909,4,2,1,75,0,1
126998,-90.9090909090909,4,2,1,5,0,1
127623,-71.4285714285714,4,2,1,75,0,1
128288,-90.9090909090909,4,2,1,75,0,1
131288,-90.9090909090909,4,2,63,75,0,1
131455,-90.9090909090909,4,2,1,75,0,1
131955,-90.9090909090909,4,2,58,75,0,1
132038,-90.9090909090909,4,2,1,75,0,1
133955,-90.9090909090909,4,2,63,75,0,1
134122,-90.9090909090909,4,2,1,75,0,1
134622,-100,4,2,56,75,0,1
134705,-100,4,2,1,75,0,1
139956,-90.9090909090909,4,2,1,75,0,1
146206,-90.9090909090909,4,2,1,5,0,1
146289,-90.9090909090909,4,2,1,75,0,1
146706,-90.9090909090909,4,2,1,5,0,1
146789,-90.9090909090909,4,2,1,75,0,1
147206,-90.9090909090909,4,2,1,5,0,1
147289,-90.9090909090909,4,2,1,75,0,1
148206,-90.9090909090909,4,2,1,5,0,1
148289,-90.9090909090909,4,2,1,75,0,1
149623,-142.857142857143,4,2,1,75,0,1
149873,-142.857142857143,4,2,1,5,0,1
149956,-90.909090909091,4,2,1,75,0,1
154123,-90.909090909091,4,2,1,5,0,1
154206,-90.909090909091,4,2,1,75,0,1
154373,-90.909090909091,4,2,1,5,0,1
154456,-90.909090909091,4,2,1,75,0,1
154539,-90.909090909091,4,2,1,5,0,1
154623,-90.909090909091,4,2,1,75,0,1
155873,-90.909090909091,4,2,1,5,0,1
155956,-90.909090909091,4,2,1,75,0,1
158289,-90.909090909091,4,2,1,75,0,1
158456,-90.909090909091,4,2,1,75,0,1
158622,-125,4,2,1,65,0,0
159289,-125,4,2,1,55,0,0
159956,-125,4,2,1,45,0,0
160623,-125,4,2,1,35,0,0
161289,-125,4,2,1,25,0,0
161623,-1000,4,2,1,45,0,0
166622,-250,4,2,6,45,0,0
166678,-250,4,2,1,5,0,0
167288,-250,4,2,4,45,0,0
167345,-250,4,2,1,5,0,0
167955,-250,4,2,6,45,0,0
168012,-250,4,2,1,5,0,0
169288,-250,4,2,6,45,0,0
169345,-250,4,2,1,5,0,0
169955,-250,4,2,4,45,0,0
170012,-250,4,2,1,5,0,0
170622,-250,4,2,6,45,0,0
170678,-250,4,2,1,5,0,0
171177,-250,4,2,51,45,0,0
171233,-250,4,2,56,45,0,0
171288,-250,4,2,63,45,0,0
171788,-250,4,2,1,45,0,0
171955,-250,4,2,63,45,0,0
174455,-250,4,2,1,45,0,0
174623,-142.857142857143,4,2,1,55,0,0
174873,-142.857142857143,4,2,1,5,0,0
174956,-142.857142857143,4,2,1,55,0,0
175206,-142.857142857143,4,2,1,5,0,0
175289,-111.111111111111,4,2,1,57,0,0
175539,-111.111111111111,4,2,1,5,0,0
175623,-111.111111111111,4,2,1,57,0,0
175873,-111.111111111111,4,2,1,5,0,0
175956,-90.909090909091,4,2,1,60,0,0
176206,-90.909090909091,4,2,1,5,0,0
176289,-90.909090909091,4,2,1,60,0,0
176539,-90.909090909091,4,2,1,5,0,0
176623,-76.9230769230769,4,2,1,62,0,0
176873,-76.9230769230769,4,2,1,5,0,0
176956,-76.9230769230769,4,2,1,62,0,0
177206,-76.9230769230769,4,2,1,5,0,0
177297,638.297872340426,4,2,1,65,1,0
177297,-76.9230769230769,4,2,1,65,0,0
177616,697.674418604651,4,2,67,45,1,0
177616,-76.9230769230769,4,2,67,45,0,0
177674,-76.9230769230769,4,2,68,45,0,0
177964,666.666666666667,4,2,67,45,1,0
177964,-76.9230769230769,4,2,67,45,0,0
178297,625,4,2,63,45,1,0
178297,-76.9230769230769,4,2,63,45,0,0
178609,666.666666666667,4,2,63,45,1,0
178664,-76.9230769230769,4,2,64,45,0,0
178942,-76.9230769230769,4,2,63,45,0,0
179275,-76.9230769230769,4,2,60,45,0,0
179609,681.818181818182,4,2,55,45,1,0
179609,-76.9230769230769,4,2,55,45,0,0
179665,-76.9230769230769,4,2,56,45,0,0
179949,-76.9230769230769,4,2,58,42,0,0
180290,-76.9230769230769,4,2,55,40,0,0
180631,-76.9230769230769,4,2,51,40,0,0
180972,625,4,2,53,35,1,0
180972,-76.9230769230769,4,2,53,35,0,0
181284,697.674418604651,4,2,48,35,1,0
181284,-76.9230769230769,4,2,48,35,0,0
181632,652.173913043478,4,2,46,35,1,0
181632,-76.9230769230769,4,2,46,35,0,0
181958,666.666666666667,4,2,44,35,1,0
181958,-76.9230769230769,4,2,44,35,0,0
182291,-76.9230769230769,4,2,43,35,0,0
182630,666.666666666667,4,2,41,35,1,0
182630,-250,4,2,41,35,0,0
182713,-250,4,2,1,35,0,0
191130,-250,4,2,1,5,0,0
191630,-71.4285714285714,4,2,49,80,0,1
191712,-71.4285714285714,4,2,1,80,0,1
192296,-83.3333333333333,4,2,48,80,0,1
192379,-83.3333333333333,4,2,1,80,0,1
192629,-83.3333333333333,4,2,46,80,0,1
192740,-83.3333333333333,4,2,1,80,0,1
192962,-83.3333333333333,4,2,44,80,0,1
193074,-83.3333333333333,4,2,1,80,0,1
195295,-83.3333333333333,4,2,63,80,0,1
195462,-83.3333333333333,4,2,1,80,0,1
195962,-83.3333333333333,4,2,58,80,0,1
196045,-83.3333333333333,4,2,1,80,0,1
197962,-83.3333333333333,4,2,63,80,0,1
198129,-83.3333333333333,4,2,1,80,0,1
198629,-83.3333333333333,4,2,56,80,0,1
198712,-83.3333333333333,4,2,1,80,0,1
201296,-200,4,2,1,80,0,1
201630,-125,4,2,1,80,0,1
201963,-90.9090909090909,4,2,1,80,0,1
202296,-71.4285714285714,4,2,1,80,0,1
202630,-1000,4,2,1,75,0,0
203963,-100,4,2,1,75,0,0
204213,-100,4,2,1,5,0,0
204296,-100,4,2,1,75,0,0
212213,-100,4,2,1,5,0,0
212296,-100,4,2,1,75,0,0
212671,-100,4,2,1,5,0,0
212963,-83.3333333333333,4,2,1,75,0,0
213630,-100,4,2,1,75,0,0
214880,-100,4,2,1,5,0,0
214963,-100,4,2,1,75,0,0
222630,-200,4,2,1,75,0,0
222880,-200,4,2,1,5,0,0
222963,-125,4,2,1,75,0,0
223213,-125,4,2,1,5,0,0
223295,-90.9090909090909,4,2,1,75,0,0
223546,-90.9090909090909,4,2,1,5,0,0
223630,-71.4285714285714,4,2,1,75,0,0
223880,-71.4285714285714,4,2,1,5,0,0
223963,-1000,4,2,1,65,0,0
224630,-1000,4,2,1,55,0,0
225296,-1000,4,2,1,45,0,0
225963,-1000,4,2,1,35,0,0
226630,-1000,4,2,1,25,0,0
227962,-100,4,2,34,40,0,0
228296,-100,4,2,44,40,0,0
228629,-100,4,2,5,40,0,0
229296,-100,4,2,27,40,0,0
229629,-100,4,2,44,40,0,0
229962,-100,4,2,5,40,0,0
230629,-100,4,2,32,40,0,0
230962,-100,4,2,39,40,0,0
231296,-100,4,2,4,40,0,0
231962,-100,4,2,31,40,0,0
232296,-100,4,2,39,40,0,0
232629,-100,4,2,6,40,0,0
233296,-100,4,2,22,40,0,0
233629,-100,4,2,32,40,0,0
233962,-100,4,2,5,40,0,0
234629,-100,4,2,24,40,0,0
234962,-100,4,2,44,40,0,0
235296,-100,4,2,5,40,0,0
235962,-100,4,2,25,40,0,0
236296,-100,4,2,44,40,0,0
236629,-100,4,2,27,40,0,0
236962,-100,4,2,44,40,0,0
237296,-500,4,2,20,45,0,0
237379,-500,4,2,1,45,0,0
237963,-500,4,2,1,5,0,0

[Colours]
Combo1 : 247,216,91
Combo2 : 219,135,79
Combo3 : 238,241,114
Combo4 : 119,149,225
Combo5 : 154,217,98

[HitObjects]
79,239,1295,5,2,0:0:0:0:
48,162,1629,1,2,0:0:0:0:
139,85,1961,1,2,0:0:0:0:
410,5,2629,5,2,0:0:0:0:
368,77,2962,1,2,0:0:0:0:
476,130,3295,1,2,0:0:0:0:
371,330,3962,5,2,0:0:0:0:
288,297,4295,1,2,0:0:0:0:
189,349,4629,1,2,0:0:0:0:
266,122,5295,5,2,0:0:0:0:
327,184,5629,1,2,0:0:0:0:
422,168,5962,1,2,0:0:0:0:
137,198,6629,5,2,0:0:0:0:
92,122,6962,1,2,0:0:0:0:
59,247,7295,1,2,0:0:0:0:
256,85,7962,5,2,0:0:0:0:
306,0,8295,1,2,0:0:0:0:
342,139,8628,1,2,0:0:0:0:
62,40,9295,5,2,0:0:0:0:
138,98,9629,1,2,0:0:0:0:
9,141,9962,5,2,0:0:0:0:
148,88,10295,1,2,0:0:0:0:
104,208,10629,5,2,0:0:0:0:
153,288,10962,1,2,0:0:0:0:
80,374,11295,1,2,0:0:0:0:
463,378,11962,5,2,0:0:0:0:
400,314,12295,1,2,0:0:0:0:
483,220,12629,1,2,0:0:0:0:
359,110,13295,5,2,0:0:0:0:
278,149,13629,1,2,0:0:0:0:
175,78,13962,1,2,0:0:0:0:
452,8,14629,5,2,0:0:0:0:
506,78,14962,1,2,0:0:0:0:
450,175,15295,1,2,0:0:0:0:
239,24,15962,5,2,0:0:0:0:
164,78,16295,1,2,0:0:0:0:
83,28,16629,1,2,0:0:0:0:
101,208,17295,5,2,0:0:0:0:
188,227,17629,1,2,0:0:0:0:
26,256,17962,1,2,0:0:0:0:
411,205,18629,5,2,0:0:0:0:
314,226,18961,1,2,0:0:0:0:
494,258,19294,1,2,0:0:0:0:
181,341,19962,5,2,0:0:0:0:
138,243,20295,1,2,0:0:0:0:
275,282,20629,5,2,0:0:0:0:
118,233,20962,1,2,0:0:0:0:
369,223,21295,5,2,0:0:0:0:
290,169,21629,1,2,0:0:0:0:
296,45,21962,1,2,0:0:0:0:
177,20,22295,2,0,P|114:29|40:38,1,128,2|0,0:0|0:0,0:0:0:0:
3,131,23295,5,2,0:0:0:0:
84,213,23629,1,2,0:0:0:0:
10,303,23962,2,0,L|1:369,1,64,2|0,2:0|0:0,0:0:0:0:
248,307,24629,2,0,P|210:269|155:271,1,112,2|0,0:0|0:0,0:0:0:0:
153,282,25295,6,0,B|157:327|94:352|51:313|45:254|126:249|81:174,1,240,2|0,0:0|0:0,0:0:0:0:
67,167,26629,6,0,L|38:172,1,15.9999995117188,2|0,0:0|0:0,0:0:0:0:
0,0,27310,2,0,L|18:3,1,15.9999995117188,2|0,0:0|0:0,0:0:0:0:
74,77,27992,2,0,L|59:80,1,15.9999995117188,2|0,0:0|0:0,0:0:0:0:
257,173,29296,6,0,L|281:176,1,15.9999995117188,2|0,0:0|0:0,0:0:0:0:
324,6,29977,2,0,L|309:9,1,15.9999995117188,2|0,0:0|0:0,0:0:0:0:
250,83,30659,2,0,L|265:86,1,15.9999995117188,2|0,0:0|0:0,0:0:0:0:
375,95,31185,6,2,L|356:99,2,15.9999995117188
146,13,31790,5,2,0:3:0:0:
151,16,31873,1,2,0:3:0:0:
156,19,31956,2,0,P|168:57|175:96,1,80,10|0,0:2|0:0,0:0:0:0:
141,182,32456,2,0,P|186:167|233:172,1,95.9999970703126,10|0,0:2|0:0,0:0:0:0:
363,185,32956,2,0,B|255:231|254:147|145:193,1,223.999993164063,10|0,0:2|1:0,0:0:0:0:
205,289,33956,1,10,0:0:0:0:
89,292,34289,1,2,0:0:0:0:
274,357,34456,5,2,0:0:0:0:
279,362,34539,1,2,0:0:0:0:
284,367,34623,2,0,P|330:356|389:348,1,83.9999974365235,0|0,1:0|0:0,0:0:0:0:
380,359,34956,2,0,P|409:330|435:272,1,83.9999974365235,0|0,1:0|0:0,0:0:0:0:
419,273,35290,6,0,P|403:230|399:157,1,96,0|0,1:0|0:0,0:0:0:0:
421,162,35623,2,0,P|369:180|321:172,1,96,0|0,1:0|0:0,0:0:0:0:
303,159,35956,6,0,L|320:48,1,107.999996704102,0|0,1:0|0:0,0:0:0:0:
298,19,36290,2,0,P|252:6|169:12,1,107.999996704102,0|0,1:0|0:0,0:0:0:0:
130,56,36623,6,0,L|141:185,1,120,8|0,1:0|0:0,0:0:0:0:
68,160,36956,2,0,L|79:289,1,120,8|0,1:0|0:0,0:0:0:0:
6,264,37289,1,8,1:0:0:0:
242,160,37623,5,2,0:0:0:0:
246,149,37666,1,2,0:0:0:0:
329,80,37973,1,2,0:0:0:0:
387,160,38321,1,2,0:0:0:0:
437,58,38608,5,2,0:0:0:0:
433,69,38665,1,2,0:0:0:0:
329,80,38964,1,2,0:0:0:0:
325,378,39289,5,2,0:0:0:0:
294,305,39456,1,2,0:0:0:0:
447,316,39623,1,2,0:0:0:0:
478,243,39790,1,2,0:0:0:0:
403,52,39956,6,0,L|384:226,1,176.000005371094,6|0,1:2|0:0,0:0:0:0:
383,226,40456,1,2,1:0:0:0:
197,228,40623,2,0,P|239:215|282:206,1,88.000002685547,10|2,0:1|0:0,0:0:0:0:
480,158,40956,2,0,P|437:147|394:136,1,88.000002685547,2|8,0:0|0:0,0:0:0:0:
173,41,41289,6,0,P|271:40|281:101,1,176.000005371094,0|0,1:0|1:0,0:0:0:0:
25,189,41956,1,10,0:1:0:0:
93,126,42123,1,2,0:0:0:0:
237,204,42289,1,2,0:0:0:0:
176,151,42456,1,2,0:0:0:0:
112,210,42623,6,0,L|136:384,1,176.000005371094,2|0,1:0|0:0,0:0:0:0:
136,384,43123,1,2,1:0:0:0:
239,384,43289,2,0,L|226:296,1,88.000002685547,10|2,0:1|0:0,0:0:0:0:
7,186,43623,2,0,L|18:274,1,88.000002685547,2|8,0:0|0:0,0:0:0:0:
324,274,43956,6,0,P|272:208|186:203,1,176.000005371094,0|0,1:0|1:0,0:0:0:0:
303,384,44623,1,10,0:1:0:0:
382,343,44789,1,2,0:0:0:0:
512,384,44956,1,2,0:0:0:0:
467,201,45122,5,10,0:0:0:0:
472,206,45206,1,8,0:0:0:0:
477,211,45290,2,0,L|466:314,1,88.000002685547,6|0,1:2|0:0,0:0:0:0:
367,119,45623,1,2,1:0:0:0:
364,242,45790,2,0,L|381:88,1,132.00000402832,2|0,0:0|0:0,0:0:0:0:
390,103,46123,1,2,0:0:0:0:
303,31,46289,1,2,0:0:0:0:
448,0,46456,1,10,0:0:0:0:
211,45,46623,6,0,P|220:86|227:136,1,88.000002685547,2|0,1:0|0:0,0:0:0:0:
124,49,46956,1,2,1:0:0:0:
130,167,47123,2,0,P|124:101|107:37,1,132.00000402832,2|0,0:0|0:0,0:0:0:0:
92,28,47456,1,2,0:0:0:0:
105,246,47623,6,0,P|133:250|161:243,2,58.6666684570313,10|4|4,0:3|0:3|0:3,0:0:0:0:
41,186,47956,6,0,P|18:246|40:307,1,132.00000402832,10|0,1:0|0:0,0:0:0:0:
121,330,48289,6,0,L|157:322,1,22.0000006713867,2|0,1:0|0:0,0:0:0:0:
505,345,48956,6,0,B|407:334|379:252|379:252|312:319|201:290,1,335.999989746094,6|0,1:0|1:0,0:0:0:0:
286,68,49623,2,0,L|272:155,1,88.000002685547,8|0,0:1|0:0,0:0:0:0:
145,186,49956,5,10,0:1:0:0:
114,65,50123,1,10,0:3:0:0:
340,0,50289,1,6,0:3:0:0:
286,68,50456,1,6,0:3:0:0:
20,53,50623,6,0,L|193:21,1,176.000005371094,6|0,1:0|0:0,0:0:0:0:
193,20,51123,1,2,1:0:0:0:
359,124,51289,1,10,0:1:0:0:
512,48,51456,1,2,0:0:0:0:
421,0,51623,2,0,L|435:96,1,88.000002685547,2|8,0:0|0:0,0:0:0:0:
512,269,51956,6,0,P|465:199|383:212,1,176.000005371094,0|0,1:0|1:0,0:0:0:0:
402,362,52623,1,10,0:1:0:0:
321,309,52789,1,2,0:0:0:0:
128,360,52956,1,2,0:0:0:0:
209,307,53122,1,2,0:0:0:0:
266,211,53289,6,0,L|279:35,1,176.000005371094,2|0,1:0|0:0,0:0:0:0:
278,35,53789,1,2,1:0:0:0:
182,0,53956,1,10,0:1:0:0:
195,97,54123,1,2,0:0:0:0:
459,10,54289,2,0,L|367:-2,1,88.000002685547,2|8,0:0|0:0,0:0:0:0:
282,200,54623,6,0,L|455:171,1,176.000005371094,0|0,1:0|1:0,0:0:0:0:
371,95,55289,1,10,0:1:0:0:
282,200,55456,1,2,0:0:0:0:
196,93,55623,1,2,0:0:0:0:
281,115,55789,1,2,0:0:0:0:
119,163,55956,6,0,P|91:91|117:17,1,160,2|0,1:2|0:0,0:0:0:0:
256,28,56456,1,2,1:0:0:0:
281,115,56623,2,0,B|362:132|356:66|457:84,1,160,10|0,0:1|0:0,0:0:0:0:
454,268,57123,1,8,0:0:0:0:
454,268,57289,2,0,B|405:275|405:275|382:213|424:166,1,160,0|0,1:0|1:0,0:0:0:0:
488,353,57956,2,0,L|400:367,1,80,8|0,0:1|0:0,0:0:0:0:
285,371,58289,1,0,0:0:0:0:
244,280,58456,1,8,0:0:0:0:
343,226,58623,6,0,P|341:243|337:256,1,23.9999992675781,0|0,1:0|0:0,0:0:0:0:
168,221,58956,6,0,P|167:194|178:163,1,47.9999985351563,0|0,1:0|0:0,0:0:0:0:
427,219,59289,6,0,P|426:256|414:293,1,71.9999978027344,2|0,1:0|0:0,0:0:0:0:
78,235,59623,6,0,P|76:187|93:134,1,95.9999970703126,2|0,1:0|0:0,0:0:0:0:
293,8,59956,6,0,L|288:40,1,32,10|0,1:0|0:0,0:0:0:0:
5,343,61289,6,0,P|48:304|107:305,1,120,4|0,1:0|0:0,0:0:0:0:
128,316,61623,2,0,P|159:293|169:255,1,80,2|0,1:0|0:0,0:0:0:0:
127,175,61956,1,10,0:1:0:0:
166,319,62123,2,0,P|187:286|184:247,1,80,2|0,0:0|0:0,0:0:0:0:
113,163,62456,1,2,1:0:0:0:
306,280,62623,6,0,L|393:263,1,80,2|0,0:0|0:0,0:0:0:0:
449,171,62956,1,2,1:0:0:0:
365,287,63123,2,0,L|286:302,1,80,2|8,0:0|0:1,0:0:0:0:
398,371,63456,1,2,0:0:0:0:
474,298,63623,1,2,0:0:0:0:
349,178,63789,1,10,0:0:0:0:
163,330,63956,5,2,1:0:0:0:
102,234,64123,1,2,0:0:0:0:
121,237,64206,1,2,0:0:0:0:
141,240,64289,1,2,1:0:0:0:
170,79,64456,5,2,0:0:0:0:
231,175,64623,1,10,0:1:0:0:
211,171,64706,1,2,0:0:0:0:
191,168,64789,1,2,0:0:0:0:
38,144,64956,1,2,0:0:0:0:
49,15,65123,1,2,1:0:0:0:
365,0,65289,5,2,0:0:0:0:
310,110,65456,1,10,0:1:0:0:
358,210,65623,1,2,1:0:0:0:
272,253,65789,2,0,P|244:232|275:229,1,80,2|8,0:0|0:1,0:0:0:0:
345,296,66123,5,2,0:0:0:0:
351,302,66289,5,2,0:0:0:0:
357,308,66456,5,10,0:0:0:0:
208,334,66623,6,0,P|171:320|132:312,1,80,6|0,1:2|0:0,0:0:0:0:
44,343,66956,1,2,1:0:0:0:
191,266,67123,2,0,P|151:272|113:285,1,80,2|8,0:0|0:1,0:0:0:0:
33,364,67456,1,2,0:0:0:0:
108,179,67623,6,0,L|122:85,1,80,2|0,0:0|1:0,0:0:0:0:
185,26,67956,1,2,0:0:0:0:
94,114,68123,2,0,L|82:193,1,80,10|0,0:1|1:0,0:0:0:0:
113,285,68456,1,2,0:0:0:0:
208,344,68623,2,0,P|248:336|291:329,1,80,10|0,0:1|0:0,0:0:0:0:
420,325,68956,1,2,0:0:0:0:
317,208,69123,1,10,0:0:0:0:
509,92,69289,6,0,L|489:206,1,103.999995239258,10|0,1:0|0:0,0:0:0:0:
227,227,69623,1,10,3:0:0:0:
225,201,69706,1,8,3:0:0:0:
229,175,69789,1,8,3:0:0:0:
413,69,69956,2,0,P|412:88|408:107,1,37.9999989852906,2|0,1:0|0:0,0:0:0:0:
53,43,70289,6,0,B|198:-22|179:151|332:84,1,287.999991210938,6|8,1:0|0:0,0:0:0:0:
324,89,70873,1,8,0:0:0:0:
330,86,70956,2,0,L|321:7,1,80,8|0,0:0|1:0,0:0:0:0:
110,137,71289,5,8,0:1:0:0:
142,282,71456,1,8,0:3:0:0:
275,217,71623,1,4,0:3:0:0:
192,177,71789,1,4,0:3:0:0:
307,362,71956,6,0,L|403:340,1,80,6|0,1:0|0:0,0:0:0:0:
441,236,72289,1,2,1:0:0:0:
334,373,72456,2,0,L|430:351,1,80,2|8,0:0|0:1,0:0:0:0:
468,247,72789,1,2,0:0:0:0:
275,217,72956,6,0,P|272:177|288:141,1,80,2|0,0:0|1:0,0:0:0:0:
372,72,73289,1,2,0:0:0:0:
269,143,73456,2,0,P|252:178|255:218,1,80,10|0,0:1|1:0,0:0:0:0:
364,325,73789,1,2,0:0:0:0:
373,199,73956,5,10,0:1:0:0:
373,199,74123,1,2,0:0:0:0:
461,141,74289,1,2,0:0:0:0:
269,144,74456,1,10,0:0:0:0:
512,15,74623,5,2,1:0:0:0:
365,111,74789,1,2,0:0:0:0:
368,91,74872,1,2,0:0:0:0:
371,71,74955,1,2,1:0:0:0:
146,54,75123,5,2,0:0:0:0:
269,144,75289,1,10,0:1:0:0:
272,124,75372,1,2,0:0:0:0:
276,105,75455,1,2,0:0:0:0:
237,13,75623,1,2,0:0:0:0:
139,149,75789,1,2,1:0:0:0:
0,16,75956,5,2,0:0:0:0:
48,129,76123,1,10,0:1:0:0:
5,216,76289,1,2,1:0:0:0:
92,245,76456,2,0,P|119:224|88:221,1,80,2|8,0:0|0:1,0:0:0:0:
30,303,76789,5,2,0:0:0:0:
24,309,76955,5,2,0:0:0:0:
18,315,77122,5,10,0:0:0:0:
252,255,77289,6,0,L|174:236,1,80,6|0,1:2|0:0,0:0:0:0:
139,149,77623,1,2,1:0:0:0:
271,239,77789,2,0,L|193:220,1,80,2|8,0:0|0:1,0:0:0:0:
158,133,78123,1,2,0:0:0:0:
288,75,78289,6,0,P|327:70|366:77,1,80,2|0,0:0|1:0,0:0:0:0:
419,152,78623,1,2,0:0:0:0:
431,61,78789,2,0,P|391:65|352:58,1,80,10|0,0:1|1:0,0:0:0:0:
268,0,79123,1,2,0:0:0:0:
236,141,79289,1,10,0:1:0:0:
259,9,79456,5,2,0:0:0:0:
139,45,79623,1,2,0:0:0:0:
250,18,79789,1,10,0:0:0:0:
31,22,79956,6,0,P|38:51|44:80,1,60,10|0,1:3|0:0,0:0:0:0:
89,131,80289,6,0,P|74:176|63:223,1,96,8|0,1:3|0:0,0:0:0:0:
63,298,80623,6,0,P|120:328|184:318,1,132.00000402832,8|0,1:3|0:0,0:0:0:0:
237,260,80956,6,0,P|295:207|365:242,1,167.999994873047,10|0,1:3|0:0,0:0:0:0:
407,303,81289,6,0,L|398:369,1,64,10|2,1:3|0:0,0:0:0:0:
444,80,93289,6,0,L|456:40,2,40,0|0|0,1:0|0:0|0:0,0:0:0:0:
377,142,93789,2,0,L|388:180,2,40,0|0|0,1:0|0:0|0:0,0:0:0:0:
357,57,94289,1,8,0:0:0:0:
133,12,94623,6,0,L|135:30,1,16,6|0,0:0|0:0,0:0:0:0:
147,110,95289,1,8,0:0:0:0:
61,309,95956,6,0,L|9:300,2,40,0|0|0,1:0|0:0|0:0,0:0:0:0:
135,359,96456,2,0,L|180:347,1,40,0|0,1:0|0:0,0:0:0:0:
242,291,96789,1,0,0:0:0:0:
242,291,96956,2,0,L|287:303,1,40,8|0,0:0|0:0,0:0:0:0:
423,384,97289,6,0,L|406:380,1,16,6|0,0:0|0:0,0:0:0:0:
326,355,97956,1,8,0:0:0:0:
488,191,98623,6,0,L|497:146,2,40,0|0|0,1:0|0:0|0:0,0:0:0:0:
420,238,99123,2,0,P|401:234|383:227,1,40,0|0,1:0|0:0,0:0:0:0:
325,156,99456,1,0,0:0:0:0:
325,156,99623,2,0,P|305:160|287:167,1,40,8|0,0:0|0:0,0:0:0:0:
170,225,99956,6,0,L|176:207,1,16,6|0,0:2|0:2,0:0:0:0:
199,119,100623,1,8,0:0:0:0:
10,42,101289,6,0,L|-1:0,2,40,0|0|0,1:0|0:0|0:0,0:0:0:0:
73,101,101789,1,0,1:0:0:0:
73,101,101956,2,0,L|117:88,1,40,0|0,0:0|0:0,0:0:0:0:
182,46,102289,1,8,0:0:0:0:
279,144,102456,1,2,0:0:0:0:
344,93,102623,5,2,0:2:0:0:
358,105,102789,1,2,0:0:0:0:
291,226,102956,5,2,0:0:0:0:
214,195,103123,1,2,0:0:0:0:
356,175,103289,5,2,0:0:0:0:
363,284,103456,1,2,0:0:0:0:
237,359,103623,5,2,0:0:0:0:
291,226,103789,1,2,0:0:0:0:
363,284,103956,6,0,L|410:273,1,48,2|8,0:2|0:0,0:0:0:0:
414,278,104539,1,8,0:0:0:0:
419,283,104623,2,0,L|433:234,2,40,8|8|0,0:0|0:3|1:0,0:0:0:0:
385,61,105289,5,0,1:0:0:0:
463,105,105789,1,8,0:0:0:0:
468,110,105873,1,8,0:0:0:0:
473,115,105956,2,0,L|483:157,2,40,8|0|0,0:0|0:0|0:0,0:0:0:0:
475,22,106456,1,0,1:0:0:0:
386,155,106623,1,8,0:0:0:0:
139,99,107956,5,0,1:0:0:0:
41,35,108456,1,8,0:0:0:0:
46,40,108540,1,8,0:0:0:0:
51,45,108623,2,0,L|41:3,2,40,8|0|0,0:0|0:0|0:0,0:0:0:0:
49,138,109123,1,0,1:0:0:0:
138,5,109290,1,8,0:0:0:0:
271,67,109623,2,0,L|274:92,3,20,2|2|2|2,0:2|0:3|0:3|0:3,0:0:0:0:
276,103,109956,1,2,0:0:0:0:
196,178,110123,6,0,L|192:215,1,32,0|0,1:0|0:0,0:0:0:0:
169,297,110623,6,0,B|225:316|225:275|295:293,1,111.999996582031,2|0,1:0|0:0,0:0:0:0:
342,352,111123,1,2,0:0:0:0:
442,285,111289,2,0,L|447:168,1,111.999996582031,10|0,0:0|0:0,0:0:0:0:
347,103,111789,5,10,0:0:0:0:
347,103,111873,1,8,0:0:0:0:
347,103,111956,1,2,1:0:0:0:
450,47,112289,1,2,1:0:0:0:
201,7,112623,1,10,0:0:0:0:
224,97,112789,1,0,0:0:0:0:
136,145,112956,1,2,0:0:0:0:
128,156,113289,6,0,P|139:186|137:214,1,60,0|0,1:0|0:0,0:0:0:0:
121,227,113623,2,0,P|110:257|112:285,1,60,0|0,1:0|0:0,0:0:0:0:
127,311,113956,6,0,L|225:293,1,96,0|0,1:0|0:0,0:0:0:0:
247,281,114289,2,0,L|341:298,1,96,0|0,1:0|0:0,0:0:0:0:
373,334,114623,6,0,P|417:287|431:214,1,132.00000402832,0|0,1:0|0:0,0:0:0:0:
391,190,114956,2,0,P|376:142|393:47,1,132.00000402832,0|0,1:0|0:0,0:0:0:0:
468,55,115289,6,0,P|396:63|307:32,1,167.999994873047,8|0,1:0|0:0,0:0:0:0:
192,0,115623,2,0,P|234:58|252:150,1,167.999994873047,8|0,1:0|0:0,0:0:0:0:
212,234,115956,1,8,1:0:0:0:
391,190,116289,5,2,0:0:0:0:
382,193,116331,1,2,0:0:0:0:
251,151,116623,1,2,0:0:0:0:
66,229,116956,1,2,0:0:0:0:
17,127,117123,6,0,L|1:102,2,26.6666666666667,0|0|4,1:0|1:0|0:3,0:0:0:0:
34,149,117289,6,0,L|116:127,1,80,10|0,0:3|0:0,0:0:0:0:
311,74,117623,2,0,L|288:70,1,20,0|0,1:0|0:0,0:0:0:0:
143,0,117956,5,10,0:1:0:0:
111,128,118123,1,10,0:3:0:0:
325,166,118289,1,6,0:3:0:0:
341,253,118456,1,6,0:3:0:0:
194,358,118623,6,0,L|214:160,1,176.000005371094,6|0,1:0|0:0,0:0:0:0:
211,182,119123,1,2,1:0:0:0:
85,275,119290,2,0,L|75:365,1,88.000002685547,10|2,0:1|0:0,0:0:0:0:
334,316,119623,2,0,L|343:216,1,88.000002685547,2|8,0:0|0:0,0:0:0:0:
75,146,119956,6,0,B|114:165|163:136|140:119|193:87|236:105,1,176.000005371094,0|0,1:0|1:0,0:0:0:0:
450,276,120623,1,10,0:1:0:0:
501,167,120790,1,2,0:0:0:0:
235,104,120956,1,2,0:0:0:0:
174,217,121123,1,2,0:0:0:0:
170,326,121290,6,0,L|362:301,1,176.000005371094,2|0,1:0|0:0,0:0:0:0:
344,303,121790,1,2,1:0:0:0:
485,374,121956,2,0,L|397:384,1,88.000002685547,10|2,0:1|0:0,0:0:0:0:
306,211,122290,2,0,L|393:198,1,88.000002685547,2|8,0:0|0:0,0:0:0:0:
508,90,122623,6,0,P|430:90|428:6,1,176.000005371094,0|0,1:0|1:0,0:0:0:0:
512,225,123290,1,10,0:1:0:0:
393,198,123456,1,2,0:0:0:0:
315,70,123623,1,2,0:0:0:0:
199,158,123789,5,10,0:0:0:0:
194,163,123873,1,8,0:0:0:0:
188,168,123956,2,0,L|86:157,1,88.000002685547,6|0,1:2|0:0,0:0:0:0:
292,248,124290,1,2,0:0:0:0:
170,250,124456,2,0,L|301:263,1,132.00000402832,2|0,1:0|0:0,0:0:0:0:
311,279,124790,1,2,0:0:0:0:
291,375,124956,1,2,0:0:0:0:
183,350,125123,1,2,0:0:0:0:
403,253,125289,6,0,B|409:297|409:297|389:337,1,88.000002685547,2|0,1:0|0:0,0:0:0:0:
509,257,125623,1,2,1:0:0:0:
475,372,125790,2,0,B|504:312|504:312|494:247,1,132.00000402832,2|0,0:0|0:0,0:0:0:0:
480,238,126123,1,2,0:0:0:0:
448,143,126289,6,0,L|456:68,2,58.6666684570313,10|4|4,0:3|0:3|0:3,0:0:0:0:
394,196,126623,6,0,P|338:165|363:98,1,132.00000402832,10|0,1:0|0:0,0:0:0:0:
365,97,126956,6,0,L|329:89,1,22.0000006713867,2|0,1:0|0:0,0:0:0:0:
102,69,127623,6,0,B|126:5|54:-29|-35:-4|-32:125|51:149|97:220,1,335.999989746094,6|0,1:0|1:0,0:0:0:0:
148,320,128290,2,0,P|112:336|52:333,1,88.000002685547,8|0,0:1|0:0,0:0:0:0:
202,212,128623,5,10,0:1:0:0:
297,256,128790,1,10,0:3:0:0:
472,158,128956,1,6,0:3:0:0:
376,101,129123,1,6,0:3:0:0:
339,182,129290,6,0,L|317:358,1,176.000005371094,6|0,1:0|0:0,0:0:0:0:
317,356,129790,1,2,1:0:0:0:
418,371,129956,2,0,L|431:279,1,88.000002685547,10|2,0:1|0:0,0:0:0:0:
232,247,130289,2,0,L|216:338,1,88.000002685547,2|8,0:0|0:0,0:0:0:0:
458,128,130623,6,0,P|414:67|321:77,1,176.000005371094,0|0,1:0|1:0,0:0:0:0:
337,298,131290,1,10,0:1:0:0:
273,241,131456,1,2,0:0:0:0:
231,97,131623,1,2,0:0:0:0:
294,161,131789,1,10,0:0:0:0:
187,275,131956,6,0,B|154:295|98:265|134:232|76:200|35:228,1,176.000005371094,2|0,1:0|0:0,0:0:0:0:
36,227,132456,1,2,1:0:0:0:
1,372,132623,2,0,P|42:359|86:351,1,88.000002685547,10|2,0:1|0:0,0:0:0:0:
204,182,132956,2,0,P|158:174|111:158,1,88.000002685547,2|8,0:0|0:0,0:0:0:0:
0,0,133290,6,0,P|73:-3|75:84,1,176.000005371094,0|0,1:0|1:0,0:0:0:0:
157,251,133956,1,10,0:1:0:0:
119,161,134123,1,2,0:0:0:0:
281,95,134290,1,2,0:0:0:0:
294,6,134456,1,10,0:0:0:0:
266,186,134623,6,0,B|333:207|346:138|418:155,1,160,6|0,1:2|0:0,0:0:0:0:
460,330,135123,1,2,1:0:0:0:
460,330,135289,2,0,B|413:339|413:339|369:304|397:236,1,160,10|0,0:1|0:0,0:0:0:0:
511,92,135789,1,8,0:0:0:0:
511,92,135956,2,0,P|432:80|351:65,1,160,0|0,1:0|1:0,0:0:0:0:
108,19,136623,6,0,L|119:103,1,80,8|0,0:1|0:0,0:0:0:0:
167,194,136956,1,0,0:0:0:0:
62,270,137123,1,8,0:0:0:0:
57,275,137206,1,8,0:0:0:0:
52,280,137289,1,4,1:0:0:0:
38,295,137623,5,8,0:1:0:0:
162,347,137789,2,0,L|246:333,1,80,8|0,0:3|0:0,0:0:0:0:
326,279,138123,1,0,1:0:0:0:
229,157,138289,2,0,P|203:187|188:224,1,80,14|0,0:1|0:0,0:0:0:0:
340,372,138623,5,10,0:3:0:0:
414,218,138789,1,4,0:3:0:0:
419,238,139123,5,4,0:3:0:0:
306,79,139289,1,10,0:1:0:0:
406,105,139456,1,8,0:3:0:0:
229,157,139623,1,6,0:3:0:0:
112,55,139789,5,4,0:3:0:0:
107,50,139873,1,4,0:3:0:0:
102,45,139956,1,6,1:0:0:0:
13,54,140123,1,2,0:0:0:0:
0,137,140289,1,2,1:0:0:0:
96,229,140456,6,0,B|127:210|167:211|167:211|184:234|212:244|212:244|233:236|273:233,1,176.000005371094,2|0,0:0|0:0,0:0:0:0:
428,253,140956,1,2,0:0:0:0:
363,326,141123,2,0,B|336:241|336:241|381:154,1,176.000005371094,2|8,1:0|0:1,0:0:0:0:
444,77,141623,1,2,1:0:0:0:
488,169,141789,1,2,0:0:0:0:
257,96,141956,6,0,L|357:84,1,88.000002685547,10|0,0:1|0:0,0:0:0:0:
237,87,142289,1,2,0:0:0:0:
254,232,142456,2,0,L|154:220,1,88.000002685547,10|0,0:0|1:0,0:0:0:0:
21,255,142789,1,2,0:0:0:0:
182,351,142956,1,2,1:0:0:0:
154,322,143039,1,2,0:0:0:0:
114,323,143122,1,2,0:0:0:0:
254,232,143289,5,10,0:1:0:0:
166,129,143456,1,2,0:0:0:0:
246,60,143623,1,2,0:0:0:0:
187,0,143789,1,2,1:0:0:0:
28,25,143956,6,0,B|66:46|66:46|140:31,1,88.000002685547,2|8,0:0|0:1,0:0:0:0:
309,1,144289,1,2,1:0:0:0:
385,55,144456,1,2,0:0:0:0:
473,26,144623,2,0,P|403:65|437:138,1,176.000005371094,10|0,0:1|0:0,0:0:0:0:
445,280,145123,2,0,P|436:254|425:232,1,44.0000013427735,8|0,0:0|0:0,0:0:0:0:
347,221,145289,6,0,P|404:225|452:214,1,88.000002685547,6|2,1:2|0:0,0:0:0:0:
257,155,145623,2,0,P|239:211|248:265,1,88.000002685547,2|0,1:0|0:0,0:0:0:0:
378,355,145956,2,0,B|357:326|326:317|326:317|295:318|259:344,1,132.00000402832,10|0,0:1|0:0,0:0:0:0:
258,358,146289,1,2,0:0:0:0:
49,269,146456,2,0,B|76:246|109:245|109:245|137:255|166:289,1,132.00000402832,2|0,1:0|0:0,0:0:0:0:
164,302,146789,1,10,0:1:0:0:
390,164,146956,2,0,B|359:185|328:187|328:187|297:178|276:149,1,132.00000402832,2|0,1:0|0:0,0:0:0:0:
264,133,147289,5,10,0:1:0:0:
354,85,147456,1,2,0:0:0:0:
444,37,147623,1,2,0:0:0:0:
249,121,147789,1,10,0:0:0:0:
126,34,147956,6,0,B|168:27|168:27|206:39|206:39|254:30,1,132.00000402832,6|0,1:2|0:0,0:0:0:0:
268,22,148289,1,8,0:1:0:0:
331,165,148456,1,8,0:3:0:0:
247,237,148623,1,4,0:3:0:0:
171,199,148789,1,4,0:3:0:0:
412,202,148956,6,0,P|425:289|436:376,1,176.000005371094,4|2,1:0|0:0,0:0:0:0:
321,283,149456,1,8,0:1:0:0:
494,142,149623,2,0,L|510:58,1,83.9999974365235,2|0,1:0|0:0,0:0:0:0:
498,40,149956,5,10,0:1:0:0:
279,165,150123,1,10,0:1:0:0:
435,362,150289,1,10,0:1:0:0:
512,226,150456,1,8,0:1:0:0:
177,205,150623,5,6,1:0:0:0:
205,288,150789,1,2,0:0:0:0:
147,353,150956,1,2,1:0:0:0:
119,270,151123,1,2,0:0:0:0:
362,174,151289,5,10,0:1:0:0:
266,213,151456,1,2,0:0:0:0:
150,41,151623,1,2,0:0:0:0:
213,82,151789,1,2,1:0:0:0:
94,182,151956,6,0,L|6:163,1,88.000002685547,2|8,0:0|0:1,0:0:0:0:
104,171,152289,1,2,1:0:0:0:
0,174,152456,2,0,L|86:192,1,88.000002685547,2|8,0:0|0:1,0:0:0:0:
200,240,152789,1,2,0:0:0:0:
288,173,152956,1,0,0:0:0:0:
395,240,153123,2,0,L|481:221,1,88.000002685547,10|0,0:0|1:0,0:0:0:0:
414,87,153456,5,2,0:0:0:0:
398,102,153539,1,2,0:0:0:0:
386,121,153622,1,2,1:0:0:0:
244,294,153789,5,2,0:0:0:0:
225,264,153872,1,2,0:0:0:0:
200,240,153956,2,0,L|95:259,1,88.000002685547,10|0,0:1|0:0,0:0:0:0:
106,278,154206,2,0,L|1:297,1,88.000002685547,2|0,0:0|0:0,0:0:0:0:
0,315,154456,2,0,L|46:306,1,44.0000013427735,2|0,1:0|0:0,0:0:0:0:
187,363,154623,6,0,B|218:396|271:381|271:381|305:341|379:346,1,176.000005371094,2|0,0:0|1:0,0:0:0:0:
373,372,155039,1,2,0:0:0:0:
373,372,155123,1,2,0:0:0:0:
373,372,155206,1,2,0:0:0:0:
373,372,155289,2,0,L|425:362,1,44.0000013427735,10|0,0:1|0:0,0:0:0:0:
478,264,155456,2,0,L|434:272,1,44.0000013427735,2|0,0:0|0:0,0:0:0:0:
292,225,155623,2,0,B|329:216|356:231|356:231|369:200|405:184,1,132.00000402832,2|0,0:0|0:0,0:0:0:0:
406,174,155956,6,0,L|414:126,1,44.0000013427735,2|2,1:0|0:0,0:0:0:0:
512,38,156123,2,0,B|426:59|426:59|335:7,1,176.000005371094,2|0,0:0|0:0,0:0:0:0:
177,98,156623,5,10,0:1:0:0:
184,99,156706,1,2,0:0:0:0:
194,99,156789,1,2,0:0:0:0:
206,96,156873,1,2,0:0:0:0:
218,88,156956,1,2,0:0:0:0:
225,72,157039,1,2,0:0:0:0:
227,53,157123,1,2,0:0:0:0:
215,34,157206,1,2,0:0:0:0:
178,32,157290,5,2,1:0:0:0:
172,57,157372,1,2,0:0:0:0:
177,85,157455,1,2,0:0:0:0:
195,112,157539,1,2,0:0:0:0:
223,132,157622,1,2,1:0:0:0:
249,160,157705,1,2,0:0:0:0:
254,201,157789,1,10,0:3:0:0:
236,242,157872,1,2,0:0:0:0:
180,262,157955,5,10,0:1:0:0:
198,216,158039,1,2,0:0:0:0:
243,193,158122,1,10,0:3:0:0:
295,204,158206,1,2,0:0:0:0:
323,250,158289,1,6,0:3:0:0:
348,301,158372,1,2,0:0:0:0:
407,317,158456,1,6,0:3:0:0:
458,275,158539,1,2,0:0:0:0:
444,197,158623,6,0,B|373:148|318:228|318:228|272:348|114:260|237:127|318:228|318:228|339:253|357:277,1,512,6|0,1:0|0:0,0:0:0:0:
256,192,160123,12,2,161567,0:0:0:0:
67,167,166622,6,0,L|50:169,1,10.6666666666667,2|0,0:0|0:0,0:0:0:0:
0,0,167290,2,0,L|11:2,1,10.6666666666667,2|0,0:0|0:0,0:0:0:0:
74,77,167956,2,0,L|60:80,1,10.6666666666667,2|0,0:0|0:0,0:0:0:0:
257,173,169290,6,0,L|271:175,1,10.6666666666667,2|0,0:0|0:0,0:0:0:0:
324,6,169956,2,0,L|311:8,1,10.6666666666667,2|0,0:0|0:0,0:0:0:0:
250,83,170623,2,0,L|265:85,1,10.6666666666667,2|0,0:0|0:0,0:0:0:0:
375,95,171178,6,2,L|356:98,2,10.6666666666667
374,191,171789,5,8,0:0:0:0:
379,196,171873,1,8,0:0:0:0:
384,201,171956,1,0,1:0:0:0:
89,14,174456,5,8,0:0:0:0:
89,14,174539,1,8,0:0:0:0:
89,14,174623,2,0,P|80:41|69:102,1,83.9999974365235,0|0,1:0|0:0,0:0:0:0:
55,113,174956,2,0,P|66:163|74:220,1,83.9999974365235,0|0,1:0|0:0,0:0:0:0:
55,226,175290,6,0,P|110:247|185:230,1,107.999996704102,0|0,1:0|0:0,0:0:0:0:
177,219,175623,2,0,P|231:193|308:211,1,107.999996704102,0|0,1:0|0:0,0:0:0:0:
311,228,175956,6,0,L|290:86,1,132.00000402832,0|0,1:0|0:0,0:0:0:0:
257,69,176290,2,0,P|312:32|377:22,1,132.00000402832,0|0,1:0|0:0,0:0:0:0:
462,24,176623,6,0,L|432:180,1,155.999992858887,8|0,1:0|0:0,0:0:0:0:
356,208,176956,2,0,L|386:364,1,155.999992858887,8|0,1:0|0:0,0:0:0:0:
466,384,177297,1,8,1:0:0:0:
275,318,177616,5,2,0:0:0:0:
273,329,177674,1,2,0:0:0:0:
160,376,177963,1,2,0:0:0:0:
126,275,178297,5,2,0:0:0:0:
8,368,178609,5,2,0:0:0:0:
17,360,178664,1,2,0:0:0:0:
29,267,178942,1,2,0:0:0:0:
85,191,179275,1,2,0:0:0:0:
224,249,179609,5,2,0:0:0:0:
229,258,179665,1,2,0:0:0:0:
356,94,179949,5,2,0:0:0:0:
275,131,180290,1,2,0:0:0:0:
214,2,180631,5,2,0:0:0:0:
438,17,180915,5,2,0:0:0:0:
442,27,180972,1,2,0:0:0:0:
387,112,181284,1,2,0:0:0:0:
295,97,181632,1,2,0:0:0:0:
215,126,181958,1,2,0:0:0:0:
151,89,182291,1,2,0:0:0:0:
58,153,182630,6,0,L|132:168,1,64,2|0,0:0|0:0,0:0:0:0:
223,229,183296,2,0,P|235:204|238:157,1,64,2|0,0:0|0:0,0:0:0:0:
181,77,183796,1,0,0:0:0:0:
181,77,183963,2,0,L|118:64,2,64,2|0|2,0:0|0:0|0:0,0:0:0:0:
335,82,184963,1,0,0:0:0:0:
399,46,185130,1,0,0:0:0:0:
461,101,185296,6,0,L|448:165,1,64,2|0,0:0|0:0,0:0:0:0:
512,277,185963,2,0,P|484:264|444:261,1,64,2|0,0:0|0:0,0:0:0:0:
368,308,186463,1,0,0:0:0:0:
368,308,186630,2,0,L|381:372,2,64,2|0|2,0:0|0:0|0:0,0:0:0:0:
272,209,187630,1,0,0:0:0:0:
208,255,187796,1,0,0:0:0:0:
144,301,187963,6,0,L|78:288,1,64,2|0,0:0|0:0,0:0:0:0:
0,384,188630,2,0,P|29:377|75:376,1,64,2|0,0:0|0:0,0:0:0:0:
190,384,189130,1,0,0:0:0:0:
190,384,189296,2,0,L|256:371,2,64,2|0|2,0:0|0:0|0:0,0:0:0:0:
47,255,190296,1,0,0:0:0:0:
12,188,190463,1,0,0:0:0:0:
89,94,190630,5,2,0:0:0:0:
98,106,190963,2,0,L|143:100,1,32,2|0,0:0|0:0,0:0:0:0:
129,101,191630,6,0,B|173:215|37:210|120:316|120:316|112:259|162:223,1,335.999989746094,4|0,1:2|1:0,0:0:0:0:
301,329,192296,2,0,P|251:327|204:289,1,95.9999970703126,10|0,0:1|0:0,0:0:0:0:
249,128,192630,5,10,0:3:0:0:
310,94,192741,5,8,0:3:0:0:
366,103,192852,5,8,0:3:0:0:
401,129,192963,5,6,0:3:0:0:
438,122,193074,5,4,0:3:0:0:
462,101,193185,5,4,0:3:0:0:
455,82,193296,6,0,B|391:60|376:122|362:110|344:160|282:130,1,191.999994140625,6|0,1:0|0:0,0:0:0:0:
166,0,193796,1,2,1:0:0:0:
106,101,193963,2,0,P|151:91|201:82,1,95.9999970703126,10|0,0:1|0:0,0:0:0:0:
266,227,194296,2,0,P|218:219|171:208,1,95.9999970703126,2|8,0:0|0:0,0:0:0:0:
0,11,194630,6,0,P|10:91|18:214,1,191.999994140625,0|0,1:0|1:0,0:0:0:0:
138,384,195296,1,10,0:1:0:0:
222,302,195463,2,0,P|175:296|127:289,1,95.9999970703126,2|0,0:0|0:0,0:0:0:0:
0,374,195796,1,10,0:0:0:0:
190,214,195963,6,0,L|203:113,2,95.9999970703126,2|0|0,1:0|0:0|0:0,0:0:0:0:
222,302,196463,1,2,1:0:0:0:
329,371,196630,1,10,0:1:0:0:
424,284,196796,2,0,L|327:263,1,95.9999970703126,2|0,0:0|0:0,0:0:0:0:
213,315,197130,1,10,0:0:0:0:
438,384,197296,6,0,P|453:289|465:194,1,191.999994140625,0|0,1:0|1:0,0:0:0:0:
398,11,197963,1,10,0:1:0:0:
493,15,198130,1,2,0:0:0:0:
393,165,198296,1,2,0:0:0:0:
348,86,198463,1,10,0:0:0:0:
297,163,198630,6,0,B|194:193|216:95|102:128,1,191.999994140625,2|0,1:0|0:0,0:0:0:0:
33,186,199130,1,2,1:0:0:0:
33,186,199296,2,0,P|99:130|43:64,1,191.999994140625,10|0,0:1|0:0,0:0:0:0:
12,287,199796,1,8,0:0:0:0:
12,287,199963,2,0,B|52:300|104:281|104:281|134:321|112:383,1,191.999994140625,0|0,1:0|1:0,0:0:0:0:
395,372,200630,2,0,P|388:325|404:281,1,95.9999970703126,8|0,0:1|0:0,0:0:0:0:
498,290,200963,2,0,P|451:294|405:281,1,95.9999970703126,0|8,0:0|0:0,0:0:0:0:
339,77,201296,6,0,L|346:124,1,40,0|0,1:0|0:0,0:0:0:0:
166,121,201630,6,0,L|175:55,1,64,0|0,1:0|0:0,0:0:0:0:
432,43,201963,6,0,L|445:130,1,88.000002685547,2|0,1:0|0:0,0:0:0:0:
65,134,202296,6,0,L|81:21,1,111.999996582031,2|0,1:0|0:0,0:0:0:0:
256,352,202630,6,0,L|256:384,1,32,10|0,1:0|0:0,0:0:0:0:
494,96,203963,6,0,P|451:57|392:59,1,120,4|0,1:0|0:0,0:0:0:0:
372,80,204296,2,0,L|387:158,1,80,2|0,1:0|0:0,0:0:0:0:
410,259,204630,1,10,0:1:0:0:
360,100,204796,2,0,L|375:178,1,80,2|0,0:0|0:0,0:0:0:0:
398,279,205129,1,2,1:0:0:0:
133,207,205296,6,0,P|164:189|220:190,1,80,2|8,0:0|0:1,0:0:0:0:
291,237,205630,1,2,1:0:0:0:
200,167,205796,2,0,P|160:168|125:187,1,80,2|8,0:0|0:1,0:0:0:0:
115,297,206130,1,2,0:0:0:0:
26,157,206295,1,2,0:0:0:0:
101,101,206463,1,10,0:0:0:0:
0,0,206630,5,2,1:0:0:0:
179,46,206795,1,2,0:0:0:0:
198,49,206880,1,2,0:0:0:0:
218,52,206963,1,2,1:0:0:0:
240,174,207130,1,2,0:0:0:0:
220,170,207213,1,2,0:0:0:0:
200,167,207296,1,10,0:1:0:0:
107,190,207463,5,2,0:0:0:0:
61,282,207630,1,2,0:0:0:0:
131,355,207796,1,2,1:0:0:0:
327,299,207963,2,0,L|153:264,1,160,2|2,1:0|1:0,0:0:0:0:
486,140,208630,5,10,0:1:0:0:
402,159,208796,1,2,0:0:0:0:
275,61,208963,1,2,0:0:0:0:
342,1,209130,1,10,0:0:0:0:
364,86,209296,6,0,P|368:154|373:255,1,160,6|0,1:2|1:0,0:0:0:0:
389,350,209796,1,2,0:0:0:0:
389,350,209963,2,0,B|316:370|314:296|228:317,1,160,10|0,0:1|0:0,0:0:0:0:
130,360,210463,1,8,0:2:0:0:
143,266,210630,6,0,L|152:357,1,80,0|8,1:0|0:1,0:0:0:0:
32,284,210963,2,0,L|24:204,1,80,0|0,1:0|0:0,0:0:0:0:
191,154,211296,2,0,P|116:155|86:86,1,160,8|0,0:1|0:0,0:0:0:0:
190,22,211796,1,8,0:0:0:0:
305,103,211963,6,0,L|283:234,1,120,0|0,1:0|0:0,0:0:0:0:
279,244,212296,1,10,0:3:0:0:
163,227,212463,1,10,0:3:0:0:
408,99,212630,2,0,L|438:89,1,20,6|0,0:3|0:0,0:0:0:0:
504,273,212963,6,0,B|439:222|364:287|394:316|327:370|250:317,1,287.999991210938,4|8,1:0|0:1,0:0:0:0:
297,169,213630,2,0,L|306:248,1,80,0|0,1:0|0:0,0:0:0:0:
148,342,213963,5,8,0:1:0:0:
60,309,214130,1,8,0:3:0:0:
133,128,214295,1,4,0:3:0:0:
135,209,214463,1,4,0:3:0:0:
15,85,214630,6,0,L|136:109,1,120,6|0,1:0|0:0,0:0:0:0:
151,117,214963,2,0,L|247:95,1,80,2|0,1:0|0:0,0:0:0:0:
332,21,215296,1,10,0:1:0:0:
171,126,215463,2,0,L|267:104,1,80,2|0,0:0|0:0,0:0:0:0:
359,32,215796,1,2,1:0:0:0:
441,175,215963,6,0,P|404:158|365:161,1,80,2|8,0:0|0:1,0:0:0:0:
271,216,216296,1,2,1:0:0:0:
373,144,216463,2,0,P|411:139|448:156,1,80,2|8,0:0|0:1,0:0:0:0:
512,272,216796,1,2,0:0:0:0:
449,376,216963,1,2,0:0:0:0:
417,282,217130,1,10,0:0:0:0:
210,356,217296,5,2,1:0:0:0:
338,328,217463,1,2,0:0:0:0:
318,325,217546,1,2,0:0:0:0:
298,322,217629,1,2,1:0:0:0:
143,244,217796,5,2,0:0:0:0:
271,216,217963,1,10,0:1:0:0:
251,213,218046,1,2,0:0:0:0:
231,210,218129,1,2,0:0:0:0:
169,130,218295,1,2,0:0:0:0:
226,43,218463,1,2,1:0:0:0:
404,99,218630,5,2,0:0:0:0:
359,231,218795,1,10,0:1:0:0:
433,301,218963,1,2,1:0:0:0:
407,378,219130,1,2,0:0:0:0:
460,205,219296,5,10,0:1:0:0:
468,207,219463,5,2,0:0:0:0:
476,209,219629,5,2,0:0:0:0:
484,211,219796,5,2,0:0:0:0:
298,301,219963,6,0,P|253:294|220:282,1,80,6|0,1:2|0:0,0:0:0:0:
149,189,220295,1,2,1:0:0:0:
252,326,220463,2,0,P|216:298|193:270,1,80,2|8,0:0|0:1,0:0:0:0:
159,158,220795,1,2,0:0:0:0:
295,179,220963,6,0,L|383:157,1,80,2|0,0:0|1:0,0:0:0:0:
463,83,221295,1,2,0:0:0:0:
393,171,221463,2,0,L|315:190,1,80,10|0,0:1|1:0,0:0:0:0:
209,54,221796,5,2,0:0:0:0:
207,46,221963,5,10,0:1:0:0:
205,38,222129,5,2,0:0:0:0:
294,67,222296,1,2,0:0:0:0:
161,142,222463,1,10,0:0:0:0:
0,68,222630,6,0,P|29:64|62:59,1,60,2|0,1:0|0:0,0:0:0:0:
107,48,222963,6,0,P|92:93|81:140,1,96,0|0,1:0|0:0,0:0:0:0:
91,213,223296,6,0,P|156:221|231:243,1,132.00000402832,0|0,1:0|0:0,0:0:0:0:
279,312,223630,6,0,P|221:259|151:294,1,167.999994873047,2|0,1:0|0:0,0:0:0:0:
167,375,223963,6,0,L|230:366,1,64,10|0,1:0|0:0,0:0:0:0:
256,192,225463,12,0,226630,0:0:0:0:
457,201,227963,5,2,0:0:0:0:
488,278,228295,1,2,0:0:0:0:
397,355,228630,1,2,0:0:0:0:
89,161,229295,5,2,0:0:0:0:
128,93,229630,1,2,0:0:0:0:
17,37,229963,1,2,0:0:0:0:
380,222,230630,5,2,0:0:0:0:
297,189,230963,1,2,0:0:0:0:
200,242,231295,1,2,0:0:0:0:
353,0,231963,5,2,0:0:0:0:
414,62,232295,1,2,0:0:0:0:
509,46,232630,1,2,0:0:0:0:
390,368,233295,5,2,0:0:0:0:
466,323,233630,1,2,0:0:0:0:
341,290,233963,1,2,0:0:0:0:
115,371,234630,5,2,0:0:0:0:
17,312,234963,1,2,0:0:0:0:
177,270,235296,1,2,0:0:0:0:
162,63,235963,5,2,0:0:0:0:
240,127,236295,1,2,0:0:0:0:
92,161,236630,5,2,0:0:0:0:
259,121,236963,1,2,0:0:0:0:
299,252,237296,6,0,L|237:239,1,64,2|0,0:0|0:0,0:0:0:0:
