osu file format v14

[General]
AudioFilename: audio.mp3
AudioLeadIn: 0
PreviewTime: 61085
Countdown: 0
SampleSet: Soft
StackLeniency: 0.3
Mode: 0
LetterboxInBreaks: 0
WidescreenStoryboard: 1

[Editor]
Bookmarks: 107517
DistanceSpacing: 1.2
BeatDivisor: 4
GridSize: 4
TimelineZoom: 2.199999

[Metadata]
Title:Hachigatsu, Bou, Tsukiakari
TitleUnicode:八月、某、月明かり
Artist:Yorushika
ArtistUnicode:ヨルシカ
Creator:Rieri
Version:Extra
Source:
Tags:that's why i gave up on music n-buna nabuna suis ナブナ エルマ japanese pop j-pop elma
BeatmapID:2351858
BeatmapSetID:1124086

[Difficulty]
HPDrainRate:5
CircleSize:4
OverallDifficulty:8.7
ApproachRate:9.3
SliderMultiplier:1.6
SliderTickRate:1

[Events]
//Background and Video events
0,0,"ysbg5.jpg",0,0
//Break Periods
2,181891,198592
2,203710,209501
//Storyboard Layer 0 (Background)
//Storyboard Layer 1 (Fail)
//Storyboard Layer 2 (Pass)
//Storyboard Layer 3 (Foreground)
//Storyboard Layer 4 (Overlay)
//Storyboard Sound Samples

[TimingPoints]
-490,272.727272727273,4,2,1,30,1,0
55,-100,4,2,9,30,0,0
532,-100,4,2,10,30,0,0
600,-142.857142857143,4,2,10,30,0,0
2782,-100,4,2,1,50,0,0
20237,-125,4,2,1,50,0,0
21055,-166.666666666667,4,2,1,40,0,0
22419,-200,4,2,9,30,0,0
24055,-333.333333333333,4,2,10,20,0,0
24600,-125,4,2,9,40,0,0
32782,-125,4,2,10,40,0,0
33328,-125,4,2,9,40,0,0
41510,-125,4,2,1,40,0,0
42055,-100,4,2,1,50,0,0
57328,-200,4,2,1,50,0,0
58555,-142.857142857143,4,2,1,50,0,0
59100,-100,4,2,10,50,0,0
59373,-100,4,2,1,50,0,0
60328,-71.4285714285714,4,2,1,50,0,0
61691,-83.3333333333333,4,2,1,70,0,1
69464,-66.6666666666667,4,2,1,70,0,1
69737,-100,4,2,1,70,0,1
69873,-83.3333333333333,4,2,1,70,0,0
70419,-83.3333333333333,4,2,1,70,0,1
79146,-90.9090909090909,4,2,1,70,0,1
88964,-100,4,2,1,50,0,0
107510,-125,4,2,1,50,0,0
108328,-166.666666666667,4,2,1,40,0,0
108873,-250,4,2,1,30,0,0
109691,-200,4,2,9,30,0,0
111328,-333.333333333333,4,2,9,20,0,0
111873,-125,4,2,9,40,0,0
119646,-125,4,2,10,40,0,0
120600,-125,4,2,9,40,0,0
128782,-125,4,2,10,40,0,0
129328,-100,4,2,1,50,0,0
144600,-200,4,2,1,50,0,0
145555,-142.857142857143,4,2,1,50,0,0
146646,-100,4,2,1,50,0,0
147737,-71.4285714285714,4,2,1,50,0,0
148964,-83.3333333333333,4,2,1,70,0,1
156737,-66.6666666666667,4,2,1,70,0,1
157146,-83.3333333333333,4,2,1,70,0,0
157691,-83.3333333333333,4,2,1,70,0,1
166419,-90.9090909090909,4,2,1,70,0,1
181146,-90.9090909090909,4,2,10,70,0,1
181419,-200,4,2,10,70,0,1
181623,-200,4,2,1,5,0,1
181691,-200,4,2,1,50,0,0
200714,-200,4,2,1,20,0,0
200782,-333.333333333333,4,2,1,30,0,0
201328,-76.9230769230769,4,2,1,60,0,0
202964,-100,4,2,10,60,0,0
203510,-100,4,2,1,60,0,0
210055,-66.6666666666667,4,2,1,70,0,1
212237,-166.666666666667,4,2,1,40,0,0
219328,-100,4,2,1,50,0,0
220964,-83.3333333333333,4,2,1,70,0,1
228737,-66.6666666666667,4,2,1,70,0,1
229146,-83.3333333333333,4,2,1,70,0,0
229691,-83.3333333333333,4,2,1,70,0,1
238419,-90.9090909090909,4,2,1,70,0,1
247146,-100,4,2,1,70,0,0
255873,-76.9230769230769,4,2,96,80,0,1
256010,-76.9230769230769,4,2,1,80,0,1
256419,-76.9230769230769,4,2,96,80,0,1
256555,-76.9230769230769,4,2,1,80,0,1
256964,-76.9230769230769,4,2,97,80,0,1
257100,-76.9230769230769,4,2,1,80,0,1
257510,-76.9230769230769,4,2,97,80,0,1
257646,-76.9230769230769,4,2,1,80,0,1
258055,-76.9230769230769,4,2,97,80,0,1
258191,-76.9230769230769,4,2,1,80,0,1
258600,-76.9230769230769,4,2,97,80,0,1
258737,-76.9230769230769,4,2,1,80,0,1
259146,-76.9230769230769,4,2,96,80,0,1
259282,-76.9230769230769,4,2,1,80,0,1
259691,-76.9230769230769,4,2,97,80,0,1
259828,-76.9230769230769,4,2,98,80,0,1
259964,-76.9230769230769,4,2,1,80,0,1
260237,-76.9230769230769,4,2,96,80,0,1
260373,-76.9230769230769,4,2,1,80,0,1
260782,-76.9230769230769,4,2,99,80,0,1
260919,-76.9230769230769,4,2,1,80,0,1
261328,-76.9230769230769,4,2,97,80,0,1
261464,-76.9230769230769,4,2,1,80,0,1
261873,-76.9230769230769,4,2,97,80,0,1
262010,-76.9230769230769,4,2,1,80,0,1
262419,-76.9230769230769,4,2,96,80,0,1
262555,-76.9230769230769,4,2,1,80,0,1
262691,-76.9230769230769,4,2,94,80,0,1
262828,-76.9230769230769,4,2,1,80,0,1
262964,-76.9230769230769,4,2,96,80,0,1
263100,-76.9230769230769,4,2,97,80,0,1
263237,-76.9230769230769,4,2,98,80,0,1
263373,-76.9230769230769,4,2,1,80,0,1
263510,-76.9230769230769,4,2,96,80,0,1
263646,-76.9230769230769,4,2,1,80,0,1
263782,-76.9230769230769,4,2,94,80,0,1
263919,-76.9230769230769,4,2,1,80,0,1
264055,-76.9230769230769,4,2,96,80,0,1
264191,-76.9230769230769,4,2,1,80,0,1
264328,-76.9230769230769,4,2,1,80,0,0
264600,-76.9230769230769,4,2,99,80,0,1
264737,-76.9230769230769,4,2,1,80,0,1
264873,-76.9230769230769,4,2,96,80,0,1
265010,-76.9230769230769,4,2,1,80,0,1
265146,-76.9230769230769,4,2,97,80,0,1
265282,-76.9230769230769,4,2,1,80,0,1
265419,-76.9230769230769,4,2,96,80,0,1
265555,-76.9230769230769,4,2,1,80,0,1
265691,-76.9230769230769,4,2,93,80,0,1
265828,-76.9230769230769,4,2,1,80,0,1
265964,-76.9230769230769,4,2,98,80,0,1
266100,-76.9230769230769,4,2,1,80,0,1
266237,-76.9230769230769,4,2,97,80,0,1
266373,-76.9230769230769,4,2,1,80,0,1
266510,-76.9230769230769,4,2,96,80,0,1
266646,-76.9230769230769,4,2,1,80,0,1
266782,-76.9230769230769,4,2,95,80,0,1
266919,-76.9230769230769,4,2,1,80,0,1
267055,-76.9230769230769,4,2,96,80,0,1
267191,-76.9230769230769,4,2,1,80,0,1
267328,-76.9230769230769,4,2,97,80,0,1
267464,-76.9230769230769,4,2,1,80,0,1
267600,-76.9230769230769,4,2,95,80,0,1
267737,-76.9230769230769,4,2,1,80,0,1
267873,-76.9230769230769,4,2,96,80,0,1
268010,-76.9230769230769,4,2,1,80,0,1
268146,-76.9230769230769,4,2,96,80,0,1
268282,-76.9230769230769,4,2,97,80,0,1
268419,-76.9230769230769,4,2,98,80,0,1
268555,-76.9230769230769,4,2,97,80,0,1
268691,-76.9230769230769,4,2,96,80,0,1
268828,-76.9230769230769,4,2,1,80,0,1
268964,-76.9230769230769,4,2,99,80,0,1
269100,-76.9230769230769,4,2,1,80,0,1
269237,-76.9230769230769,4,2,96,80,0,1
269373,-76.9230769230769,4,2,1,80,0,1
269510,-76.9230769230769,4,2,97,80,0,1
269646,-76.9230769230769,4,2,1,80,0,1
269782,-76.9230769230769,4,2,96,80,0,1
269919,-76.9230769230769,4,2,1,80,0,1
270055,-76.9230769230769,4,2,97,80,0,0
270191,-76.9230769230769,4,2,1,80,0,0
271146,-76.9230769230769,4,2,1,80,0,1
271214,-76.9230769230769,4,2,1,80,0,0
271828,-76.9230769230769,4,2,1,80,0,1
271896,-76.9230769230769,4,2,1,80,0,0
272237,-76.9230769230769,4,2,1,80,0,1
272305,-76.9230769230769,4,2,1,80,0,0
272510,-303.030303030303,4,2,1,60,0,1
273055,-303.030303030303,4,2,1,10,0,0

[Colours]
Combo1 : 239,177,179
Combo2 : 254,188,78
Combo3 : 252,106,99
Combo4 : 210,106,255
Combo5 : 106,210,255
Combo6 : 185,185,185

[HitObjects]
364,95,55,69,0,1:0:0:0:
442,122,327,1,0,1:0:0:0:
482,195,464,1,2,0:0:0:0:
482,195,532,1,2,0:0:0:0:
482,195,600,6,0,P|438:203|344:206,1,111.999996582031,6|0,0:0|0:0,0:0:0:0:
286,146,1010,1,8,0:0:0:0:
286,146,1078,1,8,0:0:0:0:
286,146,1146,69,8,1:0:0:0:
294,238,1328,1,4,1:0:0:0:
303,331,1510,1,2,1:0:0:0:
286,146,1691,5,8,3:0:0:0:
277,138,2373,1,8,0:0:0:0:
198,181,2510,2,0,P|195:211|201:239,1,55.9999982910157,10|0,0:3|0:0,0:0:0:0:
380,363,2782,5,6,0:0:0:0:
443,289,2919,1,2,0:0:0:0:
443,289,2987,1,2,0:0:0:0:
443,289,3055,1,10,0:0:0:0:
348,272,3191,1,0,0:0:0:0:
380,363,3328,5,10,0:3:0:0:
348,272,3464,1,8,0:3:0:0:
410,198,3600,2,0,L|456:192,2,40,10|2|2,0:0|0:0|0:0,0:0:0:0:
258,272,3873,6,0,B|228:244|228:244|94:267,1,160,10|10,0:3|0:0,0:0:0:0:
104,286,4282,1,2,0:0:0:0:
17,226,4419,2,0,L|26:141,1,80,10|10,3:0|3:0,0:0:0:0:
35,60,4691,1,10,0:0:0:0:
196,27,4964,5,10,0:3:0:0:
133,101,5101,1,2,0:0:0:0:
133,101,5169,1,2,0:0:0:0:
133,101,5237,1,10,0:0:0:0:
228,118,5373,1,0,0:0:0:0:
196,27,5510,37,10,0:3:0:0:
228,118,5646,1,8,0:3:0:0:
166,192,5782,2,0,L|120:198,2,40,10|2|2,0:0|0:0|0:0,0:0:0:0:
369,317,6055,5,10,0:3:0:0:
291,272,6191,1,2,0:0:0:0:
205,296,6328,1,10,0:0:0:0:
161,373,6464,2,0,P|75:363|53:297,1,160,2|8,0:0|0:3,0:0:0:0:
63,219,6873,1,10,0:0:0:0:
256,134,7146,5,6,0:0:0:0:
342,188,7282,1,2,0:0:0:0:
342,188,7350,1,2,0:0:0:0:
342,188,7419,1,10,0:0:0:0:
346,87,7555,1,0,0:0:0:0:
256,134,7691,5,10,0:3:0:0:
346,87,7828,1,8,0:3:0:0:
431,141,7964,2,0,L|488:130,2,40,10|2|2,0:0|0:0|0:0,0:0:0:0:
259,255,8237,38,0,B|290:226|290:226|431:246,1,160,10|10,0:3|0:0,0:0:0:0:
422,263,8646,1,2,0:0:0:0:
503,352,8782,2,0,L|387:359,1,80,10|10,0:3|0:3,0:0:0:0:
340,363,9055,1,10,0:0:0:0:
129,192,9328,6,0,B|101:266|101:266|137:356,1,160,6|8,0:0|0:0,0:0:0:0:
228,364,9737,1,2,0:0:0:0:
261,250,9873,1,10,0:3:0:0:
258,232,9941,1,8,0:3:0:0:
255,214,10010,1,10,0:3:0:0:
333,351,10146,1,10,0:0:0:0:
424,195,10282,6,0,B|452:121|452:121|416:31,1,160,4|10,0:0|0:3,0:0:0:0:
255,214,10691,1,14,0:0:0:0:
244,124,10828,1,2,0:0:0:0:
233,34,10964,2,0,L|136:24,1,80,2|0,0:0|0:0,0:0:0:0:
26,97,11237,1,8,0:0:0:0:
11,125,11305,1,8,0:0:0:0:
7,156,11373,1,8,0:0:0:0:
14,187,11441,1,8,0:0:0:0:
32,214,11510,5,6,0:0:0:0:
131,187,11646,1,2,0:0:0:0:
131,187,11714,1,2,0:0:0:0:
131,187,11782,1,10,0:0:0:0:
220,237,11919,1,0,0:0:0:0:
32,214,12055,37,10,0:3:0:0:
121,264,12192,1,8,0:3:0:0:
220,237,12328,2,0,L|231:177,2,40,10|2|2,0:0|0:0|0:0,0:0:0:0:
333,359,12600,6,0,B|372:342|372:342|365:219,1,160,10|10,0:3|0:0,0:0:0:0:
346,212,13010,1,2,0:0:0:0:
499,152,13146,2,0,L|401:140,1,80,10|10,0:3|0:3,0:0:0:0:
336,128,13419,1,10,0:0:0:0:
432,332,13691,5,10,0:3:0:0:
333,359,13827,1,2,0:0:0:0:
333,359,13895,1,2,0:0:0:0:
333,359,13963,1,10,0:0:0:0:
244,309,14100,1,0,0:0:0:0:
432,332,14236,5,10,0:3:0:0:
343,282,14373,1,8,0:3:0:0:
244,309,14509,2,0,L|233:369,2,40,10|2|2,0:0|0:0|0:0,0:0:0:0:
436,141,14782,37,10,0:3:0:0:
358,186,14918,1,2,0:0:0:0:
272,162,15055,1,10,0:0:0:0:
228,85,15191,2,0,P|142:95|120:161,1,160,2|8,0:0|0:3,0:0:0:0:
130,239,15600,1,10,0:0:0:0:
474,184,15873,5,6,0:0:0:0:
375,157,16009,1,2,0:0:0:0:
375,157,16077,1,2,0:0:0:0:
375,157,16145,1,10,0:0:0:0:
286,207,16282,1,0,0:0:0:0:
474,184,16418,5,10,0:3:0:0:
385,234,16555,1,8,0:3:0:0:
286,207,16691,2,0,L|275:147,2,40,10|2|2,0:0|0:0|0:0,0:0:0:0:
231,369,16964,6,0,B|206:337|206:337|78:351,1,160,10|10,0:3|0:0,0:0:0:0:
74,368,17373,1,2,0:0:0:0:
34,238,17510,2,0,L|139:250,1,80,10|10,0:3|0:3,0:0:0:0:
198,256,17782,1,10,0:0:0:0:
425,358,18055,38,0,P|449:323|437:266,1,80,10|0,0:3|0:0,0:0:0:0:
281,156,18328,2,0,P|359:149|440:222,1,160,4|8,0:0|0:3,0:0:0:0:
425,358,18737,1,8,0:3:0:0:
334,232,18873,2,0,P|361:259|368:298,1,80,6|0,0:0|0:0,0:0:0:0:
302,369,19146,6,0,L|200:372,1,80,10|8,0:3|0:3,0:0:0:0:
32,374,19419,2,0,L|134:371,1,80,10|8,0:0|0:3,0:0:0:0:
222,258,19691,1,10,0:3:0:0:
260,190,19828,1,8,0:3:0:0:
231,118,19964,2,0,L|138:107,1,80,10|0,0:3|0:0,0:0:0:0:
2,240,20237,54,0,P|49:226|153:326,1,192,6|2,0:0|0:0,0:0:0:0:
336,210,21055,70,0,P|289:251|225:372,2,191.999994140625,2|0|0,0:0|0:0|0:0,0:0:0:0:
482,332,22419,6,0,P|477:296|452:245,3,80,2|0|2|0,1:0|0:0|1:0|0:0,0:0:0:0:
362,172,23510,70,0,P|363:135|381:85,1,80,2|0,1:0|0:0,0:0:0:0:
447,31,23873,1,0,1:0:0:0:
453,39,23964,1,0,1:0:0:0:
458,47,24055,6,0,P|462:75|464:98,1,47.9999985351563,4|0,0:0|0:0,0:0:0:0:
366,316,24600,70,0,P|424:318|499:340,2,128,6|0|2,1:0|0:0|1:0,0:0:0:0:
279,361,25282,1,0,0:0:0:0:
279,361,25419,2,0,P|271:329|271:282,1,64,0|0,0:0|0:0,0:0:0:0:
323,220,25691,1,0,1:0:0:0:
323,220,25964,2,0,P|386:223|456:200,2,128,0|0|0,0:0|1:0|0:0,0:0:0:0:
342,97,26646,5,0,0:0:0:0:
342,97,26782,2,0,P|302:95|265:104,1,64,2|0,1:0|0:0,0:0:0:0:
223,26,27055,1,0,0:0:0:0:
223,26,27191,2,0,P|162:58|112:104,1,128,2|0,0:1|0:0,0:0:0:0:
33,94,27600,2,0,P|12:127|0:164,1,64,0|0,0:0|0:0,0:0:0:0:
16,239,27873,1,0,1:0:0:0:
16,239,28146,2,0,P|80:231|144:234,1,128,0|0,0:0|1:0,0:0:0:0:
305,298,28691,2,0,P|300:320|297:353,3,32,0|0|0|0,0:0|0:0|0:0|0:0,0:0:0:0:
276,345,28964,70,0,P|257:291|252:81,1,256,6|2,1:0|1:0,0:0:0:0:
250,95,29782,6,0,P|286:88|335:93,1,64,0|0,0:0|0:0,0:0:0:0:
402,102,30055,1,0,1:0:0:0:
402,102,30191,1,0,0:0:0:0:
473,39,30328,2,0,P|454:93|445:192,1,128,0|0,0:0|1:0,0:0:0:0:
491,304,30873,1,0,0:0:0:0:
491,304,31010,1,0,0:0:0:0:
414,260,31146,2,0,P|370:263|331:275,1,64,2|0,1:0|0:0,0:0:0:0:
303,341,31419,2,0,P|240:331|154:300,1,128,0|2,0:0|1:0,0:0:0:0:
179,311,32782,70,0,L|185:233,1,64,8|8,0:1|0:1,0:0:0:0:
96,238,33055,2,0,L|102:160,1,64,4|2,0:1|0:1,0:0:0:0:
1,62,33328,6,0,P|64:88|137:85,1,128,6|0,1:0|0:0,0:0:0:0:
327,14,33873,2,0,P|298:41|253:62,1,64,2|8,0:0|0:3,0:0:0:0:
349,157,34146,2,0,P|311:145|270:116,1,64,2|0,0:0|0:0,0:0:0:0:
182,7,34419,70,0,P|206:77|174:267,1,256,10|0,0:3|1:0,0:0:0:0:
182,253,35237,1,2,0:1:0:0:
8,264,35510,6,0,P|49:253|99:250,1,64,2|0,1:0|0:0,0:0:0:0:
126,318,35782,1,10,0:3:0:0:
126,318,35919,1,0,0:0:0:0:
182,253,36055,1,2,1:0:0:0:
182,253,36191,2,0,P|220:262|271:255,1,64,8|0,0:3|0:1,0:0:0:0:
311,174,36464,2,0,P|291:229|293:371,1,192,2|0,0:1|0:1,0:0:0:0:
466,354,37419,69,2,0:1:0:0:
466,354,37555,1,0,0:0:0:0:
492,273,37691,2,0,P|483:238|471:207,2,64,10|0|2,1:3|0:0|0:0,0:0:0:0:
403,271,38100,1,0,0:0:0:0:
403,271,38237,2,0,P|371:252|341:239,1,64,2|8,1:0|0:3,0:0:0:0:
335,322,38510,2,0,P|300:330|269:342,1,64,2|0,0:0|0:0,0:0:0:0:
174,314,38782,6,0,P|191:349|202:389,2,64,2|0|2,1:0|0:0|0:0,0:0:0:0:
103,262,39191,1,0,0:0:0:0:
103,262,39328,2,0,P|86:227|75:187,1,64,2|0,1:0|0:0,0:0:0:0:
22,127,39600,2,0,P|70:152|167:165,1,128,2|8,0:1|0:3,0:0:0:0:
157,151,40146,69,8,1:3:0:0:
168,139,40555,1,8,1:3:0:0:
232,313,40964,5,8,1:3:0:0:
453,194,41510,1,0,1:0:0:0:
457,275,41646,1,8,0:3:0:0:
449,113,41782,1,8,0:0:0:0:
449,113,42055,5,6,0:0:0:0:
364,134,42191,1,2,0:0:0:0:
289,87,42328,2,0,L|300:1,1,80,6|2,0:0|0:0,0:0:0:0:
222,144,42600,2,0,L|233:230,1,80,2|8,0:0|0:3,0:0:0:0:
156,89,42873,1,10,0:0:0:0:
156,89,43010,1,2,0:0:0:0:
89,36,43146,5,10,0:3:0:0:
156,89,43282,1,2,0:0:0:0:
76,120,43419,1,10,0:0:0:0:
143,173,43555,1,2,0:0:0:0:
61,207,43691,2,0,L|86:375,1,160,2|10,0:0|0:0,0:0:0:0:
0,349,44100,1,2,0:0:0:0:
154,298,44237,6,0,P|197:304|241:334,1,80,10|0,0:3|0:0,0:0:0:0:
337,231,44510,2,0,P|338:287|275:385,2,160,10|0|8,0:0|0:0|0:0,0:0:0:0:
314,129,45191,6,0,P|288:92|242:69,1,80,2|8,0:0|0:3,0:0:0:0:
228,161,45464,2,0,P|182:165|140:193,1,80,2|8,0:0|0:0,0:0:0:0:
210,252,45737,2,0,P|190:293|194:344,2,80,2|2|8,0:0|0:0|0:3,0:0:0:0:
337,231,46146,1,10,0:0:0:0:
390,299,46282,1,2,0:0:0:0:
351,373,46419,38,0,L|262:370,1,80,10|0,0:3|0:0,0:0:0:0:
210,252,46691,1,10,0:0:0:0:
147,335,46828,2,0,P|169:273|97:204,1,160,2|10,0:0|0:3,0:0:0:0:
10,293,47237,2,0,L|98:280,1,80,10|0,0:0|0:0,0:0:0:0:
184,160,47510,5,10,0:3:0:0:
184,160,47646,2,0,L|25:184,1,160,2|2,0:0|0:0,0:0:0:0:
42,17,48055,2,0,L|55:104,1,80,2|8,0:0|0:3,0:0:0:0:
162,246,48328,1,10,0:0:0:0:
150,329,48464,1,2,0:0:0:0:
82,279,48600,5,10,0:3:0:0:
150,329,48737,1,2,0:0:0:0:
229,302,48873,2,0,P|249:262|237:201,1,80,10|0,0:0|0:0,0:0:0:0:
201,77,49146,1,2,0:0:0:0:
123,110,49283,1,10,0:3:0:0:
107,192,49419,2,0,P|131:229|190:249,1,80,10|0,0:0|0:0,0:0:0:0:
331,205,49691,6,0,L|425:182,1,80,10|0,0:3|0:0,0:0:0:0:
498,80,49964,2,0,L|315:52,1,160,14|0,0:0|0:0,0:0:0:0:
266,129,50373,1,8,0:3:0:0:
407,80,50510,2,0,L|310:66,1,80,12|2,0:0|0:0,0:0:0:0:
164,15,50782,37,6,0:0:0:0:
164,15,50919,1,2,0:0:0:0:
92,63,51055,2,0,P|82:106|94:159,1,80,10|2,0:0|0:0,0:0:0:0:
210,198,51328,2,0,P|220:241|208:294,1,80,2|10,0:0|0:3,0:0:0:0:
151,331,51600,1,10,0:0:0:0:
151,331,51737,1,2,0:0:0:0:
5,296,51873,6,0,P|37:326|89:342,1,80,10|0,0:3|0:0,0:0:0:0:
104,189,52146,2,0,P|61:206|130:236,1,160,10|0,0:0|0:0,0:0:0:0:
183,209,52555,1,10,0:3:0:0:
101,100,52691,2,0,P|143:112|183:149,1,80,10|2,0:0|0:0,0:0:0:0:
313,59,52964,5,10,0:3:0:0:
258,122,53100,1,2,0:0:0:0:
341,139,53237,1,10,0:0:0:0:
396,76,53373,1,2,0:0:0:0:
313,59,53510,5,2,0:0:0:0:
341,139,53646,1,10,0:3:0:0:
369,219,53782,2,0,L|396:300,1,80,10|2,0:0|0:0,0:0:0:0:
240,361,54055,38,0,P|288:376|346:363,1,80,10|0,0:3|0:0,0:0:0:0:
269,229,54328,2,0,P|313:222|281:295,1,160,10|0,0:0|0:0,0:0:0:0:
210,283,54737,1,8,0:3:0:0:
242,154,54873,2,0,P|290:138|348:151,1,80,8|2,0:0|0:0,0:0:0:0:
501,258,55146,6,0,P|449:275|365:204,1,160,6|10,0:0|0:0,0:0:0:0:
318,55,55555,2,0,P|370:38|454:109,1,160,2|8,0:0|0:3,0:0:0:0:
226,68,55964,2,0,P|169:51|129:70,1,80,8|2,0:0|0:0,0:0:0:0:
78,199,56237,6,0,B|60:236|60:236|41:93,1,160,6|10,0:0|0:0,0:0:0:0:
34,30,56646,1,2,0:0:0:0:
180,128,56782,2,0,L|169:208,1,80,2|10,0:0|0:3,0:0:0:0:
253,259,57055,2,0,L|264:179,1,80,10|2,0:0|0:0,0:0:0:0:
356,34,57328,22,0,P|410:15|491:83,2,160,6|10|2,0:0|0:0|0:0,0:0:0:0:
322,110,58555,2,0,L|329:174,1,55.9999982910157,10|8,0:0|0:3,0:0:0:0:
457,229,58828,6,0,P|398:227|345:264,1,111.999996582031,2|10,0:0|0:1,0:0:0:0:
303,329,59237,1,10,0:1:0:0:
46,257,59373,54,0,B|79:235|79:235|217:263,1,160,6|8,0:0|0:3,0:0:0:0:
316,208,59782,2,0,L|328:298,1,80,10|0,0:0|0:0,0:0:0:0:
169,328,60055,1,10,0:0:0:0:
154,290,60123,1,8,0:0:0:0:
140,253,60191,1,8,0:0:0:0:
167,225,60259,1,8,0:0:0:0:
196,198,60327,1,8,0:0:0:0:
375,131,60464,38,0,P|345:183|350:101,1,223.999993164063,6|0,0:0|0:0,0:0:0:0:
482,231,60873,5,8,0:0:0:0:
459,232,60941,1,8,0:3:0:0:
437,234,61009,1,8,0:3:0:0:
414,235,61077,1,8,0:3:0:0:
399,253,61146,5,10,0:0:0:0:
376,254,61214,1,8,0:3:0:0:
354,256,61282,1,8,0:3:0:0:
331,257,61350,1,8,0:3:0:0:
312,272,61419,5,10,0:0:0:0:
289,273,61487,1,8,0:3:0:0:
267,275,61555,1,8,0:3:0:0:
244,276,61623,1,8,0:3:0:0:
216,298,61691,38,0,P|164:264|201:141,1,191.999994140625,6|12,0:0|0:0,0:0:0:0:
273,95,62100,1,0,0:0:0:0:
418,188,62237,2,0,L|297:177,1,95.9999970703126,10|8,0:3|0:3,0:0:0:0:
283,1,62510,2,0,L|404:12,1,95.9999970703126,10|0,0:0|0:0,0:0:0:0:
430,197,62782,6,0,B|405:156|405:156|256:140,2,191.999994140625,10|8|8,0:3|0:0|0:3,0:0:0:0:
482,288,63464,1,10,0:3:0:0:
314,366,63600,2,0,L|436:373,1,95.9999970703126,10|2,0:0|0:0,0:0:0:0:
245,221,63873,6,0,P|231:278|254:325,1,95.9999970703126,10|0,0:3|0:0,0:0:0:0:
309,373,64146,1,10,0:0:0:0:
325,179,64282,2,0,P|282:138|230:134,1,95.9999970703126,2|8,0:0|0:3,0:0:0:0:
325,270,64555,2,0,P|381:253|410:210,1,95.9999970703126,10|8,0:3|0:0,0:0:0:0:
440,141,64828,1,2,0:0:0:0:
296,39,64964,6,0,P|365:79|449:7,1,191.999994140625,8|8,0:3|0:0,0:0:0:0:
512,88,65373,1,0,0:0:0:0:
420,227,65510,1,10,0:3:0:0:
420,227,65646,1,10,0:3:0:0:
497,313,65782,1,10,0:0:0:0:
497,313,65919,1,2,0:0:0:0:
339,376,66055,38,0,L|128:352,1,191.999994140625,6|10,0:0|0:0,0:0:0:0:
89,289,66464,1,2,0:0:0:0:
208,184,66600,2,0,P|199:249|152:289,1,95.9999970703126,10|8,0:3|0:3,0:0:0:0:
89,289,66873,1,10,0:0:0:0:
52,137,67010,6,0,P|26:177|25:224,1,95.9999970703126,2|8,0:0|0:3,0:0:0:0:
165,103,67282,2,0,P|175:149|207:183,1,95.9999970703126,2|8,0:0|0:0,0:0:0:0:
243,16,67555,1,2,0:0:0:0:
243,16,67691,2,0,P|283:41|330:42,1,95.9999970703126,10|8,0:3|0:3,0:0:0:0:
490,1,67964,1,10,0:0:0:0:
453,89,68100,1,2,0:0:0:0:
290,141,68237,6,0,B|338:132|338:132|389:165,1,95.9999970703126,6|0,0:0|0:0,0:0:0:0:
340,349,68510,2,0,B|292:358|292:358|241:325,1,95.9999970703126,10|0,0:0|0:0,0:0:0:0:
291,151,68782,1,10,0:3:0:0:
323,157,68850,1,8,0:3:0:0:
344,182,68918,1,8,0:3:0:0:
345,215,68986,1,8,0:3:0:0:
326,242,69054,1,10,0:0:0:0:
185,126,69191,6,0,L|194:26,1,95.9999970703126,6|0,0:0|0:0,0:0:0:0:
15,213,69464,38,0,B|115:197|115:197|152:224|152:224|273:206,1,240.000009155274,6|0,0:0|0:0,0:0:0:0:
482,309,69873,6,0,P|445:281|374:300,1,95.9999970703126,10|0,0:3|0:0,0:0:0:0:
259,360,70146,2,0,P|241:370|202:374,3,47.9999985351563,10|8|8|8,0:0|0:0|0:0|0:0,0:0:0:0:
174,360,70419,6,0,P|140:302|11:318,1,191.999994140625,6|12,0:0|0:0,0:0:0:0:
84,375,70828,1,0,0:0:0:0:
177,190,70964,2,0,L|165:296,1,95.9999970703126,10|8,0:3|0:3,0:0:0:0:
3,134,71237,2,0,L|15:28,1,95.9999970703126,10|0,0:0|0:0,0:0:0:0:
266,76,71510,6,0,B|234:112|234:112|92:96,2,191.999994140625,10|8|8,0:3|0:0|0:3,0:0:0:0:
177,24,72191,1,10,0:3:0:0:
358,127,72328,2,0,B|380:84|380:84|362:32,1,95.9999970703126,10|2,0:0|0:0,0:0:0:0:
85,108,72600,38,0,B|206:122,1,95.9999970703126,10|0,0:3|0:0,0:0:0:0:
251,320,72873,2,0,B|130:306,1,95.9999970703126,10|0,0:0|0:0,0:0:0:0:
180,119,73146,1,10,0:3:0:0:
168,214,73282,1,10,0:3:0:0:
156,309,73418,1,10,0:0:0:0:
0,226,73555,6,0,P|45:255|100:248,1,95.9999970703126,2|8,0:0|0:3,0:0:0:0:
168,214,73828,1,2,0:0:0:0:
247,170,73964,2,0,P|345:171|426:227,1,191.999994140625,8|8,0:0|0:3,0:0:0:0:
456,301,74373,1,8,0:3:0:0:
331,374,74510,2,0,P|345:315|395:282,1,95.9999970703126,10|0,0:0|0:0,0:0:0:0:
385,44,74782,6,0,P|430:121|417:229,2,191.999994140625,6|8|8,0:0|0:0|0:3,0:0:0:0:
293,17,75464,1,8,0:3:0:0:
209,161,75600,2,0,L|332:146,1,95.9999970703126,10|0,0:0|0:0,0:0:0:0:
494,300,75873,6,0,B|385:274|421:347|291:316,1,191.999994140625,10|8,0:3|0:0,0:0:0:0:
240,248,76282,1,2,0:0:0:0:
201,366,76419,1,10,0:3:0:0:
83,297,76555,1,10,0:3:0:0:
122,179,76691,2,0,L|245:164,1,95.9999970703126,10|2,0:0|0:0,0:0:0:0:
440,138,76964,37,10,0:3:0:0:
337,99,77100,2,0,B|324:147|324:147|351:203,1,95.9999970703126,8|2,0:0|0:0,0:0:0:0:
444,131,77373,1,8,0:3:0:0:
477,282,77510,1,8,0:0:0:0:
447,263,77578,1,8,0:0:0:0:
414,259,77646,1,8,0:0:0:0:
382,267,77714,1,8,0:0:0:0:
354,286,77782,1,8,0:0:0:0:
493,297,77919,6,0,P|441:342|333:295,1,191.999994140625,6|8,0:0|0:3,0:0:0:0:
247,180,78328,2,0,P|256:226|216:285,1,95.9999970703126,14|0,0:0|0:0,0:0:0:0:
66,321,78600,1,10,0:3:0:0:
56,287,78668,1,8,0:3:0:0:
64,253,78736,1,8,0:3:0:0:
55,220,78804,1,8,0:3:0:0:
63,186,78873,2,0,L|57:126,3,47.9999985351563,10|8|8|8,0:0|0:0|0:0|0:0,0:0:0:0:
24,96,79146,6,0,B|154:128|154:128|206:86,1,176.000005371094,6|12,0:0|0:0,0:0:0:0:
247,43,79555,1,2,0:0:0:0:
337,127,79691,2,0,L|327:238,1,88.000002685547,10|8,0:3|0:3,0:0:0:0:
447,55,79964,1,10,0:0:0:0:
447,55,80100,1,2,0:0:0:0:
487,226,80237,6,0,B|457:192|457:192|312:217,1,176.000005371094,10|8,0:3|0:0,0:0:0:0:
239,233,80646,1,2,0:0:0:0:
309,379,80782,1,10,0:3:0:0:
398,360,80919,1,10,0:3:0:0:
239,233,81055,2,0,B|152:250,1,88.000002685547,10|2,0:0|0:0,0:0:0:0:
104,355,81328,38,0,B|16:367|16:367|0:272,1,176.000005371094,10|8,0:3|0:0,0:0:0:0:
14,278,81737,1,0,0:0:0:0:
68,173,81873,2,0,B|156:161|156:161|172:256,1,176.000005371094,10|8,0:3|0:0,0:0:0:0:
158,250,82282,1,2,0:0:0:0:
289,82,82419,5,10,0:3:0:0:
289,82,82555,1,2,0:0:0:0:
405,149,82691,2,0,P|367:143|314:178,1,88.000002685547,10|0,0:0|0:0,0:0:0:0:
317,285,82964,2,0,P|303:249|246:220,1,88.000002685547,10|8,0:3|0:3,0:0:0:0:
158,250,83237,2,0,P|182:220|178:156,1,88.000002685547,10|0,0:0|0:0,0:0:0:0:
126,105,83441,1,8,0:0:0:0:
116,96,83510,6,0,B|247:84|247:84|290:132,1,176.000005371094,4|14,0:0|0:0,0:0:0:0:
413,76,83919,1,0,0:0:0:0:
477,146,84055,2,0,L|475:245,1,88.000002685547,10|10,0:3|0:3,0:0:0:0:
408,301,84328,1,10,0:0:0:0:
408,301,84464,1,2,0:0:0:0:
283,241,84600,5,10,0:3:0:0:
254,325,84737,2,0,P|203:347|159:331,1,88.000002685547,2|8,0:0|0:0,0:0:0:0:
145,157,85010,2,0,L|165:356,1,176.000005371094,2|8,0:0|0:3,0:0:0:0:
52,167,85419,2,0,P|103:145|147:161,1,88.000002685547,10|0,0:0|0:0,0:0:0:0:
290,68,85691,38,0,B|271:48|268:27|268:27|250:169,1,176.000005371094,6|8,0:0|0:0,0:0:0:0:
283,241,86100,1,2,0:0:0:0:
493,158,86237,1,10,0:3:0:0:
457,132,86305,1,8,0:3:0:0:
414,126,86373,1,8,0:3:0:0:
372,139,86441,1,8,0:3:0:0:
342,170,86509,1,10,0:3:0:0:
481,346,86646,6,0,P|489:261|415:216,1,176.000005371094,6|8,0:0|0:3,0:0:0:0:
194,326,87055,2,0,B|267:372|267:372|379:338,1,176.000005371094,12|8,0:0|0:3,0:0:0:0:
283,241,87464,1,8,0:3:0:0:
106,305,87600,2,0,L|112:366,3,44.0000013427735,10|8|10|8,0:0|0:0|0:0|0:0,0:0:0:0:
87,378,87873,6,0,B|53:348|53:348|77:208,1,176.000005371094,6|8,0:0|0:0,0:0:0:0:
159,188,88282,1,0,0:0:0:0:
28,74,88419,2,0,B|6:111|6:111|15:173,1,88.000002685547,8|8,0:3|0:3,0:0:0:0:
159,188,88691,2,0,B|181:151|181:151|172:89,1,88.000002685547,8|8,0:0|0:3,0:0:0:0:
119,10,88964,5,4,0:0:0:0:
115,21,89646,37,10,0:3:0:0:
258,85,89782,2,0,L|161:98,1,80,10|0,0:0|0:0,0:0:0:0:
12,155,90055,5,6,0:0:0:0:
93,201,90191,1,2,0:0:0:0:
93,201,90260,1,2,0:0:0:0:
93,201,90328,1,10,0:0:0:0:
14,246,90464,1,0,0:0:0:0:
12,155,90600,5,10,0:3:0:0:
14,246,90737,1,8,0:3:0:0:
95,292,90873,2,0,L|151:285,2,40,10|2|2,0:0|0:0|0:0,0:0:0:0:
0,384,91146,6,0,B|28:355|28:355|153:378,1,160,10|10,0:3|0:0,0:0:0:0:
163,381,91555,1,2,0:0:0:0:
220,315,91691,2,0,L|302:306,1,80,10|10,0:3|0:3,0:0:0:0:
384,295,91964,1,2,0:0:0:0:
426,93,92237,37,10,0:3:0:0:
409,184,92373,1,2,0:0:0:0:
409,184,92442,1,2,0:0:0:0:
409,184,92510,1,10,0:0:0:0:
494,153,92646,1,0,0:0:0:0:
426,93,92782,5,10,0:3:0:0:
494,153,92919,1,8,0:3:0:0:
477,244,93055,2,0,L|490:284,2,40,10|2|2,0:0|0:0|0:0,0:0:0:0:
426,93,93328,5,10,0:3:0:0:
344,130,93464,1,2,0:0:0:0:
260,98,93600,1,10,0:0:0:0:
222,15,93737,2,0,P|231:77|132:101,1,160,2|8,0:0|0:3,0:0:0:0:
85,60,94146,1,10,0:0:0:0:
156,194,94419,5,6,0:0:0:0:
79,246,94555,1,2,0:0:0:0:
79,246,94624,1,2,0:0:0:0:
79,246,94692,1,10,0:0:0:0:
161,284,94828,1,0,0:0:0:0:
156,194,94964,37,10,0:3:0:0:
161,284,95101,1,8,0:3:0:0:
85,336,95237,2,0,L|43:343,2,40,10|2|2,0:0|0:0|0:0,0:0:0:0:
257,384,95510,6,0,B|229:355|229:355|258:233,1,160,10|10,0:3|0:0,0:0:0:0:
272,228,95919,1,2,0:0:0:0:
199,164,96055,2,0,L|192:80,1,80,10|10,0:3|0:3,0:0:0:0:
185,0,96328,1,10,0:0:0:0:
466,61,96600,6,0,B|387:41|387:41|290:82,1,160,6|8,0:0|0:0,0:0:0:0:
199,164,97010,1,2,0:0:0:0:
277,238,97146,1,10,0:3:0:0:
297,232,97214,1,8,0:3:0:0:
317,226,97282,1,10,0:3:0:0:
192,157,97419,1,10,0:0:0:0:
143,329,97555,6,0,B|222:349|222:349|319:308,1,160,6|2,0:0|0:0,0:0:0:0:
487,208,97964,2,0,L|493:312,1,80,6|2,0:0|0:0,0:0:0:0:
399,259,98237,1,10,0:3:0:0:
490,111,98373,2,0,L|495:45,1,40,8|8,0:3|0:3,0:0:0:0:
397,160,98510,2,0,L|401:118,3,40,10|8|8|8,0:0|0:0|0:0|0:0,0:0:0:0:
405,90,98782,37,6,0:0:0:0:
329,151,98919,1,2,0:0:0:0:
329,151,98987,1,2,0:0:0:0:
329,151,99055,1,10,0:0:0:0:
253,90,99191,1,0,0:0:0:0:
405,90,99328,5,10,0:3:0:0:
329,29,99464,1,8,0:3:0:0:
253,90,99600,2,0,L|205:89,2,40,10|2|2,0:0|0:0|0:0,0:0:0:0:
403,191,99873,6,0,B|369:169|369:169|248:208,1,160,10|10,0:3|0:0,0:0:0:0:
246,222,100282,1,2,0:0:0:0:
133,158,100419,2,0,L|146:244,1,80,10|10,0:3|0:3,0:0:0:0:
160,324,100691,1,10,0:0:0:0:
319,318,100964,5,10,0:3:0:0:
395,257,101101,1,2,0:0:0:0:
395,257,101169,1,2,0:0:0:0:
395,257,101237,1,10,0:0:0:0:
471,318,101373,1,0,0:0:0:0:
319,318,101510,37,10,0:3:0:0:
395,379,101646,1,8,0:3:0:0:
471,318,101782,2,0,L|519:319,2,40,10|2|2,0:0|0:0|0:0,0:0:0:0:
395,173,102055,5,10,0:3:0:0:
318,219,102191,1,2,0:0:0:0:
229,198,102328,1,10,0:0:0:0:
182,121,102464,2,0,P|131:106|71:199,1,160,2|8,0:0|0:3,0:0:0:0:
85,262,102873,1,10,0:0:0:0:
244,295,103146,5,6,0:0:0:0:
229,198,103283,1,2,0:0:0:0:
229,198,103351,1,2,0:0:0:0:
229,198,103419,1,10,0:0:0:0:
320,163,103555,1,0,0:0:0:0:
244,295,103692,5,10,0:3:0:0:
334,259,103828,1,8,0:3:0:0:
320,163,103964,2,0,L|339:123,2,40,10|2|2,0:0|0:0|0:0,0:0:0:0:
449,273,104237,38,0,B|420:243|420:243|465:118,1,160,10|10,0:3|0:0,0:0:0:0:
476,127,104646,1,2,0:0:0:0:
500,24,104782,2,0,L|410:44,1,80,10|10,0:3|0:3,0:0:0:0:
338,61,105055,1,10,0:0:0:0:
29,52,105328,6,0,P|63:24|114:23,1,80,10|0,0:3|0:0,0:0:0:0:
242,166,105600,2,0,P|234:88|161:33,1,160,4|8,0:0|0:3,0:0:0:0:
97,19,106010,1,8,0:3:0:0:
16,132,106146,2,0,P|22:170|48:201,1,80,6|0,0:0|0:0,0:0:0:0:
242,166,106419,6,0,P|198:191|177:227,1,80,10|8,0:3|0:3,0:0:0:0:
270,331,106691,1,10,0:0:0:0:
191,311,106828,1,0,0:0:0:0:
76,346,106964,2,0,P|101:308|114:269,1,80,10|8,0:3|0:3,0:0:0:0:
107,190,107237,2,0,P|88:148|60:117,1,80,10|8,0:3|0:3,0:0:0:0:
11,34,107510,38,0,P|71:90|173:75,1,192,6|2,0:0|0:0,0:0:0:0:
443,98,108328,70,0,P|363:79|282:143,1,192,2|2,0:0|0:0,0:0:0:0:
218,384,109146,6,0,P|236:354|241:316,1,64,2|2,0:0|0:0,0:0:0:0:
241,248,109691,70,0,P|224:212|189:174,1,80,2|0,1:0|0:0,0:0:0:0:
118,129,110100,1,0,0:0:0:0:
118,129,110169,1,0,0:0:0:0:
118,129,110237,2,0,P|90:118|64:119,2,53.3333333333333,2|2|2,1:0|0:0|0:0,0:0:0:0:
0,256,110782,6,0,P|34:228|83:225,1,80,2|0,1:0|1:0,0:0:0:0:
153,252,111146,1,0,1:0:0:0:
161,258,111237,1,0,1:0:0:0:
169,264,111328,70,0,L|163:324,1,47.9999985351563,4|0,0:0|0:0,0:0:0:0:
349,340,111873,6,0,P|408:367|486:359,2,128,6|0|2,1:0|0:0|1:0,0:0:0:0:
278,268,112555,1,0,0:0:0:0:
278,268,112691,2,0,P|313:268|351:251,1,64,0|0,0:0|0:0,0:0:0:0:
410,207,112964,1,0,1:0:0:0:
410,207,113237,2,0,P|437:137|439:63,2,128,0|0|0,0:0|1:0|0:0,0:0:0:0:
331,174,113919,1,0,0:0:0:0:
331,174,114055,70,0,P|304:137|274:113,1,64,2|0,1:0|0:0,0:0:0:0:
217,78,114328,1,0,0:0:0:0:
217,78,114464,1,0,0:0:0:0:
131,46,114600,2,0,P|100:38|69:36,2,64,2|0|0,1:0|0:0|0:0,0:0:0:0:
145,130,115010,1,0,0:0:0:0:
145,130,115146,1,0,1:0:0:0:
145,130,115419,2,0,P|92:155|26:204,1,128,0|0,0:0|1:0,0:0:0:0:
45,359,115964,2,0,L|98:351,3,32,0|0|0|0,0:0|0:0|0:0|0:0,0:0:0:0:
111,320,116237,6,0,P|172:363|342:332,1,256,6|2,1:0|1:0,0:0:0:0:
340,333,117055,70,0,P|372:334|409:343,1,64,0|0,0:0|0:0,0:0:0:0:
490,382,117328,1,0,1:0:0:0:
490,382,117464,1,0,0:0:0:0:
481,290,117600,2,0,P|490:260|506:232,2,64,0|0|0,0:0|0:0|1:0,0:0:0:0:
392,106,118146,1,0,0:0:0:0:
392,106,118282,1,0,0:0:0:0:
340,172,118419,2,0,P|303:191|260:205,1,64,2|0,1:0|0:0,0:0:0:0:
221,136,118691,2,0,P|172:125|69:114,1,128,0|2,0:0|1:0,0:0:0:0:
94,115,119646,5,8,0:0:0:0:
20,150,119782,2,0,L|28:218,1,64,8|4,0:1|0:1,0:0:0:0:
139,245,120055,1,8,0:0:0:0:
72,288,120191,1,4,0:1:0:0:
57,367,120328,2,0,L|126:379,1,64,2|2,0:1|0:1,0:0:0:0:
224,368,120600,70,0,P|288:327|352:325,1,128,6|0,1:0|0:0,0:0:0:0:
416,360,121010,1,0,0:0:0:0:
491,309,121146,2,0,P|504:268|506:231,1,64,2|8,0:0|0:3,0:0:0:0:
432,201,121419,2,0,P|419:160|417:123,1,64,2|0,0:0|0:0,0:0:0:0:
503,47,121691,6,0,P|457:21|288:122,1,256,10|0,0:3|0:0,0:0:0:0:
293,102,122510,1,2,0:1:0:0:
277,291,122782,70,0,P|265:261|246:231,1,64,10|0,1:3|0:0,0:0:0:0:
175,186,123055,1,10,1:3:0:0:
175,186,123191,1,0,0:0:0:0:
83,191,123328,1,2,0:0:0:0:
83,191,123464,2,0,P|54:206|29:225,1,64,8|0,1:3|0:1,0:0:0:0:
103,282,123737,2,0,P|84:190|108:78,1,192,10|0,0:3|0:1,0:0:0:0:
100,94,124691,5,10,0:0:0:0:
100,94,124828,1,0,0:0:0:0:
182,64,124964,2,0,P|223:64|256:80,1,64,6|0,0:1|0:0,0:0:0:0:
322,110,125237,2,0,P|363:110|396:94,1,64,2|0,0:0|0:0,0:0:0:0:
465,67,125510,2,0,P|451:35|451:-1,2,64,2|8|2,0:0|0:3|0:0,0:0:0:0:
510,139,125919,1,0,0:0:0:0:
480,220,126055,70,0,P|440:211|403:210,1,64,10|0,0:3|0:0,0:0:0:0:
402,295,126328,2,0,P|442:304|479:305,1,64,2|0,0:0|0:0,0:0:0:0:
476,212,126600,2,0,P|436:203|399:202,1,64,2|0,0:1|0:1,0:0:0:0:
336,234,126873,2,0,P|303:242|189:247,1,128,2|8,0:1|1:3,0:0:0:0:
209,248,127419,5,8,1:3:0:0:
201,261,127828,1,8,1:3:0:0:
48,160,128237,69,8,1:3:0:0:
292,16,128782,1,8,0:1:0:0:
292,16,128919,1,4,0:1:0:0:
268,104,129055,2,0,L|339:97,1,64,8|0,0:0|0:0,0:0:0:0:
482,20,129328,21,6,0:0:0:0:
413,71,129464,1,2,0:0:0:0:
434,195,129600,1,10,0:0:0:0:
503,144,129736,1,2,0:0:0:0:
362,152,129873,2,0,P|350:196|371:257,1,80,10|0,0:3|0:0,0:0:0:0:
489,329,130146,2,0,P|501:285|480:224,1,80,10|2,0:0|0:0,0:0:0:0:
414,374,130419,5,10,0:3:0:0:
337,359,130555,1,2,0:0:0:0:
283,235,130691,1,10,0:0:0:0:
206,250,130827,1,2,0:0:0:0:
404,258,130964,6,0,L|395:171,1,80,2|10,0:0|0:3,0:0:0:0:
251,139,131237,2,0,L|242:59,1,80,10|2,0:0|0:0,0:0:0:0:
411,58,131510,6,0,P|367:57|331:68,1,80,10|0,0:3|0:0,0:0:0:0:
492,115,131782,1,10,0:0:0:0:
468,211,131919,2,0,P|437:241|404:259,1,80,2|0,0:0|0:0,0:0:0:0:
408,354,132191,2,0,P|366:342|334:323,1,80,10|8,0:3|0:0,0:0:0:0:
240,297,132464,38,0,P|239:336|250:375,1,80,2|8,0:0|0:3,0:0:0:0:
165,261,132737,2,0,P|130:280|102:309,1,80,2|8,0:0|0:0,0:0:0:0:
154,180,133010,5,2,0:0:0:0:
165,261,133146,1,2,0:0:0:0:
240,297,133282,1,10,0:3:0:0:
308,248,133419,2,0,P|313:209|263:140,1,120,10|0,0:0|0:0,0:0:0:0:
225,131,133691,6,0,L|392:110,1,160,10|10,0:3|0:0,0:0:0:0:
452,172,134100,1,2,0:0:0:0:
512,21,134237,2,0,P|490:70|451:93,1,80,2|10,0:0|0:3,0:0:0:0:
364,30,134510,1,10,0:0:0:0:
364,30,134646,1,2,0:0:0:0:
225,131,134782,6,0,L|392:110,1,160,10|10,0:3|0:0,0:0:0:0:
412,316,135328,1,10,0:3:0:0:
502,302,135464,1,10,0:3:0:0:
412,316,135600,2,0,L|321:330,1,80,10|2,0:0|2:0,0:0:0:0:
226,377,135873,37,10,0:3:0:0:
226,377,136010,2,0,P|234:343|213:291,1,80,2|8,0:0|0:0,0:0:0:0:
15,307,136282,2,0,P|90:300|156:354,1,160,2|10,0:0|0:3,0:0:0:0:
97,200,136691,2,0,P|89:234|110:286,1,80,10|0,0:0|0:0,0:0:0:0:
328,226,136964,5,10,0:3:0:0:
328,226,137100,1,10,0:3:0:0:
261,154,137237,2,0,L|160:149,1,80,10|0,0:0|0:0,0:0:0:0:
102,276,137510,1,8,0:3:0:0:
102,276,137646,1,8,0:3:0:0:
169,348,137783,2,0,L|270:353,1,80,8|0,0:0|0:0,0:0:0:0:
339,308,138055,5,6,0:0:0:0:
395,375,138191,1,2,0:0:0:0:
512,280,138328,1,10,0:0:0:0:
456,213,138464,1,2,0:0:0:0:
339,308,138600,5,2,0:0:0:0:
423,292,138736,1,10,0:3:0:0:
429,128,138873,1,10,0:0:0:0:
343,143,139009,1,2,0:0:0:0:
242,240,139146,38,0,P|287:239|322:205,1,80,10|0,0:3|0:0,0:0:0:0:
188,165,139419,2,0,L|210:355,1,160,10|0,0:0|0:0,0:0:0:0:
126,319,139828,1,10,0:3:0:0:
126,319,139964,2,0,P|171:319|206:354,1,80,10|2,0:0|0:0,0:0:0:0:
46,374,140237,5,10,0:3:0:0:
14,299,140373,1,2,0:0:0:0:
95,219,140510,1,10,0:0:0:0:
63,144,140646,1,2,0:0:0:0:
15,208,140782,5,2,0:0:0:0:
95,219,140918,1,10,0:3:0:0:
151,119,141055,1,10,0:0:0:0:
232,131,141191,1,2,0:0:0:0:
304,240,141328,6,0,P|263:262|214:250,1,80,10|0,0:3|0:0,0:0:0:0:
354,168,141600,2,0,L|343:339,1,160,10|8,0:0|0:3,0:0:0:0:
414,384,142010,1,8,0:3:0:0:
504,316,142146,2,0,P|463:294|414:306,1,80,8|2,0:0|0:0,0:0:0:0:
262,357,142419,38,0,P|187:374|114:334,1,160,6|10,0:0|0:0,0:0:0:0:
201,187,142828,2,0,B|233:163|233:163|198:292,1,160,2|8,0:0|0:3,0:0:0:0:
34,274,143237,2,0,P|70:241|116:235,1,80,8|2,0:0|0:0,0:0:0:0:
0,93,143510,6,0,P|55:145|138:147,1,160,6|10,0:0|0:0,0:0:0:0:
136,1,143919,1,2,0:0:0:0:
136,1,144055,2,0,P|151:52|200:82,1,80,2|10,0:0|0:3,0:0:0:0:
318,8,144328,1,10,0:0:0:0:
263,73,144464,1,2,0:0:0:0:
466,88,144600,38,0,P|426:80|375:99,1,80,6|10,0:0|0:0,0:0:0:0:
319,140,145146,2,0,P|292:170|283:224,1,80,10|2,0:3|0:0,0:0:0:0:
334,353,145555,1,8,0:0:0:0:
399,301,145691,6,0,L|472:308,2,55.9999982910157,2|10|10,0:0|0:3|0:0,0:0:0:0:
334,353,146100,1,2,0:0:0:0:
243,251,146237,1,8,0:3:0:0:
245,270,146305,1,8,0:3:0:0:
247,289,146373,1,10,0:3:0:0:
249,309,146441,1,8,0:3:0:0:
251,328,146509,1,8,0:3:0:0:
231,169,146646,38,0,B|200:194|200:194|336:177,1,160,6|8,0:0|0:3,0:0:0:0:
487,77,147055,5,10,0:0:0:0:
472,207,147191,1,8,0:3:0:0:
376,59,147328,37,10,0:0:0:0:
481,202,147464,1,8,0:3:0:0:
304,221,147600,1,10,0:0:0:0:
476,71,147737,6,0,P|411:151|284:100,1,223.999993164063,6|0,0:0|0:0,0:0:0:0:
163,25,148146,5,8,0:0:0:0:
143,45,148214,1,8,0:3:0:0:
132,70,148282,1,8,0:3:0:0:
131,98,148350,1,8,0:3:0:0:
106,117,148419,5,10,0:0:0:0:
106,144,148487,1,8,0:3:0:0:
117,170,148555,1,8,0:3:0:0:
136,191,148623,1,8,0:3:0:0:
134,223,148691,37,10,0:0:0:0:
153,242,148759,1,8,0:3:0:0:
179,252,148827,1,8,0:3:0:0:
207,254,148895,1,8,0:3:0:0:
242,238,148964,6,0,P|320:224|399:314,1,191.999994140625,6|12,0:0|0:0,0:0:0:0:
296,326,149373,1,0,0:0:0:0:
220,152,149510,2,0,P|211:202|255:260,1,95.9999970703126,10|8,0:3|0:3,0:0:0:0:
385,224,149782,2,0,P|394:174|350:116,1,95.9999970703126,10|0,0:0|0:0,0:0:0:0:
221,23,150055,6,0,B|78:36|78:36|52:76,2,191.999994140625,10|8|8,0:3|0:0|0:3,0:0:0:0:
319,124,150737,1,10,0:3:0:0:
178,237,150873,2,0,L|68:229,1,95.9999970703126,10|2,0:0|0:0,0:0:0:0:
260,326,151146,6,0,L|370:318,1,95.9999970703126,10|0,0:3|0:0,0:0:0:0:
461,188,151419,1,10,0:0:0:0:
319,124,151555,2,0,P|376:125|419:89,1,95.9999970703126,2|8,0:0|0:3,0:0:0:0:
252,215,151828,2,0,P|279:264|332:284,1,95.9999970703126,10|8,0:3|0:0,0:0:0:0:
395,264,152100,1,2,0:0:0:0:
156,161,152237,38,0,P|133:216|192:333,2,191.999994140625,8|8|8,0:3|0:0|0:3,0:0:0:0:
291,18,152919,1,10,0:3:0:0:
339,196,153055,1,10,0:0:0:0:
280,19,153191,1,2,0:0:0:0:
471,113,153328,6,0,P|426:96|337:205,1,191.999994140625,6|10,0:0|0:0,0:0:0:0:
418,350,153737,2,0,P|471:337|496:283,1,95.9999970703126,2|8,0:0|0:3,0:0:0:0:
496,218,154010,1,10,0:3:0:0:
418,181,154146,1,10,0:0:0:0:
341,305,154282,6,0,P|324:262|340:218,1,95.9999970703126,2|8,0:0|0:3,0:0:0:0:
493,135,154555,2,0,P|464:172|417:180,1,95.9999970703126,2|8,0:0|0:0,0:0:0:0:
269,89,154828,2,0,P|315:95|345:131,1,95.9999970703126,2|8,0:0|0:3,0:0:0:0:
262,254,155100,1,10,0:3:0:0:
345,131,155237,1,10,0:0:0:0:
411,264,155373,1,2,0:0:0:0:
267,169,155510,6,0,B|219:158|219:158|161:184,1,95.9999970703126,6|0,0:0|0:0,0:0:0:0:
22,292,155782,2,0,B|70:303|70:303|128:277,1,95.9999970703126,10|0,0:0|0:0,0:0:0:0:
272,162,156055,1,10,0:3:0:0:
261,130,156123,1,8,0:3:0:0:
235,110,156191,1,10,0:3:0:0:
202,107,156259,1,8,0:3:0:0:
173,122,156327,1,10,0:0:0:0:
129,278,156464,38,0,L|134:374,1,95.9999970703126,6|0,0:0|0:0,0:0:0:0:
40,188,156737,6,0,B|179:157|132:244|293:206,1,240.000009155274,6|8,0:0|0:3,0:0:0:0:
422,58,157146,6,0,L|432:171,1,95.9999970703126,10|0,0:3|0:0,0:0:0:0:
366,290,157419,2,0,L|361:347,3,47.9999985351563,10|8|8|8,0:0|0:0|0:0|0:0,0:0:0:0:
358,370,157691,6,0,P|290:314|172:361,1,191.999994140625,6|12,0:0|0:0,0:0:0:0:
125,250,158100,1,0,0:0:0:0:
51,303,158237,2,0,P|34:239|59:189,1,95.9999970703126,10|8,0:3|0:3,0:0:0:0:
191,110,158510,2,0,P|208:174|183:224,1,95.9999970703126,10|0,0:0|0:0,0:0:0:0:
52,315,158782,38,0,L|254:325,2,191.999994140625,10|8|8,0:3|0:0|0:3,0:0:0:0:
199,200,159464,1,10,0:3:0:0:
50,92,159600,2,0,L|174:84,1,95.9999970703126,10|2,0:0|0:0,0:0:0:0:
323,44,159873,6,0,P|273:20|210:37,1,95.9999970703126,10|0,0:3|0:0,0:0:0:0:
199,200,160146,2,0,P|249:224|312:207,1,95.9999970703126,10|0,0:0|0:0,0:0:0:0:
448,149,160419,1,10,0:3:0:0:
461,237,160555,1,10,0:3:0:0:
435,61,160691,1,10,0:0:0:0:
377,205,160828,6,0,P|427:208|469:256,1,95.9999970703126,2|10,0:0|0:3,0:0:0:0:
486,321,161100,1,2,0:0:0:0:
413,370,161237,2,0,L|218:357,1,191.999994140625,8|8,0:0|0:3,0:0:0:0:
158,289,161646,1,8,0:3:0:0:
289,187,161782,2,0,P|280:239|232:277,1,95.9999970703126,10|0,0:0|0:0,0:0:0:0:
232,84,162055,6,0,P|291:149|403:108,1,191.999994140625,6|8,0:0|0:0,0:0:0:0:
323,60,162464,1,0,0:0:0:0:
472,126,162600,2,0,L|462:244,1,95.9999970703126,8|8,0:3|0:3,0:0:0:0:
280,282,162873,2,0,L|290:164,1,95.9999970703126,10|0,0:0|0:0,0:0:0:0:
453,349,163146,38,0,B|339:333|382:397|248:379,1,191.999994140625,10|8,0:3|0:0,0:0:0:0:
194,299,163555,1,2,0:0:0:0:
46,342,163691,1,10,0:3:0:0:
35,220,163828,1,10,0:3:0:0:
192,179,163964,2,0,L|292:186,1,95.9999970703126,10|2,0:0|0:0,0:0:0:0:
483,192,164237,5,10,0:3:0:0:
388,80,164373,2,0,B|402:128|402:128|382:178,1,95.9999970703126,8|10,0:0|0:3,0:0:0:0:
488,187,164646,1,8,0:3:0:0:
287,185,164782,1,10,0:0:0:0:
264,221,164850,1,8,0:0:0:0:
262,264,164918,1,10,0:0:0:0:
281,302,164986,1,8,0:0:0:0:
317,325,165054,1,10,0:0:0:0:
303,172,165191,6,0,P|365:232|323:334,1,191.999994140625,6|8,0:0|0:3,0:0:0:0:
109,213,165600,2,0,P|157:207|197:246,1,95.9999970703126,4|0,0:0|0:0,0:0:0:0:
337,324,165873,1,10,0:3:0:0:
370,343,165941,1,8,0:3:0:0:
408,346,166009,1,8,0:3:0:0:
443,333,166077,1,8,0:3:0:0:
470,305,166146,2,0,L|476:253,3,47.9999985351563,10|8|8|8,0:0|0:0|0:0|0:0,0:0:0:0:
464,222,166419,6,0,B|475:91|475:91|430:45,1,176.000005371094,6|12,0:0|0:0,0:0:0:0:
278,29,166828,2,0,L|380:18,1,88.000002685547,2|8,0:0|0:3,0:0:0:0:
333,110,167100,1,10,0:3:0:0:
230,215,167237,2,0,L|128:204,1,88.000002685547,10|0,0:0|0:0,0:0:0:0:
198,127,167510,38,0,L|177:329,1,176.000005371094,10|8,0:3|0:0,0:0:0:0:
114,363,167919,1,2,0:0:0:0:
32,217,168055,1,10,0:3:0:0:
32,217,168191,1,10,0:3:0:0:
183,132,168328,2,0,L|172:237,1,88.000002685547,10|2,0:0|0:0,0:0:0:0:
97,57,168600,6,0,B|176:98|176:98|233:14,1,176.000005371094,10|10,0:3|0:0,0:0:0:0:
213,19,169010,1,0,0:0:0:0:
319,87,169146,2,0,B|398:46|398:46|455:130,1,176.000005371094,10|10,0:3|0:0,0:0:0:0:
435,125,169556,1,2,0:0:0:0:
499,205,169691,5,10,0:3:0:0:
415,230,169828,1,2,0:0:0:0:
478,289,169964,1,10,0:0:0:0:
396,314,170100,1,2,0:0:0:0:
458,374,170237,2,0,L|479:279,1,88.000002685547,10|8,0:3|0:3,0:0:0:0:
349,173,170510,2,0,L|327:78,1,88.000002685547,10|8,0:0|0:3,0:0:0:0:
398,12,170714,1,8,0:3:0:0:
404,23,170782,6,0,B|372:53|372:53|234:38,1,176.000005371094,4|14,0:0|0:0,0:0:0:0:
155,26,171191,1,0,0:0:0:0:
28,142,171328,1,10,0:3:0:0:
11,57,171464,1,10,0:3:0:0:
170,114,171600,1,10,0:0:0:0:
187,199,171736,1,2,0:0:0:0:
58,293,171873,38,0,P|118:306|145:330,2,88.000002685547,10|2|10,0:3|0:0|0:0,0:0:0:0:
68,377,172282,2,0,P|141:322|237:337,1,176.000005371094,2|8,0:0|0:3,0:0:0:0:
297,371,172691,1,10,0:0:0:0:
297,371,172828,1,2,0:0:0:0:
409,228,172964,5,6,0:0:0:0:
420,313,173100,1,2,0:0:0:0:
398,143,173237,1,10,0:0:0:0:
489,261,173373,1,2,0:0:0:0:
341,281,173510,1,10,0:3:0:0:
302,260,173578,1,8,0:3:0:0:
282,222,173646,1,8,0:3:0:0:
287,179,173714,1,8,0:3:0:0:
316,146,173782,1,10,0:0:0:0:
494,85,173919,6,0,B|417:124|417:124|344:68,1,176.000005371094,6|8,0:0|0:3,0:0:0:0:
141,40,174328,2,0,B|180:11|180:11|164:169,1,176.000005371094,6|8,0:0|0:3,0:0:0:0:
159,226,174737,1,8,0:3:0:0:
25,303,174873,2,0,L|31:356,3,44.0000013427735,10|8|10|8,0:0|0:0|0:0|0:0,0:0:0:0:
36,380,175146,6,0,P|94:321|192:357,1,176.000005371094,6|8,0:0|0:0,0:0:0:0:
259,271,175555,1,0,0:0:0:0:
386,384,175691,2,0,P|332:380|298:342,1,88.000002685547,8|8,0:3|0:3,0:0:0:0:
259,271,175964,37,10,0:0:0:0:
311,185,176100,1,2,0:0:0:0:
411,187,176237,2,0,P|462:218|482:271,1,88.000002685547,10|2,0:3|0:0,0:0:0:0:
311,185,176510,2,0,P|313:92|368:24,2,176.000005371094,10|8|10,0:0|0:3|0:0,0:0:0:0:
181,372,177328,6,0,P|200:331|188:272,1,88.000002685547,10|0,0:3|0:0,0:0:0:0:
120,317,177600,1,10,0:0:0:0:
22,137,177737,5,2,0:0:0:0:
38,221,177873,1,10,0:3:0:0:
122,205,178010,1,10,0:3:0:0:
106,121,178146,1,10,0:0:0:0:
316,224,178282,6,0,B|291:262|291:262|270:217,1,88.000002685547,2|8,0:0|0:3,0:0:0:0:
285,51,178555,2,0,B|310:13|310:13|331:58,1,88.000002685547,2|8,0:0|0:0,0:0:0:0:
302,135,178828,1,2,0:0:0:0:
472,180,178964,38,0,L|379:170,1,88.000002685547,10|8,0:3|0:3,0:0:0:0:
257,354,179237,2,0,L|350:364,1,88.000002685547,10|2,0:0|0:0,0:0:0:0:
361,182,179510,6,0,L|373:387,2,176.000005371094,6|10|8,0:0|0:0|0:3,0:0:0:0:
417,105,180191,1,8,0:3:0:0:
245,27,180328,2,0,L|251:133,1,88.000002685547,8|0,0:0|0:0,0:0:0:0:
87,203,180600,37,8,0:3:0:0:
95,115,180737,1,10,0:0:0:0:
195,270,180873,5,8,0:3:0:0:
203,182,181010,1,10,0:3:0:0:
70,295,181146,70,0,L|79:205,2,88.000002685547,8|4|2,0:1|0:1|0:1,0:0:0:0:
183,384,181691,5,4,0:0:0:0:
256,192,199146,85,4,0:0:0:0:
256,192,199214,12,0,200714,0:0:0:0:
256,227,200782,70,0,P|271:263|277:296,1,71.9999978027344,2|0,0:0|0:0,0:0:0:0:
253,373,201328,1,8,0:3:0:0:
61,224,201464,22,0,B|96:323|96:323|224:304,1,207.999990478516,6|0,0:0|0:0,0:0:0:0:
452,131,201873,2,0,B|417:230|417:230|289:211,1,207.999990478516,6|0,0:0|0:0,0:0:0:0:
134,19,202282,6,0,L|156:232,1,207.999990478516,6|0,0:0|0:0,0:0:0:0:
378,19,202691,2,0,L|363:162,1,103.999995239258,6|0,0:0|0:0,0:0:0:0:
256,192,202964,5,8,0:1:0:0:
256,276,203100,1,4,0:1:0:0:
256,360,203237,1,2,0:1:0:0:
260,188,203510,37,4,0:0:0:0:
384,140,210055,6,0,B|426:183|426:183|400:252,1,120.000004577637,6|0,0:0|0:0,0:0:0:0:
214,364,210328,2,0,B|172:321|172:321|198:252,1,120.000004577637,14|0,0:0|0:0,0:0:0:0:
379,133,210600,5,10,0:3:0:0:
301,250,210737,1,10,0:3:0:0:
239,124,210873,1,10,0:0:0:0:
441,35,211010,5,6,0:0:0:0:
274,1,211146,1,2,0:0:0:0:
158,127,211282,2,0,P|157:188|309:245,1,240.000009155274,10|0,0:3|0:0,0:0:0:0:
512,290,211691,5,10,0:0:0:0:
470,296,211759,1,8,0:0:0:0:
429,303,211827,1,8,0:0:0:0:
387,310,211895,1,8,0:0:0:0:
353,330,211964,5,10,0:0:0:0:
323,325,212032,1,8,0:0:0:0:
293,320,212100,1,8,0:0:0:0:
264,315,212168,1,8,0:0:0:0:
234,310,212237,6,0,P|216:258|243:210,1,95.9999970703126,6|8,0:0|0:0,0:0:0:0:
156,176,212782,2,0,P|177:151|210:150,1,47.9999985351563,2|8,0:0|0:3,0:0:0:0:
274,147,213055,1,10,0:0:0:0:
384,27,213328,70,0,P|425:63|426:118,1,95.9999970703126,10|8,0:3|0:0,0:0:0:0:
430,101,214009,1,10,0:3:0:0:
425,203,214146,2,0,P|403:227|370:228,1,47.9999985351563,10|0,0:0|0:0,0:0:0:0:
333,293,214419,6,0,P|289:275|267:233,1,95.9999970703126,10|10,0:3|0:0,0:0:0:0:
191,252,214964,2,0,P|185:219|206:194,1,47.9999985351563,2|10,0:0|0:3,0:0:0:0:
254,151,215237,1,10,0:0:0:0:
172,13,215510,70,0,P|142:49|145:96,1,95.9999970703126,8|8,0:3|0:0,0:0:0:0:
145,96,216191,1,10,0:3:0:0:
218,143,216328,1,10,0:0:0:0:
147,185,216464,1,2,0:0:0:0:
147,185,216532,1,0,0:0:0:0:
147,185,216600,6,0,P|177:221|174:268,1,95.9999970703126,10|8,0:3|0:0,0:0:0:0:
174,267,217282,1,10,0:3:0:0:
144,365,217419,2,0,P|113:379|84:365,1,47.9999985351563,10|2,0:0|0:0,0:0:0:0:
230,338,217691,70,0,P|253:339|273:326,1,47.9999985351563,10|2,0:3|0:0,0:0:0:0:
316,261,217964,1,8,0:0:0:0:
316,261,218237,1,2,0:0:0:0:
364,331,218373,1,10,0:3:0:0:
422,269,218510,2,0,P|457:272|442:323,1,95.9999970703126,10|8,0:0|0:3,0:0:0:0:
316,261,219328,21,4,0:0:0:0:
266,88,219464,1,8,0:3:0:0:
266,88,219601,1,8,0:3:0:0:
316,261,219737,5,4,0:0:0:0:
366,88,219873,1,8,0:3:0:0:
366,88,220010,1,8,0:3:0:0:
512,154,220146,5,8,0:0:0:0:
480,155,220214,1,8,0:0:0:0:
448,156,220282,1,8,0:0:0:0:
417,157,220350,1,8,0:0:0:0:
377,177,220419,5,10,0:0:0:0:
346,178,220487,1,8,0:0:0:0:
314,179,220555,1,8,0:0:0:0:
282,181,220623,1,8,0:0:0:0:
247,207,220691,37,10,0:0:0:0:
216,208,220759,1,8,0:0:0:0:
184,209,220827,1,8,0:0:0:0:
152,210,220895,1,8,0:0:0:0:
116,229,220964,6,0,P|89:326|153:380,1,191.999994140625,6|12,0:0|0:0,0:0:0:0:
285,262,221373,1,0,0:0:0:0:
116,218,221510,2,0,L|14:229,1,95.9999970703126,10|8,0:3|0:3,0:0:0:0:
278,73,221782,2,0,L|176:62,1,95.9999970703126,10|0,0:0|0:0,0:0:0:0:
448,204,222055,6,0,B|428:247|428:247|274:263,2,191.999994140625,10|8|8,0:3|0:0|0:3,0:0:0:0:
505,26,222737,1,10,0:3:0:0:
358,62,222873,1,10,0:0:0:0:
505,26,223010,1,2,0:0:0:0:
358,62,223146,6,0,P|299:57|251:25,1,95.9999970703126,10|0,0:3|0:0,0:0:0:0:
199,223,223419,1,10,0:0:0:0:
284,261,223555,2,0,P|291:214|260:152,1,95.9999970703126,2|8,0:0|0:3,0:0:0:0:
115,185,223828,2,0,P|108:232|139:294,1,95.9999970703126,10|8,0:3|0:0,0:0:0:0:
188,117,224100,1,2,0:0:0:0:
210,329,224237,38,0,P|282:290|373:361,1,191.999994140625,8|8,0:3|0:0,0:0:0:0:
284,382,224646,1,0,0:0:0:0:
357,145,224782,1,10,0:3:0:0:
367,246,224918,1,10,0:3:0:0:
377,347,225055,1,10,0:0:0:0:
446,199,225191,6,0,P|408:235|340:243,1,95.9999970703126,2|4,0:0|0:0,0:0:0:0:
273,89,225464,2,0,P|311:53|379:45,1,95.9999970703126,2|8,0:0|0:0,0:0:0:0:
357,145,225737,1,2,0:0:0:0:
197,214,225873,5,10,0:3:0:0:
209,310,226010,1,10,0:3:0:0:
284,251,226146,5,10,0:0:0:0:
123,271,226283,1,2,0:0:0:0:
103,110,226419,1,10,0:3:0:0:
264,90,226555,2,0,L|459:115,1,191.999994140625,2|2,0:0|0:0,0:0:0:0:
379,326,226964,37,10,0:3:0:0:
454,221,227100,1,10,0:3:0:0:
469,311,227237,1,10,0:0:0:0:
364,235,227373,1,2,0:0:0:0:
170,343,227510,6,0,B|212:367|212:367|270:351,1,95.9999970703126,6|0,0:0|0:0,0:0:0:0:
278,158,227782,2,0,B|236:134|236:134|178:150,1,95.9999970703126,10|0,0:0|0:0,0:0:0:0:
165,334,228055,1,10,0:3:0:0:
201,345,228123,1,8,0:3:0:0:
237,337,228191,1,10,0:3:0:0:
265,311,228259,1,8,0:3:0:0:
275,274,228327,1,10,0:0:0:0:
96,196,228464,6,0,B|45:189|45:189|-14:217,1,95.9999970703126,6|0,0:0|0:0,0:0:0:0:
160,23,228737,6,0,B|140:180|218:101|194:266,1,240.000009155274,6|0,0:0|0:0,0:0:0:0:
14,357,229146,38,0,P|74:321|120:329,1,95.9999970703126,10|0,0:3|0:0,0:0:0:0:
258,364,229419,2,0,P|286:369|324:365,3,47.9999985351563,10|8|8|8,0:0|0:0|0:0|0:0,0:0:0:0:
355,360,229691,6,0,P|397:280|317:212,1,191.999994140625,6|12,0:0|0:0,0:0:0:0:
233,280,230100,1,0,0:0:0:0:
430,208,230237,2,0,L|311:199,1,95.9999970703126,10|8,0:3|0:3,0:0:0:0:
252,53,230510,2,0,L|133:44,1,95.9999970703126,10|0,0:0|0:0,0:0:0:0:
1,177,230782,6,0,B|35:143|35:143|188:153,1,191.999994140625,10|8,0:3|0:0,0:0:0:0:
406,318,231328,1,10,0:3:0:0:
259,363,231464,1,10,0:3:0:0:
406,318,231600,1,10,0:0:0:0:
259,363,231736,1,2,0:0:0:0:
373,220,231873,6,0,L|489:239,1,95.9999970703126,10|0,0:3|0:0,0:0:0:0:
409,27,232146,2,0,L|293:8,1,95.9999970703126,10|0,0:0|0:0,0:0:0:0:
272,158,232419,1,10,0:3:0:0:
391,123,232555,1,10,0:3:0:0:
510,88,232691,1,10,0:0:0:0:
272,158,232828,38,0,P|251:219|269:279,1,95.9999970703126,2|8,0:0|0:3,0:0:0:0:
317,331,233100,1,2,0:0:0:0:
159,242,233237,2,0,L|376:255,1,191.999994140625,8|8,0:0|0:3,0:0:0:0:
383,175,233646,1,8,0:3:0:0:
486,311,233782,2,0,P|507:250|489:190,1,95.9999970703126,10|0,0:0|0:0,0:0:0:0:
410,54,234055,6,8,L|173:67,2,191.999994140625,6|8|8,0:0|0:0|0:3,0:0:0:0:
502,135,234737,1,0,0:0:0:0:
350,253,234873,2,0,L|243:247,1,95.9999970703126,10|0,0:0|0:0,0:0:0:0:
55,312,235146,6,0,P|108:362|218:320,1,191.999994140625,10|8,0:3|0:0,0:0:0:0:
164,254,235555,1,2,0:0:0:0:
350,253,235691,1,10,0:3:0:0:
302,360,235828,1,10,0:3:0:0:
164,254,235964,1,10,0:0:0:0:
212,147,236101,1,2,0:0:0:0:
399,141,236237,6,0,P|446:172|467:238,1,95.9999970703126,6|0,0:0|0:0,0:0:0:0:
288,110,236510,1,10,0:0:0:0:
261,76,236578,1,8,0:0:0:0:
221,60,236646,1,8,0:0:0:0:
179,66,236714,1,8,0:0:0:0:
145,93,236782,1,8,0:0:0:0:
285,130,236919,2,0,P|241:162|184:150,1,95.9999970703126,8|8,0:3|0:3,0:0:0:0:
8,59,237191,38,0,B|23:34|29:16|29:16|43:180,1,191.999994140625,6|8,0:0|0:3,0:0:0:0:
197,232,237600,2,0,B|187:215|183:204|183:204|174:309,1,95.9999970703126,6|0,0:0|0:0,0:0:0:0:
101,330,237873,5,10,0:3:0:0:
133,304,237941,1,8,0:3:0:0:
175,299,238009,1,8,0:3:0:0:
213,318,238077,1,8,0:3:0:0:
235,354,238145,5,10,0:0:0:0:
268,379,238214,1,8,0:0:0:0:
309,384,238282,1,8,0:0:0:0:
347,365,238350,1,8,0:0:0:0:
369,329,238419,6,0,B|388:289|388:289|362:144,1,176.000005371094,6|12,0:0|0:0,0:0:0:0:
276,139,238828,1,2,0:0:0:0:
421,83,238964,2,0,B|378:63|378:63|322:72,1,88.000002685547,10|8,0:3|0:3,0:0:0:0:
212,211,239237,1,10,0:0:0:0:
212,211,239373,1,2,0:0:0:0:
27,139,239510,38,0,B|54:105|54:105|196:122,1,176.000005371094,10|8,0:3|0:0,0:0:0:0:
212,211,239919,1,2,0:0:0:0:
81,300,240055,1,10,0:3:0:0:
81,300,240191,1,10,0:3:0:0:
215,376,240328,2,0,L|304:366,1,88.000002685547,10|2,0:0|0:0,0:0:0:0:
479,343,240600,6,0,B|436:264|436:264|396:367,1,176.000005371094,10|10,0:3|0:0,0:0:0:0:
401,359,241010,1,0,0:0:0:0:
269,223,241146,2,0,B|237:303|237:303|195:225,1,176.000005371094,10|10,0:3|0:0,0:0:0:0:
190,213,241555,1,2,0:0:0:0:
374,170,241691,5,10,0:3:0:0:
374,170,241828,1,2,0:0:0:0:
451,102,241964,2,0,P|495:129|506:179,1,88.000002685547,10|0,0:0|0:0,0:0:0:0:
347,65,242237,2,0,P|384:29|435:31,1,88.000002685547,10|8,0:3|0:3,0:0:0:0:
280,153,242510,2,0,P|255:107|270:58,1,88.000002685547,10|8,0:0|0:3,0:0:0:0:
354,53,242714,1,8,0:3:0:0:
347,65,242782,6,0,B|371:100|371:100|344:267,1,176.000005371094,4|14,0:0|0:0,0:0:0:0:
338,316,243191,1,0,0:0:0:0:
431,235,243328,2,0,B|388:217|388:217|328:238,1,88.000002685547,10|10,0:3|0:3,0:0:0:0:
220,334,243600,1,10,0:0:0:0:
220,334,243737,1,2,0:0:0:0:
96,246,243873,37,10,0:3:0:0:
122,161,244010,1,2,0:0:0:0:
70,331,244146,1,10,0:0:0:0:
35,182,244282,2,0,B|144:181|92:246|205:245,1,176.000005371094,2|8,0:0|0:3,0:0:0:0:
324,164,244691,2,0,P|276:140|233:142,1,88.000002685547,10|0,0:0|0:0,0:0:0:0:
443,242,244964,6,0,B|406:270|406:270|413:126,1,176.000005371094,6|12,0:0|0:0,0:0:0:0:
416,54,245373,1,2,0:0:0:0:
228,69,245510,1,10,0:3:0:0:
267,72,245578,1,8,0:3:0:0:
300,92,245646,1,8,0:3:0:0:
321,125,245714,1,8,0:3:0:0:
324,164,245782,1,10,0:0:0:0:
140,18,245919,6,0,B|128:106|128:106|176:203,1,176.000005371094,6|8,0:0|0:3,0:0:0:0:
379,279,246328,2,0,P|389:245|295:251,1,176.000005371094,6|8,0:0|0:3,0:0:0:0:
311,332,246737,1,8,0:3:0:0:
154,296,246873,2,0,L|90:306,3,44.0000013427735,10|8|10|8,0:0|0:0|0:0|0:0,0:0:0:0:
73,331,247146,70,0,L|83:158,1,160,6|8,0:0|0:0,0:0:0:0:
87,88,247555,1,0,0:0:0:0:
167,59,247691,2,0,P|172:105|143:152,1,80,10|8,0:3|0:3,0:0:0:0:
11,117,247964,2,0,P|6:71|35:24,1,80,10|0,0:0|0:0,0:0:0:0:
167,59,248237,54,0,L|351:80,1,160,10|8,0:3|0:0,0:0:0:0:
434,190,248646,2,0,L|250:169,1,160,2|8,0:0|0:3,0:0:0:0:
206,240,249055,1,10,0:0:0:0:
206,240,249191,1,0,0:0:0:0:
294,357,249328,22,0,P|355:373|431:303,1,160,10|8,0:3|0:0,0:0:0:0:
344,286,249737,1,0,0:0:0:0:
415,233,249873,2,0,L|424:146,1,80,10|10,0:3|0:3,0:0:0:0:
275,89,250146,2,0,L|283:9,1,80,10|0,0:0|0:0,0:0:0:0:
349,122,250419,54,0,P|312:159|199:117,1,160,10|8,0:3|0:0,0:0:0:0:
160,56,250828,2,0,P|123:19|11:61,1,160,2|8,0:0|0:3,0:0:0:0:
77,176,251237,1,10,0:0:0:0:
85,89,251373,1,2,0:0:0:0:
221,245,251510,22,0,L|43:259,1,160,6|8,0:0|0:0,0:0:0:0:
113,344,251919,1,0,0:0:0:0:
225,239,252055,2,0,P|185:217|135:219,1,80,10|8,0:3|0:3,0:0:0:0:
113,344,252328,2,0,P|153:366|203:364,1,80,10|0,0:0|0:0,0:0:0:0:
308,281,252600,54,0,L|316:108,1,160,10|8,0:3|0:0,0:0:0:0:
414,34,253010,2,0,L|406:207,1,160,2|8,0:0|0:3,0:0:0:0:
495,255,253419,1,10,0:0:0:0:
500,167,253555,1,2,0:0:0:0:
308,281,253691,22,0,P|384:265|450:342,1,160,10|8,0:3|0:0,0:0:0:0:
362,351,254100,1,0,0:0:0:0:
293,206,254237,2,0,L|299:305,1,80,10|8,0:3|0:3,0:0:0:0:
401,144,254510,2,0,L|395:243,1,80,10|0,0:0|0:0,0:0:0:0:
468,101,254782,54,0,P|419:67|327:117,1,160,10|8,0:3|0:0,0:0:0:0:
293,206,255191,1,10,0:0:0:0:
251,109,255328,1,10,0:3:0:0:
194,246,255464,1,10,0:3:0:0:
324,317,255600,1,10,0:0:0:0:
384,177,255737,1,2,0:0:0:0:
150,167,255873,6,0,P|105:227|172:335,1,207.999990478516,6|8,0:0|0:0,0:0:0:0:
293,206,256282,1,8,0:0:0:0:
341,64,256419,1,10,0:3:0:0:
195,17,256555,1,8,0:3:0:0:
150,167,256692,1,8,0:0:0:0:
251,109,256828,1,0,0:0:0:0:
41,90,256964,6,0,L|62:310,1,207.999990478516,6|8,0:0|0:0,0:0:0:0:
196,363,257373,1,8,0:0:0:0:
326,239,257510,2,0,P|335:181|306:122,1,103.999995239258,10|8,0:3|0:3,0:0:0:0:
158,175,257782,1,8,0:0:0:0:
324,352,257919,1,0,0:0:0:0:
476,182,258055,6,0,P|437:119|316:141,1,207.999990478516,6|8,0:0|0:0,0:0:0:0:
240,291,258464,1,8,0:0:0:0:
335,356,258600,2,0,L|438:339,1,103.999995239258,10|8,0:3|0:3,0:0:0:0:
478,165,258873,1,8,0:0:0:0:
317,188,259010,1,0,0:0:0:0:
246,378,259146,6,0,L|20:355,1,207.999990478516,6|8,0:0|0:0,0:0:0:0:
24,181,259555,1,8,0:0:0:0:
173,239,259691,2,0,P|170:300|131:346,1,103.999995239258,10|10,0:3|0:3,0:0:0:0:
24,181,259964,1,8,0:0:0:0:
62,47,260100,1,0,0:0:0:0:
266,86,260237,38,0,P|341:138|311:267,1,207.999990478516,6|8,0:0|0:0,0:0:0:0:
245,324,260646,1,8,0:0:0:0:
411,354,260782,2,0,L|419:220,1,103.999995239258,10|8,0:3|0:3,0:0:0:0:
256,185,261055,1,8,0:0:0:0:
245,324,261191,1,0,0:0:0:0:
496,244,261328,6,0,L|508:26,1,207.999990478516,6|8,0:0|0:0,0:0:0:0:
403,126,261737,1,8,0:0:0:0:
311,21,261873,1,10,0:3:0:0:
184,144,262010,1,8,0:3:0:0:
276,251,262146,1,8,0:0:0:0:
293,135,262282,1,0,0:0:0:0:
176,290,262419,6,0,P|197:347|346:346,1,207.999990478516,6|10,0:0|0:0,0:0:0:0:
406,260,262828,1,8,0:0:0:0:
293,135,262964,2,0,P|236:143|193:182,1,103.999995239258,10|10,0:3|0:3,0:0:0:0:
406,260,263237,1,10,0:0:0:0:
500,153,263373,1,0,0:0:0:0:
389,34,263510,6,0,L|397:142,1,103.999995239258,6|8,0:0|0:3,0:0:0:0:
356,353,263782,1,6,0:0:0:0:
274,219,263919,37,8,0:3:0:0:
356,353,264055,1,6,0:0:0:0:
425,218,264191,1,8,0:3:0:0:
259,351,264328,1,4,0:0:0:0:
227,353,264396,1,8,0:0:0:0:
196,355,264464,1,8,0:0:0:0:
165,358,264532,1,8,0:0:0:0:
134,361,264600,6,0,L|14:348,1,103.999995239258,6|0,0:0|0:0,0:0:0:0:
95,264,264873,1,10,0:0:0:0:
46,147,265010,5,0,0:0:0:0:
147,73,265146,1,14,0:0:0:0:
204,266,265282,1,8,0:3:0:0:
88,255,265419,1,10,0:0:0:0:
251,151,265555,1,8,0:3:0:0:
400,135,265691,6,0,L|535:122,1,103.999995239258,14|8,0:0|0:3,0:0:0:0:
459,215,265964,1,14,0:0:0:0:
303,82,266100,37,0,0:0:0:0:
164,156,266237,2,0,L|175:275,1,103.999995239258,14|0,0:0|0:0,0:0:0:0:
252,348,266510,1,10,0:0:0:0:
252,348,266646,1,0,0:0:0:0:
463,155,266782,5,14,0:0:0:0:
425,361,266918,1,0,0:0:0:0:
444,258,267055,1,10,0:0:0:0:
363,189,267191,6,0,P|346:184|367:188,2,103.999995239258,0|14|0,0:0|0:0|0:0,0:0:0:0:
424,361,267600,5,10,0:0:0:0:
265,225,267737,1,0,0:0:0:0:
344,293,267873,1,14,0:0:0:0:
284,122,268010,38,0,P|331:81|399:91,2,103.999995239258,0|14|2,0:0|0:0|0:0,0:0:0:0:
204,54,268419,5,14,0:0:0:0:
184,157,268555,1,2,0:0:0:0:
364,190,268691,5,10,0:0:0:0:
344,293,268827,1,0,0:0:0:0:
174,363,268964,6,0,B|223:379|223:379|284:351,1,103.999995239258,14|8,0:0|0:3,0:0:0:0:
184,157,269237,2,0,B|135:141|135:141|74:169,1,103.999995239258,10|8,0:0|0:3,0:0:0:0:
9,326,269510,37,10,0:0:0:0:
136,238,269646,1,8,0:0:0:0:
140,256,269714,1,8,0:0:0:0:
144,274,269782,1,10,0:0:0:0:
87,162,269919,1,8,0:3:0:0:
256,193,270055,1,10,0:0:0:0:
256,193,270737,5,8,0:3:0:0:
314,353,270873,2,0,B|331:303|331:303|304:249,1,103.999995239258,8|0,0:0|0:0,0:0:0:0:
203,126,271146,6,0,B|181:81|181:81|198:31,2,103.999995239258,4|0|0,0:0|0:0|0:0,0:0:0:0:
336,187,271555,2,0,L|511:202,1,155.999992858887,0|0,0:0|0:0,0:0:0:0:
512,202,271828,1,4,0:0:0:0:
383,296,271964,2,0,L|259:305,1,103.999995239258,0|0,0:0|0:0,0:0:0:0:
176,197,272237,6,0,L|36:185,1,103.999995239258,4|0,0:0|0:0,0:0:0:0:
336,187,272510,6,0,L|447:198,1,105.599999677734,4|0,0:0|0:0,0:0:0:0:
