osu file format v14

[General]
AudioFilename: audio.mp3
AudioLeadIn: 0
PreviewTime: 61085
Countdown: 0
SampleSet: Soft
StackLeniency: 0.7
Mode: 0
LetterboxInBreaks: 0
WidescreenStoryboard: 0

[Editor]
Bookmarks: 90055,107517
DistanceSpacing: 1.2
BeatDivisor: 4
GridSize: 4
TimelineZoom: 2.599999

[Metadata]
Title:Hachigatsu, Bou, Tsukiakari
TitleUnicode:八月、某、月明かり
Artist:Yorushika
ArtistUnicode:ヨルシカ
Creator:Rieri
Version:Elma
Source:
Tags:that's why i gave up on music n-buna nabuna suis ナブナ エルマ japanese pop j-pop elma
BeatmapID:2348878
BeatmapSetID:1124086

[Difficulty]
HPDrainRate:5.5
CircleSize:4.2
OverallDifficulty:9
ApproachRate:9.5
SliderMultiplier:1.7
SliderTickRate:1

[Events]
//Background and Video events
0,0,"ysbg5.jpg",0,0
//Break Periods
2,181891,198621
2,203710,209530
//Storyboard Layer 0 (Background)
//Storyboard Layer 1 (Fail)
//Storyboard Layer 2 (Pass)
//Storyboard Layer 3 (Foreground)
//Storyboard Layer 4 (Overlay)
//Storyboard Sound Samples

[TimingPoints]
-490,272.727272727273,4,2,1,30,1,0
55,-100,4,2,9,30,0,0
532,-142.857142857143,4,2,10,30,0,0
2782,-100,4,2,1,50,0,0
20237,-125,4,2,1,50,0,0
21055,-166.666666666667,4,2,1,40,0,0
22419,-200,4,2,9,30,0,0
24055,-333.333333333333,4,2,10,20,0,0
24600,-125,4,2,9,40,0,0
32782,-125,4,2,10,40,0,0
33328,-125,4,2,9,40,0,0
41510,-125,4,2,1,40,0,0
42055,-100,4,2,1,50,0,0
57328,-200,4,2,1,50,0,0
58555,-142.857142857143,4,2,1,50,0,0
59100,-142.857142857143,4,2,10,50,0,0
59373,-100,4,2,1,50,0,0
60328,-66.6666666666667,4,2,1,50,0,0
61691,-83.3333333333333,4,2,1,70,0,1
69464,-66.6666666666667,4,2,1,70,0,1
69737,-66.6666666666667,4,2,1,70,0,1
69873,-83.3333333333333,4,2,1,70,0,0
70419,-83.3333333333333,4,2,1,70,0,1
79146,-90.9090909090909,4,2,1,70,0,1
88964,-100,4,2,1,50,0,0
107510,-125,4,2,1,50,0,0
108328,-166.666666666667,4,2,1,40,0,0
108873,-250,4,2,1,30,0,0
109691,-200,4,2,9,30,0,0
111328,-333.333333333333,4,2,9,20,0,0
111873,-125,4,2,9,40,0,0
119646,-125,4,2,10,40,0,0
120600,-125,4,2,9,40,0,0
128782,-125,4,2,10,40,0,0
129328,-100,4,2,1,50,0,0
144600,-200,4,2,1,50,0,0
145555,-142.857142857143,4,2,1,50,0,0
146646,-100,4,2,1,50,0,0
147737,-66.6666666666667,4,2,1,50,0,0
148964,-83.3333333333333,4,2,1,70,0,1
156737,-66.6666666666667,4,2,1,70,0,1
157146,-83.3333333333333,4,2,1,70,0,0
157691,-83.3333333333333,4,2,1,70,0,1
166419,-90.9090909090909,4,2,1,70,0,1
181146,-90.9090909090909,4,2,10,70,0,1
181419,-200,4,2,10,70,0,1
181623,-200,4,2,1,5,0,1
181691,-200,4,2,1,50,0,0
200714,-200,4,2,1,20,0,0
200782,-333.333333333333,4,2,1,30,0,0
201328,-76.9230769230769,4,2,1,60,0,0
202964,-76.9230769230769,4,2,10,60,0,0
203510,-76.9230769230769,4,2,1,60,0,0
210055,-62.5,4,2,1,70,0,1
212237,-166.666666666667,4,2,1,40,0,0
219328,-100,4,2,1,50,0,0
220964,-83.3333333333333,4,2,1,70,0,1
228737,-66.6666666666667,4,2,1,70,0,1
229146,-83.3333333333333,4,2,1,70,0,0
229691,-83.3333333333333,4,2,1,70,0,1
238419,-90.9090909090909,4,2,1,70,0,1
247146,-100,4,2,1,70,0,0
255873,-76.9230769230769,4,2,96,80,0,1
256010,-76.9230769230769,4,2,1,80,0,1
256419,-76.9230769230769,4,2,96,80,0,1
256555,-76.9230769230769,4,2,1,80,0,1
256964,-76.9230769230769,4,2,97,80,0,1
257100,-76.9230769230769,4,2,1,80,0,1
257510,-76.9230769230769,4,2,97,80,0,1
257646,-76.9230769230769,4,2,1,80,0,1
258055,-76.9230769230769,4,2,97,80,0,1
258191,-76.9230769230769,4,2,1,80,0,1
258600,-76.9230769230769,4,2,97,80,0,1
258737,-76.9230769230769,4,2,1,80,0,1
259146,-76.9230769230769,4,2,96,80,0,1
259282,-76.9230769230769,4,2,1,80,0,1
259691,-76.9230769230769,4,2,97,80,0,1
259828,-76.9230769230769,4,2,98,80,0,1
259964,-76.9230769230769,4,2,1,80,0,1
260237,-76.9230769230769,4,2,96,80,0,1
260373,-76.9230769230769,4,2,1,80,0,1
260782,-76.9230769230769,4,2,99,80,0,1
260919,-76.9230769230769,4,2,1,80,0,1
261328,-76.9230769230769,4,2,97,80,0,1
261464,-76.9230769230769,4,2,1,80,0,1
261873,-76.9230769230769,4,2,97,80,0,1
262010,-76.9230769230769,4,2,1,80,0,1
262419,-76.9230769230769,4,2,96,80,0,1
262555,-76.9230769230769,4,2,1,80,0,1
262691,-76.9230769230769,4,2,94,80,0,1
262828,-76.9230769230769,4,2,1,80,0,1
262964,-76.9230769230769,4,2,96,80,0,1
263100,-76.9230769230769,4,2,97,80,0,1
263237,-76.9230769230769,4,2,98,80,0,1
263373,-76.9230769230769,4,2,1,80,0,1
263510,-76.9230769230769,4,2,96,80,0,1
263646,-76.9230769230769,4,2,1,80,0,1
263782,-76.9230769230769,4,2,94,80,0,1
263919,-76.9230769230769,4,2,1,80,0,1
264055,-76.9230769230769,4,2,96,80,0,1
264191,-76.9230769230769,4,2,1,80,0,1
264328,-76.9230769230769,4,2,1,80,0,0
264600,-76.9230769230769,4,2,99,80,0,1
264737,-76.9230769230769,4,2,1,80,0,1
264873,-76.9230769230769,4,2,96,80,0,1
265010,-76.9230769230769,4,2,1,80,0,1
265146,-76.9230769230769,4,2,97,80,0,1
265282,-76.9230769230769,4,2,1,80,0,1
265419,-76.9230769230769,4,2,96,80,0,1
265555,-76.9230769230769,4,2,1,80,0,1
265691,-76.9230769230769,4,2,93,80,0,1
265828,-76.9230769230769,4,2,1,80,0,1
265964,-76.9230769230769,4,2,98,80,0,1
266100,-76.9230769230769,4,2,1,80,0,1
266237,-76.9230769230769,4,2,97,80,0,1
266373,-76.9230769230769,4,2,1,80,0,1
266510,-76.9230769230769,4,2,96,80,0,1
266646,-76.9230769230769,4,2,1,80,0,1
266782,-76.9230769230769,4,2,95,80,0,1
266919,-76.9230769230769,4,2,1,80,0,1
267055,-76.9230769230769,4,2,96,80,0,1
267191,-76.9230769230769,4,2,1,80,0,1
267328,-76.9230769230769,4,2,97,80,0,1
267464,-76.9230769230769,4,2,1,80,0,1
267600,-76.9230769230769,4,2,95,80,0,1
267737,-76.9230769230769,4,2,1,80,0,1
267873,-76.9230769230769,4,2,96,80,0,1
268010,-76.9230769230769,4,2,1,80,0,1
268146,-76.9230769230769,4,2,96,80,0,1
268282,-76.9230769230769,4,2,97,80,0,1
268419,-76.9230769230769,4,2,98,80,0,1
268555,-76.9230769230769,4,2,97,80,0,1
268691,-76.9230769230769,4,2,96,80,0,1
268828,-76.9230769230769,4,2,1,80,0,1
268964,-76.9230769230769,4,2,99,80,0,1
269100,-76.9230769230769,4,2,1,80,0,1
269237,-76.9230769230769,4,2,96,80,0,1
269373,-76.9230769230769,4,2,1,80,0,1
269510,-76.9230769230769,4,2,97,80,0,1
269646,-76.9230769230769,4,2,1,80,0,1
269782,-76.9230769230769,4,2,96,80,0,1
269919,-76.9230769230769,4,2,1,80,0,1
270055,-76.9230769230769,4,2,97,80,0,0
270191,-76.9230769230769,4,2,1,80,0,0
271146,-76.9230769230769,4,2,1,80,0,1
271214,-76.9230769230769,4,2,1,80,0,0
271828,-76.9230769230769,4,2,1,80,0,1
271896,-76.9230769230769,4,2,1,80,0,0
272237,-76.9230769230769,4,2,1,80,0,1
272305,-76.9230769230769,4,2,1,80,0,0
272510,-303.030303030303,4,2,1,60,0,1
273055,-303.030303030303,4,2,1,10,0,0

[Colours]
Combo1 : 239,177,179
Combo2 : 254,188,78
Combo3 : 252,106,99
Combo4 : 210,106,255
Combo5 : 106,210,255
Combo6 : 185,185,185

[HitObjects]
226,153,55,69,0,1:0:0:0:
281,90,328,1,0,1:0:0:0:
241,24,464,1,2,0:0:0:0:
241,24,532,1,2,0:0:0:0:
241,24,600,6,0,P|253:128|259:157,1,118.999996368408,6|0,0:0|0:0,0:0:0:0:
288,212,1010,1,8,0:0:0:0:
291,220,1078,1,8,0:0:0:0:
291,229,1146,69,8,1:0:0:0:
190,256,1328,1,4,1:0:0:0:
89,283,1510,1,2,1:0:0:0:
291,229,1691,5,8,3:0:0:0:
296,235,2373,1,8,0:0:0:0:
351,176,2510,2,0,P|350:140|343:101,1,59.4999981842042,10|0,0:3|0:0,0:0:0:0:
198,15,2782,5,6,0:0:0:0:
175,99,2919,1,2,0:0:0:0:
175,99,2987,1,2,0:0:0:0:
175,99,3055,1,10,0:0:0:0:
151,177,3191,1,0,0:0:0:0:
257,74,3328,5,10,0:3:0:0:
89,117,3464,1,8,0:3:0:0:
175,99,3600,1,10,0:0:0:0:
175,99,3669,1,2,0:0:0:0:
175,99,3737,1,2,0:0:0:0:
267,222,3873,6,0,B|239:190|239:190|92:223,1,170,10|10,0:3|0:0,0:0:0:0:
108,235,4282,1,2,0:0:0:0:
169,316,4419,2,0,L|262:323,1,85,10|10,3:0|3:0,0:0:0:0:
338,328,4691,1,10,0:0:0:0:
455,145,4964,5,10,0:3:0:0:
470,240,5100,1,2,0:0:0:0:
470,240,5169,1,2,0:0:0:0:
470,240,5237,1,10,0:0:0:0:
381,204,5373,1,0,0:0:0:0:
475,328,5510,37,10,0:3:0:0:
455,145,5646,1,8,0:3:0:0:
470,240,5782,1,10,0:0:0:0:
470,240,5850,1,2,0:0:0:0:
470,240,5919,1,2,0:0:0:0:
372,116,6055,5,10,0:3:0:0:
300,165,6191,1,2,0:0:0:0:
214,160,6328,1,10,0:0:0:0:
148,58,6464,2,0,B|174:92|174:92|154:238,1,170,2|8,0:0|0:3,0:0:0:0:
142,299,6873,1,10,0:0:0:0:
300,165,7146,5,6,0:0:0:0:
323,249,7283,1,2,0:0:0:0:
323,249,7351,1,2,0:0:0:0:
323,249,7419,1,10,0:0:0:0:
347,327,7555,1,0,0:0:0:0:
241,224,7692,5,10,0:3:0:0:
409,267,7828,1,8,0:3:0:0:
323,249,7964,1,10,0:0:0:0:
323,249,8033,1,2,0:0:0:0:
323,249,8101,1,2,0:0:0:0:
453,149,8237,38,0,B|424:182|424:182|295:164,1,170,10|10,0:3|0:0,0:0:0:0:
283,150,8646,1,2,0:0:0:0:
334,50,8782,2,0,L|426:40,1,85,10|10,0:3|0:3,0:0:0:0:
506,30,9055,1,10,0:0:0:0:
502,274,9328,6,0,B|421:244|421:244|322:291,1,170,6|8,0:0|0:0,0:0:0:0:
339,297,9737,1,2,0:0:0:0:
256,205,9873,1,10,0:3:0:0:
260,194,9941,1,8,0:3:0:0:
264,182,10010,1,10,0:3:0:0:
237,283,10146,1,10,0:0:0:0:
371,121,10282,6,0,B|292:154|292:154|198:116,1,170,4|10,0:0|0:3,0:0:0:0:
92,11,10691,1,14,0:0:0:0:
104,94,10828,1,2,0:0:0:0:
116,177,10964,2,0,L|132:276,1,85,2|0,0:0|0:0,0:0:0:0:
220,358,11237,1,8,0:0:0:0:
223,328,11305,1,8,0:0:0:0:
226,298,11373,1,8,0:0:0:0:
229,269,11441,1,8,0:0:0:0:
233,239,11509,5,6,0:0:0:0:
326,209,11646,1,2,0:0:0:0:
326,209,11714,1,2,0:0:0:0:
326,209,11782,1,10,0:0:0:0:
406,257,11919,1,0,0:0:0:0:
246,161,12055,37,10,0:3:0:0:
419,179,12191,1,8,0:3:0:0:
326,209,12328,1,10,0:0:0:0:
326,209,12396,1,2,0:0:0:0:
326,209,12464,1,2,0:0:0:0:
230,75,12600,6,0,L|404:96,1,170,10|10,0:3|0:0,0:0:0:0:
410,116,13010,1,2,0:0:0:0:
455,224,13146,2,0,B|415:206|415:206|346:222,1,85,10|10,0:3|0:3,0:0:0:0:
298,240,13419,1,10,0:0:0:0:
157,364,13691,5,10,0:3:0:0:
137,277,13828,1,2,0:0:0:0:
137,277,13896,1,2,0:0:0:0:
137,277,13964,1,10,0:0:0:0:
49,300,14100,1,0,0:0:0:0:
222,248,14237,5,10,0:3:0:0:
49,300,14373,1,8,0:3:0:0:
137,277,14510,1,10,0:0:0:0:
137,277,14578,1,2,0:0:0:0:
137,277,14646,1,2,0:0:0:0:
41,142,14782,37,10,0:3:0:0:
115,178,14919,1,2,0:0:0:0:
189,148,15055,1,10,0:0:0:0:
222,42,15191,2,0,L|242:231,1,170,2|8,0:0|0:3,0:0:0:0:
251,297,15600,1,10,0:0:0:0:
22,148,15873,5,6,0:0:0:0:
115,178,16010,1,2,0:0:0:0:
115,178,16078,1,2,0:0:0:0:
115,178,16146,1,10,0:0:0:0:
195,130,16283,1,0,0:0:0:0:
35,226,16419,5,10,0:3:0:0:
208,208,16555,1,8,0:3:0:0:
115,178,16692,1,10,0:0:0:0:
115,178,16760,1,2,0:0:0:0:
115,178,16828,1,2,0:0:0:0:
47,312,16964,6,0,B|223:324,1,170,10|10,0:3|0:0,0:0:0:0:
234,340,17373,1,2,0:0:0:0:
337,250,17510,2,0,B|351:292|351:292|332:342,1,85,10|10,0:3|0:3,0:0:0:0:
209,241,17782,2,0,B|194:202|194:202|208:160,1,85,10|0,0:0|0:0,0:0:0:0:
354,62,18055,38,0,L|453:70,1,85,10|0,0:3|0:0,0:0:0:0:
490,188,18328,2,0,L|312:203,1,170,4|8,0:0|0:3,0:0:0:0:
305,222,18737,1,8,0:3:0:0:
363,329,18873,2,0,L|464:338,1,85,6|0,0:0|0:0,0:0:0:0:
277,310,19146,6,0,P|250:346|191:358,1,85,10|8,0:3|0:3,0:0:0:0:
102,264,19419,2,0,P|107:308|152:348,1,85,10|8,0:0|0:3,0:0:0:0:
227,181,19691,1,10,0:3:0:0:
178,132,19828,1,8,0:3:0:0:
127,130,19964,1,10,0:3:0:0:
98,147,20100,1,0,0:0:0:0:
24,272,20237,54,0,P|110:243|225:311,1,204,6|2,0:0|0:0,0:0:0:0:
317,375,21055,70,0,P|413:347|496:274,2,203.999993774414,2|0|0,0:0|0:0|0:0,0:0:0:0:
245,301,22419,6,0,P|239:266|223:209,3,85,2|0|2|0,1:0|0:0|1:0|0:0,0:0:0:0:
182,159,23510,70,0,P|220:185|263:181,1,85,2|0,1:0|0:0,0:0:0:0:
329,128,23873,1,0,1:0:0:0:
331,119,23964,1,0,1:0:0:0:
330,110,24055,6,0,L|336:168,1,50.9999984436036,4|0,0:0|0:0,0:0:0:0:
152,227,24600,70,0,P|168:296|171:375,2,136,6|0|2,1:0|0:0|1:0,0:0:0:0:
85,182,25282,1,0,0:0:0:0:
20,228,25419,2,0,P|16:267|17:300,1,68
72,353,25691,1,0,1:0:0:0:
197,298,25964,2,0,P|259:292|360:316,2,136,0|0|0,0:0|1:0|0:0,0:0:0:0:
132,226,26646,5,0,0:0:0:0:
132,226,26782,2,0,P|134:182|152:141,1,68,2|0,1:0|0:0,0:0:0:0:
225,164,27055,1,0,0:0:0:0:
225,164,27191,2,0,P|275:117|341:92,1,136,2|0,0:1|0:0,0:0:0:0:
389,156,27600,2,0,P|433:158|474:176,1,68
496,239,27873,1,0,1:0:0:0:
427,343,28146,2,0,P|390:349|277:357,1,136,0|0,0:0|1:0,0:0:0:0:
188,304,28691,2,0,L|194:345,3,34
167,359,28964,70,0,P|171:243|199:143,1,204,6|0,1:0|0:0,0:0:0:0:
256,103,29510,1,2,1:0:0:0:
256,103,29782,6,0,P|263:144|265:191,1,68
337,218,30055,1,0,1:0:0:0:
337,218,30191,1,0,0:0:0:0:
274,281,30328,2,0,P|199:258|121:255,1,136,0|0,0:0|1:0,0:0:0:0:
312,360,30873,1,0,0:0:0:0:
312,360,31010,1,0,0:0:0:0:
393,344,31146,2,0,P|395:294|390:257,1,68,2|0,1:0|0:0,0:0:0:0:
337,218,31419,2,0,P|329:172|341:77,1,136,0|2,0:0|1:0,0:0:0:0:
338,83,32782,70,0,L|253:79,1,68,8|8,0:1|0:1,0:0:0:0:
221,140,33055,2,0,L|137:143,1,68,4|2,0:1|0:1,0:0:0:0:
55,33,33328,6,0,P|70:99|78:181,1,136,6|0,1:0|0:0,0:0:0:0:
53,324,33873,2,0,P|55:279|47:228,1,68,2|8,0:0|0:3,0:0:0:0:
120,366,34146,2,0,P|150:347|194:309,1,68,2|0,0:0|0:0,0:0:0:0:
219,254,34419,70,0,P|257:300|464:326,1,272,10|0,0:3|1:0,0:0:0:0:
455,329,35237,1,2,0:1:0:0:
471,173,35510,6,0,P|485:232|484:255,1,68,2|0,1:0|0:0,0:0:0:0:
404,225,35782,1,10,0:3:0:0:
404,225,35919,1,0,0:0:0:0:
392,135,36055,1,2,1:0:0:0:
320,188,36191,2,0,P|316:221|320:255,1,68,8|0,0:3|0:1,0:0:0:0:
389,316,36464,2,0,P|315:304|184:340,1,204,2|0,0:1|0:1,0:0:0:0:
35,384,37419,69,2,0:1:0:0:
35,384,37555,1,0,0:0:0:0:
88,325,37691,2,0,P|121:337|168:346,2,68,10|0|0,1:3|0:0|0:0,0:0:0:0:
51,254,38100,1,0,0:0:0:0:
118,210,38237,2,0,P|151:217|183:229,1,68,2|8,1:0|0:3,0:0:0:0:
223,299,38510,1,2,0:0:0:0:
223,299,38646,1,0,0:0:0:0:
280,241,38782,6,0,P|274:200|274:154,2,68,2|0|0,1:0|0:0|0:0,0:0:0:0:
341,293,39191,1,0,0:0:0:0:
406,338,39328,2,0,P|440:342|481:337,1,68,2|0,1:0|0:0,0:0:0:0:
510,254,39600,2,0,P|448:260|395:191,1,136,2|8,0:1|0:3,0:0:0:0:
407,201,40146,69,8,1:3:0:0:
415,189,40555,1,8,1:3:0:0:
505,91,40964,5,8,1:3:0:0:
218,17,41510,1,0,0:0:0:0:
326,45,41646,1,8,0:3:0:0:
250,127,41782,2,0,L|259:197,1,68,8|0,0:0|0:0,0:0:0:0:
224,332,42055,5,6,0:0:0:0:
367,301,42191,1,2,0:0:0:0:
222,317,42328,1,6,0:0:0:0:
369,314,42464,1,2,0:0:0:0:
221,302,42600,2,0,P|184:281|157:244,1,85,2|8,0:0|0:3,0:0:0:0:
110,78,42873,1,10,0:0:0:0:
110,78,43010,1,2,0:0:0:0:
60,139,43146,5,10,0:3:0:0:
187,92,43282,1,2,0:0:0:0:
83,5,43419,1,10,0:0:0:0:
110,78,43555,1,2,0:0:0:0:
187,92,43691,2,0,P|241:74|268:44,1,85,2|8,0:0|0:3,0:0:0:0:
336,172,43964,1,10,0:0:0:0:
336,172,44100,1,2,0:0:0:0:
413,108,44237,6,0,P|424:163|463:198,1,85,10|0,0:3|0:0,0:0:0:0:
297,264,44510,2,0,P|389:256|474:293,2,170,10|0|8,0:0|0:0|0:0,0:0:0:0:
241,332,45191,6,0,P|201:358|151:366,1,85,2|8,0:0|0:3,0:0:0:0:
171,275,45464,2,0,P|128:253|96:214,1,85,2|8,0:0|0:0,0:0:0:0:
184,188,45737,1,2,0:0:0:0:
192,105,45873,2,0,P|180:145|183:187,1,85,2|8,0:0|0:3,0:0:0:0:
306,277,46146,1,10,0:0:0:0:
366,224,46282,1,2,0:0:0:0:
345,147,46419,38,0,L|249:156,1,85,10|0,0:3|0:0,0:0:0:0:
171,275,46691,1,10,0:0:0:0:
171,275,46828,2,0,L|268:290,1,85,2|0,0:0|0:0,0:0:0:0:
306,353,47100,1,10,0:3:0:0:
431,281,47237,2,0,L|428:174,1,85,10|0,0:0|0:0,0:0:0:0:
371,52,47510,5,10,0:3:0:0:
503,94,47646,2,0,P|456:115|404:107,1,85,2|8,0:0|0:0,0:0:0:0:
371,52,47919,1,2,0:0:0:0:
317,114,48055,2,0,P|270:93|218:101,1,85,2|8,0:0|0:3,0:0:0:0:
104,149,48328,1,10,0:0:0:0:
109,66,48464,1,2,0:0:0:0:
34,190,48600,5,10,0:3:0:0:
104,149,48737,1,2,0:0:0:0:
168,199,48873,2,0,P|183:247|170:307,1,85,10|0,0:0|0:0,0:0:0:0:
268,353,49146,1,2,0:0:0:0:
345,380,49282,1,10,0:3:0:0:
406,327,49419,2,0,P|420:286|403:215,1,85,10|0,0:0|0:0,0:0:0:0:
316,164,49691,6,0,L|419:170,1,85,10|0,0:3|0:0,0:0:0:0:
512,70,49964,2,0,L|319:83,1,170,14|0,0:0|0:0,0:0:0:0:
264,21,50373,1,8,0:3:0:0:
334,98,50510,2,0,L|439:90,1,85,12|2,0:0|0:0,0:0:0:0:
510,234,50782,37,6,0:0:0:0:
442,184,50919,1,2,0:0:0:0:
510,234,51055,2,0,L|502:331,1,85,10|2,0:0|0:0,0:0:0:0:
378,373,51328,1,2,0:0:0:0:
378,373,51464,1,10,0:3:0:0:
329,243,51600,1,10,0:0:0:0:
329,243,51737,1,2,0:0:0:0:
242,349,51873,6,0,P|190:361|145:346,1,85,10|0,0:3|0:0,0:0:0:0:
62,263,52146,2,0,P|99:289|127:195,1,170,10|0,0:0|0:0,0:0:0:0:
62,172,52555,1,10,0:3:0:0:
179,107,52691,2,0,P|224:111|261:147,1,85,10|2,0:0|0:0,0:0:0:0:
404,226,52964,5,10,0:3:0:0:
413,141,53100,1,2,0:0:0:0:
254,135,53237,1,10,0:0:0:0:
263,220,53373,1,2,0:0:0:0:
333,172,53510,2,0,L|337:80,1,85,2|10,0:0|0:3,0:0:0:0:
489,87,53782,1,10,0:0:0:0:
498,175,53919,1,2,0:0:0:0:
413,261,54055,6,0,P|459:280|481:325,1,85,10|0,0:3|0:0,0:0:0:0:
268,338,54328,2,0,P|291:378|345:304,1,170,10|0,0:0|0:0,0:0:0:0:
292,257,54737,1,8,0:3:0:0:
190,307,54873,2,0,P|159:346|163:396,1,85,8|2,0:0|0:0,0:0:0:0:
19,182,55146,38,0,P|67:220|192:217,1,170,6|10,0:0|0:0,0:0:0:0:
122,73,55555,2,0,P|144:126|194:159,1,85,2|0,0:0|0:0,0:0:0:0:
242,180,55828,1,8,0:3:0:0:
303,38,55964,2,0,P|310:94|283:148,1,85,8|2,0:0|0:0,0:0:0:0:
489,157,56237,6,0,P|417:157|323:217,1,170,6|10,0:0|0:0,0:0:0:0:
478,303,56646,1,2,0:0:0:0:
478,303,56782,2,0,P|432:280|378:277,1,85,2|10,0:0|0:3,0:0:0:0:
292,364,57055,1,10,0:0:0:0:
210,321,57191,1,2,0:0:0:0:
274,113,57328,38,0,P|300:192|282:289,2,170,6|10|2,0:0|0:0|0:0,0:0:0:0:
204,55,58555,2,0,L|125:62,1,59.4999981842042,10|8,0:0|0:3,0:0:0:0:
92,141,58828,1,2,0:0:0:0:
178,157,58964,53,8,0:0:0:0:
61,65,59100,1,10,0:1:0:0:
41,213,59237,1,10,0:1:0:0:
189,337,59373,6,0,B|224:316|224:316|77:291,1,170,6|8,0:0|0:3,0:0:0:0:
269,244,59782,1,10,0:0:0:0:
302,357,59919,1,0,0:0:0:0:
414,323,60055,1,10,0:0:0:0:
416,293,60123,1,8,0:0:0:0:
418,263,60191,1,8,0:0:0:0:
420,233,60259,1,8,0:0:0:0:
422,204,60327,1,8,0:0:0:0:
325,95,60464,38,0,P|308:141|344:86,1,255.000009727478,6|0,0:0|0:0,0:0:0:0:
207,27,60873,5,8,0:0:0:0:
208,48,60941,1,8,0:3:0:0:
210,69,61009,1,8,0:3:0:0:
211,90,61077,1,8,0:3:0:0:
247,85,61146,5,10,0:0:0:0:
248,110,61214,1,8,0:3:0:0:
250,135,61282,1,8,0:3:0:0:
251,160,61350,1,8,0:3:0:0:
294,148,61419,5,10,0:0:0:0:
296,183,61487,1,8,0:3:0:0:
299,218,61555,1,8,0:3:0:0:
300,253,61623,1,8,0:3:0:0:
268,296,61691,38,0,P|344:265|439:343,1,203.999993774414,6|12,0:0|0:0,0:0:0:0:
341,364,62100,1,0,0:0:0:0:
406,162,62237,2,0,P|426:216|393:290,1,101.999996887207,10|8,0:3|0:3,0:0:0:0:
204,354,62510,2,0,P|184:300|217:226,1,101.999996887207,10|0,0:0|0:0,0:0:0:0:
396,149,62782,6,0,B|359:184|359:184|191:166,2,203.999993774414,10|8|8,0:3|0:0|0:3,0:0:0:0:
300,90,63464,1,10,0:3:0:0:
489,203,63600,2,0,B|509:155|509:155|489:95,1,101.999996887207,10|2,0:0|0:0,0:0:0:0:
327,265,63873,6,0,L|337:377,1,101.999996887207,10|0,0:3|0:0,0:0:0:0:
450,305,64146,1,10,0:0:0:0:
243,222,64282,2,0,P|288:254|348:246,1,101.999996887207,2|8,0:0|0:3,0:0:0:0:
388,84,64555,2,0,P|343:52|283:60,1,101.999996887207,10|8,0:3|0:0,0:0:0:0:
127,94,64828,1,2,0:0:0:0:
243,222,64964,6,0,L|465:196,1,203.999993774414,8|8,0:3|0:0,0:0:0:0:
388,84,65373,1,0,0:0:0:0:
231,230,65510,1,10,0:3:0:0:
204,341,65646,1,10,0:3:0:0:
47,301,65782,1,10,0:0:0:0:
74,190,65918,1,2,0:0:0:0:
295,346,66055,38,0,P|341:365|398:342,1,101.999996887207,6|0,0:0|0:0,0:0:0:0:
499,233,66328,1,10,0:0:0:0:
499,233,66464,1,2,0:0:0:0:
344,105,66600,2,0,L|357:227,1,101.999996887207,10|8,0:3|0:3,0:0:0:0:
480,360,66873,1,10,0:0:0:0:
499,233,67010,6,0,P|439:251|405:294,1,101.999996887207,2|8,0:0|0:3,0:0:0:0:
281,153,67282,2,0,P|266:213|286:264,1,101.999996887207,2|8,0:0|0:0,0:0:0:0:
319,371,67555,1,2,0:0:0:0:
113,291,67691,2,0,P|158:333|212:341,1,101.999996887207,10|8,0:3|0:3,0:0:0:0:
141,197,67964,1,10,0:0:0:0:
39,361,68100,1,2,0:0:0:0:
277,290,68237,6,0,L|269:169,1,101.999996887207,6|0,0:0|0:0,0:0:0:0:
257,8,68510,2,0,L|265:129,1,101.999996887207,10|0,0:0|0:0,0:0:0:0:
279,305,68782,1,10,0:3:0:0:
305,263,68850,1,8,0:3:0:0:
292,215,68918,1,8,0:3:0:0:
247,194,68986,1,8,0:3:0:0:
202,214,69054,1,10,0:0:0:0:
404,194,69191,6,0,B|419:246|419:246|380:318,1,101.999996887207,6|0,0:0|0:0,0:0:0:0:
132,288,69464,38,0,B|120:185|120:185|152:151|152:151|139:35,1,255.000009727478,6|0,0:0|0:0,0:0:0:0:
7,152,69873,6,0,P|61:145|121:196,1,101.999996887207,10|0,0:3|0:0,0:0:0:0:
235,319,70146,1,10,0:0:0:0:
266,334,70214,1,8,0:0:0:0:
302,338,70282,1,8,0:0:0:0:
336,329,70350,1,8,0:0:0:0:
365,309,70419,6,0,P|418:222|361:124,1,203.999993774414,6|12,0:0|0:0,0:0:0:0:
314,217,70828,1,0,0:0:0:0:
484,137,70964,2,0,P|428:117|357:144,1,101.999996887207,10|8,0:3|0:3,0:0:0:0:
206,214,71237,2,0,P|262:234|333:207,1,101.999996887207,10|0,0:0|0:0,0:0:0:0:
123,102,71510,6,0,B|85:65|85:65|104:231,2,203.999993774414,10|8|8,0:3|0:0|0:3,0:0:0:0:
184,29,72191,1,10,0:3:0:0:
8,152,72328,1,10,0:0:0:0:
206,214,72464,1,2,0:0:0:0:
26,340,72600,38,0,L|16:225,1,101.999996887207,10|0,0:3|0:0,0:0:0:0:
202,109,72873,2,0,L|192:224,1,101.999996887207,10|0,0:0|0:0,0:0:0:0:
74,63,73146,1,10,0:3:0:0:
96,165,73282,1,10,0:3:0:0:
118,267,73419,1,10,0:0:0:0:
309,256,73555,6,0,P|254:222|195:233,1,101.999996887207,2|8,0:0|0:3,0:0:0:0:
240,312,73828,1,2,0:0:0:0:
354,165,73964,2,0,L|350:380,1,203.999993774414,8|8,0:0|0:3,0:0:0:0:
445,306,74373,1,8,0:3:0:0:
361,155,74510,2,0,P|412:179|480:169,1,101.999996887207,10|0,0:0|0:0,0:0:0:0:
292,14,74782,6,0,P|310:78|188:135,1,203.999993774414,6|8,0:0|0:0,0:0:0:0:
155,78,75191,1,0,0:0:0:0:
26,173,75328,2,0,L|139:158,1,101.999996887207,8|8,0:3|0:3,0:0:0:0:
106,11,75600,2,0,L|-7:26,1,101.999996887207,10|0,0:0|0:0,0:0:0:0:
20,187,75873,6,0,P|92:185|139:303,1,203.999993774414,10|8,0:3|0:0,0:0:0:0:
82,364,76282,1,2,0:0:0:0:
221,245,76419,1,10,0:3:0:0:
229,334,76555,1,10,0:3:0:0:
44,278,76691,1,10,0:0:0:0:
36,189,76827,1,2,0:0:0:0:
216,141,76964,37,10,0:3:0:0:
131,96,77100,2,0,B|120:147|120:147|145:219,1,101.999996887207,8|2,0:0|0:0,0:0:0:0:
225,135,77373,1,8,0:3:0:0:
132,280,77510,1,8,0:0:0:0:
174,263,77578,1,8,0:0:0:0:
219,265,77646,1,8,0:0:0:0:
260,285,77714,1,8,0:0:0:0:
290,319,77782,1,8,0:0:0:0:
126,297,77919,6,0,P|204:368|292:332,1,203.999993774414,6|8,0:0|0:3,0:0:0:0:
456,130,78328,2,0,P|430:181|369:174,1,101.999996887207,14|0,0:0|0:0,0:0:0:0:
208,91,78600,5,10,0:3:0:0:
213,76,78668,1,8,0:3:0:0:
218,62,78736,1,8,0:3:0:0:
223,47,78804,1,8,0:3:0:0:
241,17,78873,5,10,0:0:0:0:
244,67,78941,1,8,0:0:0:0:
248,117,79009,1,8,0:0:0:0:
252,169,79077,1,8,0:0:0:0:
256,220,79146,38,0,B|286:255|286:255|417:230,1,140.25000428009,6|0,0:0|0:0,0:0:0:0:
423,226,79419,1,12,0:0:0:0:
379,129,79555,1,2,0:0:0:0:
495,269,79691,2,0,B|511:223|511:223|492:165,1,93.5000028533936,10|8,0:3|0:3,0:0:0:0:
363,306,79964,1,10,0:0:0:0:
445,348,80100,1,2,0:0:0:0:
306,381,80237,6,0,B|268:353|268:353|112:380,1,187.000005706787,10|8,0:3|0:0,0:0:0:0:
21,317,80646,1,2,0:0:0:0:
161,216,80782,1,10,0:3:0:0:
120,300,80919,1,10,0:3:0:0:
40,180,81055,1,10,0:0:0:0:
81,96,81192,1,2,0:0:0:0:
173,224,81328,6,0,B|216:244|216:244|195:90,1,187.000005706787,10|8,0:3|0:0,0:0:0:0:
180,99,81737,1,0,0:0:0:0:
296,47,81873,2,0,B|339:27|339:27|318:181,1,187.000005706787,10|8,0:3|0:0,0:0:0:0:
303,170,82282,1,2,0:0:0:0:
405,239,82419,5,10,0:3:0:0:
405,239,82555,1,2,0:0:0:0:
437,73,82691,2,0,P|465:111|445:154,1,93.5000028533936,10|0,0:0|0:0,0:0:0:0:
307,178,82964,2,0,P|288:221|240:225,1,93.5000028533936,10|8,0:3|0:3,0:0:0:0:
136,131,83237,2,0,P|89:136|61:97,1,93.5000028533936,10|0,0:0|0:0,0:0:0:0:
50,21,83441,1,8,0:0:0:0:
37,23,83510,38,0,B|7:60|7:60|29:188,1,140.25000428009,4|0,0:0|0:0,0:0:0:0:
31,193,83782,2,0,P|63:159|126:174,1,93.5000028533936,14|0,0:0|0:0,0:0:0:0:
191,278,84055,1,10,0:3:0:0:
125,324,84191,1,10,0:3:0:0:
184,199,84328,1,10,0:0:0:0:
197,356,84464,1,2,0:0:0:0:
118,243,84600,5,10,0:3:0:0:
264,313,84737,2,0,L|367:301,1,93.5000028533936,2|8,0:0|0:0,0:0:0:0:
510,211,85010,2,0,L|298:188,1,187.000005706787,2|8,0:0|0:3,0:0:0:0:
230,57,85419,2,0,P|238:107|195:166,1,93.5000028533936,10|0,0:0|0:0,0:0:0:0:
22,10,85691,6,0,P|76:3|154:119,1,187.000005706787,6|8,0:0|0:0,0:0:0:0:
98,167,86100,1,2,0:0:0:0:
304,167,86237,1,10,0:3:0:0:
263,158,86305,1,8,0:3:0:0:
222,168,86373,1,8,0:3:0:0:
190,195,86441,1,8,0:3:0:0:
172,232,86509,1,10,0:3:0:0:
361,102,86646,6,0,B|389:139|389:139|365:291,1,187.000005706787,6|8,0:0|0:3,0:0:0:0:
143,331,87055,2,0,B|252:301|222:384|350:347,1,187.000005706787,12|8,0:0|0:3,0:0:0:0:
379,280,87464,1,8,0:3:0:0:
235,214,87600,1,10,0:0:0:0:
231,181,87668,1,8,0:0:0:0:
227,148,87736,1,10,0:0:0:0:
224,116,87804,1,8,0:0:0:0:
220,83,87873,38,0,P|166:61|68:154,2,187.000005706787,6|8|8,0:0|0:0|0:3,0:0:0:0:
281,162,88555,1,8,0:3:0:0:
426,10,88691,2,0,L|434:130,1,93.5000028533936,8|8,0:0|0:3,0:0:0:0:
449,294,88964,5,4,0:0:0:0:
440,286,89646,5,10,0:3:0:0:
350,241,89782,2,0,L|359:351,1,85,10|0,0:0|0:0,0:0:0:0:
432,191,90055,5,6,0:0:0:0:
351,144,90191,1,2,0:0:0:0:
351,144,90260,1,2,0:0:0:0:
351,144,90328,1,10,0:0:0:0:
270,97,90464,1,0,0:0:0:0:
432,97,90600,37,10,0:3:0:0:
270,191,90737,1,8,0:3:0:0:
351,144,90873,1,10,0:0:0:0:
351,144,90942,1,2,0:0:0:0:
351,144,91010,1,2,0:0:0:0:
336,293,91146,6,0,B|302:264|302:264|163:288,1,170,10|10,0:3|0:0,0:0:0:0:
165,306,91555,1,2,0:0:0:0:
100,200,91691,2,0,L|198:195,1,85,10|10,0:3|0:3,0:0:0:0:
270,191,91964,1,2,0:0:0:0:
59,121,92237,5,10,0:3:0:0:
140,74,92373,1,2,0:0:0:0:
140,74,92442,1,2,0:0:0:0:
140,74,92510,1,10,0:0:0:0:
221,27,92646,1,0,0:0:0:0:
59,27,92782,5,10,0:3:0:0:
221,121,92919,1,8,0:3:0:0:
140,74,93055,1,10,0:0:0:0:
140,74,93124,1,2,0:0:0:0:
140,74,93192,1,2,0:0:0:0:
316,79,93328,37,10,0:3:0:0:
311,172,93464,1,2,0:0:0:0:
306,265,93600,1,10,0:0:0:0:
208,314,93737,2,0,B|250:295|250:295|401:339,1,170,2|8,0:0|0:3,0:0:0:0:
456,360,94146,1,10,0:0:0:0:
487,115,94419,5,6,0:0:0:0:
413,178,94555,1,2,0:0:0:0:
413,178,94623,1,2,0:0:0:0:
413,178,94691,1,10,0:0:0:0:
392,85,94828,1,0,0:0:0:0:
339,241,94964,5,10,0:3:0:0:
487,115,95100,1,8,0:3:0:0:
413,178,95237,1,10,0:0:0:0:
413,178,95305,1,2,0:0:0:0:
413,178,95373,1,2,0:0:0:0:
308,56,95510,6,0,B|276:84|276:84|132:61,1,170,10|10,0:3|0:0,0:0:0:0:
135,45,95919,1,2,0:0:0:0:
4,143,96055,2,0,L|104:130,1,85,10|10,0:3|0:3,0:0:0:0:
163,181,96328,1,10,0:0:0:0:
426,54,96600,38,0,B|383:129|383:129|416:234,1,170,6|8,0:0|0:0,0:0:0:0:
488,143,97010,1,2,0:0:0:0:
324,52,97146,1,10,0:3:0:0:
327,36,97214,1,8,0:3:0:0:
330,20,97282,1,10,0:3:0:0:
306,172,97419,1,10,0:0:0:0:
426,363,97555,6,0,B|451:283|451:283|408:208,1,170,6|2,0:0|0:0,0:0:0:0:
176,342,97964,1,6,0:0:0:0:
192,254,98100,1,2,0:0:0:0:
28,238,98237,1,10,0:3:0:0:
12,150,98373,2,0,L|2:88,1,42.5,8|8,0:3|0:3,0:0:0:0:
120,215,98510,1,10,0:0:0:0:
122,189,98578,1,8,0:0:0:0:
125,164,98646,1,8,0:0:0:0:
127,138,98714,1,8,0:0:0:0:
130,112,98782,5,6,0:0:0:0:
228,97,98919,1,2,0:0:0:0:
228,97,98987,1,2,0:0:0:0:
228,97,99055,1,10,0:0:0:0:
264,182,99191,1,0,0:0:0:0:
192,12,99328,5,10,0:3:0:0:
326,82,99464,1,8,0:3:0:0:
228,97,99601,1,10,0:0:0:0:
228,97,99669,1,2,0:0:0:0:
228,97,99737,1,2,0:0:0:0:
81,17,99873,38,0,L|94:212,1,170,10|10,0:3|0:0,0:0:0:0:
110,206,100282,1,2,0:0:0:0:
79,327,100419,2,0,B|125:334|125:334|168:311,1,85,10|10,0:3|0:3,0:0:0:0:
234,272,100691,1,10,0:0:0:0:
486,163,100964,5,10,0:3:0:0:
427,242,101101,1,2,0:0:0:0:
427,242,101169,1,2,0:0:0:0:
427,242,101237,1,10,0:0:0:0:
341,208,101373,1,0,0:0:0:0:
512,277,101510,5,10,0:3:0:0:
368,322,101646,1,8,0:3:0:0:
427,242,101783,1,10,0:0:0:0:
427,242,101851,1,2,0:0:0:0:
427,242,101919,1,2,0:0:0:0:
236,250,102055,5,10,0:3:0:0:
255,158,102191,1,2,0:0:0:0:
274,67,102328,1,10,0:0:0:0:
185,14,102464,2,0,L|358:40,1,170,2|8,0:0|0:3,0:0:0:0:
437,16,102873,1,10,0:0:0:0:
192,143,103146,37,6,0:0:0:0:
115,94,103282,1,2,0:0:0:0:
115,94,103350,1,2,0:0:0:0:
115,94,103419,1,10,0:0:0:0:
31,144,103555,1,0,0:0:0:0:
196,43,103691,5,10,0:3:0:0:
31,144,103828,1,8,0:3:0:0:
115,94,103964,1,10,0:0:0:0:
115,94,104032,1,2,0:0:0:0:
115,94,104100,1,2,0:0:0:0:
241,219,104237,6,0,L|65:233,1,170,10|10,0:3|0:0,0:0:0:0:
55,258,104646,1,2,0:0:0:0:
163,343,104782,2,0,B|175:301|175:301|156:251,1,85,10|10,0:3|0:3,0:0:0:0:
29,172,105055,2,0,B|17:130|17:130|36:80,1,85,10|0,0:0|0:0,0:0:0:0:
202,28,105328,6,0,L|302:38,1,85,10|0,0:3|0:0,0:0:0:0:
478,132,105600,2,0,L|301:146,1,170,4|8,0:0|0:3,0:0:0:0:
291,163,106010,1,8,0:3:0:0:
376,257,106146,2,0,L|467:264,1,85,6|0,0:0|0:0,0:0:0:0:
288,322,106419,38,0,P|254:296|189:294,1,85,10|8,0:3|0:3,0:0:0:0:
27,384,106691,2,0,P|43:344|98:310,1,85,10|0,0:0|0:0,0:0:0:0:
234,201,106964,1,10,0:3:0:0:
167,183,107101,1,8,0:3:0:0:
139,139,107237,1,10,0:3:0:0:
140,106,107373,1,8,0:3:0:0:
235,13,107510,70,0,P|297:50|435:66,1,204,6|2,0:0|0:0,0:0:0:0:
237,29,108328,70,0,P|275:81|310:184,1,152.999995330811,2|0,0:0|0:0,0:0:0:0:
300,180,108873,6,0,P|288:153|256:118,2,68,2|2|2,0:0|0:0|0:0,0:0:0:0:
305,264,109691,70,0,P|344:243|395:242,1,85,2|0,1:0|0:0,0:0:0:0:
455,275,110055,1,2,0:0:0:0:
482,347,110146,21,2,0:1:0:0:
478,359,110191,5,2,0:1:0:0:
470,369,110237,5,2,1:0:0:0:
309,274,110419,1,2,0:0:0:0:
470,184,110600,1,2,0:0:0:0:
364,358,110782,38,0,P|328:369|278:360,1,85,2|0,1:0|1:0,0:0:0:0:
208,319,111146,1,0,1:0:0:0:
207,305,111237,1,0,1:0:0:0:
212,295,111328,70,0,L|207:359,1,50.9999984436036,4|0,0:0|0:0,0:0:0:0:
74,213,111873,6,0,P|89:264|103:375,2,136,6|0|2,1:0|0:0|1:0,0:0:0:0:
16,152,112555,1,0,0:0:0:0:
88,113,112691,2,0,P|123:117|173:134,1,68
207,188,112964,1,0,1:0:0:0:
280,77,113237,2,0,P|330:68|424:38,2,136,0|0|0,0:0|1:0|0:0,0:0:0:0:
203,26,113919,69,0,0:0:0:0:
203,26,114055,2,0,P|192:68|188:111,1,68,2|0,1:0|0:0,0:0:0:0:
246,159,114328,1,0,0:0:0:0:
246,159,114464,1,0,0:0:0:0:
307,215,114600,2,0,P|318:257|322:300,2,68,2|0|0,1:0|0:0|0:0,0:0:0:0:
235,263,115010,1,0,0:0:0:0:
235,263,115146,1,0,1:0:0:0:
149,353,115419,2,0,P|90:336|14:285,1,136,0|0,0:0|1:0,0:0:0:0:
15,165,115964,2,0,L|68:155,3,34
81,130,116237,6,0,P|126:155|288:171,1,204,6|0,1:0|0:0,0:0:0:0:
363,147,116782,1,2,1:0:0:0:
363,147,117055,70,0,P|360:182|366:223,1,68
426,278,117328,1,0,1:0:0:0:
426,278,117464,1,0,0:0:0:0:
355,321,117600,2,0,P|321:316|275:312,1,68
209,336,117873,1,0,1:0:0:0:
209,336,118146,1,0,0:0:0:0:
130,360,118282,1,0,0:0:0:0:
68,305,118419,2,0,P|58:263|55:208,1,68,2|0,1:0|0:0,0:0:0:0:
123,189,118691,2,0,P|130:122|125:34,1,136,0|2,0:0|1:0,0:0:0:0:
127,53,119646,5,8,0:0:0:0:
195,132,119782,2,0,L|190:212,1,68,8|4,0:1|0:1,0:0:0:0:
89,273,120055,1,8,0:0:0:0:
164,288,120191,1,4,0:1:0:0:
197,358,120328,2,0,L|271:348,1,68,2|2,0:1|0:1,0:0:0:0:
394,381,120600,70,0,P|385:341|400:221,1,136,6|0,1:0|0:0,0:0:0:0:
479,183,121010,1,0,0:0:0:0:
479,183,121146,2,0,P|440:172|407:159,1,68,2|8,0:0|0:3,0:0:0:0:
369,89,121419,1,2,0:0:0:0:
296,119,121555,1,0,0:0:0:0:
264,190,121691,6,0,P|216:176|13:283,1,272,10|0,0:3|0:0,0:0:0:0:
24,262,122510,1,2,0:1:0:0:
121,373,122782,70,0,P|161:366|215:366,1,68,10|0,1:3|0:0,0:0:0:0:
271,298,123055,1,10,1:3:0:0:
271,298,123191,1,0,0:0:0:0:
204,247,123328,1,2,0:0:0:0:
255,188,123464,2,0,P|291:186|345:191,1,68,8|0,1:3|0:1,0:0:0:0:
406,254,123737,2,0,P|398:211|439:51,1,204,10|0,0:3|0:1,0:0:0:0:
254,13,124691,5,10,0:0:0:0:
274,89,124828,1,0,0:0:0:0:
165,142,124964,2,0,P|117:130|87:114,1,68,6|0,0:1|0:0,0:0:0:0:
55,43,125237,1,2,0:0:0:0:
55,43,125373,1,0,0:0:0:0:
93,131,125510,2,0,P|106:178|107:212,1,68,2|8,0:0|0:3,0:0:0:0:
127,282,125782,2,0,P|161:246|190:228,1,68,2|0,0:0|0:0,0:0:0:0:
208,313,126055,70,0,P|257:312|290:319,2,68,10|0|2,0:3|0:0|0:0,0:0:0:0:
141,364,126464,1,0,0:0:0:0:
70,322,126600,2,0,P|65:284|65:238,1,68,2|0,0:1|0:1,0:0:0:0:
119,186,126873,2,0,P|122:132|115:40,1,136,2|8,0:1|1:3,0:0:0:0:
105,44,127419,5,8,1:3:0:0:
93,39,127828,1,8,1:3:0:0:
6,160,128237,69,8,1:3:0:0:
155,314,128782,1,8,0:1:0:0:
155,314,128919,1,4,0:1:0:0:
288,262,129055,2,0,L|212:252,1,68,8|0,0:0|0:0,0:0:0:0:
2,317,129328,21,6,0:0:0:0:
75,267,129464,1,2,0:0:0:0:
159,129,129600,1,10,0:0:0:0:
86,79,129736,1,2,0:0:0:0:
163,141,129873,2,0,P|221:129|303:55,1,170,10|10,0:3|0:0,0:0:0:0:
235,13,130282,1,2,0:0:0:0:
377,82,130419,5,10,0:3:0:0:
383,157,130555,1,2,0:0:0:0:
495,218,130691,1,10,0:0:0:0:
501,293,130828,1,2,0:0:0:0:
359,227,130964,5,2,0:0:0:0:
383,157,131100,1,10,0:3:0:0:
486,215,131237,1,10,0:0:0:0:
462,285,131373,1,2,0:0:0:0:
371,346,131510,6,0,P|422:351|459:381,1,85,10|0,0:3|0:0,0:0:0:0:
300,306,131782,1,10,0:0:0:0:
240,362,131919,2,0,P|192:359|149:335,1,85,2|0,0:0|0:0,0:0:0:0:
180,263,132191,2,0,P|158:219|157:170,1,85,10|8,0:3|0:0,0:0:0:0:
293,137,132464,38,0,P|258:161|236:197,1,85,2|8,0:0|0:3,0:0:0:0:
372,151,132737,2,0,P|376:193|396:230,1,85,2|8,0:0|0:0,0:0:0:0:
430,95,133010,5,2,0:0:0:0:
372,151,133146,1,2,0:0:0:0:
293,137,133282,1,10,0:3:0:0:
267,63,133419,2,0,P|206:35|140:33,1,127.5,10|0,0:0|0:0,0:0:0:0:
103,52,133691,6,0,P|75:69|1:69,1,85,10|0,0:3|0:0,0:0:0:0:
149,121,133964,1,10,0:0:0:0:
149,121,134100,1,2,0:0:0:0:
69,167,134237,2,0,P|61:211|79:259,1,85,2|10,0:0|0:3,0:0:0:0:
230,240,134510,2,0,P|238:196|220:148,1,85,10|2,0:0|0:0,0:0:0:0:
143,319,134782,6,0,P|185:325|229:369,1,85,10|0,0:3|0:0,0:0:0:0:
353,262,135055,2,0,P|319:288|303:348,1,85,10|0,0:0|0:0,0:0:0:0:
512,233,135328,1,10,0:3:0:0:
485,323,135464,1,10,0:3:0:0:
353,251,135601,1,10,0:0:0:0:
380,160,135737,1,2,2:0:0:0:
512,90,135873,37,10,0:3:0:0:
349,18,136010,2,0,L|448:24,1,85,2|8,0:0|0:0,0:0:0:0:
460,158,136282,2,0,L|362:151,1,85,2|8,0:0|0:3,0:0:0:0:
294,92,136555,1,10,0:3:0:0:
131,137,136691,2,0,L|229:130,1,85,10|0,0:0|0:0,0:0:0:0:
158,297,136964,5,10,0:3:0:0:
177,214,137100,1,10,0:3:0:0:
70,338,137237,2,0,P|137:322|225:389,1,170,10|8,0:0|0:3,0:0:0:0:
280,315,137646,1,8,0:3:0:0:
491,293,137782,2,0,P|409:306|356:263,1,127.5,8|0,0:0|0:0,0:0:0:0:
343,249,138055,5,6,0:0:0:0:
382,170,138191,1,2,0:0:0:0:
247,88,138328,1,10,0:0:0:0:
208,167,138464,1,2,0:0:0:0:
332,83,138600,5,2,0:0:0:0:
332,83,138737,1,10,0:3:0:0:
198,18,138873,1,10,0:0:0:0:
208,167,139010,1,2,0:0:0:0:
388,197,139146,38,0,P|330:174|283:190,1,85,10|0,0:3|0:0,0:0:0:0:
181,311,139419,2,0,P|227:359|221:289,1,170,10|0,0:0|0:0,0:0:0:0:
101,296,139828,1,10,0:3:0:0:
208,167,139964,1,10,0:0:0:0:
154,232,140100,1,2,0:0:0:0:
12,159,140237,5,10,0:3:0:0:
88,131,140373,1,2,0:0:0:0:
154,232,140510,1,10,0:0:0:0:
230,204,140646,1,2,0:0:0:0:
136,61,140782,5,2,0:0:0:0:
88,131,140919,1,10,0:3:0:0:
154,232,141055,1,10,0:0:0:0:
106,302,141192,1,2,0:0:0:0:
172,147,141328,6,0,P|230:164|281:139,1,85,10|0,0:3|0:0,0:0:0:0:
401,51,141600,2,0,P|362:27|378:102,1,170,10|8,0:0|0:3,0:0:0:0:
481,58,142010,1,8,0:3:0:0:
508,187,142146,2,0,P|458:174|402:190,1,85,8|2,0:0|0:0,0:0:0:0:
275,371,142419,38,0,P|335:371|434:288,1,170,6|10,0:0|0:0,0:0:0:0:
307,287,142828,2,0,P|324:255|311:179,1,85,2|0,0:0|0:0,0:0:0:0:
291,135,143100,1,8,0:3:0:0:
135,131,143237,2,0,P|166:113|242:126,1,85,8|2,0:0|0:0,0:0:0:0:
46,141,143510,6,0,P|75:63|144:15,1,170,6|10,0:0|0:0,0:0:0:0:
214,112,143919,2,0,P|249:112|309:161,1,85,2|2,0:0|0:0,0:0:0:0:
220,223,144191,1,10,0:3:0:0:
346,356,144328,1,10,0:0:0:0:
255,316,144464,1,2,0:0:0:0:
102,347,144600,38,0,P|133:309|175:291,1,85,6|10,0:0|0:0,0:0:0:0:
220,223,145146,2,0,P|268:216|314:238,1,85,10|2,0:3|0:0,0:0:0:0:
346,356,145555,6,0,P|354:327|347:294,1,59.4999981842042,8|2,0:0|0:0,0:0:0:0:
301,228,145828,1,10,0:3:0:0:
432,299,145964,1,10,0:0:0:0:
395,214,146100,1,2,0:0:0:0:
255,316,146237,1,8,0:3:0:0:
222,326,146305,1,8,0:3:0:0:
189,326,146373,1,10,0:3:0:0:
157,314,146441,1,8,0:3:0:0:
131,292,146509,1,8,0:3:0:0:
224,66,146646,38,0,B|259:39|259:39|219:178,1,170,6|8,0:0|0:3,0:3:0:0:
348,145,147055,5,10,0:0:0:0:
106,109,147191,1,8,0:3:0:0:
329,52,147328,37,10,0:0:0:0:
208,235,147464,1,8,0:3:0:0:
155,27,147600,1,10,0:0:0:0:
334,231,147737,6,0,B|365:238|391:228|391:228|351:195|300:208|300:208|263:245|200:233,1,255.000009727478,6|0,0:0|0:0,0:0:0:0:
22,237,148146,5,8,0:0:0:0:
9,266,148214,1,8,0:3:0:0:
10,297,148282,1,8,0:3:0:0:
25,325,148350,1,8,0:3:0:0:
74,313,148419,5,10,0:0:0:0:
96,342,148487,1,8,0:3:0:0:
128,360,148555,1,8,0:3:0:0:
166,361,148623,1,8,0:3:0:0:
178,303,148691,37,10,0:0:0:0:
219,297,148759,1,8,0:3:0:0:
255,276,148827,1,8,0:3:0:0:
278,239,148895,1,8,0:3:0:0:
232,202,148964,6,0,P|222:139|67:129,1,203.999993774414,6|12,0:0|0:0,0:0:0:0:
31,188,149373,1,0,0:0:0:0:
128,360,149510,2,0,L|229:350,1,101.999996887207,10|8,0:3|0:3,0:0:0:0:
324,203,149782,2,0,L|222:212,1,101.999996887207,10|0,0:0|0:0,0:0:0:0:
25,176,150055,6,0,B|59:214|59:214|29:386,2,203.999993774414,10|8|8,0:3|0:0|0:3,0:0:0:0:
206,75,150737,1,10,0:3:0:0:
133,245,150874,1,10,0:0:0:0:
24,93,151010,1,2,0:0:0:0:
309,229,151146,6,0,L|424:220,1,101.999996887207,10|0,0:3|0:0,0:0:0:0:
193,164,151419,1,10,0:0:0:0:
311,343,151555,2,0,B|326:294|326:294|311:233,1,101.999996887207,2|8,0:0|0:3,0:0:0:0:
182,170,151828,2,0,B|167:121|167:121|182:60,1,101.999996887207,10|8,0:3|0:0,0:0:0:0:
300,10,152100,1,2,0:0:0:0:
473,139,152237,38,0,L|248:119,2,203.999993774414,8|8|8,0:3|0:0|0:3,0:0:0:0:
400,235,152919,1,10,0:3:0:0:
487,47,153055,1,10,0:0:0:0:
498,231,153191,1,2,0:0:0:0:
387,48,153328,6,0,L|260:37,1,101.999996887207,6|0,0:0|0:0,0:0:0:0:
99,91,153600,1,10,0:0:0:0:
211,135,153737,2,0,P|149:150|131:187,1,101.999996887207,2|8,0:0|0:3,0:0:0:0:
173,250,154010,1,10,0:3:0:0:
0,219,154146,1,10,0:0:0:0:
89,256,154282,6,0,P|59:216|10:210,1,101.999996887207,2|8,0:0|0:3,0:0:0:0:
134,330,154555,2,0,P|177:292|236:298,1,101.999996887207,2|8,0:0|0:0,0:0:0:0:
344,325,154828,2,0,P|325:270|271:246,1,101.999996887207,2|8,0:0|0:3,0:0:0:0:
114,166,155100,1,10,0:3:0:0:
134,330,155237,1,10,0:0:0:0:
124,248,155373,1,2,0:0:0:0:
18,54,155510,6,0,B|56:88|56:88|128:71,1,101.999996887207,6|0,0:0|0:0,0:0:0:0:
343,47,155782,2,0,B|305:13|305:13|233:30,1,101.999996887207,10|0,0:0|0:0,0:0:0:0:
23,47,156055,1,10,0:3:0:0:
63,50,156123,1,8,0:3:0:0:
104,54,156191,1,10,0:3:0:0:
144,57,156259,1,8,0:3:0:0:
185,61,156328,1,10,0:0:0:0:
356,193,156464,38,0,P|390:204|359:181,1,101.999996887207,6|0,0:0|0:0,0:0:0:0:
57,231,156737,6,0,B|205:214|152:294|306:279,1,255.000009727478,6|8,0:0|0:3,0:0:0:0:
290,43,157146,6,0,P|268:104|281:157,1,101.999996887207,10|0,0:3|0:0,0:0:0:0:
382,226,157419,1,10,0:0:0:0:
392,259,157487,1,8,0:0:0:0:
392,295,157555,1,8,0:0:0:0:
381,329,157623,1,8,0:0:0:0:
359,357,157691,6,0,P|305:377|191:295,1,203.999993774414,6|12,0:0|0:0,0:0:0:0:
223,206,158100,1,0,0:0:0:0:
337,55,158237,2,0,P|331:123|285:171,1,101.999996887207,10|8,0:3|0:3,0:0:0:0:
192,301,158510,2,0,P|191:232|232:179,1,101.999996887207,10|0,0:0|0:0,0:0:0:0:
487,170,158782,38,0,B|449:136|449:136|292:160,2,203.999993774414,10|8|8,0:3|0:0|0:3,0:0:0:0:
337,37,159464,1,10,0:3:0:0:
276,240,159600,1,10,0:0:0:0:
181,51,159737,1,2,0:0:0:0:
401,156,159873,6,0,L|295:143,1,101.999996887207,10|0,0:3|0:0,0:0:0:0:
77,75,160146,2,0,L|183:62,1,101.999996887207,10|0,0:0|0:0,0:0:0:0:
199,220,160419,1,10,0:3:0:0:
268,19,160555,1,10,0:3:0:0:
233,119,160691,1,10,0:0:0:0:
283,288,160828,5,2,0:0:0:0:
175,381,160964,1,10,0:3:0:0:
52,312,161100,1,2,0:0:0:0:
87,232,161237,2,0,P|173:210|243:301,1,203.999993774414,8|8,0:0|0:3,0:0:0:0:
152,298,161646,1,8,0:3:0:0:
310,367,161782,2,0,P|364:367|397:329,1,101.999996887207,10|0,0:0|0:0,0:0:0:0:
230,158,162055,6,0,P|216:216|335:269,1,203.999993774414,6|8,0:0|0:0,0:0:0:0:
397,209,162464,1,0,0:0:0:0:
500,380,162600,2,0,L|506:270,1,101.999996887207,8|8,0:3|0:3,0:0:0:0:
404,100,162873,2,0,L|409:201,1,101.999996887207,10|0,0:0|0:0,0:0:0:0:
207,28,163146,38,0,P|299:49|302:144,1,203.999993774414,10|8,0:3|0:0,0:0:0:0:
218,162,163555,1,2,0:0:0:0:
61,93,163691,1,10,0:3:0:0:
122,33,163828,1,10,0:3:0:0:
152,222,163964,1,10,0:0:0:0:
76,181,164100,1,2,0:0:0:0:
229,170,164237,5,10,0:3:0:0:
92,284,164373,2,0,B|143:275|143:275|205:307,1,101.999996887207,8|10,0:0|0:3,0:0:0:0:
127,364,164646,1,8,0:3:0:0:
389,285,164782,1,10,0:0:0:0:
355,273,164850,1,8,0:0:0:0:
320,275,164918,1,10,0:0:0:0:
288,291,164986,1,8,0:0:0:0:
266,318,165054,1,10,0:0:0:0:
410,295,165191,6,0,P|345:367|250:328,1,203.999993774414,6|8,0:0|0:3,0:0:0:0:
63,174,165600,2,0,P|102:229|150:223,1,101.999996887207,4|0,0:0|0:0,0:0:0:0:
283,71,165873,5,10,0:3:0:0:
272,60,165941,1,8,0:3:0:0:
258,53,166009,1,8,0:3:0:0:
243,50,166077,1,8,0:3:0:0:
215,76,166146,37,10,0:0:0:0:
260,97,166214,1,8,0:0:0:0:
311,98,166282,1,8,0:0:0:0:
357,78,166350,1,8,0:0:0:0:
391,41,166419,6,0,P|459:23|507:88,1,140.25000428009,6|0,0:0|0:0,0:0:0:0:
502,108,166691,1,12,0:0:0:0:
366,205,166828,2,0,L|491:220,1,93.5000028533936,2|8,0:0|0:3,0:0:0:0:
403,292,167100,1,10,0:3:0:0:
333,125,167237,2,0,L|208:140,1,93.5000028533936,10|0,0:0|0:0,0:0:0:0:
84,36,167510,6,0,P|146:71|104:182,1,187.000005706787,10|8,0:3|0:0,0:0:0:0:
43,154,167919,1,2,0:0:0:0:
198,220,168055,1,10,0:3:0:0:
170,313,168191,1,10,0:3:0:0:
20,256,168328,1,10,0:0:0:0:
48,163,168464,1,2,0:0:0:0:
78,346,168600,6,0,B|217:319|217:319|185:369,1,187.000005706787,10|10,0:3|0:0,0:0:0:0:
178,378,169010,1,0,0:0:0:0:
262,249,169146,2,0,B|401:276|401:276|369:226,1,187.000005706787,10|10,0:3|0:0,0:0:0:0:
362,217,169556,1,2,0:0:0:0:
439,343,169691,37,10,0:3:0:0:
497,281,169828,1,2,0:0:0:0:
467,130,169964,1,10,0:0:0:0:
385,106,170101,1,2,0:0:0:0:
198,184,170237,2,0,L|305:204,1,93.5000028533936,10|8,0:3|0:3,0:0:0:0:
138,76,170510,2,0,L|245:56,1,93.5000028533936,10|8,0:0|0:3,0:0:0:0:
321,21,170714,1,8,0:3:0:0:
309,12,170782,6,0,P|354:39|332:135,1,140.25000428009,4|0,0:0|0:0,0:0:0:0:
323,145,171055,2,0,L|422:125,1,93.5000028533936,14|0,0:0|0:0,0:0:0:0:
504,285,171328,1,10,0:3:0:0:
423,271,171464,1,10,0:3:0:0:
356,350,171600,1,10,0:0:0:0:
275,336,171736,1,2,0:0:0:0:
222,160,171873,5,10,0:3:0:0:
208,241,172009,1,2,0:0:0:0:
194,322,172146,1,10,0:0:0:0:
314,227,172282,2,0,B|280:193|280:193|111:216,1,187.000005706787,2|8,0:0|0:3,0:0:0:0:
14,281,172691,1,10,0:0:0:0:
29,360,172828,1,2,0:0:0:0:
72,167,172964,5,6,0:0:0:0:
90,307,173100,1,2,0:0:0:0:
145,227,173237,1,10,0:0:0:0:
3,109,173373,1,2,0:0:0:0:
208,8,173510,1,10,0:3:0:0:
206,50,173578,1,8,0:3:0:0:
204,92,173646,1,8,0:3:0:0:
203,134,173714,1,8,0:3:0:0:
201,176,173782,1,10,0:0:0:0:
463,120,173919,38,0,B|366:104|384:166|278:150,1,187.000005706787,6|8,0:0|0:3,0:0:0:0:
62,53,174328,2,0,B|83:11|83:11|107:170,1,187.000005706787,6|8,0:0|0:3,0:0:0:0:
184,199,174737,1,8,0:3:0:0:
26,294,174873,1,10,0:0:0:0:
56,281,174941,1,8,0:0:0:0:
88,279,175009,1,10,0:0:0:0:
119,289,175077,1,8,0:0:0:0:
145,308,175146,6,0,P|216:339|311:286,1,187.000005706787,6|8,0:0|0:0,0:0:0:0:
331,202,175555,1,0,0:0:0:0:
424,354,175691,2,0,P|442:304|422:249,1,93.5000028533936,8|8,0:3|0:3,0:0:0:0:
324,190,175964,1,10,0:0:0:0:
240,214,176100,1,2,0:0:0:0:
106,109,176237,5,10,0:3:0:0:
196,132,176373,1,2,0:0:0:0:
240,214,176510,2,0,P|230:302|127:352,1,187.000005706787,10|8,0:0|0:3,0:0:0:0:
67,310,176919,1,8,0:3:0:0:
148,361,177055,2,0,L|256:352,1,93.5000028533936,10|0,0:0|0:0,0:0:0:0:
388,153,177328,6,0,L|400:274,1,93.5000028533936,10|0,0:3|0:0,0:0:0:0:
386,134,177600,1,10,0:0:0:0:
312,295,177737,37,2,0:0:0:0:
492,189,177873,1,10,0:3:0:0:
310,86,178010,1,10,0:3:0:0:
432,300,178146,1,10,0:0:0:0:
250,197,178282,6,0,B|211:171|211:171|208:221,1,93.5000028533936,2|8,0:0|0:3,0:0:0:0:
430,91,178555,2,0,B|468:65|468:65|471:115,1,93.5000028533936,2|8,0:0|0:0,0:0:0:0:
264,0,178828,1,2,0:0:0:0:
377,213,178964,6,0,L|374:315,1,93.5000028533936,10|8,0:3|0:3,0:0:0:0:
182,142,179237,1,10,0:0:0:0:
211,350,179373,1,2,0:0:0:0:
12,232,179510,6,0,P|68:213|111:239,1,93.5000028533936,6|0,0:0|0:0,0:0:0:0:
211,350,179782,2,0,P|283:379|388:317,1,187.000005706787,10|8,0:0|0:3,0:0:0:0:
438,231,180191,1,8,0:3:0:0:
300,137,180328,2,0,L|316:247,1,93.5000028533936,8|0,0:0|0:0,0:0:0:0:
419,46,180600,5,8,0:3:0:0:
198,14,180737,1,10,0:0:0:0:
316,1,180873,5,8,0:3:0:0:
301,91,181010,1,10,0:3:0:0:
112,71,181146,69,8,0:1:0:0:
122,151,181282,1,4,0:1:0:0:
256,224,181419,6,0,L|249:291,1,63.75,2|0,0:1|0:0,0:0:0:0:
240,368,181691,1,4,0:0:0:0:
256,192,199146,85,4,0:0:0:0:
256,192,199214,12,0,200714,0:0:0:0:
197,150,200782,70,0,P|181:84|179:57,1,89.2499972763062,2|0,0:0|0:0,0:0:0:0:
195,17,201328,1,8,0:3:0:0:
0,159,201464,22,0,B|39:121|39:121|210:165,1,220.999989883423,6|0,0:0|0:0,0:0:0:0:
496,262,201873,2,0,B|457:224|457:224|286:268,1,220.999989883423,6|0,0:0|0:0,0:0:0:0:
35,384,202282,6,0,P|93:368|161:204,1,220.999989883423,6|0,0:0|0:0,0:0:0:0:
426,12,202691,2,0,P|394:20|356:111,1,110.499994941712,6|0,0:0|0:0,0:0:0:0:
200,144,202964,5,8,0:1:0:0:
325,165,203100,1,4,0:1:0:0:
243,263,203237,1,2,0:1:0:0:
256,192,203510,37,4,0:0:0:0:
380,360,210055,6,0,B|412:300|412:300|392:216,1,136,6|0,0:0|0:0,0:0:0:0:
180,116,210328,2,0,B|148:176|148:176|168:260,1,136,14|0,0:0|0:0,0:0:0:0:
368,120,210600,5,10,0:3:0:0:
163,242,210737,1,10,0:3:0:0:
378,366,210873,1,10,0:0:0:0:
188,108,211010,5,6,0:0:0:0:
299,309,211146,1,2,0:0:0:0:
98,384,211282,1,10,0:3:0:0:
0,164,211419,2,0,B|45:218|45:218|142:203,1,136,8|0,0:0|0:0,0:0:0:0:
329,39,211691,5,10,0:0:0:0:
322,106,211759,1,8,0:0:0:0:
315,174,211827,1,8,0:0:0:0:
308,241,211895,1,8,0:0:0:0:
299,309,211964,5,10,0:0:0:0:
294,288,212032,1,8,0:0:0:0:
291,268,212100,1,8,0:0:0:0:
287,248,212168,1,8,0:0:0:0:
283,228,212237,6,0,P|247:221|200:266,1,101.999996887207,6|8,0:0|0:0,0:0:0:0:
128,343,212782,2,0,P|133:360|165:369,1,50.9999984436036,2|8,0:0|0:3,0:0:0:0:
224,331,213055,1,10,0:0:0:0:
63,280,213328,70,0,P|38:260|42:187,1,101.999996887207,10|8,0:3|0:0,0:0:0:0:
36,194,214010,1,10,0:3:0:0:
113,132,214146,2,0,P|127:126|158:146,1,50.9999984436036,10|0,0:0|0:0,0:0:0:0:
283,46,214419,6,0,P|244:66|237:140,1,101.999996887207,10|10,0:3|0:0,0:0:0:0:
229,119,214964,1,2,0:0:0:0:
283,185,215100,1,10,0:3:0:0:
360,164,215237,1,10,0:0:0:0:
360,164,215373,1,2,0:0:0:0:
397,306,215510,70,0,P|352:285|343:233,1,101.999996887207,8|8,0:3|0:0,0:0:0:0:
341,237,216191,1,10,0:3:0:0:
439,168,216328,1,10,0:0:0:0:
463,88,216464,1,2,0:0:0:0:
463,88,216532,1,0,0:0:0:0:
463,88,216600,6,0,P|413:92|376:49,1,101.999996887207,10|8,0:3|0:0,0:0:0:0:
435,1,217010,1,2,0:0:0:0:
435,1,217282,1,10,0:3:0:0:
302,60,217419,2,0,P|273:52|261:23,1,50.9999984436036,10|2,0:0|0:0,0:0:0:0:
346,127,217691,70,0,P|353:158|371:172,1,50.9999984436036,10|2,0:3|0:0,0:0:0:0:
444,177,217964,1,8,0:0:0:0:
444,177,218237,1,2,0:0:0:0:
493,238,218373,1,10,0:3:0:0:
397,292,218510,2,0,P|439:295|418:339,1,101.999996887207,10|8,0:0|0:3,0:0:0:0:
394,66,219328,21,4,0:0:0:0:
309,295,219464,1,8,0:3:0:0:
309,295,219600,1,8,0:3:0:0:
383,60,219737,21,4,0:0:0:0:
468,289,219873,1,8,0:3:0:0:
468,289,220009,1,8,0:3:0:0:
511,133,220146,5,8,0:0:0:0:
468,136,220214,1,8,0:0:0:0:
425,139,220282,1,8,0:0:0:0:
382,142,220350,1,8,0:0:0:0:
398,189,220419,37,10,0:0:0:0:
343,192,220487,1,8,0:0:0:0:
288,195,220555,1,8,0:0:0:0:
233,199,220623,1,8,0:0:0:0:
258,252,220691,5,10,0:0:0:0:
184,255,220759,1,8,0:0:0:0:
110,259,220827,1,8,0:0:0:0:
36,263,220895,1,8,0:0:0:0:
4,329,220964,6,0,P|63:359|105:253,1,203.999993774414,6|12,0:0|0:0,0:0:0:0:
1,138,221373,1,0,0:0:0:0:
155,58,221510,2,0,L|38:49,1,101.999996887207,10|8,0:3|0:3,0:0:0:0:
109,258,221782,2,0,L|210:265,1,101.999996887207,10|0,0:0|0:0,0:0:0:0:
432,226,222055,6,0,B|402:184|402:184|420:344,2,203.999993774414,10|8|8,0:3|0:0|0:3,0:0:0:0:
325,331,222737,1,10,0:3:0:0:
512,171,222873,1,10,0:0:0:0:
325,11,223010,1,2,0:0:0:0:
512,274,223146,38,0,L|405:260,1,101.999996887207,10|0,0:3|0:0,0:0:0:0:
199,363,223419,1,10,0:0:0:0:
316,234,223555,2,0,B|338:280|338:280|311:334,1,101.999996887207,2|8,0:0|0:3,0:0:0:0:
139,142,223828,2,0,B|117:188|117:188|143:242,1,101.999996887207,10|8,0:3|0:0,0:0:0:0:
319,81,224100,1,2,0:0:0:0:
66,36,224237,6,0,P|166:61|262:3,1,203.999993774414,8|8,0:3|0:0,0:0:0:0:
319,81,224646,1,0,0:0:0:0:
472,14,224782,1,10,0:3:0:0:
457,118,224919,1,10,0:3:0:0:
442,222,225055,1,10,0:0:0:0:
257,172,225191,6,0,L|358:161,1,101.999996887207,2|4,0:0|0:0,0:0:0:0:
131,25,225464,2,0,L|253:12,1,101.999996887207,2|8,0:0|0:0,0:0:0:0:
319,81,225737,1,2,0:0:0:0:
180,250,225873,5,10,0:3:0:0:
100,197,226010,1,10,0:3:0:0:
260,303,226146,1,10,0:0:0:0:
200,140,226282,1,2,0:0:0:0:
180,250,226419,1,10,0:3:0:0:
160,360,226555,2,0,P|213:351|264:380,1,101.999996887207,2|8,0:0|0:0,0:0:0:0:
454,198,226828,37,2,0:0:0:0:
335,313,226964,1,10,0:3:0:0:
498,290,227100,1,10,0:3:0:0:
352,213,227237,1,10,0:0:0:0:
426,362,227373,1,2,0:0:0:0:
506,128,227510,6,0,B|385:122,1,101.999996887207,6|0,0:0|0:0,0:0:0:0:
178,113,227782,2,0,B|299:119,1,101.999996887207,10|0,0:0|0:0,0:0:0:0:
500,115,228055,1,10,0:3:0:0:
455,112,228123,1,8,0:3:0:0:
422,142,228191,1,10,0:3:0:0:
422,187,228259,1,8,0:3:0:0:
453,218,228327,1,10,0:0:0:0:
308,39,228464,6,0,B|281:18|274:-1|274:-1|272:23|249:47,1,101.999996887207,6|0,0:0|0:0,0:0:0:0:
80,196,228737,6,0,B|178:189|178:189|224:222|224:222|354:213,1,255.000009727478,6|0,0:0|0:0,0:0:0:0:
512,316,229146,38,0,P|477:293|416:302,1,101.999996887207,10|0,0:3|0:0,0:0:0:0:
283,361,229419,1,10,0:0:0:0:
238,384,229487,1,8,0:0:0:0:
187,384,229555,1,8,0:0:0:0:
142,361,229623,1,8,0:0:0:0:
113,320,229691,6,0,P|104:254|210:174,1,203.999993774414,6|12,0:0|0:0,0:0:0:0:
356,274,230100,1,0,0:0:0:0:
493,123,230237,2,0,P|433:103|370:126,1,101.999996887207,10|8,0:3|0:3,0:0:0:0:
250,273,230510,2,0,P|310:293|373:270,1,101.999996887207,10|0,0:0|0:0,0:0:0:0:
333,7,230782,6,0,B|297:44|297:44|310:229,1,203.999993774414,10|8,0:3|0:0,0:0:0:0:
389,143,231191,1,0,0:0:0:0:
209,51,231328,1,10,0:3:0:0:
147,203,231464,1,10,0:3:0:0:
209,51,231600,1,10,0:0:0:0:
147,203,231737,1,2,0:0:0:0:
23,98,231873,6,0,B|72:84|72:84|137:115,1,101.999996887207,10|0,0:3|0:0,0:0:0:0:
181,290,232146,2,0,B|227:311|227:311|276:297,1,101.999996887207,10|0,0:0|0:0,0:0:0:0:
49,232,232419,1,10,0:3:0:0:
147,203,232555,1,10,0:3:0:0:
245,174,232691,1,10,0:0:0:0:
351,366,232828,38,0,P|372:311|351:256,1,101.999996887207,2|8,0:0|0:3,0:0:0:0:
245,174,233100,1,2,0:0:0:0:
463,279,233237,2,0,L|259:263,1,203.999993774414,8|8,0:0|0:3,0:0:0:0:
197,367,233646,1,8,0:3:0:0:
49,232,233782,2,0,P|28:287|49:342,1,101.999996887207,10|0,0:0|0:0,0:0:0:0:
10,109,234055,6,0,P|67:144|174:77,1,203.999993774414,6|8,0:0|0:0,0:0:0:0:
85,55,234464,1,0,0:0:0:0:
239,144,234600,2,8,L|222:270,1,101.999996887207,8|0,0:3|0:0,0:3:0:0:
35,333,234873,2,0,L|52:207,1,101.999996887207,10|0,0:0|0:0,0:0:0:0:
319,295,235146,6,0,P|238:263|159:361,1,203.999993774414,10|8,0:3|0:0,0:0:0:0:
249,353,235555,1,2,0:0:0:0:
412,213,235691,1,10,0:3:0:0:
430,345,235828,1,10,0:3:0:0:
249,234,235964,1,10,0:0:0:0:
231,102,236101,1,2,0:0:0:0:
393,73,236237,6,0,P|352:43|272:54,1,101.999996887207,6|0,0:0|0:0,0:0:0:0:
80,182,236510,1,10,0:0:0:0:
126,162,236578,1,8,0:0:0:0:
177,165,236646,1,8,0:0:0:0:
220,191,236714,1,8,0:0:0:0:
248,233,236782,1,8,0:0:0:0:
65,206,236919,2,0,P|106:236|186:225,1,101.999996887207,8|8,0:3|0:3,0:0:0:0:
427,113,237191,38,0,B|404:92|393:72|393:72|406:222,1,203.999993774414,6|8,0:0|0:3,0:0:0:0:
188,322,237600,2,0,B|198:311|201:302|201:302|209:380,1,101.999996887207,6|0,0:0|0:0,0:0:0:0:
45,242,237873,5,10,0:3:0:0:
79,221,237941,1,8,0:3:0:0:
119,223,238009,1,8,0:3:0:0:
152,247,238077,1,8,0:3:0:0:
188,322,238146,5,10,0:0:0:0:
232,362,238214,1,8,0:0:0:0:
292,371,238282,1,8,0:0:0:0:
346,344,238350,1,8,0:0:0:0:
375,291,238419,6,0,B|381:197|381:197|341:149,1,140.25000428009,6|0,0:0|0:0,0:0:0:0:
321,130,238691,1,12,0:0:0:0:
418,83,238828,1,2,0:0:0:0:
227,174,238964,2,0,L|104:161,1,93.5000028533936,10|8,0:3|0:3,0:0:0:0:
6,151,239237,1,10,0:0:0:0:
75,84,239373,1,2,0:0:0:0:
145,247,239510,38,0,B|354:269,1,187.000005706787,10|8,0:3|0:0,0:0:0:0:
407,205,239919,1,2,0:0:0:0:
476,373,240055,1,10,0:3:0:0:
511,268,240191,1,10,0:3:0:0:
433,105,240328,1,10,0:0:0:0:
398,210,240464,1,2,0:0:0:0:
474,1,240600,6,0,B|396:24|396:24|370:12|370:12|280:39,1,187.000005706787,10|10,0:3|0:0,0:0:0:0:
304,49,241010,1,0,0:0:0:0:
68,95,241146,2,0,B|146:118|146:118|172:106|172:106|262:133,1,187.000005706787,10|10,0:3|0:0,0:0:0:0:
238,143,241556,1,2,0:0:0:0:
424,243,241691,5,10,0:3:0:0:
457,157,241828,1,2,0:0:0:0:
394,324,241964,2,0,P|344:329|333:377,1,93.5000028533936,10|0,0:0|0:0,0:0:0:0:
338,211,242237,2,0,P|308:170|261:184,1,93.5000028533936,10|8,0:3|0:3,0:0:0:0:
403,98,242510,2,0,P|423:52|387:18,1,93.5000028533936,10|8,0:0|0:3,0:0:0:0:
293,3,242714,1,8,0:3:0:0:
300,15,242782,6,0,B|206:7|206:7|172:45,1,140.25000428009,4|0,0:0|0:0,0:0:0:0:
184,85,243055,2,0,P|138:56|80:69,1,93.5000028533936,14|0,0:0|0:0,0:0:0:0:
98,230,243328,1,10,0:3:0:0:
198,190,243464,1,10,0:3:0:0:
12,163,243600,1,10,0:0:0:0:
82,336,243737,1,2,0:0:0:0:
114,124,243873,37,10,0:3:0:0:
184,297,244010,1,2,0:0:0:0:
0,272,244146,1,10,0:0:0:0:
98,230,244282,2,0,L|293:284,1,187.000005706787,2|8,0:0|0:3,0:0:0:0:
497,345,244691,2,0,L|391:372,1,93.5000028533936,10|0,0:0|0:0,0:0:0:0:
436,116,244964,6,0,B|468:152|468:152|422:297,1,187.000005706787,6|12,0:0|0:0,0:0:0:0:
316,348,245373,1,2,0:0:0:0:
150,203,245510,1,10,0:3:0:0:
192,183,245578,1,8,0:3:0:0:
238,186,245646,1,8,0:3:0:0:
278,209,245714,1,8,0:3:0:0:
303,248,245782,1,10,0:0:0:0:
218,60,245919,6,0,P|162:108|118:22,1,187.000005706787,6|8,0:0|0:3,0:0:0:0:
426,132,246328,2,0,B|444:96|396:67|352:104|358:168|421:229,1,187.000005706787,6|8,0:0|0:3,0:0:0:0:
483,267,246737,1,8,0:3:0:0:
356,358,246873,1,10,0:0:0:0:
309,354,246941,1,8,0:0:0:0:
262,350,247010,1,10,0:0:0:0:
216,346,247077,1,8,0:0:0:0:
169,342,247146,70,0,L|-7:329,1,170,6|8,0:0|0:0,0:0:0:0:
59,195,247555,1,0,0:0:0:0:
114,262,247691,2,0,L|233:271,1,85,10|8,0:3|0:3,0:0:0:0:
181,130,247964,2,0,L|62:121,1,85,10|0,0:0|0:0,0:0:0:0:
225,52,248237,54,0,P|268:101|220:209,1,170,10|8,0:3|0:0,0:0:0:0:
114,262,248646,1,2,0:0:0:0:
248,316,248782,2,0,P|221:271|181:256,1,85,8|8,0:3|0:3,0:0:0:0:
343,271,249055,2,0,P|368:225|361:182,1,85,10|0,0:0|0:0,0:0:0:0:
434,14,249328,22,0,L|453:205,1,170,10|8,0:3|0:0,0:0:0:0:
343,271,249737,1,0,0:0:0:0:
281,187,249873,2,0,L|391:195,1,85,10|10,0:3|0:3,0:0:0:0:
219,103,250146,2,0,L|329:111,1,85,10|0,0:0|0:0,0:0:0:0:
167,30,250419,54,0,P|131:83|166:175,1,170,10|8,0:3|0:0,0:0:0:0:
281,187,250828,1,2,0:0:0:0:
169,279,250964,2,0,P|213:261|265:271,1,85,8|8,0:3|0:3,0:0:0:0:
312,105,251237,1,10,0:0:0:0:
368,173,251373,1,2,0:0:0:0:
296,356,251510,22,0,L|279:166,1,170,6|8,0:0|0:0,0:0:0:0:
399,91,251919,1,0,0:0:0:0:
376,257,252055,2,0,L|365:144,1,85,10|8,0:3|0:3,0:0:0:0:
191,113,252328,2,0,L|202:226,1,85,10|0,0:0|0:0,0:0:0:0:
254,50,252600,54,0,P|188:23|101:103,1,170,10|8,0:3|0:0,0:0:0:0:
199,197,253010,1,2,0:0:0:0:
41,177,253146,2,0,P|89:156|137:171,1,85,8|8,0:3|0:3,0:0:0:0:
279,232,253419,1,10,0:0:0:0:
270,146,253555,1,2,0:0:0:0:
208,283,253691,22,0,L|397:262,1,170,10|8,0:3|0:0,0:0:0:0:
487,365,254100,1,0,0:0:0:0:
464,199,254237,2,0,L|454:325,1,85,10|8,0:3|0:3,0:0:0:0:
390,94,254510,2,0,L|380:220,1,85,10|0,0:0|0:0,0:0:0:0:
470,36,254782,53,10,0:3:0:0:
287,110,254919,1,8,0:3:0:0:
464,199,255055,1,8,0:0:0:0:
390,94,255191,21,10,0:0:0:0:
268,222,255328,1,10,0:3:0:0:
342,327,255464,1,10,0:3:0:0:
464,199,255601,1,10,0:0:0:0:
287,110,255737,1,2,0:0:0:0:
193,379,255873,70,0,L|173:136,1,220.999989883423,6|8,0:0|0:0,0:0:0:0:
266,13,256282,1,8,0:0:0:0:
71,29,256419,1,10,0:3:0:0:
75,242,256555,1,8,0:3:0:0:
293,223,256691,1,8,0:0:0:0:
175,127,256828,1,0,0:0:0:0:
361,26,256964,6,0,P|451:50|451:194,1,220.999989883423,6|8,0:0|0:0,0:0:0:0:
325,340,257373,1,8,0:0:0:0:
512,229,257510,2,0,P|460:204|381:223,1,110.499994941712,10|8,0:3|0:3,0:0:0:0:
144,279,257782,1,8,0:0:0:0:
333,334,257919,1,0,0:0:0:0:
286,135,258055,6,0,L|29:100,1,220.999989883423,6|8,0:0|0:0,0:0:0:0:
218,21,258464,1,8,0:0:0:0:
99,191,258600,2,0,L|239:211,1,110.499994941712,10|8,0:3|0:3,0:0:0:0:
384,95,258873,1,8,0:0:0:0:
446,308,259010,1,0,0:0:0:0:
253,363,259146,6,0,P|179:322|222:199,1,220.999989883423,6|8,0:0|0:0,0:0:0:0:
384,95,259555,1,8,0:0:0:0:
338,261,259691,1,10,0:3:0:0:
484,164,259828,1,10,0:3:0:0:
332,0,259964,1,8,0:0:0:0:
186,96,260101,1,0,0:0:0:0:
250,280,260237,38,0,L|476:288,1,220.999989883423,6|8,0:0|0:0,0:0:0:0:
339,172,260646,1,8,0:0:0:0:
494,53,260782,2,0,L|482:179,1,110.499994941712,10|8,0:3|0:3,0:0:0:0:
284,14,261055,1,8,0:0:0:0:
333,186,261191,1,0,0:0:0:0:
150,265,261328,6,0,P|86:260|64:116,1,220.999989883423,6|8,0:0|0:0,0:0:0:0:
229,192,261737,1,8,0:0:0:0:
209,352,261873,1,10,0:3:0:0:
19,292,262010,1,8,0:3:0:0:
39,132,262146,1,8,0:0:0:0:
197,75,262282,1,0,0:0:0:0:
385,132,262419,6,0,L|360:362,1,220.999989883423,6|10,0:0|0:0,0:0:0:0:
245,193,262828,1,8,0:0:0:0:
451,250,262964,2,0,L|294:259,1,110.499994941712,10|10,0:3|0:3,0:0:0:0:
83,183,263237,1,10,0:0:0:0:
240,200,263373,1,0,0:0:0:0:
124,105,263510,5,6,0:0:0:0:
147,271,263646,1,8,0:3:0:0:
220,121,263782,1,6,0:0:0:0:
55,273,263919,37,8,0:3:0:0:
23,97,264055,1,6,0:0:0:0:
191,41,264191,1,8,0:3:0:0:
222,217,264328,1,4,0:0:0:0:
213,257,264396,1,8,0:0:0:0:
203,297,264464,1,8,0:0:0:0:
194,337,264532,1,8,0:0:0:0:
185,377,264600,6,0,L|309:361,1,110.499994941712,6|0,0:0|0:0,0:0:0:0:
500,337,264873,1,10,0:0:0:0:
508,146,265010,5,0,0:0:0:0:
280,202,265146,1,14,0:0:0:0:
379,383,265282,1,8,0:3:0:0:
442,193,265419,1,10,0:0:0:0:
210,160,265555,1,8,0:3:0:0:
88,241,265691,5,14,0:0:0:0:
0,225,265828,1,8,0:3:0:0:
58,159,265964,1,14,0:0:0:0:
280,202,266101,37,0,0:0:0:0:
512,279,266237,1,14,0:0:0:0:
294,384,266373,1,0,0:0:0:0:
363,288,266510,1,10,0:0:0:0:
207,131,266646,5,0,0:0:0:0:
57,304,266782,1,14,0:0:0:0:
14,154,266919,1,0,0:0:0:0:
203,282,267055,1,10,0:0:0:0:
103,89,267191,5,0,0:0:0:0:
143,367,267328,1,14,0:0:0:0:
122,228,267464,1,0,0:0:0:0:
361,279,267600,5,10,0:0:0:0:
327,56,267737,1,0,0:0:0:0:
344,166,267873,1,14,0:0:0:0:
458,116,268010,37,0,0:0:0:0:
230,217,268146,1,14,0:0:0:0:
458,116,268282,1,2,0:0:0:0:
458,316,268419,5,14,0:0:0:0:
443,213,268555,1,2,0:0:0:0:
245,119,268692,5,10,0:0:0:0:
230,16,268828,1,0,0:0:0:0:
458,116,268964,6,0,B|415:81|415:81|352:95,1,110.499994941712,14|8,0:0|0:3,0:0:0:0:
259,318,269237,2,0,B|302:353|302:353|365:339,1,110.499994941712,10|8,0:0|0:3,0:0:0:0:
245,119,269510,37,10,0:0:0:0:
443,213,269646,1,8,0:0:0:0:
437,249,269714,1,8,0:0:0:0:
431,285,269782,1,10,0:0:0:0:
361,92,269919,1,8,0:3:0:0:
139,346,270055,5,10,0:0:0:0:
131,340,270737,5,8,0:3:0:0:
50,183,270873,2,0,B|24:231|24:231|48:309,1,110.499994941712,8|0,0:0|0:0,0:0:0:0:
377,178,271146,5,4,0:0:0:0:
256,197,271282,1,0,0:0:0:0:
135,215,271419,1,0,0:0:0:0:
229,51,271555,2,0,B|271:88|271:88|249:242,1,165.749992412568
243,273,271828,1,4,0:0:0:0:
276,363,271964,2,0,B|234:326|234:326|250:230,1,110.499994941712
377,178,272237,38,0,L|520:156,1,110.499994941712,4|0,0:0|0:0,0:0:0:0:
135,215,272510,54,0,L|13:233,1,112.199999657593,4|0,0:0|0:0,0:0:0:0:
