osu file format v14

[General]
AudioFilename: audio.mp3
AudioLeadIn: 0
PreviewTime: -1
Countdown: 1
SampleSet: Drum
StackLeniency: 0.7
Mode: 0
LetterboxInBreaks: 0
WidescreenStoryboard: 1

[Editor]
Bookmarks: 78718,111309,128764,164764,258446
DistanceSpacing: 1
BeatDivisor: 2
GridSize: 8
TimelineZoom: 4.799998

[Metadata]
Title:Hachigatsu, Bou, Tsukiakari
TitleUnicode:Hachigatsu, Bou, Tsukiakari
Artist:Yorushika
ArtistUnicode:Yorushika
Creator:MrCrowley
Version:tv size
Source:
Tags:
BeatmapID:2187515
BeatmapSetID:1046414

[Difficulty]
HPDrainRate:6
CircleSize:4.2
OverallDifficulty:9
ApproachRate:9.5
SliderMultiplier:1.6
SliderTickRate:1

[Events]
//Background and Video events
0,0,"untitled_drawing_by_jenny_neko-d66teda.png",0,0
//Break Periods
2,21237,24057
2,111509,119102
2,121191,128239
2,156509,165602
2,203691,216330
2,232600,237602
2,242963,248375
2,251554,255330
2,261236,266239
//Storyboard Layer 0 (Background)
//Storyboard Layer 1 (Fail)
//Storyboard Layer 2 (Pass)
//Storyboard Layer 3 (Foreground)
//Storyboard Layer 4 (Overlay)
//Storyboard Sound Samples

[TimingPoints]
37,272.727272727273,4,3,1,30,1,0
24582,-181.818181818181,4,3,1,30,0,0
28946,-100,4,3,1,30,0,0
33309,-100,4,3,1,30,0,0
59355,-66.6666666666667,4,3,1,30,0,0
59764,-100,4,3,1,30,0,0
69173,-66.6666666666667,4,3,1,30,0,0
69582,-100,4,3,1,30,0,0
89627,-100,4,3,1,30,0,1
107900,-100,4,3,1,30,0,0
128764,-100,4,3,1,30,0,1
148127,-100,4,3,1,30,0,0

[HitObjects]
165,257,582,6,0,B|71:251|62:152|62:152|90:194|132:189,1,240,4|0,2:0|0:0,0:0:0:0:
336,124,1127,1,8,0:0:0:0:
298,258,1309,1,4,0:0:0:0:
128,105,1491,1,0,1:0:0:0:
165,257,1673,1,0,0:0:0:0:
484,162,2355,5,2,0:0:0:0:
420,290,2491,2,0,P|361:293|314:259,1,120,2|0,1:1|0:0,0:0:0:0:
258,109,2764,1,0,0:0:0:0:
386,206,2900,5,0,0:0:0:0:
386,206,2968,1,0,0:0:0:0:
386,206,3036,5,0,0:0:0:0:
217,224,3173,1,0,0:0:0:0:
386,206,3309,1,0,0:0:0:0:
219,105,3445,1,0,0:0:0:0:
308,276,3582,1,0,0:0:0:0:
382,68,3718,1,0,0:0:0:0:
121,164,3854,2,0,B|134:270|134:270|178:301,1,160
303,173,4264,1,0,0:0:0:0:
80,85,4400,2,0,B|39:124|39:124|46:230,1,160
255,290,4809,5,0,0:0:0:0:
72,264,4946,1,0,0:0:0:0:
261,193,5082,2,0,B|262:272,1,80
121,121,5354,5,0,0:0:0:0:
295,129,5490,1,0,0:0:0:0:
148,235,5626,1,0,0:0:0:0:
214,73,5764,2,0,B|228:28|228:28|272:20,1,80
422,140,6037,2,0,P|429:179|416:217,1,80
262,272,6309,1,0,0:0:0:0:
373,60,6445,2,0,P|450:55|506:109,1,160
423,304,6854,1,0,0:0:0:0:
186,194,7127,6,0,B|160:176|160:176|82:180,1,80
28,277,7400,1,0,0:0:0:0:
158,356,7536,1,0,0:0:0:0:
253,231,7673,6,0,B|279:213|279:213|357:217,1,80
278,350,7945,1,0,0:0:0:0:
133,268,8082,1,0,0:0:0:0:
392,204,8218,2,0,P|415:278|366:358,1,160
212,296,8627,1,0,0:0:0:0:
321,135,8764,6,0,B|380:43|380:43|394:91,1,160
493,208,9173,1,0,0:0:0:0:
250,177,9309,2,0,P|237:139|249:101,1,80
479,127,9582,1,8,0:0:0:0:
479,127,9718,1,2,0:0:0:0:
337,225,9854,2,0,L|354:261,1,40,2|2,3:0|3:0,0:0:0:0:
291,221,9991,2,0,L|293:155,1,40,8|0,3:0|0:0,0:0:0:0:
244,235,10127,2,0,L|233:273,1,40,8|0,0:0|0:0,0:0:0:0:
32,148,10264,2,0,P|64:68|174:78,1,160
267,186,10673,5,0,0:0:0:0:
105,133,10809,1,0,0:0:0:0:
150,329,10945,2,0,B|190:358|190:358|373:354,1,160
339,105,11286,1,0,0:0:0:0:
305,86,11354,1,0,0:0:0:0:
267,85,11423,1,0,0:0:0:0:
232,86,11491,2,0,P|184:101|153:139,1,80,6|0,0:0|0:0,0:0:0:0:
158,254,11764,5,0,0:0:0:0:
267,157,11900,1,0,0:0:0:0:
253,341,12037,2,0,P|209:341|179:317,1,80,6|0,0:0|0:0,0:0:0:0:
137,113,12309,1,0,0:0:0:0:
301,255,12446,1,0,0:0:0:0:
48,346,12582,2,0,P|11:278|34:204,1,160
227,258,12991,1,0,0:0:0:0:
397,342,13127,2,0,P|421:268|385:200,1,160
155,283,13537,5,0,0:0:0:0:
331,276,13673,1,0,0:0:0:0:
165,210,13809,1,0,0:0:0:0:
331,276,13946,1,0,0:0:0:0:
219,128,14082,5,0,0:0:0:0:
236,308,14218,1,0,0:0:0:0:
347,153,14354,1,0,0:0:0:0:
96,177,14491,1,0,0:0:0:0:
336,260,14627,1,0,0:0:0:0:
181,220,14764,5,0,0:0:0:0:
293,186,14900,1,0,0:0:0:0:
264,306,15037,1,0,0:0:0:0:
216,124,15173,2,0,B|196:35|196:35|241:85|284:87,1,160
408,148,15582,5,0,0:0:0:0:
62,197,15855,5,0,0:0:0:0:
325,254,15991,5,2,0:0:0:0:
325,254,16059,1,0,0:0:0:0:
325,254,16127,1,8,0:0:0:0:
142,138,16264,1,0,0:0:0:0:
258,315,16400,1,0,0:0:0:0:
298,89,16536,1,0,0:0:0:0:
148,238,16673,1,0,0:0:0:0:
398,144,16809,1,0,0:0:0:0:
161,57,16946,2,0,P|97:67|145:109,1,160
311,167,17355,5,0,0:0:0:0:
430,63,17491,2,0,B|473:20|473:20|509:83|464:148,1,160
399,267,17900,1,0,0:0:0:0:
201,220,18037,2,0,B|174:211|125:237|125:237|153:284|225:277,1,160
322,245,18446,1,0,0:0:0:0:
92,164,18582,2,0,P|44:226|108:307,1,160
133,233,18991,5,0,0:0:0:0:
304,152,19127,2,0,P|337:135|383:146,1,80
171,36,19400,2,0,P|129:30|91:41,1,80
245,248,19673,2,0,P|283:256|325:243,1,80
323,61,19946,1,0,0:0:0:0:
151,180,20082,1,0,0:0:0:0:
350,271,20218,2,0,P|408:296|352:227,1,240
201,291,20900,5,0,0:0:0:0:
138,333,21037,1,0,0:0:0:0:
73,209,24582,6,0,P|164:177|259:234,3,176.000005371094
275,268,26764,6,0,P|366:300|461:243,3,176.000005371094
383,37,28946,6,0,B|350:96|350:96|451:112|458:245|343:225|301:210,1,320
257,36,30037,5,0,0:0:0:0:
256,288,30582,5,0,0:0:0:0:
129,37,31127,2,0,B|161:96|161:96|60:112|53:245|168:225|210:210,1,320
250,279,32218,1,0,0:0:0:0:
193,158,32764,5,0,0:0:0:0:
169,266,32900,1,0,0:0:0:0:
95,174,33037,1,0,0:0:0:0:
81,268,33173,1,0,0:0:0:0:
268,198,33309,2,0,P|326:287|243:268,1,240
193,158,33855,2,0,P|208:123|277:110,1,80
327,115,34127,1,0,0:0:0:0:
200,230,34264,1,0,0:0:0:0:
155,76,34400,2,0,P|64:41|120:175,1,320
381,132,35218,6,0,P|398:167|389:205,1,80
122,205,35491,2,0,P|113:167|130:132,1,80
315,176,35764,1,0,0:0:0:0:
203,172,35900,1,0,0:0:0:0:
330,74,36037,2,0,P|369:56|436:77,2,80
251,247,36446,2,0,P|261:343|329:276,1,240,0|0,2:0|0:0,0:0:0:0:
84,176,37400,5,0,0:0:0:0:
84,176,37537,1,0,0:0:0:0:
236,145,37673,2,0,L|357:120,1,80
108,265,37946,1,0,0:0:0:0:
108,265,38082,1,0,0:0:0:0:
161,71,38218,2,0,B|212:14|280:48|280:48|237:92,1,160
300,175,38627,5,0,0:0:0:0:
167,201,38764,1,0,0:0:0:0:
227,66,38900,1,0,0:0:0:0:
366,58,39037,1,0,0:0:0:0:
438,203,39173,1,0,0:0:0:0:
366,58,39309,2,0,P|302:79|296:147,1,80
331,260,39582,2,0,B|369:292|369:292|449:290|449:290|480:262,1,160
475,135,40127,5,0,0:0:0:0:
264,155,40264,1,0,0:0:0:0:
312,23,40537,5,0,0:0:0:0:
408,213,40673,1,0,0:0:0:0:
111,134,40946,6,0,P|24:246|145:322,1,320
394,289,41627,6,0,P|409:253|408:213,1,80
443,135,42036,6,0,P|406:120|370:133,1,80
197,221,42309,1,0,0:0:0:0:
276,73,42445,1,0,0:0:0:0:
407,212,42582,2,0,P|408:289|351:343,1,160
142,172,42991,1,0,0:0:0:0:
341,135,43127,2,0,L|465:100,1,80
146,98,43400,1,0,0:0:0:0:
298,268,43536,1,0,0:0:0:0:
250,52,43673,2,0,P|210:58|180:83,1,80
221,271,43945,6,0,B|259:278|259:278|297:267,1,80
417,113,44218,2,0,P|453:97|492:102,1,80
386,355,44491,6,0,B|272:360|272:360|235:332,1,160
90,181,44900,1,0,0:0:0:0:
261,233,45037,2,0,L|333:265,1,80
169,208,45309,5,2,1:2:0:0:
402,290,45445,1,0,0:0:0:0:
182,214,45582,1,8,0:0:0:0:
272,332,45718,1,2,0:0:0:0:
261,153,45854,1,0,0:0:0:0:
180,305,45991,1,0,1:0:0:0:
354,198,46127,1,8,0:0:0:0:
252,350,46264,1,2,0:0:0:0:
261,153,46400,6,0,L|272:73,1,80,0|0,1:0|0:0,0:0:0:0:
248,304,46673,1,8,0:0:0:0:
169,133,46809,2,0,L|180:53,1,80,0|0,1:0|0:0,0:0:0:0:
64,225,47082,1,0,0:0:0:0:
358,100,47218,6,0,L|349:205,1,80,0|0,1:0|0:0,0:0:0:0:
45,117,47491,1,8,0:0:0:0:
362,50,47627,6,0,L|354:143,1,80,0|0,1:0|0:0,0:0:0:0:
122,153,47900,1,0,0:0:0:0:
403,248,48037,6,0,B|417:200|417:200|393:157,1,80,0|0,1:0|0:0,0:0:0:0:
204,105,48310,1,0,0:0:0:0:
323,314,48446,1,0,0:0:0:0:
434,101,48582,5,0,0:0:0:0:
316,235,48718,1,10,1:2:0:0:
345,88,48855,1,8,0:0:0:0:
208,211,48991,1,2,0:0:0:0:
105,43,49127,5,0,0:0:0:0:
129,198,49264,1,0,1:0:0:0:
281,20,49400,1,8,0:0:0:0:
275,165,49537,1,2,0:0:0:0:
55,235,49673,2,0,P|48:197|61:160,1,80
329,87,49946,2,0,P|380:144|365:220,1,160
305,332,50355,1,0,0:0:0:0:
216,213,50491,2,0,P|239:178|297:166,1,80
455,135,50764,5,0,0:0:0:0:
285,242,50900,1,2,1:2:0:0:
379,182,51036,1,0,0:0:0:0:
224,322,51173,1,8,0:0:0:0:
263,133,51309,1,2,0:0:0:0:
384,315,51446,1,0,1:0:0:0:
149,234,51582,1,8,0:0:0:0:
380,102,51719,1,2,0:0:0:0:
303,313,51855,2,0,B|261:329|261:329|225:317,1,80
358,12,52127,6,0,P|439:23|472:118,1,160,8|0,0:0|0:0,0:0:0:0:
428,246,52537,1,0,0:0:0:0:
181,155,52673,2,0,L|102:137,1,80
350,207,52946,5,2,1:2:0:0:
225,90,53082,1,0,0:0:0:0:
248,272,53219,1,8,0:0:0:0:
225,90,53355,1,2,0:0:0:0:
136,249,53491,1,0,0:0:0:0:
230,87,53628,1,0,1:0:0:0:
64,170,53764,1,8,0:0:0:0:
316,114,53901,1,2,0:0:0:0:
292,339,54037,2,0,P|256:354|218:342,1,80
151,53,54309,2,0,P|213:5|287:24,1,160,8|2,0:0|0:0,0:0:0:0:
368,235,54718,5,0,0:0:0:0:
210,158,54855,2,0,P|208:119|239:87,1,80
365,32,55127,5,2,1:2:0:0:
256,259,55263,1,0,0:0:0:0:
430,138,55400,1,8,0:0:0:0:
141,155,55537,2,0,B|20:174|20:174|61:213,1,160,8|2,0:0|0:0,0:0:0:0:
207,252,55946,1,0,0:0:0:0:
237,162,56082,1,2,1:2:0:0:
125,231,56218,2,0,P|118:281|155:323,1,80
289,108,56491,2,0,P|256:84|216:86,1,80
141,155,56764,5,0,0:0:0:0:
326,222,56900,1,0,0:0:0:0:
335,79,57037,2,0,L|344:-36,1,80
218,267,57309,2,0,P|113:334|69:305,1,160,8|2,0:0|0:0,0:0:0:0:
63,170,57719,1,0,1:0:0:0:
341,210,57855,2,0,P|376:139|264:79,1,160
165,84,58264,5,2,1:2:0:0:
277,264,58400,2,0,B|334:327|397:293|397:293|375:286|365:276,1,160,8|2,0:0|0:0,0:0:0:0:
205,173,58809,2,0,B|176:210|176:210|204:265,1,80,8|2,2:0|2:0,2:0:0:0:
380,177,59082,2,0,P|390:159|382:95,1,80
165,84,59355,2,0,B|12:88|12:88|70:108|93:168,1,240.000009155274
289,131,59764,2,0,P|302:176|289:211,1,80
147,354,60037,2,0,B|145:297|145:297|131:276|131:276|127:174,1,160
32,119,60446,2,0,P|-19:161|30:221,1,160
48,216,60854,5,2,1:3:0:0:
68,208,60923,1,0,0:0:0:0:
88,200,60991,1,0,0:0:0:0:
108,192,61059,1,0,0:0:0:0:
132,182,61127,1,2,1:3:0:0:
152,174,61196,1,0,0:0:0:0:
172,166,61264,1,0,0:0:0:0:
192,158,61332,1,0,0:0:0:0:
213,148,61400,5,2,1:3:0:0:
233,140,61469,1,0,0:0:0:0:
253,132,61537,1,0,0:0:0:0:
273,124,61605,1,0,0:0:0:0:
301,117,61673,6,0,P|372:144|379:219,1,160,4|4,1:0|0:0,0:0:0:0:
257,332,62082,1,0,0:0:0:0:
195,66,62218,1,0,1:0:0:0:
307,196,62354,1,0,1:0:0:0:
106,163,62491,1,8,0:0:0:0:
362,46,62627,1,0,0:0:0:0:
233,242,62764,2,0,P|215:167|269:112,1,160,0|8,0:0|0:0,0:0:0:0:
442,306,63173,2,0,B|409:338|409:338|291:339,1,160
166,213,63582,5,0,0:0:0:0:
244,354,63718,1,0,0:0:0:0:
265,212,63854,5,4,1:2:0:0:
148,311,63991,1,0,0:0:0:0:
196,140,64127,5,8,0:0:0:0:
342,297,64264,1,0,0:0:0:0:
336,151,64400,5,4,0:0:0:0:
182,366,64536,1,0,1:0:0:0:
447,234,64673,1,8,0:0:0:0:
132,194,64809,2,0,P|114:119|168:64,1,160,0|8,0:0|0:0,0:0:0:0:
417,154,65218,1,0,0:0:0:0:
167,258,65355,1,0,0:0:0:0:
275,84,65491,5,0,0:0:0:0:
341,259,65628,1,0,0:0:0:0:
194,146,65764,1,0,0:0:0:0:
367,88,65900,1,0,0:0:0:0:
249,290,66036,6,0,P|227:323|191:339,1,80,4|0,1:2|0:0,0:0:0:0:
307,164,66309,2,0,P|345:153|382:165,1,80,4|0,1:2|0:0,0:0:0:0:
166,257,66582,2,0,P|131:239|112:205,1,80,4|0,1:2|0:0,0:0:0:0:
221,76,66854,1,8,0:0:0:0:
264,231,66991,6,0,P|310:242|368:215,1,80,4|0,1:2|0:0,0:0:0:0:
268,0,67264,2,0,B|149:1|149:1|103:48,1,160
51,200,67673,5,0,1:0:0:0:
148,98,67809,1,0,1:0:0:0:
157,223,67945,1,0,0:0:0:0:
57,112,68081,1,8,0:0:0:0:
273,102,68218,2,0,P|293:132|292:184,1,80,0|0,2:0|0:0,0:0:0:0:
18,297,68491,2,0,P|-17:248|25:149,1,160
42,140,68832,1,0,1:0:0:0:
69,131,68900,1,0,1:0:0:0:
107,127,68968,1,0,1:0:0:0:
146,134,69036,1,0,1:0:0:0:
359,162,69173,2,0,P|407:99|281:45,1,240.000009155274
231,179,69582,1,0,0:0:0:0:
332,95,69854,5,8,0:0:0:0:
234,262,69991,1,4,0:0:0:0:
198,62,70127,1,0,1:0:0:0:
354,192,70263,1,0,0:0:0:0:
132,207,70400,2,0,B|25:215|25:215|50:193|61:166,1,160
128,66,70809,5,0,0:0:0:0:
157,279,70945,1,4,0:0:0:0:
258,109,71082,1,0,1:0:0:0:
314,260,71218,5,8,0:0:0:0:
179,144,71354,1,0,0:0:0:0:
436,191,71491,2,0,P|488:134|465:56,1,160
200,61,71900,1,0,0:0:0:0:
397,125,72173,5,0,0:0:0:0:
234,252,72308,1,4,0:0:0:0:
285,88,72445,1,0,1:0:0:0:
372,223,72582,2,0,L|466:348,1,80
104,180,72854,2,0,P|80:126|113:70,1,80
341,221,73127,2,0,L|358:257,1,40,2|2,3:0|3:0,0:0:0:0:
306,253,73264,2,0,L|296:191,1,40,8|0,3:0|0:0,0:0:0:0:
271,261,73400,2,0,L|260:299,1,40,8|0,0:0|0:0,0:0:0:0:
194,87,73537,6,0,P|279:74|311:109,1,80
327,354,73809,2,0,P|243:376|185:331,1,160
110,142,74218,1,0,0:0:0:0:
363,194,74355,1,0,0:0:0:0:
263,293,74491,2,0,P|230:252|247:188,1,80
431,89,74764,2,0,B|461:109|461:109|481:190|481:190|465:238,1,160
355,333,75173,5,0,0:0:0:0:
282,150,75309,1,0,0:0:0:0:
164,309,75446,1,0,0:0:0:0:
329,244,75582,2,0,P|369:234|406:252,1,80
120,349,75855,2,0,B|91:314|91:314|92:199,1,160
173,27,76264,5,0,0:0:0:0:
246,149,76400,1,0,0:0:0:0:
123,211,76537,1,0,0:0:0:0:
57,91,76673,1,0,0:0:0:0:
173,27,76809,1,0,0:0:0:0:
97,159,76946,6,0,P|66:174|7:162,1,80
259,60,77218,6,0,B|291:37|291:37|423:40,1,160
420,225,77627,5,2,0:0:0:0:
420,225,77695,1,0,0:0:0:0:
420,225,77763,1,8,0:0:0:0:
129,114,77900,2,0,P|65:102|96:158,1,160
350,116,78309,1,0,0:0:0:0:
175,267,78446,2,0,B|159:236|159:236|167:191,1,80
274,53,78718,1,0,0:0:0:0:
342,247,78855,2,0,B|314:267|314:267|268:267,1,80
99,196,79127,2,0,B|53:192|25:238|25:238|58:264|110:262,1,160
349,177,79536,5,0,0:0:0:0:
150,135,79673,1,0,0:0:0:0:
224,322,79809,1,0,0:0:0:0:
277,198,79945,1,0,0:0:0:0:
122,306,80082,1,0,0:0:0:0:
379,257,80218,2,0,P|435:205|425:128,1,160,0|0,2:0|0:0,0:0:0:0:
249,101,80628,1,0,0:0:0:0:
485,14,80764,2,0,B|501:56|501:56|488:93,1,80
320,173,81037,5,0,0:0:0:0:
481,270,81173,1,0,0:0:0:0:
299,255,81309,2,0,L|202:267,1,80
426,178,81582,1,0,0:0:0:0:
356,332,81718,1,0,0:0:0:0:
139,286,81854,2,2,P|139:210|207:176,1,160
311,225,82264,5,0,0:0:0:0:
256,54,82400,2,0,P|218:46|143:98,1,80
212,252,82673,1,0,0:0:0:0:
221,122,82809,1,0,0:0:0:0:
349,286,82945,2,0,P|388:297|427:289,1,80
455,130,83218,2,0,B|411:102|411:102|387:207,1,160
113,198,83764,6,0,B|98:172|98:172|117:125,1,80
225,312,84037,2,0,B|173:304|166:260|166:260|141:296|70:286,1,160
52,122,84446,1,0,0:0:0:0:
240,237,84582,1,0,0:0:0:0:
41,337,84718,1,0,0:0:0:0:
122,153,84855,1,0,0:0:0:0:
225,312,84991,2,0,B|276:325|300:289|300:289|321:327|376:317,1,160
434,53,85400,6,0,P|384:43|351:63,1,80
336,163,85673,2,0,B|333:207|360:242|360:242|402:215|421:165,1,160
280,97,86082,1,0,0:0:0:0:
497,118,86218,2,0,B|502:158|502:158|476:224,1,80,2|2,3:0|3:0,0:0:0:0:
421,259,86491,2,0,L|411:197,1,40,8|0,3:0|0:0,0:0:0:0:
336,264,86627,2,0,L|325:302,1,40,8|0,0:0|0:0,0:0:0:0:
219,45,86764,6,0,P|307:19|364:83,1,160
272,248,87309,1,0,0:0:0:0:
83,116,87582,5,0,0:0:0:0:
122,263,87718,1,0,0:0:0:0:
307,180,87855,2,0,B|368:145|368:145|390:99|390:99|449:66,1,160
371,313,88264,1,0,0:0:0:0:
197,226,88400,1,0,0:0:0:0:
216,336,88537,1,0,0:0:0:0:
206,352,88673,2,0,L|137:310,1,80
240,273,88946,1,0,0:0:0:0:
155,276,89627,5,2,0:0:0:0:
280,122,89763,2,0,P|327:88|386:90,1,120,2|0,1:1|0:0,0:0:0:0:
480,288,90036,1,0,0:0:0:0:
354,173,90172,5,0,0:0:0:0:
354,173,90240,1,0,0:0:0:0:
354,173,90308,5,0,0:0:0:0:
267,309,90445,1,0,0:0:0:0:
464,193,90581,1,0,0:0:0:0:
213,91,90717,1,0,0:0:0:0:
352,276,90854,1,0,0:0:0:0:
353,55,90990,1,0,0:0:0:0:
152,193,91126,2,0,P|135:268|200:239,1,160
381,140,91536,1,0,0:0:0:0:
139,67,91672,2,0,B|42:39|42:39|74:95,1,160
205,308,92081,5,0,0:0:0:0:
124,142,92217,1,0,0:0:0:0:
272,196,92354,2,0,P|309:210|346:224,1,80
409,286,92627,5,0,0:0:0:0:
198,173,92764,1,0,0:0:0:0:
435,125,92900,1,0,0:0:0:0:
319,299,93037,2,0,L|267:393,1,80,0|0,0:1|0:1,0:1:0:0:
129,218,93309,2,0,P|116:180|123:141,1,80
360,186,93581,1,0,0:0:0:0:
26,253,93717,2,0,B|27:129|27:129|49:96,1,160
287,176,94126,1,0,0:0:0:0:
444,222,94399,6,0,P|454:184|443:138,1,80
203,251,94672,1,0,0:0:0:0:
351,340,94808,1,0,0:0:0:0:
349,101,94945,2,0,P|295:86|241:109,1,80
272,294,95217,1,0,0:0:0:0:
169,142,95354,1,0,0:0:0:0:
426,204,95490,2,0,P|431:281|366:330,1,160
244,195,95899,1,0,0:0:0:0:
342,73,96036,6,0,B|401:-19|401:-19|415:29,1,160
489,208,96445,1,0,0:0:0:0:
272,122,96581,2,0,P|259:84|271:46,1,80
491,89,96854,1,8,0:0:0:0:
385,203,96990,1,2,0:0:0:0:
337,221,97126,2,0,L|356:261,1,40,2|2,3:0|3:0,0:0:0:0:
302,253,97263,2,0,L|291:190,1,40,8|0,3:0|0:0,0:0:0:0:
267,261,97399,2,0,L|258:304,1,40,8|0,0:0|0:0,0:0:0:0:
28,148,97536,2,0,P|60:68|170:78,1,160
263,186,97945,5,0,0:0:0:0:
101,133,98081,1,0,0:0:0:0:
146,329,98217,2,0,B|186:358|186:358|369:354,1,160
335,105,98558,1,0,0:0:0:0:
301,86,98626,1,0,0:0:0:0:
263,85,98695,1,0,0:0:0:0:
228,86,98763,2,0,P|180:101|149:139,1,80,6|0,0:0|0:0,0:0:0:0:
158,254,99036,5,0,0:0:0:0:
228,86,99172,1,0,0:0:0:0:
249,341,99309,2,0,L|169:335,1,80,6|0,0:0|0:0,0:0:0:0:
90,155,99581,1,0,0:0:0:0:
297,255,99718,1,0,0:0:0:0:
44,346,99854,2,0,P|7:278|30:204,1,160
209,276,100263,1,0,0:0:0:0:
393,342,100399,2,0,P|417:268|381:200,1,160
151,283,100809,5,0,0:0:0:0:
327,276,100945,1,0,0:0:0:0:
161,210,101081,1,0,0:0:0:0:
327,276,101218,1,0,0:0:0:0:
215,128,101354,5,0,0:0:0:0:
232,308,101490,1,0,0:0:0:0:
343,153,101626,1,0,0:0:0:0:
153,307,101764,1,0,0:0:0:0:
262,177,101900,1,0,0:0:0:0:
299,352,102036,5,0,0:0:0:0:
144,139,102172,1,0,0:0:0:0:
390,234,102309,1,0,0:0:0:0:
63,272,102445,2,0,B|60:223|27:206|27:206|70:177|66:128,1,160
217,58,102854,5,0,0:0:0:0:
354,162,103127,5,0,0:0:0:0:
172,320,103263,5,2,0:0:0:0:
172,320,103331,1,0,0:0:0:0:
172,320,103399,1,8,0:0:0:0:
138,138,103536,1,0,0:0:0:0:
335,285,103672,1,0,0:0:0:0:
303,70,103808,1,0,0:0:0:0:
200,224,103945,1,0,0:0:0:0:
212,57,104081,1,0,0:0:0:0:
342,238,104218,2,0,P|330:306|295:257,1,160
133,118,104627,5,0,0:0:0:0:
382,74,104763,2,0,B|438:57|438:57|393:193,1,160
362,308,105172,1,0,0:0:0:0:
242,138,105309,2,0,P|187:106|196:170,1,160
341,229,105718,1,0,0:0:0:0:
68,272,105854,2,0,B|75:234|41:199|41:199|72:162|73:128,1,160
167,33,106263,5,0,0:0:0:0:
296,182,106399,2,0,L|446:172,1,80
152,110,106672,2,0,P|110:104|72:115,1,80
265,289,106945,2,0,P|303:297|345:284,1,80
362,77,107218,1,0,0:0:0:0:
153,174,107354,1,0,0:0:0:0:
349,282,107490,2,0,P|407:307|351:238,1,240
129,280,108173,1,0,0:0:0:0:
260,122,108309,5,0,0:0:0:0:
294,98,108855,5,0,0:0:0:0:
104,237,109127,1,0,0:0:0:0:
302,331,109400,1,0,0:0:0:0:
236,101,109673,2,0,B|170:74|170:74|88:77|88:77|15:131,1,240
22,130,110127,1,0,0:0:0:0:
13,166,110218,1,0,0:0:0:0:
0,294,110400,1,0,0:0:0:0:
27,77,110582,1,0,0:0:0:0:
246,67,110764,2,0,B|353:22|430:79|430:79|335:120,1,240
239,264,111309,1,0,0:0:0:0:
225,285,119627,5,0,0:0:0:0:
201,178,119764,1,0,0:0:0:0:
311,225,119900,1,0,0:0:0:0:
220,313,120037,1,0,0:0:0:0:
182,156,120173,1,0,0:0:0:0:
347,223,120310,1,0,0:0:0:0:
215,336,120446,1,0,0:0:0:0:
392,138,120582,2,0,P|450:227|367:208,1,240
133,172,128764,5,0,0:0:0:0:
133,172,128900,1,0,0:0:0:0:
358,314,129037,1,0,0:0:0:0:
413,119,129309,6,0,P|358:105|328:119,1,80
150,242,129582,1,0,0:0:0:0:
224,85,129718,1,0,0:0:0:0:
333,214,129855,2,0,P|330:290|249:314,1,160
129,134,130264,5,0,0:0:0:0:
265,245,130400,1,0,0:0:0:0:
99,313,130537,1,0,0:0:0:0:
213,167,130673,1,0,0:0:0:0:
180,322,130809,1,0,0:0:0:0:
301,159,130946,1,0,0:0:0:0:
83,216,131082,1,0,0:0:0:0:
255,88,131218,2,0,P|291:72|330:77,1,80
340,255,131491,2,0,P|300:260|264:244,1,80
106,65,131764,6,0,B|78:101|78:101|83:216,1,160
230,297,132173,1,0,0:0:0:0:
258,83,132310,2,0,B|244:53|244:53|172:53,1,80
77,210,132582,5,2,1:2:0:0:
183,119,132718,1,0,0:0:0:0:
144,267,132855,1,8,0:0:0:0:
88,110,132991,1,2,0:0:0:0:
260,218,133127,1,0,0:0:0:0:
42,310,133264,1,0,1:0:0:0:
169,175,133400,1,8,0:0:0:0:
228,334,133537,1,2,0:0:0:0:
366,197,133673,6,0,P|359:150|312:121,1,80,0|0,1:0|0:0,0:0:0:0:
209,105,133946,1,8,0:0:0:0:
314,267,134082,2,0,P|360:284|429:247,1,80,0|0,1:0|0:0,0:0:0:0:
492,96,134355,1,0,0:0:0:0:
364,181,134491,1,0,0:0:0:0:
506,224,134627,1,0,0:0:0:0:
137,194,134764,6,0,B|125:215|125:215|129:294,1,80,0|0,1:0|0:0,0:0:0:0:
355,170,135037,2,0,B|369:143|369:143|366:67,1,80,0|0,1:0|0:0,0:0:0:0:
110,105,135309,5,0,0:0:0:0:
286,130,135446,1,0,0:0:0:0:
173,18,135583,1,0,0:0:0:0:
210,220,135719,1,0,0:0:0:0:
384,149,135855,5,10,1:2:0:0:
276,4,135991,1,0,0:0:0:0:
121,90,136128,1,8,0:0:0:0:
227,241,136264,2,0,B|274:260|316:229|316:229|341:266|376:263|395:278,1,160
85,36,136673,1,8,0:0:0:0:
288,144,136810,1,2,0:0:0:0:
75,186,136946,2,0,P|62:216|76:270,1,80
236,60,137219,2,0,P|321:47|375:118,1,160
385,274,137628,1,0,0:0:0:0:
295,210,137764,2,0,P|277:173|296:116,1,80
369,94,138037,5,0,0:0:0:0:
184,234,138173,1,2,1:2:0:0:
399,178,138309,1,0,0:0:0:0:
228,350,138446,1,8,0:0:0:0:
217,148,138582,1,2,0:0:0:0:
348,295,138719,1,0,1:0:0:0:
124,185,138855,1,8,0:0:0:0:
433,217,138992,1,2,0:0:0:0:
147,298,139128,2,0,L|68:306,1,80
330,34,139400,6,0,P|377:90|366:190,1,160,8|0,0:0|0:0,0:0:0:0:
204,174,139810,1,0,0:0:0:0:
111,158,139946,2,0,L|23:138,1,80
318,209,140219,5,2,1:2:0:0:
320,112,140355,1,0,0:0:0:0:
230,282,140492,1,8,0:0:0:0:
224,98,140628,1,2,0:0:0:0:
325,296,140764,1,0,0:0:0:0:
406,138,140901,1,0,1:0:0:0:
140,245,141037,1,8,0:0:0:0:
283,34,141174,1,2,0:0:0:0:
405,253,141310,2,0,P|422:294|362:338,1,80
149,58,141582,2,0,P|211:10|285:29,1,160,8|2,0:0|0:0,0:0:0:0:
305,264,141991,5,0,0:0:0:0:
225,194,142128,2,0,P|210:159|222:108,1,80
329,138,142400,5,2,1:2:0:0:
231,307,142536,1,0,0:0:0:0:
447,152,142673,1,8,0:0:0:0:
141,105,142810,2,0,B|61:99|28:164|28:164|54:157|78:136,1,160,8|2,0:0|0:0,0:0:0:0:
348,222,143219,1,0,0:0:0:0:
259,173,143355,5,2,1:2:0:0:
124,213,143491,2,0,L|120:310,1,80
250,247,143764,1,0,0:0:0:0:
197,133,143900,1,0,0:0:0:0:
89,323,144037,1,0,0:0:0:0:
332,201,144173,1,0,0:0:0:0:
165,245,144310,2,0,L|86:244,1,80
294,306,144582,2,0,P|372:299|435:252,1,160,8|2,0:0|0:0,0:0:0:0:
99,244,144992,1,0,1:0:0:0:
189,135,145128,2,0,L|360:77,1,160
283,216,145537,5,2,1:2:0:0:
211,132,145673,2,0,P|135:184|32:172,1,160,8|2,0:0|0:0,0:0:0:0:
211,132,146082,2,0,P|135:184|95:192,1,80,8|2,0:0|0:0,0:0:0:0:
61,118,146355,2,0,L|183:85,1,80
56,206,146628,2,0,B|128:192|143:203|143:203|153:194|153:194|233:197,1,160
103,119,147037,2,0,L|252:95,1,80
77,207,147310,2,0,L|273:197,1,160
99,244,147719,5,0,1:0:0:0:
48,216,148127,5,2,1:3:0:0:
68,208,148196,1,0,0:0:0:0:
88,200,148264,1,0,0:0:0:0:
108,192,148332,1,0,0:0:0:0:
132,182,148400,1,2,1:3:0:0:
152,174,148469,1,0,0:0:0:0:
172,166,148537,1,0,0:0:0:0:
192,158,148605,1,0,0:0:0:0:
213,148,148673,5,2,1:3:0:0:
233,140,148742,1,0,0:0:0:0:
253,132,148810,1,0,0:0:0:0:
273,124,148878,1,0,0:0:0:0:
301,118,148946,6,0,P|373:145|368:236,1,160,4|4,1:0|0:0,0:0:0:0:
94,286,149355,1,0,0:0:0:0:
213,60,149491,1,0,1:0:0:0:
308,198,149627,1,0,1:0:0:0:
173,0,149764,1,8,0:0:0:0:
441,102,149900,1,0,0:0:0:0:
144,233,150037,2,0,P|126:158|180:103,1,160,0|8,0:0|0:0,0:0:0:0:
443,308,150446,2,0,B|410:340|410:340|292:341,1,160
204,218,150855,5,0,0:0:0:0:
351,265,150991,1,0,0:0:0:0:
299,172,151127,5,4,1:2:0:0:
215,344,151264,1,0,0:0:0:0:
220,128,151400,5,8,0:0:0:0:
320,352,151537,1,0,0:0:0:0:
298,97,151673,5,4,0:0:0:0:
142,302,151809,1,0,1:0:0:0:
400,134,151946,1,8,0:0:0:0:
83,153,152082,2,0,P|65:78|119:23,1,160,0|8,0:0|0:0,0:0:0:0:
357,231,152491,2,0,L|349:223|346:220|342:216|339:213|335:209|332:206|287:206,1,80
278,339,152764,2,0,P|326:348|358:339,1,80
366,138,153037,1,0,0:0:0:0:
278,339,153173,1,0,0:0:0:0:
398,53,153309,6,0,P|433:70|453:104,1,80,4|0,1:2|0:0,0:0:0:0:
290,194,153582,2,0,P|267:161|265:123,1,80,4|0,1:2|0:0,0:0:0:0:
435,138,153855,2,0,P|396:146|359:132,1,80,4|0,1:2|0:0,0:0:0:0:
179,45,154127,1,8,0:0:0:0:
441,70,154264,6,0,L|444:149,1,80,4|0,1:2|0:0,0:0:0:0:
441,338,154537,2,0,B|331:338|331:338|280:280,1,160
147,172,154946,5,8,0:0:0:0:
371,265,155082,1,0,0:0:0:0:
330,148,155218,1,0,1:0:0:0:
215,299,155354,1,0,1:0:0:0:
257,99,155491,2,0,P|251:56|269:19,1,80
360,249,155764,2,0,P|373:300|332:359,1,80
226,114,156037,5,0,1:0:0:0:
225,109,156105,1,0,1:0:0:0:
224,104,156173,1,0,1:0:0:0:
223,99,156241,1,0,1:0:0:0:
222,94,156309,1,0,1:0:0:0:
303,239,166127,6,0,B|344:267|344:267|403:221,1,80
115,128,166400,2,0,P|51:189|125:225,1,160
352,214,166809,5,0,0:0:0:0:
152,134,166946,1,0,0:0:0:0:
375,77,167082,1,0,0:0:0:0:
119,135,167218,1,0,0:0:0:0:
409,230,167355,1,0,0:0:0:0:
88,291,167491,2,0,B|56:260|56:260|56:141,1,160
243,108,167901,1,0,0:0:0:0:
279,263,168037,2,0,P|239:267|175:187,1,80
188,56,168310,5,0,0:0:0:0:
135,219,168446,1,0,0:0:0:0:
318,132,168582,2,0,L|397:141,1,80
203,178,168855,1,0,0:0:0:0:
396,53,168991,1,0,0:0:0:0:
61,266,169127,2,2,B|46:146|46:146|63:110,1,160
297,179,169537,5,0,0:0:0:0:
344,335,169673,2,0,P|306:345|268:338,1,80
219,262,169946,1,0,0:0:0:0:
378,200,170082,1,0,0:0:0:0:
267,338,170218,2,0,P|229:348|190:341,1,80
435,277,170491,2,0,B|479:249|479:249|503:354,1,160
80,252,171855,5,0,0:0:0:0:
178,193,171991,1,0,0:0:0:0:
116,148,172127,1,0,0:0:0:0:
112,193,172264,2,0,L|308:206,1,160
123,253,172673,5,0,0:0:0:0:
179,93,172809,1,0,1:0:0:0:
314,133,172945,1,0,0:0:0:0:
267,294,173081,1,8,0:0:0:0:
73,127,173218,2,0,L|74:48,1,80
388,77,173491,2,0,P|421:148|402:223,1,160
183,47,173832,1,0,1:0:0:0:
215,49,173900,1,0,1:0:0:0:
242,65,173968,1,0,1:0:0:0:
269,85,174036,1,0,1:0:0:0:
290,138,174173,2,0,P|221:182|232:90,1,160
201,46,174582,1,0,0:0:0:0:
310,84,174854,5,8,0:0:0:0:
267,279,174991,1,4,0:0:0:0:
76,126,175127,1,0,1:0:0:0:
270,121,175263,1,0,0:0:0:0:
177,323,175400,2,0,P|120:363|90:299,1,160
232,74,175809,5,0,0:0:0:0:
195,236,175945,1,4,0:0:0:0:
321,75,176082,1,0,1:0:0:0:
314,262,176218,1,8,0:0:0:0:
190,51,176354,1,0,0:0:0:0:
287,344,176491,2,0,P|363:336|398:235,1,160
277,262,177037,1,0,0:0:0:0:
206,233,177173,5,0,0:0:0:0:
90,128,177308,1,4,0:0:0:0:
210,110,177445,1,0,1:0:0:0:
127,215,177582,1,0,0:0:0:0:
253,177,177718,5,0,0:0:0:0:
49,198,177853,1,4,0:0:0:0:
168,53,177990,1,0,1:0:0:0:
8,129,178127,1,0,0:0:0:0:
276,171,178264,2,0,L|359:190,1,80
168,11,178537,2,0,B|104:4|104:4|8:26,1,160
114,193,181741,1,0,0:0:0:0:
114,193,181877,1,0,0:0:0:0:
114,193,182150,1,0,0:0:0:0:
114,193,182423,1,0,0:0:0:0:
114,193,182559,1,0,0:0:0:0:
114,193,182900,1,0,0:0:0:0:
114,193,183377,1,0,0:0:0:0:
147,192,183855,1,0,0:0:0:0:
196,199,183991,1,0,0:0:0:0:
313,184,184264,1,0,0:0:0:0:
387,98,184537,1,0,0:0:0:0:
387,98,184673,1,0,0:0:0:0:
192,142,185150,1,0,0:0:0:0:
411,165,185423,1,0,0:0:0:0:
157,109,186037,1,0,0:0:0:0:
228,119,186173,1,0,0:0:0:0:
390,132,186446,1,0,0:0:0:0:
137,223,186718,1,0,0:0:0:0:
168,234,186855,1,0,0:0:0:0:
379,224,187332,1,0,0:0:0:0:
249,149,187605,1,0,0:0:0:0:
141,90,188150,1,0,0:0:0:0:
156,94,188287,1,0,0:0:0:0:
290,154,188627,1,0,0:0:0:0:
161,211,188900,1,0,0:0:0:0:
237,229,189037,1,0,0:0:0:0:
400,234,189309,1,0,0:0:0:0:
254,148,189582,1,0,0:0:0:0:
348,117,189855,1,0,0:0:0:0:
204,140,190127,1,0,0:0:0:0:
312,174,190400,1,0,0:0:0:0:
194,202,190537,1,0,0:0:0:0:
251,205,190673,1,0,0:0:0:0:
185,104,190946,1,0,0:0:0:0:
324,120,191287,1,0,0:0:0:0:
216,166,192650,1,0,0:0:0:0:
139,145,193127,1,0,0:0:0:0:
212,113,193741,1,0,0:0:0:0:
164,126,194218,1,0,0:0:0:0:
298,177,194764,1,0,0:0:0:0:
143,236,195037,1,0,0:0:0:0:
259,61,195309,1,0,0:0:0:0:
98,124,195650,1,0,0:0:0:0:
314,173,195923,1,0,0:0:0:0:
156,216,196196,1,0,0:0:0:0:
322,188,196468,1,0,0:0:0:0:
204,100,196741,1,0,0:0:0:0:
358,137,196946,1,0,0:0:0:0:
176,257,197218,1,0,0:0:0:0:
121,107,197491,1,0,0:0:0:0:
346,104,197764,1,0,0:0:0:0:
310,264,198037,1,0,0:0:0:0:
140,242,198309,1,0,0:0:0:0:
160,124,198582,1,0,0:0:0:0:
306,106,198855,1,0,0:0:0:0:
341,205,199127,1,0,0:0:0:0:
230,246,199400,1,0,0:0:0:0:
182,199,199673,1,0,0:0:0:0:
176,157,199946,1,0,0:0:0:0:
204,121,200218,1,0,0:0:0:0:
259,104,200491,1,0,0:0:0:0:
316,137,200764,1,0,0:0:0:0:
317,48,201309,5,0,0:0:0:0:
86,176,201445,1,0,0:0:0:0:
195,48,201718,5,0,0:0:0:0:
417,158,201854,1,0,0:0:0:0:
436,67,202127,5,0,0:0:0:0:
329,270,202263,1,0,0:0:0:0:
128,59,202537,5,0,0:0:0:0:
363,97,202673,1,0,0:0:0:0:
195,48,202946,5,0,0:0:0:0:
417,158,203082,1,0,0:0:0:0:
176,320,203219,1,0,0:0:0:0:
227,132,203355,1,0,0:0:0:0:
282,248,203491,1,0,0:0:0:0:
71,181,216855,5,0,0:0:0:0:
321,164,217127,1,0,0:0:0:0:
69,229,217400,1,0,0:0:0:0:
324,214,217673,1,0,0:0:0:0:
98,242,217946,1,0,0:0:0:0:
373,204,218218,1,0,0:0:0:0:
109,70,218355,2,0,L|107:154,1,80
115,178,218559,1,0,0:0:0:0:
115,201,218627,1,0,0:0:0:0:
116,220,218696,1,0,0:0:0:0:
101,240,218764,2,0,L|279:277,1,160
292,55,219309,5,0,0:0:0:0:
86,176,219445,1,0,0:0:0:0:
293,293,219582,1,0,0:0:0:0:
228,53,219718,5,0,0:0:0:0:
379,173,219854,1,0,0:0:0:0:
206,286,219991,1,0,0:0:0:0:
48,216,220127,5,2,1:3:0:0:
68,208,220196,1,0,0:0:0:0:
88,200,220264,1,0,0:0:0:0:
108,192,220332,1,0,0:0:0:0:
132,182,220400,1,2,1:3:0:0:
152,174,220469,1,0,0:0:0:0:
172,166,220537,1,0,0:0:0:0:
192,158,220605,1,0,0:0:0:0:
213,148,220673,5,2,1:3:0:0:
233,140,220742,1,0,0:0:0:0:
253,132,220810,1,0,0:0:0:0:
273,124,220878,1,0,0:0:0:0:
301,118,220946,6,0,P|373:145|368:236,1,160,4|4,1:0|0:0,0:0:0:0:
78,284,221355,1,0,0:0:0:0:
254,26,221491,1,0,1:0:0:0:
308,198,221627,1,0,1:0:0:0:
81,43,221764,1,8,0:0:0:0:
441,102,221900,1,0,0:0:0:0:
160,335,222037,2,0,P|142:260|196:205,1,160,0|8,0:0|0:0,0:0:0:0:
443,308,222446,2,0,B|410:340|410:340|292:341,1,160
166,177,222855,5,0,0:0:0:0:
284,360,222991,1,0,0:0:0:0:
266,214,223127,5,4,1:2:0:0:
137,347,223264,1,0,0:0:0:0:
169,97,223400,5,8,0:0:0:0:
374,338,223537,1,0,0:0:0:0:
341,111,223673,5,4,0:0:0:0:
208,371,223809,1,0,1:0:0:0:
479,138,223946,1,8,0:0:0:0:
75,152,224082,2,0,P|57:77|111:22,1,160,0|8,0:0|0:0,0:0:0:0:
364,215,224491,2,0,L|483:215,1,80
170,127,224764,5,0,0:0:0:0:
173,270,224900,1,0,0:0:0:0:
287,177,225036,1,0,0:0:0:0:
363,230,225173,2,0,P|379:195|375:156,1,80,4|0,1:2|0:0,0:0:0:0:
83,186,225445,5,0,0:0:0:0:
232,62,225582,2,0,P|255:29|291:15,1,80,4|0,1:2|0:0,0:0:0:0:
228,170,225855,2,0,P|189:178|152:164,1,80,4|0,1:2|0:0,0:0:0:0:
139,32,226127,1,8,0:0:0:0:
361,53,226264,6,0,L|467:50,1,80,4|0,1:2|0:0,0:0:0:0:
409,261,226537,2,0,B|281:285|281:285|212:264,1,160
180,56,226946,5,0,1:0:0:0:
163,153,227082,1,0,1:0:0:0:
296,53,227218,1,8,0:0:0:0:
299,164,227354,1,0,0:0:0:0:
188,79,227491,2,0,L|200:0,1,80
364,93,227764,2,0,L|387:170,1,80
226,114,228037,5,0,1:0:0:0:
225,109,228105,1,0,1:0:0:0:
224,104,228173,1,0,1:0:0:0:
223,99,228241,1,0,1:0:0:0:
222,94,228309,1,0,1:0:0:0:
310,84,229127,5,8,0:0:0:0:
267,279,229264,1,4,0:0:0:0:
76,126,229400,1,0,1:0:0:0:
270,121,229536,1,0,0:0:0:0:
177,323,229673,2,0,P|120:363|90:299,1,160
192,132,230082,1,0,0:0:0:0:
195,236,230218,5,4,0:0:0:0:
321,75,230355,1,0,1:0:0:0:
314,262,230491,5,8,0:0:0:0:
190,51,230627,1,0,0:0:0:0:
287,344,230764,2,0,P|363:336|398:235,1,160
281,143,231173,1,0,0:0:0:0:
94,122,231309,1,0,0:0:0:0:
362,129,231446,5,0,0:0:0:0:
66,207,231581,1,4,0:0:0:0:
222,321,231718,1,0,1:0:0:0:
243,79,231855,2,0,P|280:52|360:97,1,80
137,246,232127,2,0,P|91:233|67:202,1,80
178,181,232400,1,0,0:0:0:0:
315,153,238127,6,0,B|352:129|352:129|400:159,1,80
187,276,238400,2,0,P|123:215|143:127,1,160
332,69,238809,5,0,0:0:0:0:
91,126,238946,1,0,0:0:0:0:
267,271,239082,1,0,0:0:0:0:
219,36,239218,1,0,0:0:0:0:
59,244,239355,1,0,0:0:0:0:
386,157,239491,2,0,P|427:91|349:45,1,160
219,230,239901,1,0,0:0:0:0:
443,275,240037,2,0,L|439:195,1,80
254,214,240310,5,0,0:0:0:0:
388,90,240446,1,0,0:0:0:0:
180,49,240582,2,0,L|54:34,1,80
254,214,240855,1,0,0:0:0:0:
299,43,240991,1,0,0:0:0:0:
138,198,241127,2,2,P|141:274|211:305,1,160
234,119,241537,5,0,0:0:0:0:
381,15,241673,2,0,P|419:7|494:59,1,80
431,221,241946,1,0,0:0:0:0:
389,102,242082,1,0,0:0:0:0:
388,297,242218,2,0,P|427:308|466:300,1,80
499,143,242491,2,0,B|455:115|455:115|431:220,1,160
248,126,248900,5,2,0:0:0:0:
310,259,249036,2,0,P|357:293|416:291,1,120,2|0,1:1|0:0,0:0:0:0:
486,247,249309,1,0,0:0:0:0:
327,81,249445,5,0,0:0:0:0:
327,81,249513,1,0,0:0:0:0:
327,81,249581,5,0,0:0:0:0:
213,224,249718,1,0,0:0:0:0:
387,195,249854,1,0,0:0:0:0:
222,98,249990,1,0,0:0:0:0:
286,268,250127,1,0,0:0:0:0:
408,76,250263,1,0,0:0:0:0:
131,192,250399,2,0,B|144:298|144:298|188:329,1,160
304,175,250809,1,0,0:0:0:0:
62,267,250945,2,0,B|50:164|50:164|91:125,1,160
246,59,251354,5,0,0:0:0:0:
136,144,255855,5,0,0:0:0:0:
234,142,256264,1,0,0:0:0:0:
230,147,256400,1,0,0:0:0:0:
81,230,256673,1,0,0:0:0:0:
141,238,256809,1,0,0:0:0:0:
297,101,257355,1,0,0:0:0:0:
93,141,257764,1,0,0:0:0:0:
225,152,258037,1,0,0:0:0:0:
170,188,258446,1,0,0:0:0:0:
159,27,258583,1,0,0:0:0:0:
353,289,258719,5,0,0:0:0:0:
297,53,258855,1,0,0:0:0:0:
61,258,258992,2,0,P|114:361|227:384,1,240
315,97,259538,5,0,0:0:0:0:
178,289,259673,1,0,0:0:0:0:
118,57,259810,1,0,0:0:0:0:
345,170,259946,1,0,0:0:0:0:
54,250,260083,1,0,0:0:0:0:
221,24,260219,1,0,0:0:0:0:
315,287,260355,5,0,0:0:0:0:
182,102,260490,1,0,0:0:0:0:
99,313,260627,1,0,0:0:0:0:
326,179,260763,1,0,0:0:0:0:
54,134,260900,1,0,0:0:0:0:
220,347,261036,1,0,0:0:0:0:
315,97,266764,5,0,0:0:0:0:
178,289,266899,1,0,0:0:0:0:
92,58,267036,1,0,0:0:0:0:
359,160,267172,1,0,0:0:0:0:
54,250,267309,1,0,0:0:0:0:
208,12,267445,1,0,0:0:0:0:
315,287,267581,5,0,0:0:0:0:
178,95,267716,1,0,0:0:0:0:
92,326,267853,1,0,0:0:0:0:
359,224,267989,1,0,0:0:0:0:
54,134,268126,1,0,0:0:0:0:
212,367,268264,2,0,P|296:374|337:292,1,160
288,71,268673,1,0,0:0:0:0:
80,231,268809,1,0,0:0:0:0:
257,282,268946,2,0,B|269:240|269:240|254:168,1,80
83,71,269218,2,0,B|71:113|71:113|86:185,1,80
117,310,269491,2,0,P|158:325|214:295,1,80
257,63,269764,2,0,P|219:49|178:62,1,80
220,232,270037,1,0,0:0:0:0:
121,145,270718,1,0,0:0:0:0:
123,296,270855,1,0,0:0:0:0:
