osu file format v14

[General]
AudioFilename: audio.mp3
AudioLeadIn: 0
PreviewTime: 61127
Countdown: 1
SampleSet: Normal
StackLeniency: 0.2
Mode: 0
LetterboxInBreaks: 0
WidescreenStoryboard: 0

[Editor]
Bookmarks: 24582,42036,57309,98764,111309,120582,129309,138036,144582,181673,202945,209354,246854,255036,264991
DistanceSpacing: 1.8
BeatDivisor: 4
GridSize: 16
TimelineZoom: 1.5

[Metadata]
Title:Hachigatsu, Bou, Tsukiakari
TitleUnicode:八月、某、月明かり
Artist:Yorushika
ArtistUnicode:ヨルシカ
Creator:Mango Juice
Version:Moonlight
Source:
Tags:
BeatmapID:2156834
BeatmapSetID:1031434

[Difficulty]
HPDrainRate:6
CircleSize:4
OverallDifficulty:9
ApproachRate:9.7
SliderMultiplier:2
SliderTickRate:2

[Events]
//Background and Video events
0,0,"bg.jpg",0,0
//Break Periods
2,90100,96582
2,111509,119102
2,181872,200784
//Storyboard Layer 0 (Background)
//Storyboard Layer 1 (Fail)
//Storyboard Layer 2 (Pass)
//Storyboard Layer 3 (Foreground)
//Storyboard Layer 4 (Overlay)
//Storyboard Sound Samples

[TimingPoints]
37,272.727272727273,4,1,1,100,1,0
582,-222.222222222221,4,3,1,10,0,0
2355,-222.222222222221,4,1,1,50,0,0
2491,-222.222222222221,4,3,1,50,0,0
2764,272.727272727273,4,1,1,50,1,0
2764,-90.9090909090909,4,1,1,50,0,0
18036,-142.857142857143,4,1,1,50,0,0
20218,-500,4,1,1,50,0,0
22945,-250,4,1,1,50,0,0
23491,-500,4,1,1,50,0,0
23900,-250,4,1,1,50,0,0
24582,-166.666666666667,4,1,1,50,0,0
32764,-166.666666666667,4,1,1,10,0,0
33309,-166.666666666667,4,1,1,50,0,0
42036,-125,4,1,1,50,0,0
59354,-100,4,1,1,50,0,0
61673,-90.9090909090909,4,1,1,100,0,1
79127,-76.9230769230769,4,1,1,100,0,1
87854,-90.9090909090909,4,1,1,100,0,1
88945,-90.9090909090909,4,1,1,100,0,0
89627,-90.9090909090909,4,1,1,100,0,1
90036,-90.9090909090909,4,1,1,100,0,0
98764,-90.9090909090909,4,1,1,100,0,0
105309,-133.333333333333,4,1,1,100,0,0
105582,-100,4,1,1,100,0,0
105854,-125,4,1,1,100,0,0
106127,-100,4,1,1,100,0,0
107490,-222.222222222221,4,1,1,100,0,0
119491,-166.666666666667,4,1,1,100,0,0
119764,-166.666666666667,4,1,1,15,0,0
120036,-166.666666666667,4,1,1,100,0,0
120309,-166.666666666667,4,1,1,15,0,0
120582,-166.666666666667,4,1,1,100,0,0
129309,-125,4,1,1,100,0,0
148945,-90.9090909090909,4,1,1,100,0,1
166400,-76.9230769230769,4,1,1,100,0,1
180582,-133.333333333333,4,1,1,100,0,1
181673,-76.9230769230769,4,1,1,100,0,0
203491,-222.222222222221,4,1,1,100,0,0
209627,-133.333333333333,4,1,1,100,0,0
210036,-66.6666666666667,4,1,1,100,0,0
212218,-133.333333333333,4,1,1,70,0,0
218354,-100,4,1,1,70,0,0
218491,-66.6666666666667,4,1,1,70,0,0
218764,-133.333333333333,4,1,1,70,0,0
219309,-100,4,1,1,70,0,0
220945,-83.3333333333333,4,1,1,100,0,1
238400,-74.0740740740741,4,1,1,100,0,1
247127,-79.9999999999999,4,1,1,70,0,0
255854,-79.9999999999999,4,1,1,70,0,1
270173,-79.9999999999999,4,1,1,70,0,0
271127,-100,4,1,1,70,0,0

[Colours]
Combo1 : 249,204,68
Combo2 : 158,221,255
Combo3 : 158,188,255
Combo4 : 184,132,255
Combo5 : 235,97,250

[HitObjects]
347,63,37,5,0,0:0:0:0:
356,88,309,1,0,0:0:0:0:
365,113,446,5,0,0:0:0:0:
365,113,514,1,0,0:0:0:0:
365,113,582,2,0,P|372:167|362:222,1,89.9999972534181
299,230,923,6,0,L|309:266,3,22.4999993133545,0|0|0|2,0:0|0:0|0:0|0:0,0:0:0:0:
255,157,1309,1,2,0:0:0:0:
243,309,1491,1,2,0:0:0:0:
381,244,1673,1,2,0:0:0:0:
22,65,2355,37,8,0:0:0:0:
22,65,2491,2,0,L|33:128,1,44.999998626709,2|0,0:0|0:0,0:0:0:0:
96,295,2764,21,4,0:0:0:0:
129,111,2900,1,0,0:0:0:0:
129,111,2968,1,0,0:0:0:0:
129,111,3036,2,0,P|150:194|147:223,1,110.000003356934,8|0,0:0|0:0,0:0:0:0:
20,180,3309,5,2,0:0:0:0:
224,95,3445,1,2,0:0:0:0:
195,314,3582,1,8,0:0:0:0:
195,314,3650,1,0,0:0:0:0:
195,314,3718,1,8,0:0:0:0:
398,209,3854,6,0,L|532:178,1,110.000003356934,4|0,0:0|0:0,0:0:0:0:
351,302,4127,1,8,0:0:0:0:
331,119,4264,2,0,L|197:88,1,110.000003356934,2|0,0:0|0:0,0:0:0:0:
300,371,4536,1,2,0:0:0:0:
316,210,4673,1,8,0:0:0:0:
316,210,4741,1,0,0:0:0:0:
316,210,4809,1,0,0:0:0:0:
35,269,4945,37,2,0:0:0:0:
81,66,5082,1,0,0:0:0:0:
81,66,5150,1,0,0:0:0:0:
81,66,5218,2,0,L|208:50,1,110.000003356934,8|0,0:0|0:0,0:0:0:0:
135,307,5491,5,2,0:0:0:0:
109,211,5627,1,2,0:0:0:0:
277,42,5764,1,8,0:0:0:0:
277,42,5832,1,0,0:0:0:0:
277,42,5900,1,0,0:0:0:0:
305,231,6036,6,0,B|253:250|253:250|200:234,1,110.000003356934,4|2,0:0|0:0,0:0:0:0:
81,66,6309,1,8,0:0:0:0:
30,310,6445,2,0,B|82:291|82:291|257:346,1,220.000006713867,2|2,0:0|0:0,0:0:0:0:
496,298,6854,2,0,P|417:312|349:285,1,110.000003356934,8|0,0:0|0:0,0:0:0:0:
187,29,7127,38,0,L|214:174,1,110.000003356934,2|0,0:0|0:0,0:0:0:0:
221,151,7332,1,0,0:0:0:0:
235,165,7400,1,8,0:0:0:0:
427,208,7536,1,0,0:0:0:0:
81,66,7673,6,0,L|108:211,1,110.000003356934,2|2,0:0|0:0,0:0:0:0:
115,188,7878,1,0,0:0:0:0:
129,202,7946,1,8,0:0:0:0:
321,245,8082,1,0,0:0:0:0:
31,291,8218,6,0,P|4:218|12:152,1,110.000003356934,2|0,0:0|0:0,0:0:0:0:
258,361,8491,1,8,0:0:0:0:
402,324,8627,2,0,P|429:251|421:185,1,110.000003356934,2|0,0:0|0:0,0:0:0:0:
129,202,8900,1,2,0:0:0:0:
102,352,9036,1,8,0:0:0:0:
102,352,9104,1,0,0:0:0:0:
102,352,9173,1,0,0:0:0:0:
305,42,9309,38,0,L|420:20,1,110.000003356934,2|0,0:0|0:0,0:0:0:0:
512,125,9582,1,8,0:0:0:0:
512,125,9718,1,2,0:0:0:0:
331,246,9854,5,4,0:0:0:0:
367,125,9991,1,2,0:0:0:0:
454,217,10127,1,8,0:0:0:0:
245,155,10264,5,2,0:0:0:0:
245,155,10332,1,0,0:0:0:0:
245,155,10400,2,0,L|130:133,1,110.000003356934
10,307,10673,1,8,0:0:0:0:
213,241,10809,1,2,0:0:0:0:
10,175,10945,1,0,0:0:0:0:
10,175,11014,1,0,0:0:0:0:
10,175,11082,37,0,0:0:0:0:
136,348,11218,1,8,0:0:0:0:
174,361,11286,1,0,0:0:0:0:
215,366,11354,1,8,0:0:0:0:
256,362,11423,1,8,0:0:0:0:
295,348,11491,5,0,0:0:0:0:
403,181,11627,1,0,0:0:0:0:
403,181,11695,1,0,0:0:0:0:
403,181,11764,2,0,P|424:223|422:297,1,110.000003356934,8|0,0:0|0:0,0:0:0:0:
213,241,12036,1,2,0:0:0:0:
322,63,12173,1,2,0:0:0:0:
334,245,12309,1,8,0:0:0:0:
326,230,12377,1,0,0:0:0:0:
318,215,12445,1,0,0:0:0:0:
123,138,12582,6,0,L|4:153,1,110.000003356934,2|0,0:0|0:0,0:0:0:0:
193,266,12854,1,8,0:0:0:0:
186,64,12991,2,0,L|305:79,1,110.000003356934,2|0,0:0|0:0,0:0:0:0:
110,337,13264,1,2,0:0:0:0:
29,121,13400,1,8,0:0:0:0:
21,136,13468,1,0,0:0:0:0:
13,151,13536,1,0,0:0:0:0:
259,178,13673,37,0,0:0:0:0:
110,337,13809,1,0,0:0:0:0:
102,322,13877,1,0,0:0:0:0:
94,307,13945,2,0,L|213:322,1,110.000003356934,8|2,0:0|0:0,0:0:0:0:
351,146,14218,1,0,0:0:0:0:
272,376,14354,1,2,0:0:0:0:
200,143,14491,1,8,0:0:0:0:
192,158,14559,1,0,0:0:0:0:
184,173,14627,1,0,0:0:0:0:
415,284,14764,6,0,P|435:214|414:163,1,110.000003356934,2|0,0:0|0:0,0:0:0:0:
173,313,15036,1,8,0:0:0:0:
0,129,15173,2,0,P|50:182|208:151,1,220.000006713867,2|2,0:0|0:0,0:0:0:0:
64,29,15582,2,0,B|126:23|126:23|171:55,1,110.000003356934,8|0,0:0|0:0,0:0:0:0:
173,313,15854,6,0,B|111:319|111:319|66:287,1,110.000003356934,2|0,0:0|0:0,0:0:0:0:
67,278,16059,1,0,0:0:0:0:
62,265,16127,1,8,0:0:0:0:
100,110,16264,1,0,0:0:0:0:
324,263,16400,38,0,B|262:269|262:269|217:237,1,110.000003356934,2|0,0:0|0:0,0:0:0:0:
218,228,16605,1,0,0:0:0:0:
213,215,16673,1,8,0:0:0:0:
251,60,16810,1,0,0:0:0:0:
370,331,16945,6,0,L|220:346,1,110.000003356934,2|0,0:0|0:0,0:0:0:0:
133,202,17218,1,8,0:0:0:0:
251,60,17354,2,0,L|401:75,1,110.000003356934
171,319,17627,1,2,0:0:0:0:
94,79,17764,1,0,0:0:0:0:
51,288,17900,1,0,0:0:0:0:
339,175,18036,22,0,L|229:164,1,104.999996795654
218,237,18309,2,0,P|274:242|336:290,1,104.999996795654
241,325,18582,2,0,B|228:365|228:365|193:302|173:300,1,104.999996795654
146,376,18854,2,0,P|114:343|71:325,1,69.9999978637696
10,148,19127,6,0,P|42:115|85:97,1,69.9999978637696
234,164,19400,2,0,P|189:152|152:124,1,69.9999978637696
334,52,19673,2,0,L|318:128,1,69.9999978637696
110,258,19945,2,0,L|95:189,1,69.9999978637696
410,97,20218,6,0,L|393:177,1,80
214,228,21309,38,0,L|230:308,1,80
340,12,22400,6,0,L|330:56,1,40
389,162,22945,6,0,L|354:131,1,40
234,129,23218,38,0,L|277:114,1,40
417,21,23491,6,0,L|407:65,1,40
296,194,23900,6,0,L|292:216,2,20,0|0|4,0:0|0:0|0:3,0:0:0:0:
157,63,24582,38,0,B|132:52|132:52|39:79,1,119.999996337891
32,207,24991,1,0,0:0:0:0:
166,171,25127,2,0,L|106:123,1,59.9999981689454
97,295,25400,2,0,L|108:219,1,59.9999981689454
177,278,25673,1,0,0:0:0:0:
190,311,26218,1,0,0:0:0:0:
203,344,26764,6,0,P|250:368|326:360,1,119.999996337891
373,250,27173,1,0,0:0:0:0:
276,225,27309,2,0,P|272:262|288:302,1,59.9999981689454
449,191,27582,2,0,P|418:169|376:162,1,59.9999981689454
197,270,27854,1,0,0:0:0:0:
180,239,28400,1,0,0:0:0:0:
180,239,28673,1,0,0:0:0:0:
175,230,28741,1,0,0:0:0:0:
170,222,28809,1,0,0:0:0:0:
166,214,28877,1,0,0:0:0:0:
161,206,28945,6,0,L|36:215,1,119.999996337891
155,333,29491,2,0,L|280:342,1,119.999996337891
154,130,30036,38,0,L|66:136,1,59.9999981689454
253,96,30309,2,0,L|203:23,1,59.9999981689454
331,164,30582,2,0,L|384:53,1,119.999996337891
461,130,30991,1,0,0:0:0:0:
467,285,31127,6,0,B|419:281|419:281|399:295|399:295|344:291,1,119.999996337891
194,373,31673,2,0,B|241:376|241:376|261:362|261:362|316:366,1,119.999996337891
244,278,32082,1,0,0:0:0:0:
147,288,32218,6,0,B|99:284|99:284|79:298|79:298|24:294,1,119.999996337891
10,210,32627,1,0,0:0:0:0:
95,189,32764,37,2,0:3:0:0:
35,126,32900,1,2,0:3:0:0:
180,168,33037,5,2,0:3:0:0:
155,252,33173,1,0,0:0:0:0:
120,105,33309,6,0,P|200:77|240:98,1,119.999996337891,4|0,0:3|0:0,0:0:0:0:
240,231,33718,1,0,0:0:0:0:
314,123,33854,2,0,P|320:100|314:59,1,59.9999981689454,0|2,0:0|0:0,0:0:0:0:
363,232,34127,2,0,P|379:248|418:264,1,59.9999981689454
240,231,34400,38,0,P|217:237|147:311,1,119.999996337891
243,326,34809,1,0,0:0:0:0:
107,224,34945,2,0,P|84:261|77:283,1,59.9999981689454
226,156,35218,2,0,P|173:174|152:190,1,59.9999981689454
8,225,35491,6,0,B|22:188|38:171|38:171|18:144|19:100,1,119.999996337891,2|2,0:0|0:0,0:0:0:0:
116,28,35900,1,0,0:0:0:0:
169,175,36036,2,0,L|181:108,1,59.9999981689454
231,255,36309,1,0,0:0:0:0:
131,269,36445,1,0,0:0:0:0:
269,161,36582,6,0,P|311:188|330:269,1,119.999996337891,2|0,0:0|0:0,0:0:0:0:
131,269,36991,1,0,0:0:0:0:
207,82,37127,2,0,P|251:59|331:83,1,119.999996337891
231,255,37536,1,0,0:0:0:0:
169,175,37673,38,0,L|104:198,1,59.9999981689454,2|0,0:0|0:0,0:0:0:0:
202,349,37945,2,0,L|266:372,1,59.9999981689454
322,188,38218,2,0,P|246:226|226:270,1,119.999996337891
354,330,38627,1,0,0:0:0:0:
383,132,38764,6,0,P|403:180|396:211,1,59.9999981689454,2|0,0:0|0:0,0:0:0:0:
487,29,39036,2,0,P|467:77|474:108,1,59.9999981689454
482,329,39309,2,0,B|493:283|493:283|473:192,1,119.999996337891
281,28,39854,6,0,L|301:109,1,59.9999981689454,2|0,0:0|0:0,0:0:0:0:
196,240,40127,1,0,0:0:0:0:
196,240,40264,2,0,B|185:194|185:194|205:103,1,119.999996337891,2|2,0:0|0:0,0:0:0:0:
123,308,40673,2,0,L|108:249,1,59.9999981689454
271,195,40945,37,2,0:0:0:0:
123,308,41491,6,0,L|108:249,1,59.9999981689454,2|2,0:0|0:0,0:0:0:0:
281,28,41764,1,8,0:0:0:0:
27,169,42036,6,0,P|0:229|0:251,1,80,2|2,0:0|0:0,0:0:0:0:
40,375,42309,1,8,0:0:0:0:
98,241,42445,1,0,0:0:0:0:
235,375,42582,2,0,L|244:292,1,80,2|0,0:0|0:0,0:0:0:0:
159,168,42854,2,0,L|225:217,1,80,8|8,0:0|0:0,0:0:0:0:
433,159,43127,54,0,B|370:182|370:182|352:212|352:212|284:240,1,160,2|8,0:0|0:0,0:0:0:0:
429,254,43536,1,0,0:0:0:0:
457,69,43673,2,0,P|401:76|375:95,1,80,2|2,0:0|0:0,0:0:0:0:
492,317,43945,2,0,P|513:265|509:233,1,80,8|0,0:0|0:0,0:0:0:0:
202,183,44218,6,0,P|286:150|365:173,1,160,2|8,0:0|0:0,0:0:0:0:
331,315,44627,2,0,B|292:330|292:330|233:322,1,80,2|0,0:0|0:0,0:0:0:0:
96,274,44900,2,0,B|135:259|135:259|194:267,1,80,2|8,0:0|0:0,0:0:0:0:
125,358,45173,38,2,P|65:363|4:280,1,160
47,150,45582,1,8,0:0:0:0:
96,274,45718,1,2,0:0:0:0:
115,91,45854,2,2,P|62:61|28:61,1,80
138,181,46127,2,0,P|190:150|207:120,1,80,8|0,0:0|0:0,0:0:0:0:
96,274,46400,6,0,L|264:263,1,160,2|8,0:0|0:0,0:0:0:0:
343,177,46809,1,0,0:0:0:0:
374,297,46945,2,0,P|446:265|458:234,1,80,2|0,0:0|0:0,0:0:0:0:
255,263,47218,2,0,P|246:341|267:367,1,80,8|0,0:0|0:0,0:0:0:0:
351,97,47491,6,0,L|339:204,1,80,2|0,0:0|0:0,0:0:0:0:
150,374,47764,2,0,L|141:294,1,80,8|8,0:0|0:0,0:0:0:0:
240,127,48036,1,2,0:0:0:0:
255,263,48173,1,2,0:0:0:0:
159,78,48309,2,0,P|188:48|249:30,1,80,8|0,0:0|0:0,0:0:0:0:
330,307,48582,38,0,P|301:337|240:355,1,80,2|2,0:0|0:0,0:0:0:0:
178,199,48854,1,8,0:0:0:0:
314,184,48991,1,8,0:0:0:0:
141,294,49127,2,0,L|57:311,1,80
364,103,49400,2,0,L|448:120,1,80,8|8,0:0|0:0,0:0:0:0:
190,105,49673,6,2,B|131:116|131:116|99:143|99:143|43:155,1,160,2|8,0:0|0:0,0:0:0:0:
141,294,50082,2,2,B|200:305|200:305|232:332|232:332|288:343,1,160
308,186,50491,2,0,P|289:231|289:271,1,80,8|0,0:0|0:0,0:0:0:0:
438,79,50764,5,2,0:0:0:0:
400,243,50900,1,2,0:0:0:0:
380,20,51036,2,0,P|416:3|455:0,1,80,8|0,0:0|0:0,0:0:0:0:
439,336,51309,1,2,0:0:0:0:
374,133,51445,1,2,0:0:0:0:
345,358,51582,2,0,L|237:369,1,80,8|0,0:0|0:0,0:0:0:0:
243,68,51854,2,0,P|289:148|284:198,1,120,2|0,0:0|0:0,0:0:0:0:
220,188,52127,38,0,L|192:111,1,80,8|0,0:0|0:0,0:0:0:0:
24,232,52400,1,2,0:0:0:0:
167,38,52536,1,2,0:0:0:0:
264,258,52673,1,8,0:0:0:0:
39,93,52809,1,0,0:0:0:0:
137,315,52945,6,0,P|172:269|166:227,1,80
167,38,53218,2,0,P|189:91|228:107,1,80,8|8,0:0|0:0,0:0:0:0:
392,203,53491,2,0,P|334:195|301:221,1,80,2|2,0:0|0:0,0:0:0:0:
91,243,53764,1,8,0:0:0:0:
355,276,53900,1,8,0:0:0:0:
252,31,54036,6,2,B|300:32|300:32|333:51|333:51|384:53,1,120,2|0,0:0|0:0,0:0:0:0:
385,125,54309,2,0,L|297:121,1,80,8|2,0:0|0:0,0:0:0:0:
76,289,54582,1,0,0:0:0:0:
162,19,54718,1,2,0:0:0:0:
252,288,54854,1,8,0:0:0:0:
21,123,54991,1,0,0:0:0:0:
338,228,55127,38,0,P|354:295|345:336,1,80,2|0,0:0|0:0,0:0:0:0:
76,289,55400,1,8,0:0:0:0:
275,20,55536,6,0,P|343:25|379:46,1,80,2|0,0:0|0:0,0:0:0:0:
252,288,55809,1,2,0:0:0:0:
21,123,55945,1,8,0:0:0:0:
305,121,56082,1,0,0:0:0:0:
90,367,56218,6,0,L|75:288,1,80,2|0,0:0|0:0,0:0:0:0:
162,19,56491,1,8,0:0:0:0:
338,228,56627,37,8,0:0:0:0:
119,142,56764,1,0,0:0:0:0:
413,158,56900,2,2,P|440:222|436:258,1,80,2|8,0:0|0:0,0:0:0:0:
279,163,57173,1,0,0:0:0:0:
297,143,57241,1,0,0:0:0:0:
320,130,57309,6,0,B|297:96|297:96|319:-6,1,120,2|0,0:0|0:0,0:0:0:0:
389,3,57582,2,0,L|371:82,1,80,8|2,0:0|0:0,0:0:0:0:
188,170,57854,6,0,P|217:107|283:60,1,120,2|0,0:0|0:0,0:0:0:0:
279,163,58127,2,0,P|255:250|258:274,1,80,8|2,0:0|0:0,0:0:0:0:
432,221,58400,37,2,0:0:0:0:
218,369,58536,2,0,P|194:282|197:258,1,80,8|0,0:0|0:0,0:0:0:0:
386,356,58809,1,0,0:0:0:0:
269,32,58945,5,2,0:0:0:0:
161,106,59082,1,2,0:0:0:0:
279,163,59218,1,8,0:0:0:0:
183,16,59354,6,2,P|108:34|73:152,1,200
150,307,59764,2,0,B|165:260|165:260|132:128,1,150,8|0,0:0|0:0,0:0:0:0:
161,106,60036,2,0,L|194:238,1,100,2|2,0:0|0:0,0:0:0:0:
98,381,60309,1,8,0:0:0:0:
446,240,60445,54,2,P|361:203|245:247,1,200
158,68,60854,53,8,0:0:0:0:
175,92,60922,1,0,0:0:0:0:
200,109,60990,1,0,0:0:0:0:
229,117,61059,1,0,0:0:0:0:
259,119,61126,5,8,0:0:0:0:
294,128,61194,1,0,0:0:0:0:
326,151,61264,1,8,0:0:0:0:
349,183,61332,1,0,0:0:0:0:
359,221,61399,5,8,0:0:0:0:
356,270,61467,1,0,0:0:0:0:
329,312,61535,1,8,0:0:0:0:
286,335,61603,1,8,0:0:0:0:
205,294,61673,6,6,B|251:258|251:258|390:275,1,165.000005035401,6|0,0:0|0:0,0:0:0:0:
420,224,61945,2,0,B|374:189|374:189|297:199,1,110.000003356934,8|0,0:0|0:0,0:0:0:0:
115,318,62218,1,2,0:0:0:0:
121,331,62286,1,0,0:0:0:0:
127,344,62354,1,0,0:0:0:0:
443,152,62491,2,0,B|397:116|397:116|258:133,1,165.000005035401,8|0,0:0|0:0,0:0:0:0:
220,80,62764,6,0,P|132:61|102:64,1,110.000003356934,6|2,0:0|0:0,0:0:0:0:
46,353,63036,1,8,0:0:0:0:
238,243,63173,2,0,L|259:350,1,110.000003356934,2|0,0:0|0:0,0:0:0:0:
17,218,63445,1,2,0:0:0:0:
183,368,63581,1,8,0:0:0:0:
138,151,63718,1,8,0:0:0:0:
367,137,63854,38,0,L|341:269,1,110.000003356934,2|0,0:0|0:0,0:0:0:0:
444,374,64127,1,8,0:0:0:0:
457,106,64263,2,0,P|426:56|355:32,1,110.000003356934,2|0,0:0|0:0,0:0:0:0:
313,325,64536,2,0,P|371:323|428:273,1,110.000003356934,2|8,0:0|0:0,0:0:0:0:
81,255,64809,6,0,B|141:240|141:240|189:256|189:256|253:240,1,165.000005035401,2|0,0:0|0:0,0:0:0:0:
270,171,65082,1,0,0:0:0:0:
264,159,65150,1,0,0:0:0:0:
258,147,65218,1,8,0:0:0:0:
126,341,65354,1,0,0:0:0:0:
118,107,65491,5,2,0:0:0:0:
264,293,65627,1,2,0:0:0:0:
38,227,65764,1,8,0:0:0:0:
17,191,65832,1,0,0:0:0:0:
6,151,65900,1,8,0:0:0:0:
5,110,65968,1,8,0:0:0:0:
14,70,66036,38,0,L|157:51,1,110.000003356934
355,262,66309,1,8,0:0:0:0:
129,196,66445,1,0,0:0:0:0:
437,167,66582,2,0,P|469:244|468:305,1,110.000003356934,2|0,0:0|0:0,0:0:0:0:
209,76,66854,1,8,0:0:0:0:
30,283,66991,1,0,0:0:0:0:
39,298,67059,1,0,0:0:0:0:
48,313,67127,6,0,L|205:335,1,110.000003356934
123,55,67400,1,8,0:0:0:0:
281,351,67536,5,0,0:0:0:0:
91,186,67673,1,0,0:0:0:0:
329,104,67809,1,0,0:0:0:0:
138,323,67945,1,8,0:0:0:0:
186,76,68082,1,8,0:0:0:0:
186,76,68150,1,0,0:0:0:0:
186,76,68218,38,0,B|157:117|157:117|193:171|166:259,1,165.000005035401
236,278,68491,2,0,P|251:209|244:141,1,110.000003356934,8|0,0:0|0:0,0:0:0:0:
110,339,68764,6,0,B|174:331|174:331|206:355|206:355|302:347,1,165.000005035401,2|0,0:0|0:0,0:0:0:0:
321,295,69036,1,8,0:0:0:0:
91,186,69173,5,0,0:0:0:0:
266,349,69309,1,2,0:0:0:0:
286,74,69445,1,0,0:0:0:0:
292,86,69513,1,0,0:0:0:0:
298,98,69582,2,0,L|449:78,1,110.000003356934,8|0,0:0|0:0,0:0:0:0:
31,256,69854,21,4,0:0:0:0:
11,229,69922,1,4,0:0:0:0:
1,198,69990,1,4,0:0:0:0:
2,165,70058,1,0,0:0:0:0:
14,134,70127,5,4,0:0:0:0:
64,71,70195,1,0,0:0:0:0:
143,64,70263,1,4,0:0:0:0:
202,119,70331,1,4,0:0:0:0:
202,199,70400,6,0,B|175:201|151:182|151:182|191:277|152:331,1,165.000005035401,2|0,0:0|0:0,0:0:0:0:
211,358,70673,2,0,P|243:300|240:236,1,110.000003356934,8|0,0:0|0:0,0:0:0:0:
25,249,70945,1,2,0:0:0:0:
25,249,71014,1,0,0:0:0:0:
25,249,71082,1,2,0:0:0:0:
311,131,71218,2,0,L|331:257,1,110.000003356934,8|0,0:0|0:0,0:0:0:0:
110,355,71491,6,0,L|127:246,1,110.000003356934,6|0,0:0|0:0,0:0:0:0:
292,371,71764,1,8,0:0:0:0:
209,144,71900,2,0,B|222:215|222:215|199:278|199:278|214:379,1,220.000006713867,2|2,0:0|0:0,0:0:0:0:
121,64,72309,1,8,0:0:0:0:
235,28,72445,1,0,0:0:0:0:
408,280,72582,38,0,P|358:302|303:300,1,110.000003356934,2|0,0:0|0:0,0:0:0:0:
235,28,72854,2,0,P|279:59|305:107,1,110.000003356934,8|0,0:0|0:0,0:0:0:0:
184,261,73127,1,2,0:0:0:0:
209,144,73263,1,2,0:0:0:0:
297,224,73400,1,8,0:0:0:0:
96,181,73536,5,0,0:0:0:0:
272,341,73673,2,0,B|329:324|329:324|401:334,1,110.000003356934,2|2,0:0|0:0,0:0:0:0:
297,224,73945,1,8,0:0:0:0:
512,111,74082,2,0,B|449:99|449:99|287:149,1,220.000006713867,2|0,0:0|0:0,0:0:0:0:
468,308,74491,2,0,P|476:246|447:192,1,110.000003356934,8|2,0:0|0:0,0:0:0:0:
187,237,74764,5,0,0:0:0:0:
187,237,74832,1,0,0:0:0:0:
187,237,74900,2,0,L|321:221,1,110.000003356934,2|8,0:0|0:0,0:0:0:0:
378,49,75173,1,2,0:0:0:0:
130,69,75309,2,0,L|210:177,1,110.000003356934
40,296,75582,38,0,L|93:171,1,110.000003356934,8|0,0:0|0:0,0:0:0:0:
361,265,75854,2,0,B|280:273|280:273|238:304|238:304|148:315,1,220.000006713867,2|8,0:0|0:0,0:0:0:0:
255,91,76264,1,0,0:0:0:0:
316,347,76400,1,2,0:0:0:0:
116,175,76536,1,2,0:0:0:0:
378,196,76673,1,8,0:0:0:0:
152,333,76809,1,8,0:0:0:0:
380,82,76945,6,0,P|449:100|482:228,1,165.000005035401,2|0,0:0|0:0,0:0:0:0:
446,242,77218,2,0,L|470:361,1,110.000003356934,8|2,0:0|0:0,0:0:0:0:
207,228,77491,1,8,0:0:0:0:
378,196,77627,1,8,0:0:0:0:
321,361,77764,1,0,0:0:0:0:
45,181,77900,6,0,B|126:173|126:173|168:142|168:142|253:131,1,220.000006713867,8|2,0:0|0:0,0:0:0:0:
261,319,78309,2,0,L|146:333,1,110.000003356934,8|8,0:0|0:0,0:0:0:0:
91,101,78582,1,2,0:0:0:0:
284,202,78718,1,2,0:0:0:0:
71,274,78854,1,8,0:0:0:0:
48,229,78922,1,0,0:0:0:0:
45,181,78990,1,8,0:0:0:0:
58,137,79058,1,8,0:0:0:0:
91,101,79127,38,0,B|188:111|188:111|290:78,1,194.999991073609,2|0,0:0|0:0,0:0:0:0:
238,19,79400,2,0,P|163:15|96:42,1,129.999994049073,8|0,0:0|0:0,0:0:0:0:
71,274,79673,2,0,L|213:288,1,129.999994049073,2|2,0:0|0:0,0:0:0:0:
181,114,79945,1,8,0:0:0:0:
96,365,80082,1,8,0:0:0:0:
284,202,80218,6,0,P|306:320|247:406,1,194.999991073609,2|0,0:0|0:0,0:0:0:0:
208,349,80491,2,0,B|197:283|197:283|221:217,1,129.999994049073,8|8,0:0|0:0,0:0:0:0:
445,261,80764,2,0,L|399:387,1,129.999994049073,2|2,0:0|0:0,0:0:0:0:
330,98,81036,2,0,L|376:224,1,129.999994049073,8|8,0:0|0:0,0:0:0:0:
394,33,81309,6,0,B|344:14|344:14|165:43,1,194.999991073609
145,81,81582,38,0,B|171:128|236:109|236:109|207:152|226:198,1,194.999991073609,8|0,0:0|0:0,0:0:0:0:
299,165,81854,6,0,P|280:254|163:243,1,194.999991073609,2|0,0:0|0:0,0:0:0:0:
148,328,82127,6,0,P|232:351|318:326,1,129.999994049073,8|8,0:0|0:0,0:0:0:0:
204,36,82400,1,2,0:0:0:0:
85,368,82536,1,2,0:0:0:0:
376,170,82673,1,8,0:0:0:0:
23,159,82809,1,2,0:0:0:0:
303,374,82945,2,0,P|368:344|443:342,1,129.999994049073,0|2,0:0|0:0,0:0:0:0:
425,62,83218,1,8,0:0:0:0:
397,45,83286,1,0,0:0:0:0:
366,33,83354,1,8,0:0:0:0:
334,27,83422,1,8,0:0:0:0:
302,27,83491,38,0,B|325:60|325:60|263:128|284:223,1,194.999991073609
210,238,83764,2,0,P|203:168|215:107,1,129.999994049073,8|2,0:0|0:0,0:0:0:0:
376,173,84036,1,0,0:0:0:0:
224,384,84173,1,2,0:0:0:0:
117,146,84309,2,0,L|101:286,1,129.999994049073,8|0,0:0|0:0,0:0:0:0:
346,283,84582,5,2,0:0:0:0:
232,36,84718,1,2,0:0:0:0:
179,302,84854,1,8,0:0:0:0:
385,105,84991,1,0,0:0:0:0:
382,112,85059,1,0,0:0:0:0:
380,120,85127,2,0,B|384:192|384:192|364:232|364:232|372:336,1,194.999991073609,2|0,0:0|0:0,0:0:0:0:
413,377,85400,2,0,P|448:294|361:234,1,194.999991073609,8|0,0:0|0:0,0:0:0:0:
369,309,85673,6,0,B|323:283|323:283|193:307,1,129.999994049073,6|0,0:0|0:0,0:0:0:0:
59,366,85945,1,8,0:0:0:0:
310,377,86082,1,0,0:0:0:0:
195,155,86218,1,2,0:0:0:0:
170,133,86286,1,2,0:0:0:0:
142,116,86354,1,2,0:0:0:0:
112,106,86422,1,0,0:0:0:0:
80,101,86491,2,0,L|98:240,1,129.999994049073,8|8,0:0|0:0,0:0:0:0:
310,377,86764,37,8,0:0:0:0:
282,214,86900,1,0,0:0:0:0:
356,301,87036,5,8,0:0:0:0:
207,121,87172,1,0,0:0:0:0:
358,176,87309,5,8,0:0:0:0:
52,62,87445,1,8,0:0:0:0:
107,384,87582,1,8,0:0:0:0:
127,359,87650,1,0,0:0:0:0:
142,330,87718,1,8,0:0:0:0:
149,298,87786,1,8,0:0:0:0:
149,266,87854,38,0,P|121:196|147:93,1,165.000005035401
207,121,88127,2,0,B|220:180|220:180|211:232,1,110.000003356934,8|0,0:0|0:0,0:0:0:0:
356,381,88400,2,0,B|347:332|347:332|360:273,1,110.000003356934,2|2,0:0|0:0,0:0:0:0:
510,88,88673,2,0,L|480:226,1,110.000003356934,8|0,0:0|0:0,0:0:0:0:
266,355,88945,5,2,0:0:0:0:
69,325,89627,5,2,0:0:0:0:
313,58,89764,2,0,L|283:196,1,110.000003356934,8|0,0:0|0:0,0:0:0:0:
437,366,98764,37,2,0:0:0:0:
310,228,98900,1,0,0:0:0:0:
310,228,98968,1,0,0:0:0:0:
310,228,99036,2,0,P|294:293|307:351,1,110.000003356934,8|0,0:0|0:0,0:0:0:0:
511,111,99309,2,0,L|382:131,1,110.000003356934,2|0,0:0|0:0,0:0:0:0:
215,331,99582,1,8,0:0:0:0:
215,331,99650,1,0,0:0:0:0:
215,331,99718,1,0,0:0:0:0:
113,60,99854,6,0,P|204:29|254:35,1,110.000003356934,2|0,0:0|0:0,0:0:0:0:
310,228,100127,1,8,0:0:0:0:
402,127,100264,2,2,B|317:118|317:118|277:134|277:134|171:120,1,220.000006713867
395,230,100673,2,0,P|449:223|498:199,1,110.000003356934,8|0,0:0|0:0,0:0:0:0:
263,54,100945,5,2,0:0:0:0:
360,309,101082,1,0,0:0:0:0:
360,309,101150,1,0,0:0:0:0:
360,309,101218,2,0,L|239:320,1,110.000003356934,8|0,0:0|0:0,0:0:0:0:
123,97,101491,37,2,0:0:0:0:
26,352,101628,1,2,0:0:0:0:
26,352,101696,1,2,0:0:0:0:
26,352,101764,2,0,L|147:363,1,110.000003356934,8|0,0:0|0:0,0:0:0:0:
402,127,102036,6,2,L|281:138,1,110.000003356934
123,97,102309,1,8,0:0:0:0:
3,269,102445,2,0,B|93:279|93:279|133:262|133:262|218:270,1,220.000006713867,2|2,0:0|0:0,0:0:0:0:
446,356,102854,1,8,0:0:0:0:
409,374,102922,1,0,0:0:0:0:
368,375,102990,1,0,0:0:0:0:
332,357,103058,1,0,0:0:0:0:
307,324,103127,6,0,P|326:275|300:205,1,110.000003356934,2|0,0:0|0:0,0:0:0:0:
301,218,103332,1,0,0:0:0:0:
297,229,103400,1,8,0:0:0:0:
166,370,103536,1,0,0:0:0:0:
42,199,103673,38,0,P|23:150|49:80,1,110.000003356934,2|0,0:0|0:0,0:0:0:0:
48,93,103878,1,0,0:0:0:0:
52,104,103946,1,8,0:0:0:0:
183,245,104082,1,0,0:0:0:0:
430,0,104218,6,0,L|304:29,1,110.000003356934,2|0,0:0|0:0,0:0:0:0:
234,270,104491,1,8,0:0:0:0:
112,145,104627,2,2,P|185:115|327:120,1,220.000006713867
116,306,105036,1,8,0:0:0:0:
112,292,105104,1,0,0:0:0:0:
109,279,105172,1,0,0:0:0:0:
429,259,105309,22,0,L|407:371,1,112.500004291535,2|0,0:0|0:0,0:0:0:0:
330,384,105582,6,0,B|319:349|319:349|343:230,1,150,8|0,0:0|0:0,0:0:0:0:
399,186,105854,6,2,P|351:159|277:198,1,120,2|0,0:0|0:0,0:0:0:0:
258,247,106127,38,8,P|219:198|221:159,1,100
184,13,106400,6,8,P|180:61|145:96,1,100,2|0,0:0|0:0,0:0:0:0:
311,154,106673,2,8,P|266:175|219:162,1,100,8|0,0:0|0:0,0:0:0:0:
252,334,106945,2,2,P|211:306|198:258,1,100,2|10,0:0|0:0,0:0:0:0:
254,91,107218,1,8,0:0:0:0:
280,255,107354,1,8,0:0:0:0:
54,357,107491,6,0,L|39:268,1,89.9999972534181
121,143,107900,2,0,L|106:232,1,89.9999972534181
207,123,108309,2,0,L|192:34,1,89.9999972534181
121,143,108854,37,0,0:0:0:0:
39,268,109127,1,0,0:0:0:0:
189,277,109400,1,0,0:0:0:0:
271,152,109673,5,0,0:0:0:0:
312,348,110036,5,0,0:0:0:0:
326,322,110126,1,0,0:0:0:0:
330,292,110218,38,0,P|319:237|326:213,2,67.4999979400635
407,255,110764,5,0,0:0:0:0:
224,206,111173,2,0,P|226:238|228:245,2,22.4999993133545
81,138,119627,53,8,0:0:0:0:
174,116,119764,2,2,L|155:195,1,59.9999981689454,2|2,0:3|0:3,0:3:0:0:
211,278,120036,5,2,0:0:0:0:
239,186,120172,1,2,0:0:0:0:
53,230,120308,5,2,0:3:0:0:
118,300,120445,1,0,0:0:0:0:
425,142,120582,38,0,B|417:190|417:190|433:214|433:214|425:270,1,119.999996337891
376,326,120991,1,0,0:0:0:0:
341,163,121127,2,0,L|354:86,1,59.9999981689454,0|2,0:0|0:0,0:0:0:0:
504,229,121400,2,0,L|491:306,1,59.9999981689454
350,103,121673,6,0,P|418:57|464:66,1,119.999996337891,2|0,0:0|0:0,0:0:0:0:
349,238,122082,1,0,0:0:0:0:
259,113,122218,2,0,P|264:76|279:50,1,59.9999981689454
257,204,122491,2,0,P|222:218|192:218,1,59.9999981689454,0|0,0:3|0:3,0:3:0:0:
7,156,122764,6,0,P|68:132|145:145,1,119.999996337891,2|2,0:0|0:0,0:0:0:0:
82,231,123173,1,0,0:0:0:0:
145,312,123309,1,0,0:0:0:0:
55,385,123445,2,0,L|43:327,1,59.9999981689454,2|0,0:0|0:0,0:0:0:0:
191,106,123718,1,0,0:0:0:0:
257,204,123854,38,0,L|227:345,1,119.999996337891,2|0,0:0|0:0,0:0:0:0:
339,339,124264,1,0,0:0:0:0:
393,245,124400,2,0,L|381:187,1,59.9999981689454
322,75,124673,2,0,L|310:133,1,59.9999981689454,8|0,0:0|0:0,0:0:0:0:
454,298,124945,6,0,P|470:253|463:219,1,59.9999981689454,4|0,0:3|0:0,0:0:0:0:
309,133,125218,2,0,P|293:178|300:212,1,59.9999981689454
393,245,125491,1,0,0:0:0:0:
272,50,125627,2,0,P|232:97|218:156,1,119.999996337891,2|2,0:0|0:0,0:0:0:0:
183,300,126036,6,0,P|167:242|129:197,1,119.999996337891
64,294,126445,1,0,0:0:0:0:
151,384,126582,2,0,L|210:377,1,59.9999981689454
320,266,126854,2,0,L|255:273,1,59.9999981689454
129,197,127127,38,0,L|188:190,1,59.9999981689454,2|0,0:0|0:0,0:0:0:0:
296,124,127400,1,2,0:0:0:0:
428,86,127536,6,0,P|397:51|319:42,1,119.999996337891,2|2,0:0|0:0,0:0:0:0:
492,144,127945,2,0,P|507:114|512:74,1,59.9999981689454
296,124,128218,1,2,0:0:0:0:
43,324,128764,6,2,P|28:294|23:254,1,59.9999981689454
239,304,129037,1,8,0:0:0:0:
131,59,129309,38,2,L|41:69,1,80
178,125,129582,1,8,0:0:0:0:
211,51,129718,1,0,0:0:0:0:
98,134,129854,2,8,P|114:176|230:188,1,160,2|8,0:0|0:0,0:0:0:0:
291,42,130264,1,0,0:0:0:0:
377,203,130400,6,0,L|360:301,1,80,2|0,0:0|0:0,0:0:0:0:
469,323,130673,1,8,0:0:0:0:
451,225,130809,1,0,0:0:0:0:
310,351,130945,2,2,P|251:360|203:351,1,80
216,197,131218,2,0,P|253:243|269:289,1,80,8|0,0:0|0:0,0:0:0:0:
13,321,131491,6,0,P|93:283|162:292,1,160,2|8,0:0|0:0,0:0:0:0:
74,212,131900,2,0,P|35:223|0:241,1,80,2|0,0:0|0:0,0:0:0:0:
67,120,132173,2,0,P|105:131|141:149,1,80,0|8,0:0|0:0,0:0:0:0:
26,42,132445,1,0,0:0:0:0:
215,29,132582,37,0,0:0:0:0:
45,25,132718,2,2,B|104:23|104:23|141:43|141:43|199:43,1,160
298,147,133127,2,8,P|231:172|212:170,1,80,2|2,0:0|0:0,0:0:0:0:
343,44,133400,2,0,P|398:89|405:106,1,80,8|0,0:0|0:0,0:0:0:0:
372,351,133673,6,0,P|354:292|377:198,1,160,2|8,0:0|0:0,0:0:0:0:
477,278,134082,1,0,0:0:0:0:
305,379,134218,2,0,P|288:327|285:275,1,80,2|2,0:0|0:0,0:0:0:0:
132,204,134491,2,0,P|125:243|111:280,1,80,8|0,0:0|0:0,0:0:0:0:
205,349,134764,6,2,B|203:290|203:290|223:253|223:253|223:195,1,160,2|8,0:0|0:0,0:0:0:0:
156,68,135173,1,0,0:0:0:0:
110,280,135309,2,0,L|8:298,1,80,2|2,0:0|0:0,0:0:0:0:
236,109,135582,2,0,L|338:127,1,80,8|0,0:0|0:0,0:0:0:0:
89,138,135854,38,0,P|62:89|104:-14,1,160,2|8,0:0|0:0,0:0:0:0:
236,109,136264,1,0,0:0:0:0:
208,349,136400,1,2,0:0:0:0:
89,138,136536,1,2,0:0:0:0:
309,239,136673,1,8,0:0:0:0:
71,286,136809,1,0,0:0:0:0:
365,161,136945,6,0,P|404:219|406:257,1,80,2|0,0:0|0:0,0:0:0:0:
71,286,137218,1,8,0:0:0:0:
182,40,137354,2,0,P|249:20|285:30,1,80
208,349,137627,1,2,0:0:0:0:
8,167,137763,2,0,P|10:97|31:65,1,80,8|0,0:0|0:0,0:0:0:0:
383,80,138036,6,2,L|368:172,1,80
218,257,138309,1,8,0:0:0:0:
236,109,138445,1,0,0:0:0:0:
95,217,138582,2,2,L|82:138,1,80
305,297,138854,2,0,P|251:344|218:343,1,80,8|0,0:0|0:0,0:0:0:0:
174,32,139127,38,0,P|249:13|316:43,1,120,2|0,0:0|0:0,0:0:0:0:
341,78,139400,2,0,L|452:57,1,80,8|0,0:0|0:0,0:0:0:0:
318,332,139673,1,2,0:0:0:0:
237,108,139809,1,2,0:0:0:0:
471,149,139945,1,8,0:0:0:0:
336,212,140082,1,0,0:0:0:0:
91,24,140218,6,0,L|80:103,1,80,2|2,0:0|0:0,0:0:0:0:
237,365,140491,2,0,L|226:285,1,80,8|0,0:0|0:0,0:0:0:0:
143,115,140764,1,2,0:0:0:0:
111,302,140900,1,2,0:0:0:0:
247,170,141036,1,8,0:0:0:0:
60,198,141173,1,0,0:0:0:0:
226,285,141309,6,0,P|317:263|350:216,1,120,2|0,0:0|0:0,0:0:0:0:
402,268,141582,2,0,P|364:320|341:335,1,80,8|0,0:0|0:0,0:0:0:0:
247,170,141854,1,2,0:0:0:0:
247,170,141991,1,2,0:0:0:0:
456,210,142127,2,0,P|482:268|483:296,1,80,8|0,0:0|0:0,0:0:0:0:
387,37,142400,38,0,L|479:17,1,80,2|0,0:0|0:0,0:0:0:0:
247,170,142673,1,8,0:0:0:0:
402,268,142809,2,0,L|310:248,1,80
433,114,143082,1,0,0:0:0:0:
169,121,143218,2,0,P|154:181|164:223,1,80,8|0,0:0|0:0,0:0:0:0:
86,384,143491,6,0,P|103:292|80:208,1,160,2|8,0:0|0:0,0:0:0:0:
7,306,143900,1,0,0:0:0:0:
160,384,144036,2,2,P|171:335|172:296,1,80
0,210,144309,1,8,0:0:0:0:
247,170,144445,1,0,0:0:0:0:
0,125,144582,6,0,B|55:96|55:96|123:101,1,120,2|0,0:0|0:0,0:0:0:0:
157,175,144854,2,0,L|65:167,1,80
204,103,145127,38,0,P|280:96|327:158,1,160,2|0,0:0|0:0,0:0:0:0:
242,359,145536,1,8,0:0:0:0:
90,276,145673,2,2,B|149:278|149:278|186:258|186:258|244:258,1,160,2|8,0:0|0:0,0:0:0:0:
386,359,146082,1,0,0:0:0:0:
402,185,146218,1,2,0:0:0:0:
405,216,146286,1,2,0:0:0:0:
409,248,146354,1,2,0:0:0:0:
422,49,146491,1,8,0:0:0:0:
509,365,146627,6,0,L|485:192,1,160,2|2,0:0|0:0,0:0:0:0:
422,49,147036,1,8,0:0:0:0:
386,359,147173,1,2,0:0:0:0:
230,53,147309,2,2,P|295:27|333:35,1,80
409,248,147582,1,8,0:0:0:0:
185,160,147718,2,2,P|122:128|14:151,1,160
91,296,148127,53,8,0:0:0:0:
124,273,148195,1,0,0:0:0:0:
162,262,148263,1,2,0:0:0:0:
202,262,148331,1,0,0:0:0:0:
239,273,148401,5,8,0:0:0:0:
277,285,148469,1,0,0:0:0:0:
317,285,148537,1,8,0:0:0:0:
355,274,148605,1,0,0:0:0:0:
389,252,148673,5,8,0:0:0:0:
396,222,148741,1,8,0:0:0:0:
391,172,148810,1,8,0:0:0:0:
357,133,148878,1,0,0:0:0:0:
306,202,148945,6,0,P|272:130|323:51,1,165.000005035401,6|0,0:0|0:0,0:0:0:0:
387,53,149218,2,0,L|501:40,1,110.000003356934,8|2,0:0|0:0,0:0:0:0:
415,347,149491,1,0,0:0:0:0:
415,347,149559,1,0,0:0:0:0:
415,347,149627,1,2,0:0:0:0:
217,220,149764,2,0,P|197:174|194:114,1,110.000003356934,8|0,0:0|0:0,0:0:0:0:
339,267,150036,6,0,P|336:321|315:372,1,110.000003356934,2|0,0:0|0:0,0:0:0:0:
108,356,150309,1,8,0:0:0:0:
217,220,150445,2,0,B|319:181|319:181|441:186,1,220.000006713867,2|2,0:0|0:0,0:0:0:0:
218,320,150854,1,8,0:0:0:0:
277,58,150991,1,0,0:0:0:0:
448,273,151127,38,0,L|320:266,1,110.000003356934,2|0,0:0|0:0,0:0:0:0:
130,75,151400,1,8,0:0:0:0:
469,82,151536,2,0,L|422:201,1,110.000003356934
293,4,151809,2,0,L|392:84,1,110.000003356934,2|8,0:0|0:0,0:0:0:0:
149,180,152082,1,0,0:0:0:0:
149,180,152150,1,0,0:0:0:0:
149,180,152218,6,0,P|126:103|144:40,1,110.000003356934,2|0,0:0|0:0,0:0:0:0:
218,320,152491,1,8,0:0:0:0:
429,184,152627,2,0,P|430:238|409:289,1,110.000003356934,2|0,0:0|0:0,0:0:0:0:
47,212,152900,1,2,0:0:0:0:
226,118,153036,1,8,0:0:0:0:
218,320,153173,1,0,0:0:0:0:
132,76,153309,6,0,P|188:30|324:74,1,220.000006713867,2|8,0:0|0:0,0:0:0:0:
59,321,153718,1,0,0:0:0:0:
59,321,153786,1,0,0:0:0:0:
59,321,153854,2,0,L|44:186,1,110.000003356934,2|0,0:0|0:0,0:0:0:0:
89,5,154127,1,8,0:0:0:0:
410,134,154264,38,0,P|417:212|395:259,1,110.000003356934,2|0,0:0|0:0,0:0:0:0:
226,118,154536,2,0,P|290:72|341:68,1,110.000003356934,2|8,0:0|0:0,0:0:0:0:
314,384,154809,2,0,B|327:313|327:313|304:250|304:250|319:149,1,220.000006713867,2|2,0:0|0:0,0:0:0:0:
408,357,155218,1,8,0:0:0:0:
220,308,155354,1,8,0:0:0:0:
392,35,155491,6,0,B|385:95|385:95|409:127|409:127|400:191,1,165.000005035401,6|0,0:0|0:0,0:0:0:0:
461,251,155764,2,0,L|479:140,1,110.000003356934,8|0,0:0|0:0,0:0:0:0:
206,222,156036,5,2,0:0:0:0:
213,265,156105,1,0,0:0:0:0:
220,308,156173,1,2,0:0:0:0:
464,69,156309,1,8,0:0:0:0:
248,45,156446,2,0,L|265:153,1,110.000003356934,2|0,0:0|0:0,0:0:0:0:
49,373,156718,37,2,0:0:0:0:
56,330,156786,1,0,0:0:0:0:
63,287,156854,1,8,0:0:0:0:
166,138,156991,1,0,0:0:0:0:
307,372,157127,5,2,0:0:0:0:
318,317,157195,1,0,0:0:0:0:
301,266,157263,1,2,0:0:0:0:
260,230,157331,1,2,0:0:0:0:
206,222,157401,5,8,0:0:0:0:
248,163,157469,1,0,0:0:0:0:
236,91,157537,1,8,0:0:0:0:
177,50,157605,1,8,0:0:0:0:
106,63,157673,38,0,B|88:116|88:116|106:177,1,110.000003356934,2|0,0:0|0:0,0:0:0:0:
220,308,157945,1,8,0:0:0:0:
315,43,158082,1,0,0:0:0:0:
315,43,158150,1,0,0:0:0:0:
315,43,158218,2,0,P|382:27|436:34,1,110.000003356934,2|2,0:0|0:0,0:0:0:0:
401,293,158491,1,8,0:0:0:0:
376,121,158627,1,0,0:0:0:0:
466,370,158764,6,0,P|399:386|345:379,1,110.000003356934,2|2,0:0|0:0,0:0:0:0:
137,260,159036,1,8,0:0:0:0:
287,182,159173,2,0,P|313:245|251:383,1,220.000006713867,2|2,0:0|0:0,0:0:0:0:
231,59,159582,2,0,L|356:35,1,110.000003356934,8|0,0:0|0:0,0:0:0:0:
51,308,159854,6,0,B|44:250|44:250|72:195,1,110.000003356934,2|2,0:0|0:0,0:0:0:0:
356,340,160127,2,0,B|309:375|309:375|247:378,1,110.000003356934,8|0,0:0|0:0,0:0:0:0:
231,59,160400,1,2,0:0:0:0:
414,173,160536,1,2,0:0:0:0:
220,275,160673,1,8,0:0:0:0:
420,80,160809,1,0,0:0:0:0:
420,80,160877,1,0,0:0:0:0:
420,80,160945,38,2,P|483:109|509:183,1,110.000003356934
172,198,161218,1,8,0:0:0:0:
356,340,161354,2,0,B|285:327|285:327|222:350|222:350|121:335,1,220.000006713867,2|2,0:0|0:0,0:0:0:0:
138,124,161764,1,8,0:0:0:0:
70,379,161900,1,0,0:0:0:0:
70,379,161968,1,0,0:0:0:0:
70,379,162036,6,0,L|50:262,1,110.000003356934,2|2,0:0|0:0,0:0:0:0:
144,11,162309,1,8,0:0:0:0:
222,275,162445,1,0,0:0:0:0:
3,108,162582,6,0,B|62:120|62:120|112:101,1,110.000003356934,2|2,0:0|0:0,0:0:0:0:
278,115,162854,1,8,0:0:0:0:
51,270,162990,1,8,0:0:0:0:
344,219,163127,38,0,B|384:115|384:115|343:14,1,220.000006713867,2|8,0:0|0:0,0:0:0:0:
222,275,163536,1,0,0:0:0:0:
222,275,163604,1,0,0:0:0:0:
222,275,163673,2,0,P|266:331|345:337,1,110.000003356934,2|2,0:0|0:0,0:0:0:0:
206,67,163945,2,0,P|135:77|90:142,1,110.000003356934,8|0,0:0|0:0,0:0:0:0:
344,219,164218,6,0,L|484:206,1,110.000003356934,2|0,0:0|0:0,0:0:0:0:
441,40,164491,1,8,0:0:0:0:
195,154,164627,2,0,L|55:141,1,110.000003356934,2|8,0:0|0:0,0:0:0:0:
225,58,164900,1,8,0:0:0:0:
263,96,164968,1,0,0:0:0:0:
278,149,165036,1,0,0:0:0:0:
266,202,165104,1,0,0:0:0:0:
230,243,165173,6,0,L|257:375,1,110.000003356934,4|0,0:0|0:0,0:0:0:0:
85,143,165445,1,2,0:0:0:0:
299,41,165582,2,0,L|272:172,1,110.000003356934,8|0,0:0|0:0,0:0:0:0:
60,290,165854,1,2,0:0:0:0:
278,149,165991,37,2,0:0:0:0:
398,355,166128,1,0,0:0:0:0:
390,319,166196,1,0,0:0:0:0:
383,284,166264,1,8,0:0:0:0:
376,249,166332,1,8,0:0:0:0:
369,214,166400,6,0,P|385:135|414:232,1,259.999988098145,2|8,0:0|0:0,0:0:0:0:
231,284,166809,2,0,P|206:215|220:118,1,129.999994049073
317,360,167082,1,2,0:0:0:0:
426,228,167218,2,0,B|441:133|441:133|389:34,1,194.999991073609,8|0,0:0|0:0,0:0:0:0:
305,33,167491,6,0,L|372:159,1,129.999994049073,2|0,0:0|0:0,0:0:0:0:
169,332,167764,1,8,0:0:0:0:
240,83,167900,37,0,0:0:0:0:
317,360,168036,1,2,0:0:0:0:
39,289,168173,1,2,0:0:0:0:
358,199,168309,1,8,0:0:0:0:
157,404,168445,1,0,0:0:0:0:
79,128,168582,6,0,P|160:200|171:309,1,194.999991073609,2|0,0:0|0:0,0:0:0:0:
248,286,168854,6,0,B|245:200|214:154|214:154|270:172|306:119,1,194.999991073609,8|0,0:0|0:0,0:0:0:0:
240,83,169127,38,0,B|292:72|336:101|336:101|361:152|326:210,1,194.999991073609,2|0,0:0|0:0,0:0:0:0:
269,152,169400,6,0,B|241:89|241:89|256:3,1,129.999994049073,8|0,0:0|0:0,0:0:0:0:
357,290,169673,1,2,0:0:0:0:
160,42,169809,1,2,0:0:0:0:
174,359,169946,1,8,0:0:0:0:
348,93,170082,1,0,0:0:0:0:
52,207,170218,6,2,P|39:280|70:349,1,129.999994049073
434,359,170491,1,8,0:0:0:0:
447,329,170559,1,0,0:0:0:0:
452,297,170627,1,8,0:0:0:0:
449,265,170695,1,8,0:0:0:0:
438,234,170764,38,0,B|420:206|401:189|401:189|408:269|385:340,1,194.999991073609,2|0,0:0|0:0,0:0:0:0:
322,304,171036,2,0,P|332:220|323:162,1,129.999994049073,8|0,0:0|0:0,0:0:0:0:
225,371,171309,1,2,0:0:0:0:
242,105,171445,1,2,0:0:0:0:
136,256,171582,2,0,P|130:320|140:384,1,129.999994049073,8|8,0:0|0:0,0:0:0:0:
305,38,171854,5,2,0:0:0:0:
322,304,171990,1,2,0:0:0:0:
83,185,172127,1,8,0:0:0:0:
360,112,172264,1,0,0:0:0:0:
360,112,172332,1,0,0:0:0:0:
360,112,172400,2,0,B|379:171|379:171|359:258,1,129.999994049073,2|2,0:0|0:0,0:0:0:0:
151,47,172673,1,8,0:0:0:0:
168,313,172810,1,8,0:0:0:0:
437,34,172945,6,0,L|479:166,1,129.999994049073,2|2,0:0|0:0,0:0:0:0:
83,185,173218,1,8,0:0:0:0:
304,38,173354,1,0,0:0:0:0:
416,353,173491,1,2,0:0:0:0:
426,308,173559,1,2,0:0:0:0:
437,264,173627,1,2,0:0:0:0:
230,184,173764,1,8,0:0:0:0:
291,372,173900,1,8,0:0:0:0:
118,110,174036,38,0,B|105:190|105:190|130:260|130:260|113:371,1,259.999988098145,2|8,0:0|0:0,0:0:0:0:
22,265,174445,1,0,0:0:0:0:
229,184,174582,2,0,P|255:124|247:61,1,129.999994049073,2|2,0:0|0:0,0:0:0:0:
141,232,174854,1,8,0:0:0:0:
178,262,174922,1,0,0:0:0:0:
225,273,174990,1,8,0:0:0:0:
273,264,175058,1,8,0:0:0:0:
312,236,175127,6,0,P|375:228|491:299,1,194.999991073609,2|0,0:0|0:0,0:0:0:0:
437,354,175400,2,0,B|370:351|370:351|307:297,1,129.999994049073,8|8,0:0|0:0,0:0:0:0:
395,121,175673,2,0,B|462:124|462:124|525:178,1,129.999994049073,2|2,0:0|0:0,0:0:0:0:
425,370,175945,1,8,0:0:0:0:
383,137,176082,1,8,0:0:0:0:
322,310,176218,6,0,L|145:322,1,129.999994049073,2|2,0:0|0:0,0:0:0:0:
22,194,176491,2,0,B|96:189|96:189|134:162|134:162|250:155,1,194.999991073609,8|0,0:0|0:0,0:0:0:0:
270,116,176764,2,0,P|274:194|214:234,1,129.999994049073,2|2,0:0|0:0,0:0:0:0:
188,53,177036,2,0,P|277:20|376:111,1,194.999991073609,8|0,0:0|0:0,0:0:0:0:
383,137,177309,38,0,B|409:130|424:102|424:102|413:194|468:258,1,194.999991073609,2|0,0:0|0:0,0:0:0:0:
505,290,177582,1,8,0:0:0:0:
239,306,177718,1,0,0:0:0:0:
358,67,177854,1,2,0:0:0:0:
358,67,177991,1,2,0:0:0:0:
371,374,178127,5,8,0:0:0:0:
232,147,178264,2,0,P|150:143|100:165,1,129.999994049073,8|0,0:0|0:0,0:0:0:0:
472,267,178536,1,2,0:0:0:0:
472,267,178673,2,0,L|498:140,1,129.999994049073,8|0,0:0|0:0,0:0:0:0:
185,229,178945,5,2,0:0:0:0:
469,361,179082,1,2,0:0:0:0:
412,29,179218,2,0,P|359:103|396:233,1,194.999991073609,8|0,0:0|0:0,0:0:0:0:
375,281,179491,38,0,P|304:272|230:298,1,129.999994049073,2|0,0:0|0:0,0:0:0:0:
100,384,179764,1,8,0:0:0:0:
322,371,179900,1,8,0:0:0:0:
174,20,180036,5,2,0:0:0:0:
83,365,180172,1,2,0:0:0:0:
359,136,180308,1,8,0:0:0:0:
3,158,180445,1,8,0:0:0:0:
305,352,180582,1,2,0:0:0:0:
359,136,180854,21,2,0:0:0:0:
360,159,180991,1,2,0:0:0:0:
270,199,181127,5,2,0:0:0:0:
269,176,181264,1,2,0:0:0:0:
181,136,181400,6,0,B|165:205|165:205|197:279,1,150.000005722046
163,253,201309,21,2,0:0:0:0:
46,146,201445,2,0,B|98:104|162:88|162:88|240:118|240:118|252:101|289:88,1,259.999988098145
81,248,201854,38,0,P|127:181|243:223,1,194.999991073609
163,253,202127,5,2,0:0:0:0:
238,372,202264,2,0,B|256:328|233:288|233:288|310:282|335:214|310:142|256:124,1,259.999988098145
162,252,202673,2,0,B|160:302|117:321|117:321|143:322|169:338,1,129.999994049073
332,344,202945,5,0,0:0:0:0:
418,329,203082,1,0,0:0:0:0:
461,259,203218,1,0,0:0:0:0:
375,244,203355,1,0,0:0:0:0:
344,166,203491,6,0,L|327:61,1,89.9999972534181
277,211,203900,1,0,0:0:0:0:
196,73,204036,6,0,L|187:127,1,44.999998626709
128,219,204309,2,0,L|120:174,1,44.999998626709
48,271,204582,6,0,P|40:316|42:328,1,44.999998626709
128,306,204854,1,0,0:0:0:0:
202,259,204991,2,0,P|213:318|199:364,1,89.9999972534181
206,178,205400,2,0,P|250:195|260:206,1,44.999998626709
359,260,205673,38,0,L|308:266,1,44.999998626709
247,192,205945,1,0,0:0:0:0:
376,147,206082,6,0,L|325:153,1,44.999998626709
428,86,206354,2,0,L|479:92,1,44.999998626709
401,16,206627,2,0,L|312:26,1,89.9999972534181
242,86,207036,1,0,0:0:0:0:
126,38,207173,6,0,L|139:81,1,44.999998626709
104,217,207445,2,0,L|91:260,1,44.999998626709
172,170,207718,1,0,0:0:0:0:
177,253,207854,38,0,P|178:280|169:308,1,44.999998626709
261,318,208127,2,0,P|259:340|264:362,1,44.999998626709
360,329,208400,2,0,L|369:251,1,67.4999979400635
420,209,208673,1,0,0:0:0:0:
285,114,208809,6,0,L|292:181,1,67.4999979400635
363,148,209082,2,0,L|371:93,1,44.999998626709
203,134,209354,6,0,L|207:178,1,44.999998626709
136,246,209627,1,0,0:0:0:0:
124,94,209764,2,0,P|164:61|212:55,1,75.0000028610231
32,329,210036,6,2,P|147:359|241:297,1,225.000008583069
268,246,210309,2,8,B|302:270|310:302|310:302|304:342|260:385,1,150.000005722046
207,178,210582,6,0,P|290:160|347:200,1,150.000005722046
376,357,210854,1,8,0:0:0:0:
158,322,210991,38,2,P|134:276|138:224,1,75.0000028610231
267,142,211127,6,0,P|261:179|241:211,1,75.0000028610231
124,92,211264,6,2,B|176:20|242:5|242:5|331:41|349:141,1,300.000011444092,2|8,0:0|0:0,0:0:0:0:
484,264,211673,5,2,0:0:0:0:
467,297,211741,1,0,0:0:0:0:
442,325,211809,1,2,0:0:0:0:
411,345,211877,1,0,0:0:0:0:
375,356,211945,5,8,0:0:0:0:
372,338,212013,1,0,0:0:0:0:
368,319,212082,1,8,0:0:0:0:
365,301,212149,1,0,0:0:0:0:
362,283,212218,6,0,L|266:299,1,75.0000028610231,2|0,0:0|0:0,0:0:0:0:
197,345,212491,1,0,0:0:0:0:
197,244,212627,1,0,0:0:0:0:
101,346,212764,38,0,L|88:266,1,75.0000028610231,0|2,0:0|0:0,0:0:0:0:
209,169,213036,2,0,L|196:243,1,75.0000028610231,8|0,0:0|0:0,0:0:0:0:
59,97,213309,6,0,P|108:85|147:96,1,75.0000028610231,0|2,0:0|0:0,0:0:0:0:
281,161,213582,2,0,P|232:173|193:162,1,75.0000028610231,8|0,0:0|0:0,0:0:0:0:
235,66,213854,1,0,0:0:0:0:
379,80,213991,5,2,0:0:0:0:
425,175,214127,1,8,0:0:0:0:
379,270,214264,1,0,0:0:0:0:
434,173,214400,38,0,P|480:219|488:252,1,75.0000028610231
275,271,214673,2,0,P|291:208|316:184,1,75.0000028610231
404,366,214945,1,2,0:0:0:0:
312,331,215082,1,0,0:0:0:0:
388,268,215218,1,8,0:0:0:0:
413,378,215354,1,0,0:0:0:0:
306,350,215491,6,0,L|132:358,1,150.000005722046,2|8,0:0|0:0,0:0:0:0:
83,305,215900,1,0,0:0:0:0:
98,217,216036,2,0,P|141:234|160:262,1,75.0000028610231
13,249,216309,1,0,0:0:0:0:
31,160,216445,1,0,0:0:0:0:
31,160,216514,1,0,0:0:0:0:
31,160,216582,6,0,L|54:81,1,75.0000028610231
111,28,216854,1,8,0:0:0:0:
174,106,216991,2,0,L|194:178,1,75.0000028610231
288,200,217264,1,2,0:0:0:0:
268,128,217400,1,8,0:0:0:0:
215,181,217536,1,0,0:0:0:0:
281,106,217673,38,0,P|317:95|365:96,1,75.0000028610231,2|0,0:0|0:0,0:0:0:0:
381,210,217945,2,0,P|345:199|297:200,1,75.0000028610231,8|0,0:0|0:0,0:0:0:0:
326,303,218218,1,0,0:0:0:0:
123,290,218354,6,2,B|124:320|124:320|140:345,1,50
194,262,218491,2,0,P|119:213|55:317,1,225.000008583069
123,290,218764,6,0,B|120:210|120:210|77:143,1,150.000005722046
147,319,219309,5,8,0:0:0:0:
199,124,219445,1,8,0:0:0:0:
342,267,219582,1,2,0:0:0:0:
99,273,219718,5,8,0:0:0:0:
257,117,219854,1,8,0:0:0:0:
314,333,219991,1,2,0:0:0:0:
81,207,220127,5,8,0:0:0:0:
113,188,220195,1,0,0:0:0:0:
149,177,220263,1,8,0:0:0:0:
186,174,220331,1,8,0:0:0:0:
223,180,220401,5,2,0:0:0:0:
258,119,220469,1,2,0:0:0:0:
329,88,220537,1,2,0:0:0:0:
401,112,220605,1,0,0:0:0:0:
443,173,220673,6,8,L|384:167,1,50
432,256,220809,2,2,L|491:250,1,50
366,337,220945,6,0,B|291:330|291:330|251:346|251:346|160:336,1,179.999994506836,2|0,0:0|0:0,0:0:0:0:
133,289,221218,2,0,B|165:264|165:264|255:273,1,119.999996337891,8|0,0:0|0:0,0:0:0:0:
470,343,221491,1,2,0:0:0:0:
470,343,221559,1,2,0:0:0:0:
470,343,221627,1,2,0:0:0:0:
512,128,221764,2,0,B|480:103|480:103|390:112,1,119.999996337891,8|0,0:0|0:0,0:0:0:0:
46,245,222036,6,0,P|38:303|57:360,1,119.999996337891,2|2,0:0|0:0,0:0:0:0:
149,177,222309,1,8,0:0:0:0:
276,321,222445,2,0,P|311:207|294:89,1,239.999992675781,2|2,0:0|0:0,0:0:0:0:
25,115,222854,1,8,0:0:0:0:
165,300,222991,1,8,0:0:0:0:
354,35,223127,38,0,B|306:3|306:3|245:19,1,119.999996337891,2|0,0:0|0:0,0:0:0:0:
251,327,223400,1,8,0:0:0:0:
444,92,223536,2,0,B|432:35|432:35|378:4,1,119.999996337891,2|0,0:0|0:0,0:0:0:0:
496,250,223809,2,0,B|527:202|527:202|511:141,1,119.999996337891,2|8,0:0|0:0,0:0:0:0:
350,350,224082,1,0,0:0:0:0:
354,355,224150,1,0,0:0:0:0:
360,359,224218,6,0,P|460:374|515:335,1,119.999996337891,2|2,0:0|0:0,0:0:0:0:
412,195,224491,1,8,0:0:0:0:
271,355,224627,1,2,0:0:0:0:
316,60,224764,6,0,L|340:199,1,119.999996337891,0|2,0:0|0:0,0:0:0:0:
154,374,225036,1,8,0:0:0:0:
48,256,225173,2,0,P|137:224|236:240,1,179.999994506836,2|0,0:0|0:0,0:0:0:0:
276,181,225445,2,0,P|172:152|109:158,1,119.999996337891,2|8,0:0|0:0,0:0:0:0:
154,374,225718,37,0,0:0:0:0:
154,374,225786,1,0,0:0:0:0:
154,374,225854,1,2,0:0:0:0:
102,99,225991,1,2,0:0:0:0:
305,290,226127,1,8,0:0:0:0:
28,257,226264,1,8,0:0:0:0:
273,122,226400,1,2,0:0:0:0:
279,129,226468,1,0,0:0:0:0:
283,134,226536,6,0,L|429:153,1,119.999996337891,0|8,0:0|0:0,0:0:0:0:
421,330,226809,1,0,0:0:0:0:
145,252,226945,1,2,0:0:0:0:
351,51,227082,1,2,0:0:0:0:
272,342,227218,1,8,0:0:0:0:
160,46,227354,1,0,0:0:0:0:
152,49,227423,1,0,0:0:0:0:
145,54,227491,6,0,P|98:124|127:244,1,179.999994506836,6|0,0:0|0:0,0:0:0:0:
145,252,227764,2,0,B|185:201|185:201|179:127,1,119.999996337891,8|0,0:0|0:0,0:0:0:0:
15,34,228036,1,2,0:0:0:0:
19,67,228104,1,0,0:0:0:0:
23,100,228172,1,0,0:0:0:0:
207,233,228309,1,8,0:0:0:0:
512,203,228445,38,0,B|435:189|435:189|372:212|372:212|271:197,1,239.999992675781,2|2,0:0|0:0,0:0:0:0:
364,27,228854,1,8,0:0:0:0:
377,78,228922,1,0,0:0:0:0:
361,129,228990,1,8,0:0:0:0:
177,369,229127,5,2,0:0:0:0:
166,341,229195,1,0,0:0:0:0:
164,311,229263,1,2,0:0:0:0:
170,282,229331,1,0,0:0:0:0:
186,256,229400,5,8,0:0:0:0:
198,198,229469,1,8,0:0:0:0:
180,141,229537,1,8,0:0:0:0:
135,102,229605,1,0,0:0:0:0:
77,92,229673,38,0,B|69:135|69:135|82:171|82:171|73:229,1,119.999996337891,2|0,0:0|0:0,0:0:0:0:
177,369,229945,1,8,0:0:0:0:
269,153,230082,1,0,0:0:0:0:
269,153,230150,1,0,0:0:0:0:
269,153,230218,2,2,P|349:133|392:142,1,119.999996337891
265,310,230491,1,8,0:0:0:0:
234,52,230627,1,0,0:0:0:0:
472,154,230764,6,0,B|486:197|486:197|465:290,1,119.999996337891,2|0,0:0|0:0,0:0:0:0:
174,190,231037,1,8,0:0:0:0:
382,34,231173,1,0,0:0:0:0:
248,340,231309,5,2,0:0:0:0:
210,30,231445,1,2,0:0:0:0:
422,258,231582,37,8,0:0:0:0:
117,200,231718,1,8,0:0:0:0:
400,68,231854,6,0,B|414:128|414:128|376:201,1,119.999996337891,2|0,0:0|0:0,0:0:0:0:
210,30,232127,2,0,B|271:35|271:35|329:93,1,119.999996337891,8|0,0:0|0:0,0:0:0:0:
186,355,232400,1,2,0:0:0:0:
134,93,232536,1,2,0:0:0:0:
387,179,232673,1,8,0:0:0:0:
0,234,232809,1,0,0:0:0:0:
0,234,232877,1,0,0:0:0:0:
0,234,232945,6,0,P|67:202|141:204,1,119.999996337891,2|2,0:0|0:0,0:0:0:0:
280,340,233218,1,8,0:0:0:0:
506,117,233354,2,0,P|407:74|268:118,1,239.999992675781,2|2,0:0|0:0,0:0:0:0:
491,364,233764,2,0,L|515:229,1,119.999996337891,8|8,0:0|0:0,0:0:0:0:
122,307,234036,38,2,L|226:395,1,119.999996337891
396,73,234309,1,8,0:0:0:0:
66,218,234445,1,8,0:0:0:0:
418,294,234582,6,0,P|432:220|409:164,1,119.999996337891,2|2,0:0|0:0,0:0:0:0:
178,26,234854,1,8,0:0:0:0:
213,384,234990,1,8,0:0:0:0:
224,366,235059,1,8,0:0:0:0:
234,350,235127,6,0,L|257:203,1,119.999996337891,2|0,0:0|0:0,0:0:0:0:
178,26,235400,1,8,0:0:0:0:
73,284,235536,1,8,0:0:0:0:
349,246,235673,37,2,0:0:0:0:
51,124,235808,1,2,0:0:0:0:
221,344,235945,1,8,0:0:0:0:
327,86,236082,1,8,0:0:0:0:
337,76,236150,1,8,0:0:0:0:
348,67,236218,6,2,P|422:50|480:78,1,119.999996337891
362,339,236491,1,8,0:0:0:0:
318,330,236559,1,0,0:0:0:0:
282,303,236627,1,8,0:0:0:0:
261,264,236695,1,0,0:0:0:0:
260,219,236763,5,2,0:0:0:0:
512,283,236900,1,2,0:0:0:0:
461,64,237036,1,8,0:0:0:0:
90,169,237174,38,0,B|130:141|130:141|255:162,1,119.999996337891,12|0,0:0|0:0,0:0:0:0:
258,367,237445,1,0,0:0:0:0:
216,359,237513,1,0,0:0:0:0:
175,352,237582,2,0,L|236:336,1,59.9999981689454,8|0,0:0|0:0,0:0:0:0:
348,238,237718,5,0,0:0:0:0:
315,210,237786,1,0,0:0:0:0:
283,183,237855,2,0,L|343:199,1,59.9999981689454,8|8,0:0|0:0,0:0:0:0:
490,171,237991,1,8,0:0:0:0:
475,130,238058,1,0,0:0:0:0:
461,91,238127,5,8,0:0:0:0:
418,131,238195,1,0,0:0:0:0:
409,189,238263,1,8,0:0:0:0:
437,241,238331,1,8,0:0:0:0:
490,265,238400,38,0,B|469:292|435:290|435:290|377:353|292:326,1,202.500000772476,2|0,0:0|0:0,0:0:0:0:
258,273,238673,2,8,P|175:263|113:277,1,135.000000514984
344,125,238945,2,2,P|311:48|268:1,1,135.000000514984
97,160,239218,1,8,0:0:0:0:
97,160,239354,1,8,0:0:0:0:
267,373,239491,6,0,P|258:264|311:175,1,202.500000772476,2|0,0:0|0:0,0:0:0:0:
365,219,239764,2,0,B|369:289|369:289|331:348,1,135.000000514984,8|0,0:0|0:0,0:0:0:0:
92,364,240036,1,2,0:0:0:0:
232,129,240173,1,2,0:0:0:0:
29,8,240308,1,8,0:0:0:0:
162,246,240445,1,8,0:0:0:0:
368,131,240582,6,0,P|299:24|205:2,1,202.500000772476
183,62,240854,38,0,B|153:81|142:132|162:171|162:171|104:170|86:238,1,202.500000772476,8|0,0:0|0:0,0:0:0:0:
162,246,241127,6,2,B|258:207|258:207|415:249,1,202.500000772476,2|0,0:0|0:0,0:0:0:0:
304,310,241400,6,2,B|243:293|243:293|176:321,1,135.000000514984,10|8,0:0|0:0,0:0:0:0:
392,365,241673,37,2,0:0:0:0:
151,225,241809,1,2,0:0:0:0:
428,196,241945,1,8,0:0:0:0:
221,383,242082,1,0,0:0:0:0:
278,109,242218,2,2,L|430:87,1,135.000000514984
349,304,242491,5,8,0:0:0:0:
118,220,242627,1,0,0:0:0:0:
85,215,242695,1,0,0:0:0:0:
52,210,242764,6,0,B|122:199|122:199|192:242,1,135.000000514984
440,79,243036,2,0,B|333:62|333:62|227:127,1,202.500000772476,8|0,0:0|0:0,0:0:0:0:
293,171,243309,2,2,P|379:171|430:137,1,135.000000514984
142,43,243582,1,8,0:0:0:0:
101,290,243718,1,8,0:0:0:0:
338,63,243855,37,2,0:0:0:0:
379,310,243991,1,2,0:0:0:0:
144,222,244127,1,8,0:0:0:0:
429,174,244264,1,0,0:0:0:0:
429,174,244332,1,0,0:0:0:0:
429,174,244400,2,0,P|494:250|502:328,1,135.000000514984,2|0,0:0|0:0,0:0:0:0:
338,63,244673,5,8,0:0:0:0:
236,334,244810,1,0,0:0:0:0:
236,334,244878,1,0,0:0:0:0:
236,334,244946,2,0,P|138:352|67:320,1,135.000000514984,2|2,0:0|0:0,0:0:0:0:
229,67,245218,1,8,0:0:0:0:
306,379,245354,1,0,0:0:0:0:
441,80,245491,5,2,0:0:0:0:
435,127,245559,1,2,0:0:0:0:
429,174,245627,1,2,0:0:0:0:
52,243,245764,1,8,0:0:0:0:
150,24,245900,37,0,0:0:0:0:
236,334,246036,2,2,L|260:194,1,135.000000514984
0,13,246309,2,0,L|22:146,1,135.000000514984,8|8,0:0|0:0,0:0:0:0:
162,384,246582,1,2,0:0:0:0:
251,75,246718,1,2,0:0:0:0:
31,322,246854,5,8,0:0:0:0:
77,273,246922,1,0,0:0:0:0:
140,253,246990,1,8,0:0:0:0:
206,264,247058,1,8,0:0:0:0:
259,306,247127,22,0,L|412:281,1,125,2|0,0:0|0:0,0:0:0:0:
494,189,247400,1,8,0:0:0:0:
241,191,247536,2,0,L|118:170,1,62.5
116,137,247673,2,2,B|166:105|166:105|291:128,1,125
140,351,247945,1,8,0:0:0:0:
314,221,248082,6,0,L|436:200,1,62.5,8|0,0:0|0:0,0:0:0:0:
439,167,248218,2,0,B|389:135|389:135|264:158,1,125,2|0,0:0|0:0,0:0:0:0:
375,337,248491,1,8,0:0:0:0:
488,110,248627,2,0,B|408:57|408:57|244:90,1,250,8|2,0:0|0:0,0:0:0:0:
260,316,249036,2,8,B|310:348|310:348|435:325,1,125
209,249,249309,6,0,P|148:236|88:252,1,125,2|0,0:0|0:0,0:0:0:0:
154,374,249582,1,8,0:0:0:0:
289,243,249718,2,0,P|279:210|262:186,1,62.5
191,166,249854,2,2,P|86:172|26:208,1,125
10,33,250127,2,0,P|125:39|191:79,1,187.5,8|0,0:0|0:0,0:0:0:0:
255,87,250400,38,0,B|319:65|319:65|397:91,1,125,2|0,0:0|0:0,0:0:0:0:
461,239,250673,1,8,0:0:0:0:
343,373,250809,2,2,P|288:242|332:122,1,250,8|2,0:0|0:0,0:0:0:0:
488,176,251218,2,0,B|510:240|510:240|484:318,1,125,8|8,0:0|0:0,0:0:0:0:
240,354,251491,6,0,P|217:275|230:161,1,187.5,2|0,0:0|0:0,0:0:0:0:
236,94,251764,2,0,B|176:85|176:85|86:112,1,125,8|0,0:0|0:0,0:0:0:0:
0,313,252036,6,0,P|92:323|182:299,1,187.5,2|0,0:0|0:0,0:0:0:0:
216,234,252309,2,0,B|156:225|156:225|66:252,1,125,8|0,0:0|0:0,0:0:0:0:
368,346,252582,38,0,P|403:258|389:208,1,125,2|0,0:0|0:0,0:0:0:0:
344,28,252854,2,0,P|327:97|337:131,1,62.5,8|0,0:0|0:0,0:0:0:0:
300,161,252991,2,0,P|212:126|162:140,1,125,8|0,0:0|0:0,0:0:0:0:
241,354,253264,1,0,0:0:0:0:
465,167,253400,6,0,P|396:150|362:160,1,62.5,8|0,0:0|0:0,0:0:0:0:
339,248,253536,2,0,P|408:231|442:241,1,62.5
300,161,253673,6,0,P|229:126|88:211,1,250,2|8,0:0|0:0,0:0:0:0:
34,339,254082,2,0,P|50:267|30:232,1,62.5
10,218,254218,2,0,B|-6:191|-6:191|16:66,1,125,2|0,0:0|0:0,0:0:0:0:
206,230,254491,2,0,B|222:257|222:257|200:382,1,125,8|2,0:0|0:0,0:0:0:0:
91,202,254764,5,0,0:0:0:0:
300,161,254900,1,2,0:0:0:0:
81,120,255036,5,8,0:0:0:0:
334,232,255172,1,8,0:0:0:0:
134,42,255309,37,10,0:0:0:0:
305,326,255445,1,2,0:0:0:0:
0,198,255582,1,8,0:0:0:0:
323,123,255718,6,8,P|258:155|242:188,1,62.5
106,373,255854,2,2,P|173:297|312:332,1,250,2|8,0:0|0:0,0:0:0:0:
174,188,256264,1,0,0:0:0:0:
218,384,256400,1,2,0:0:0:0:
284,50,256536,1,0,0:0:0:0:
284,50,256604,1,0,0:0:0:0:
284,50,256673,1,8,0:0:0:0:
34,281,256809,6,0,P|16:188|22:173,1,62.5
379,0,256945,2,0,B|365:95|365:95|390:164|390:164|376:243,1,250,2|8,0:0|0:0,0:0:0:0:
143,107,257354,1,0,0:0:0:0:
457,86,257491,1,0,0:0:0:0:
457,86,257559,1,0,0:0:0:0:
457,86,257627,1,0,0:0:0:0:
128,256,257764,1,8,0:0:0:0:
485,181,257900,38,0,L|464:288,1,62.5,8|8,0:0|0:0,0:0:0:0:
45,234,258036,2,0,P|181:197|205:284,1,250,2|8,0:0|0:0,0:0:0:0:
20,366,258445,1,0,0:0:0:0:
92,76,258582,1,2,0:0:0:0:
307,283,258718,1,0,0:0:0:0:
307,283,258786,1,0,0:0:0:0:
307,283,258854,1,8,0:0:0:0:
12,132,258991,6,0,P|1:62|10:39,1,62.5,8|8,0:0|0:0,0:0:0:0:
335,46,259127,2,0,B|360:159|360:159|303:291,1,250,2|8,0:0|0:0,0:0:0:0:
92,76,259536,1,0,0:0:0:0:
423,70,259673,1,2,0:0:0:0:
263,359,259809,1,0,0:0:0:0:
263,359,259877,1,0,0:0:0:0:
263,359,259945,1,8,0:0:0:0:
277,67,260082,6,0,P|336:45|379:52,1,62.5,8|8,0:0|0:0,0:0:0:0:
416,307,260218,2,0,B|450:228|450:228|443:155|443:155|478:71,1,250,2|8,0:0|0:0,0:0:0:0:
500,354,260627,1,0,0:0:0:0:
276,199,260764,1,2,0:0:0:0:
276,199,260832,1,0,0:0:0:0:
276,199,260900,1,2,0:0:0:0:
99,349,261036,1,8,0:0:0:0:
21,99,261173,38,0,B|14:134|14:134|33:192,1,62.5,8|8,0:0|0:0,0:0:0:0:
212,342,261309,2,0,P|191:280|17:250,1,250,2|8,0:0|0:0,0:0:0:0:
182,136,261718,1,0,0:0:0:0:
311,359,261854,1,2,0:0:0:0:
53,359,261991,1,0,0:0:0:0:
53,359,262059,1,0,0:0:0:0:
53,359,262127,1,8,0:0:0:0:
201,41,262264,6,8,P|259:79|267:99,1,62.5
311,359,262400,2,0,B|367:317|367:317|345:131,1,250,2|8,0:0|0:0,0:0:0:0:
127,293,262809,1,0,0:0:0:0:
465,341,262945,1,2,0:0:0:0:
465,341,263014,1,0,0:0:0:0:
465,341,263082,1,2,0:0:0:0:
246,145,263218,1,8,0:0:0:0:
64,355,263354,6,8,P|40:294|56:259,1,62.5
285,36,263491,2,0,P|333:88|281:267,1,250,2|8,0:0|0:0,0:0:0:0:
65,105,263900,1,0,0:0:0:0:
420,45,264036,1,2,0:0:0:0:
294,382,264173,1,2,0:0:0:0:
25,193,264309,1,8,0:0:0:0:
71,186,264377,1,0,0:0:0:0:
117,180,264445,1,8,0:0:0:0:
164,174,264514,1,8,0:0:0:0:
210,168,264582,38,2,L|191:314,1,125
77,44,264854,1,8,0:0:0:0:
177,375,264991,1,8,0:0:0:0:
290,48,265127,1,2,0:0:0:0:
290,48,265195,1,2,0:0:0:0:
290,48,265264,1,2,0:0:0:0:
6,245,265400,1,8,0:0:0:0:
352,251,265536,6,8,P|383:174|382:162,1,62.5
142,299,265673,2,0,B|227:300|227:300|290:338|290:338|381:341,1,250,2|8,0:0|0:0,0:0:0:0:
231,99,266082,1,0,0:0:0:0:
60,366,266218,6,2,B|40:302|40:302|67:204,1,125
305,26,266491,2,0,B|325:90|325:90|298:188,1,125,8|0,0:0|0:0,0:0:0:0:
49,97,266764,5,2,0:0:0:0:
49,97,266900,1,2,0:0:0:0:
418,39,267036,5,8,0:0:0:0:
424,51,267173,1,8,0:0:0:0:
134,186,267309,5,2,0:0:0:0:
122,210,267446,1,2,0:0:0:0:
381,242,267582,5,8,0:0:0:0:
403,287,267719,1,8,0:0:0:0:
83,130,267854,5,2,0:0:0:0:
45,208,267991,1,2,0:0:0:0:
421,161,268127,5,8,0:0:0:0:
497,317,268264,1,8,0:0:0:0:
250,82,268400,5,2,0:0:0:0:
118,351,268537,1,2,0:0:0:0:
270,363,268673,5,8,0:0:0:0:
207,6,268810,1,8,0:0:0:0:
27,344,268945,5,8,0:0:0:0:
379,156,269082,1,0,0:0:0:0:
41,82,269218,5,8,0:0:0:0:
353,384,269355,1,8,0:0:0:0:
439,62,269491,1,2,0:0:0:0:
377,52,269559,1,0,0:0:0:0:
320,75,269627,1,8,0:0:0:0:
281,123,269695,1,0,0:0:0:0:
272,184,269764,2,8,P|349:191|358:188,1,62.5,8|0,0:0|0:0,0:0:0:0:
242,256,269900,2,0,P|165:262|156:259,1,62.5,8|8,0:0|0:0,0:0:0:0:
189,141,270036,37,2,0:0:0:0:
66,338,270717,37,2,0:0:0:0:
6,160,270854,1,10,0:0:0:0:
115,267,271127,6,0,P|147:335|139:369,1,100
23,268,271400,1,0,0:0:0:0:
86,188,271536,2,0,P|160:194|186:218,1,100
252,328,271809,6,0,L|270:222,1,100
433,82,272218,2,0,L|416:180,1,100
115,267,272491,5,0,0:0:0:0:
