osu file format v14

[General]
AudioFilename: audio.mp3
AudioLeadIn: 0
PreviewTime: 153756
Countdown: 0
SampleSet: Soft
StackLeniency: 0.2
Mode: 0
LetterboxInBreaks: 0
WidescreenStoryboard: 0

[Editor]
Bookmarks: 32196,63156,78516,93636,108996,139956,147636,155316,170436,185796,220596,251316,260916,267156,282036,284916,289716,320436
DistanceSpacing: 0.4
BeatDivisor: 4
GridSize: 8
TimelineZoom: 2.799999

[Metadata]
Title:Flower And Badger Game
TitleUnicode:花人局
Artist:Yorushika
ArtistUnicode:ヨルシカ
Creator:MrPotato
Version:Remembrance
Source:
Tags:ナブナ nbuna n-buna スイ suis plagiarism 盗作 hanamotase japanese rock pop
BeatmapID:2573589
BeatmapSetID:1237860

[Difficulty]
HPDrainRate:4.3
CircleSize:4.2
OverallDifficulty:8
ApproachRate:8
SliderMultiplier:1.4
SliderTickRate:1

[Events]
//Background and Video events
0,0,"83727031_p0.jpg",0,0
//Break Periods
2,216138,218436
2,285116,288966
//Storyboard Layer 0 (Background)
//Storyboard Layer 1 (Fail)
//Storyboard Layer 2 (Pass)
//Storyboard Layer 3 (Foreground)
//Storyboard Layer 4 (Overlay)
//Storyboard Sound Samples

[TimingPoints]
1716,480,4,2,1,100,1,0
1716,-86.9565217391304,4,2,1,50,0,0
8676,-86.9565217391304,4,2,2,50,0,0
8716,-86.9565217391304,4,2,1,50,0,0
9396,-111.111111111111,4,2,1,30,0,0
11316,-74.0740740740741,4,2,1,50,0,0
11676,-74.0740740740741,4,2,1,5,0,0
11796,-74.0740740740741,4,2,1,50,0,0
16356,-74.0740740740741,4,3,0,50,0,0
16836,-74.0740740740741,4,2,1,50,0,0
18996,-86.9565217391304,4,2,1,50,0,0
20676,-74.0740740740741,4,2,1,50,0,0
23316,-86.9565217391304,4,2,1,50,0,0
24036,-86.9565217391304,4,2,2,50,0,0
24276,-86.9565217391304,4,2,1,50,0,0
24516,-74.0740740740741,4,2,1,50,0,0
25236,-86.9565217391304,4,2,1,50,0,0
28356,-74.0740740740741,4,2,1,50,0,0
30516,-86.9565217391304,4,2,1,50,0,0
32196,-74.0740740740741,4,2,1,50,0,0
32916,-90.9090909090909,4,2,1,40,0,0
47076,-90.9090909090909,4,2,2,40,0,0
47316,-90.9090909090909,4,2,1,40,0,0
62796,-90.9090909090909,4,2,2,40,0,0
63156,-90.9090909090909,4,2,1,40,0,0
74916,-90.9090909090909,4,2,2,40,0,0
75156,-90.9090909090909,4,2,1,40,0,0
75276,-90.9090909090909,4,2,2,40,0,0
75396,-90.9090909090909,4,2,1,40,0,0
76356,-74.0740740740741,4,2,1,50,0,0
76716,-74.0740740740741,4,2,1,5,0,0
76836,-74.0740740740741,4,2,1,50,0,0
78516,-68.9655172413793,4,2,1,55,0,1
88356,-68.9655172413793,4,2,2,55,0,1
88596,-68.9655172413793,4,2,1,55,0,1
93156,-68.9655172413793,4,2,2,55,0,1
93636,-74.0740740740741,4,2,1,50,0,0
94356,-86.9565217391304,4,2,1,50,0,0
97476,-74.0740740740741,4,2,1,50,0,0
97716,-86.9565217391304,4,2,1,50,0,0
100836,-86.9565217391304,4,2,2,50,0,0
101076,-86.9565217391304,4,2,1,50,0,0
101316,-74.0740740740741,4,2,1,50,0,0
103476,-86.9565217391304,4,2,1,50,0,0
105156,-74.0740740740741,4,2,1,50,0,0
107316,-86.9565217391304,4,2,1,50,0,0
108996,-74.0740740740741,4,2,1,50,0,0
109716,-90.9090909090909,4,2,1,40,0,0
123876,-90.9090909090909,4,2,0,40,0,0
124116,-90.9090909090909,4,2,1,40,0,0
124356,-74.0740740740741,4,2,1,40,0,0
125076,-90.9090909090909,4,2,1,40,0,0
132036,-74.0740740740741,4,2,1,40,0,0
132516,-90.9090909090909,4,2,1,40,0,0
135876,-111.111111111111,4,2,1,30,0,0
136596,-111.111111111111,4,3,0,30,0,0
139236,-111.111111111111,4,3,1,30,0,0
139476,-83.3333333333333,4,2,2,40,0,0
139956,-83.3333333333333,4,2,1,40,0,0
140316,-83.3333333333333,4,2,2,40,0,0
140436,-83.3333333333333,4,2,1,40,0,0
140676,-83.3333333333333,4,2,2,40,0,0
141396,-83.3333333333333,4,2,1,40,0,0
142236,-83.3333333333333,4,2,2,40,0,0
143316,-83.3333333333333,4,2,1,40,0,0
144156,-83.3333333333333,4,2,2,40,0,0
145236,-83.3333333333333,4,2,1,40,0,0
146076,-83.3333333333333,4,2,2,40,0,0
146436,-83.3333333333333,4,2,1,40,0,0
147636,-74.0740740740741,4,2,1,50,0,0
147996,-74.0740740740741,4,2,1,5,0,0
148116,-90.9090909090909,4,2,1,50,0,0
149316,-90.9090909090909,4,2,1,30,0,0
150276,-90.9090909090909,4,2,1,40,0,0
150996,-90.9090909090909,4,2,1,50,0,0
151476,-90.9090909090909,4,2,1,25,0,0
151956,-90.9090909090909,4,2,1,40,0,0
152436,-90.9090909090909,4,2,1,45,0,0
153156,-74.0740740740741,4,2,1,50,0,0
154356,-142.857142857143,4,2,1,25,0,0
155316,-68.9655172413793,4,2,1,55,0,1
165156,-68.9655172413793,4,2,2,55,0,1
165396,-68.9655172413793,4,2,1,55,0,1
169956,-68.9655172413793,4,2,0,55,0,1
170436,-74.0740740740741,4,2,1,50,0,0
171156,-86.9565217391304,4,2,1,50,0,0
174276,-74.0740740740741,4,2,1,50,0,0
174996,-86.9565217391304,4,2,1,50,0,0
177636,-86.9565217391304,4,2,2,50,0,0
177876,-86.9565217391304,4,2,1,50,0,0
178116,-74.0740740740741,4,2,1,50,0,0
178836,-86.9565217391304,4,2,1,50,0,0
181956,-74.0740740740741,4,2,1,50,0,0
182676,-86.9565217391304,4,2,1,50,0,0
185796,-74.0740740740741,4,2,1,45,0,0
186516,-83.3333333333333,4,2,1,45,0,0
192996,-83.3333333333333,4,2,2,45,0,0
193236,-83.3333333333333,4,2,1,45,0,0
193476,-74.0740740740741,4,2,1,45,0,0
194196,-83.3333333333333,4,2,1,45,0,0
201156,-74.0740740740741,4,2,1,45,0,0
201876,-83.3333333333333,4,2,1,45,0,0
208356,-83.3333333333333,4,2,2,45,0,0
208596,-83.3333333333333,4,2,1,45,0,0
212676,-111.111111111111,4,2,1,30,0,0
215698,480,4,2,1,15,1,0
216756,480,4,2,1,50,1,0
220596,480,4,2,1,50,1,0
220596,-68.9655172413793,4,2,1,50,0,0
221316,-74.0740740740741,4,2,1,50,0,0
228276,-68.9655172413793,4,2,1,50,0,0
228996,-74.0740740740741,4,2,1,50,0,0
235956,-68.9655172413793,4,2,1,50,0,0
236676,-74.0740740740741,4,2,1,50,0,0
243636,-68.9655172413793,4,2,1,50,0,0
245076,-74.0740740740741,4,2,1,50,0,0
251076,-74.0740740740741,4,2,2,50,0,0
251316,-105.263157894737,4,2,1,35,0,0
251796,-105.263157894737,4,2,2,35,0,0
258996,-125,4,2,1,30,0,0
260916,-74.0740740740741,4,2,1,50,0,0
267156,-66.6666666666667,4,2,1,55,0,1
274356,-62.5,4,2,1,55,0,1
276276,-57.1428571428571,4,2,1,55,0,1
278196,-62.5,4,2,1,55,0,1
282036,-125,4,2,1,25,0,0
289716,-68.9655172413793,4,2,1,50,0,0
291156,-74.0740740740741,4,2,1,50,0,0
297396,-68.9655172413793,4,2,1,50,0,0
298116,-74.0740740740741,4,2,1,50,0,0
304716,-74.0740740740741,4,2,2,50,0,0
305076,-68.9655172413793,4,2,1,50,0,0
305796,-80,4,2,1,45,0,0
313476,-90.9090909090909,4,2,1,40,0,0
314676,-100,4,2,1,30,0,0
316596,-111.111111111111,4,2,1,22,0,0
318516,-111.111111111111,4,2,1,15,0,0
322356,-111.111111111111,4,2,1,10,0,0
324276,-111.111111111111,4,2,1,5,0,0

[Colours]
Combo1 : 119,60,145
Combo2 : 255,202,17
Combo3 : 40,193,48
Combo4 : 255,218,70
Combo5 : 43,115,34

[HitObjects]
87,242,1716,5,6,3:1:0:0:
87,242,1956,1,0,3:0:0:0:
189,123,2196,2,0,P|148:124|112:140,1,80.5000015354157,8|2,0:0|0:0,0:0:0:0:
316,322,2676,5,2,3:2:0:0:
316,322,2916,1,0,3:0:0:0:
214,203,3156,2,0,P|256:204|295:221,1,80.5000015354157,10|2,0:0|0:0,0:0:0:0:
180,321,3636,5,2,3:2:0:0:
214,203,3876,1,2,3:2:0:0:
280,286,4116,1,10,0:2:0:0:
113,239,4356,1,2,0:2:0:0:
12,371,4596,5,0,3:0:0:0:
12,371,4836,1,0,3:0:0:0:
33,208,5076,2,0,L|42:306,1,80.5000015354157,10|2,0:2|0:2,0:0:0:0:
219,149,5556,5,2,3:2:0:0:
112,167,5796,1,2,3:2:0:0:
132,273,6036,1,10,0:2:0:0:
237,253,6276,1,2,0:2:0:0:
385,384,6516,5,0,3:0:0:0:
385,384,6756,1,2,3:2:0:0:
460,249,6996,2,0,B|472:286|472:286|469:333,1,80.5000015354157,8|2,0:0|0:2,0:0:0:0:
250,304,7476,5,0,3:0:0:0:
250,304,7716,1,2,3:2:0:0:
175,169,7956,2,0,B|163:206|163:206|166:253,1,80.5000015354157,10|2,0:2|0:2,0:0:0:0:
323,189,8436,5,2,3:2:0:0:
175,169,8676,1,8,0:3:0:0:
269,26,8916,1,8,0:0:0:0:
270,52,9036,1,8,0:0:0:0:
271,78,9156,1,0,0:0:0:0:
112,35,9396,5,2,3:2:0:0:
112,35,9636,1,2,3:2:0:0:
62,107,9876,2,0,L|71:191,1,62.9999980773926,2|0,0:2|0:0,0:0:0:0:
64,191,10236,1,0,0:0:0:0:
63,194,10356,1,2,3:2:0:0:
128,267,10596,1,0,3:0:0:0:
50,342,10836,1,2,0:2:0:0:
135,261,11076,1,2,0:2:0:0:
240,352,11316,6,0,P|296:332|369:368,1,141.750000540733,6|0,3:1|0:0,0:0:0:0:
366,365,11796,6,0,L|361:222,1,141.750000540733,6|0,3:1|0:0,0:0:0:0:
358,139,12276,5,4,3:2:0:0:
358,139,12516,1,4,3:2:0:0:
258,260,12756,1,10,0:2:0:0:
232,253,12876,1,8,3:2:0:0:
207,246,12996,1,2,3:2:0:0:
94,333,13236,5,6,3:2:0:0:
94,333,13476,1,2,3:2:0:0:
37,254,13716,1,10,0:2:0:0:
116,197,13956,1,2,0:2:0:0:
51,63,14196,5,0,3:0:0:0:
51,63,14436,1,2,3:2:0:0:
185,127,14676,1,10,0:2:0:0:
300,0,14916,6,0,L|319:193,1,189.000000720978,6|2,3:1|3:2,0:0:0:0:
406,114,15636,5,10,0:2:0:0:
384,240,15876,1,0,3:0:0:0:
313,315,16116,5,10,0:2:0:0:
288,205,16356,1,8,0:3:0:0:
216,279,16596,1,4,0:3:0:0:
383,240,16836,6,0,P|459:283|428:364,1,189.000000720978,6|0,0:1|3:0,0:0:0:0:
286,202,17556,1,8,0:0:0:0:
286,202,17796,1,0,0:2:0:0:
313,315,18036,5,2,3:2:0:0:
174,272,18276,1,2,3:2:0:0:
102,384,18516,5,10,0:2:0:0:
201,353,18756,1,2,0:2:0:0:
106,216,18996,6,0,L|109:121,1,80.5000015354157,0|2,3:0|3:2,0:0:0:0:
228,29,19476,2,0,L|230:111,1,80.5000015354157,10|2,0:2|0:2,0:0:0:0:
308,255,19956,1,0,3:0:0:0:
342,147,20196,1,2,3:2:0:0:
226,171,20436,5,10,0:2:0:0:
423,230,20676,2,0,P|461:180|494:145,1,94.5000003604889,6|0,3:2|0:0,0:0:0:0:
342,147,21156,5,2,3:2:0:0:
383,315,21396,1,8,0:0:0:0:
383,315,21636,1,0,0:0:0:0:
216,228,21876,5,2,3:2:0:0:
197,344,22116,1,2,3:2:0:0:
313,363,22356,1,10,0:2:0:0:
332,247,22596,1,2,0:2:0:0:
466,383,22836,5,0,3:0:0:0:
466,383,23076,1,2,3:2:0:0:
411,227,23316,2,0,P|411:279|396:328,1,80.5000015354157,10|2,0:2|0:2,0:0:0:0:
468,125,23796,1,8,0:0:0:0:
314,247,24036,1,10,0:3:0:0:
278,237,24156,1,8,0:3:0:0:
244,227,24276,1,10,3:2:0:0:
116,380,24516,6,0,B|114:287|114:287|118:283|118:283|115:181,1,189.000000720978,6|2,3:1|3:2,0:0:0:0:
12,104,25236,2,0,P|50:84|91:77,1,80.5000015354157,8|0,0:0|0:0,0:0:0:0:
321,88,25716,5,2,3:2:0:0:
215,0,25956,1,2,3:2:0:0:
322,196,26196,5,10,0:2:0:0:
408,137,26436,1,2,0:2:0:0:
352,287,26676,6,0,P|298:280|252:282,1,80.5000015354157,0|2,3:0|3:2,0:0:0:0:
134,207,27156,2,0,P|174:206|213:200,1,80.5000015354157,10|2,0:2|0:2,0:0:0:0:
271,73,27636,5,0,3:0:0:0:
371,125,27876,1,2,3:2:0:0:
494,27,28116,5,10,0:2:0:0:
464,199,28356,2,0,P|467:256|477:305,1,94.5000003604889,6|0,3:2|0:0,0:0:0:0:
371,125,28836,5,2,3:2:0:0:
304,199,29076,1,10,0:2:0:0:
237,125,29316,1,2,0:2:0:0:
176,266,29556,5,0,3:0:0:0:
176,266,29796,1,2,3:2:0:0:
112,185,30036,1,10,0:2:0:0:
99,312,30276,1,2,0:2:0:0:
262,332,30516,6,0,L|360:320,1,80.5000015354157,0|0,3:0|3:0,0:0:0:0:
402,182,30996,1,10,0:2:0:0:
451,340,31236,1,0,3:0:0:0:
497,174,31476,5,8,0:0:0:0:
332,232,31716,1,0,3:0:0:0:
297,226,31836,1,8,0:0:0:0:
264,220,31956,1,10,0:2:0:0:
105,362,32196,6,0,B|123:266|123:266|72:186,1,189.000000720978,6|2,3:1|3:2,0:0:0:0:
202,298,32916,2,0,L|305:303,1,77.0000023498536,10|0,0:2|0:0,0:0:0:0:
403,277,33396,1,2,3:2:0:0:
384,366,33636,1,2,3:2:0:0:
470,338,33876,1,10,0:2:0:0:
316,305,34116,1,2,0:2:0:0:
423,189,34356,5,0,3:0:0:0:
423,189,34596,1,2,3:2:0:0:
247,227,34836,2,0,P|287:227|350:238,1,77.0000023498536,10|2,0:2|0:2,0:0:0:0:
404,278,35316,1,0,3:0:0:0:
404,278,35436,1,0,3:0:0:0:
404,278,35556,1,2,3:2:0:0:
345,153,35796,1,10,0:2:0:0:
237,300,36036,6,0,B|141:322|167:267|71:293,1,154.000004699707,6|2,3:2|3:2,0:0:0:0:
206,116,36756,2,0,L|199:193,1,77.0000023498536,10|2,0:2|0:2,0:0:0:0:
102,90,37236,1,0,3:0:0:0:
102,90,37476,1,2,3:2:0:0:
109,205,37716,1,10,0:2:0:0:
14,250,37956,1,2,0:2:0:0:
126,363,38196,5,0,3:0:0:0:
126,363,38436,1,2,3:2:0:0:
231,226,38676,5,10,0:0:0:0:
253,362,38916,1,2,0:0:0:0:
131,178,39156,5,10,0:2:0:0:
202,117,39396,1,0,0:0:0:0:
202,117,39516,1,0,0:0:0:0:
202,117,39636,1,8,0:0:0:0:
351,245,39876,6,0,L|364:72,1,154.000004699707,4|2,3:2|3:2,0:0:0:0:
447,228,40596,2,0,L|454:133,1,77.0000023498536,10|0,0:2|0:0,0:0:0:0:
351,245,41076,1,2,3:2:0:0:
447,228,41316,1,2,3:2:0:0:
409,327,41556,1,10,0:2:0:0:
455,210,41796,1,2,0:2:0:0:
291,99,42036,5,0,3:0:0:0:
291,99,42276,1,2,3:2:0:0:
218,234,42516,2,0,P|221:189|222:144,1,77.0000023498536,10|2,0:2|0:2,0:0:0:0:
63,184,42996,1,0,3:0:0:0:
151,138,43236,1,2,3:2:0:0:
135,235,43476,1,10,0:2:0:0:
59,34,43716,6,0,B|46:85|46:85|65:193,1,154.000004699707,6|2,3:2|3:2,0:0:0:0:
222,157,44436,2,0,P|191:134|155:119,1,77.0000023498536,10|2,0:2|0:2,0:0:0:0:
278,69,44916,1,0,3:0:0:0:
278,69,45156,1,2,3:2:0:0:
303,181,45396,1,10,0:2:0:0:
416,148,45636,1,2,0:2:0:0:
342,309,45876,5,0,3:0:0:0:
342,309,46116,1,2,3:2:0:0:
302,186,46356,5,8,0:0:0:0:
262,323,46596,1,0,3:0:0:0:
146,259,46836,5,8,0:0:0:0:
185,384,47076,1,8,0:3:0:0:
166,377,47196,1,8,0:3:0:0:
147,370,47316,1,8,0:0:0:0:
340,307,47556,6,0,P|404:277|448:333,1,154.000004699707,4|2,3:2|3:2,0:0:0:0:
307,212,48276,2,0,L|311:114,1,77.0000023498536,10|0,0:2|0:0,0:0:0:0:
210,188,48756,1,2,3:2:0:0:
164,97,48996,1,2,3:2:0:0:
92,195,49236,1,10,0:2:0:0:
4,105,49476,1,2,0:2:0:0:
96,273,49716,5,0,3:0:0:0:
96,273,49956,1,2,3:2:0:0:
195,367,50196,2,0,P|198:329|211:260,1,77.0000023498536,10|2,0:2|0:2,0:0:0:0:
378,291,50676,1,0,3:0:0:0:
272,230,50916,1,2,3:2:0:0:
284,330,51156,1,10,0:2:0:0:
365,192,51396,6,0,B|358:114|358:114|363:108|363:108|355:22,1,154.000004699707,6|2,3:2|3:2,0:0:0:0:
512,138,52116,2,0,L|435:149,1,77.0000023498536,10|2,0:2|0:2,0:0:0:0:
282,169,52596,1,0,3:0:0:0:
269,57,52836,1,2,3:2:0:0:
157,71,53076,1,10,0:2:0:0:
171,182,53316,1,2,0:2:0:0:
18,47,53556,5,0,3:0:0:0:
18,47,53796,1,2,3:2:0:0:
78,218,54036,5,10,0:0:0:0:
157,71,54276,1,2,3:2:0:0:
170,216,54516,5,10,0:0:0:0:
226,317,54756,1,0,0:0:0:0:
226,317,54876,1,0,0:0:0:0:
226,317,54996,1,8,0:0:0:0:
371,179,55236,6,0,L|355:25,1,154.000004699707,4|2,3:0|3:2,0:0:0:0:
472,102,55956,2,0,P|467:139|464:178,1,77.0000023498536,10|2,0:2|0:2,0:0:0:0:
476,328,56436,1,2,3:2:0:0:
402,270,56676,1,2,3:2:0:0:
329,366,56916,1,10,0:2:0:0:
239,269,57156,1,2,0:2:0:0:
79,372,57396,5,0,3:0:0:0:
79,372,57636,1,0,3:0:0:0:
120,215,57876,2,0,L|132:321,1,77.0000023498536,10|2,0:2|0:2,0:0:0:0:
26,168,58356,1,0,3:0:0:0:
113,126,58596,1,2,3:2:0:0:
22,35,58836,1,10,0:2:0:0:
227,95,59076,6,0,P|200:28|129:37,1,154.000004699707,6|2,3:2|3:2,0:0:0:0:
316,90,59796,2,0,P|358:83|408:79,1,77.0000023498536,10|2,0:0|0:2,0:0:0:0:
477,164,60276,1,0,3:0:0:0:
477,164,60516,1,2,3:2:0:0:
416,270,60756,1,10,0:0:0:0:
305,167,60996,6,0,L|300:247,1,77.0000023498536,2|0,3:2|0:0,0:0:0:0:
293,258,61356,1,8,0:0:0:0:
292,261,61476,1,2,3:2:0:0:
185,140,61716,1,12,0:1:0:0:
48,257,61956,5,0,0:0:0:0:
68,225,62076,1,8,0:0:0:0:
70,187,62196,1,0,0:0:0:0:
51,154,62316,1,0,0:0:0:0:
17,136,62436,1,4,3:0:0:0:
185,140,62676,5,8,0:0:0:0:
222,129,62796,1,8,0:3:0:0:
246,91,62916,1,8,0:3:0:0:
353,218,63156,6,0,P|340:140|317:66,1,154.000004699707,6|2,3:1|0:0,0:0:0:0:
512,34,63876,2,0,P|471:33|465:143,1,154.000004699707,0|2,3:0|3:0,0:0:0:0:
455,295,64596,2,0,B|494:265|492:209,1,77.0000023498536,10|2,0:0|0:0,0:0:0:0:
483,210,64956,1,0,0:0:0:0:
481,206,65076,5,2,3:0:0:0:
382,240,65316,1,2,0:0:0:0:
308,166,65556,1,2,0:0:0:0:
250,341,65796,2,0,P|252:278|214:174,1,154.000004699707,0|2,3:0|3:0,0:0:0:0:
125,126,66516,1,10,0:0:0:0:
124,129,66636,1,0,0:0:0:0:
123,132,66756,1,2,0:0:0:0:
292,71,66996,6,0,L|192:56,1,77.0000023498536,0|2,3:0|0:0,0:0:0:0:
203,40,67356,1,0,0:0:0:0:
200,37,67476,1,0,0:0:0:0:
291,155,67716,1,2,3:0:0:0:
401,59,67956,1,2,0:0:0:0:
465,153,68196,1,2,3:0:0:0:
364,128,68436,2,0,P|371:165|374:204,1,77.0000023498536,10|2,0:0|0:0,0:0:0:0:
365,226,68796,1,0,0:0:0:0:
362,229,68916,5,0,3:0:0:0:
284,183,69156,1,2,3:0:0:0:
198,273,69396,1,8,0:0:0:0:
161,115,69636,2,0,L|151:191,1,77.0000023498536,2|2,3:0|0:0,0:0:0:0:
67,84,70116,1,6,3:2:0:0:
284,183,70356,1,10,0:0:0:0:
309,199,70476,1,8,0:0:0:0:
340,201,70596,1,2,3:0:0:0:
368,190,70716,1,0,3:0:0:0:
388,167,70836,6,0,L|397:290,1,115.50000352478,6|0,3:1|0:0,0:0:0:0:
407,299,71316,1,2,0:0:0:0:
226,375,71556,2,0,P|259:292|340:289,1,154.000004699707,2|2,3:0|3:0,0:0:0:0:
156,280,72276,1,10,0:0:0:0:
64,343,72516,1,2,0:0:0:0:
62,339,72636,1,0,0:0:0:0:
61,335,72756,6,0,L|69:201,1,115.50000352478,0|2,3:0|0:0,0:0:0:0:
33,79,73476,1,2,3:0:0:0:
131,136,73716,1,2,0:0:0:0:
188,38,73956,1,2,3:0:0:0:
241,182,74196,2,0,P|282:170|342:168,1,77.0000023498536,10|0,0:0|0:0,0:0:0:0:
396,224,74676,5,2,0:0:0:0:
305,278,74916,1,10,0:3:0:0:
268,267,75036,1,8,0:3:0:0:
229,270,75156,1,10,0:0:0:0:
194,285,75276,1,8,0:3:0:0:
156,348,75396,5,2,0:0:0:0:
156,348,75516,1,8,0:0:0:0:
156,348,75636,2,0,L|111:354,1,38.5000011749268,2|0,3:0|0:0,0:0:0:0:
22,235,75876,1,10,0:0:0:0:
29,276,75996,1,0,3:0:0:0:
36,317,76116,1,10,0:0:0:0:
110,123,76356,6,0,B|185:131|185:131|200:124|200:124|267:131,1,141.750000540733,6|0,0:1|0:0,0:0:0:0:
256,149,76836,5,0,0:0:0:0:
403,347,77076,1,8,0:0:0:0:
428,99,77316,1,8,0:0:0:0:
357,195,77916,5,0,3:0:0:0:
347,213,78036,2,0,L|284:204,1,47.2500001802444,10|0,0:0|0:0,0:0:0:0:
101,248,78276,5,8,0:0:0:0:
108,289,78396,1,8,0:0:0:0:
115,330,78516,6,0,P|159:290|205:295,1,101.500003097534,6|0,3:1|3:0,0:0:0:0:
435,358,78996,2,0,L|328:347,1,101.500003097534,10|2,0:0|0:0,0:0:0:0:
271,305,79356,1,2,0:0:0:0:
269,301,79476,2,0,P|265:250|277:194,1,101.500003097534,2|0,0:0|3:0,0:0:0:0:
477,174,79956,2,0,P|481:224|471:274,1,101.500003097534,10|0,0:0|0:0,0:0:0:0:
244,42,80436,5,2,3:0:0:0:
379,89,80676,1,2,0:0:0:0:
331,225,80916,1,10,0:0:0:0:
195,177,81156,1,2,0:0:0:0:
195,177,81276,1,2,3:0:0:0:
195,177,81396,1,2,0:0:0:0:
294,128,81636,1,0,3:0:0:0:
314,325,81876,2,0,L|332:225,1,101.500003097534,10|2,0:0|0:0,0:0:0:0:
110,116,82356,6,0,L|128:215,1,101.500003097534,2|2,3:0|0:0,0:0:0:0:
33,176,82836,1,10,0:0:0:0:
213,131,83076,1,2,0:0:0:0:
213,131,83196,1,0,3:0:0:0:
213,131,83316,1,2,0:0:0:0:
234,238,83556,1,2,3:0:0:0:
353,105,83796,1,14,3:2:0:0:
492,233,84036,6,0,P|419:221|377:335,1,203.000006195069,6|2,3:1|3:0,0:0:0:0:
291,151,84756,5,8,0:0:0:0:
265,363,84996,1,2,3:0:0:0:
148,216,85236,5,8,0:0:0:0:
154,240,85356,1,8,0:0:0:0:
160,264,85476,1,4,3:2:0:0:
213,121,85716,5,8,0:0:0:0:
166,102,85836,1,8,0:0:0:0:
115,104,85956,1,8,0:0:0:0:
71,128,86076,1,8,0:0:0:0:
40,193,86196,6,0,P|41:236|74:306,1,101.500003097534,6|2,3:1|3:0,0:0:0:0:
325,185,86676,2,0,P|281:186|212:219,1,101.500003097534,14|2,0:2|0:0,0:0:0:0:
203,280,87036,1,2,0:0:0:0:
204,284,87156,2,0,L|218:391,1,101.500003097534,2|2,0:0|3:0,0:0:0:0:
398,283,87636,2,0,L|411:182,1,101.500003097534,10|2,0:0|0:0,0:0:0:0:
434,3,88116,5,6,3:1:0:0:
310,77,88356,1,10,0:3:0:0:
315,107,88476,1,8,0:3:0:0:
320,137,88596,1,6,3:2:0:0:
201,214,88836,1,2,3:0:0:0:
205,191,88956,1,0,3:0:0:0:
209,169,89076,1,6,3:1:0:0:
128,78,89316,1,0,3:0:0:0:
90,151,89556,1,10,0:0:0:0:
213,74,89796,1,2,0:0:0:0:
85,6,90036,5,6,3:1:0:0:
128,78,90276,1,0,3:0:0:0:
25,213,90516,2,0,L|40:329,1,101.500003097534,10|0,0:0|0:0,0:0:0:0:
94,370,90876,1,2,0:0:0:0:
96,374,90996,2,0,B|153:383|153:383|216:354,1,101.500003097534,2|0,0:0|3:0,0:0:0:0:
253,177,91476,1,10,0:0:0:0:
382,351,91716,6,0,P|377:250|449:182,1,203.000006195069,6|0,0:1|3:0,0:0:0:0:
283,272,92436,2,0,L|172:254,1,101.500003097534,10|0,0:0|3:0,0:0:0:0:
39,80,92916,1,8,0:0:0:0:
168,155,93156,1,8,0:3:0:0:
38,222,93396,1,4,0:3:0:0:
169,52,93636,6,0,B|225:88|225:88|355:55,1,189.000000720978,4|2,3:1|3:0,0:0:0:0:
223,176,94356,2,0,L|213:267,1,80.5000015354157,8|0,0:0|0:0,0:0:0:0:
145,384,94836,5,2,3:0:0:0:
105,236,95076,1,2,3:0:0:0:
46,116,95316,5,10,0:0:0:0:
15,229,95556,1,2,0:0:0:0:
223,176,95796,6,0,P|181:172|144:159,1,80.5000015354157,0|2,3:0|3:0,0:0:0:0:
294,250,96276,2,0,P|332:237|372:233,1,80.5000015354157,10|2,0:0|0:0,0:0:0:0:
447,294,96756,1,0,3:0:0:0:
408,170,96996,1,2,3:0:0:0:
512,29,97236,5,10,0:0:0:0:
512,29,97356,1,0,0:0:0:0:
512,29,97476,2,0,L|405:19,1,94.5000003604889,6|0,3:2|0:0,0:0:0:0:
279,129,97956,5,2,3:0:0:0:
177,25,98196,1,8,0:0:0:0:
177,25,98436,1,0,0:0:0:0:
57,173,98676,5,2,3:0:0:0:
93,28,98916,1,2,3:0:0:0:
3,82,99156,1,10,0:0:0:0:
147,118,99396,1,2,0:0:0:0:
40,260,99636,5,0,3:0:0:0:
40,260,99876,1,2,3:0:0:0:
217,211,100116,2,0,P|166:212|122:197,1,80.5000015354157,10|2,0:0|3:0,0:0:0:0:
441,217,100596,5,12,0:2:0:0:
278,127,100836,1,10,0:3:0:0:
350,380,101076,1,10,0:0:0:0:
188,289,101316,6,0,P|263:288|248:392,1,189.000000720978,6|2,3:1|3:0,0:0:0:0:
356,232,102036,1,8,0:0:0:0:
356,232,102276,1,0,0:0:0:0:
241,174,102516,5,2,3:0:0:0:
390,125,102756,1,2,3:0:0:0:
469,269,102996,5,10,0:0:0:0:
356,232,103236,1,2,0:0:0:0:
481,139,103476,6,0,L|466:25,1,80.5000015354157,0|2,3:0|3:0,0:0:0:0:
316,29,103956,2,0,L|304:115,1,80.5000015354157,10|2,0:0|0:0,0:0:0:0:
131,39,104436,1,0,3:0:0:0:
147,150,104676,1,0,3:0:0:0:
240,77,104916,5,10,0:0:0:0:
39,110,105156,2,0,B|46:245,1,94.5000003604889,6|0,3:2|0:0,0:0:0:0:
131,39,105636,5,2,3:0:0:0:
147,150,105876,1,10,0:0:0:0:
240,77,106116,1,2,0:0:0:0:
401,0,106356,5,2,3:0:0:0:
401,0,106596,1,2,3:0:0:0:
387,102,106836,1,10,0:0:0:0:
301,35,107076,1,2,0:0:0:0:
223,173,107316,6,0,L|238:283,1,80.5000015354157,0|0,3:0|3:0,0:0:0:0:
52,112,107796,1,10,0:0:0:0:
209,80,108036,1,0,3:0:0:0:
138,227,108276,5,12,0:2:0:0:
301,182,108516,1,0,0:0:0:0:
334,188,108636,1,8,0:0:0:0:
369,194,108756,1,10,0:0:0:0:
456,20,108996,6,0,L|466:214,1,189.000000720978,4|2,3:1|3:0,0:0:0:0:
402,338,109716,2,0,P|403:295|413:240,1,77.0000023498536,10|0,0:0|0:0,0:0:0:0:
232,294,110196,1,2,3:0:0:0:
320,300,110436,1,2,3:0:0:0:
212,215,110676,1,10,0:0:0:0:
342,224,110916,1,2,0:0:0:0:
272,365,111156,5,0,3:0:0:0:
272,365,111396,1,2,3:0:0:0:
153,287,111636,2,0,L|49:302,1,77.0000023498536,10|2,0:0|0:0,0:0:0:0:
92,140,112116,1,0,3:0:0:0:
54,227,112356,1,2,3:0:0:0:
0,125,112596,1,10,0:0:0:0:
179,80,112836,6,0,P|251:88|326:45,1,154.000004699707,6|2,3:2|3:0,0:0:0:0:
438,143,113556,2,0,P|394:135|330:135,1,77.0000023498536,10|2,0:0|0:0,0:0:0:0:
235,210,114036,1,0,3:0:0:0:
235,210,114276,1,2,3:0:0:0:
149,287,114516,1,10,0:0:0:0:
66,206,114756,1,2,0:0:0:0:
215,354,114996,5,0,3:0:0:0:
215,354,115236,1,2,3:0:0:0:
373,247,115476,5,10,0:0:0:0:
235,281,115716,1,2,3:0:0:0:
167,130,115956,5,10,0:0:0:0:
265,154,116196,1,0,0:0:0:0:
265,154,116316,1,0,0:0:0:0:
265,154,116436,1,8,0:0:0:0:
56,204,116676,6,0,L|50:31,1,154.000004699707,4|2,3:0|3:0,0:0:0:0:
241,38,117396,2,0,B|197:38|197:38|157:62,1,77.0000023498536,10|2,0:0|0:0,0:0:0:0:
234,219,117876,1,2,3:0:0:0:
222,117,118116,1,2,3:0:0:0:
149,177,118356,1,10,0:0:0:0:
305,158,118596,1,2,0:0:0:0:
247,311,118836,5,0,3:0:0:0:
247,311,119076,1,2,3:0:0:0:
396,253,119316,2,0,P|346:253|294:240,1,77.0000023498536,10|2,0:0|0:0,0:0:0:0:
443,152,119796,1,0,3:0:0:0:
468,247,120036,1,2,3:0:0:0:
369,185,120276,1,10,0:0:0:0:
496,47,120516,6,0,B|420:45|420:45|414:39|414:39|331:38,1,154.000004699707,6|2,3:2|3:0,0:0:0:0:
232,190,121236,2,0,L|221:113,1,77.0000023498536,10|2,0:0|0:0,0:0:0:0:
107,31,121716,1,0,3:0:0:0:
107,31,121956,1,2,3:0:0:0:
34,112,122196,1,10,0:0:0:0:
116,185,122436,1,2,0:0:0:0:
292,113,122676,5,0,3:0:0:0:
292,113,122916,1,2,3:0:0:0:
134,108,123156,5,8,0:0:0:0:
162,272,123396,1,0,3:0:0:0:
19,128,123636,5,8,0:0:0:0:
80,39,123876,1,8,0:3:0:0:
61,32,123996,1,8,0:3:0:0:
42,25,124116,1,8,0:0:0:0:
234,32,124356,6,0,B|306:21|306:21|413:67,1,189.000000720978,4|2,3:1|3:0,0:0:0:0:
287,207,125076,2,0,L|293:94,1,77.0000023498536,10|0,0:0|0:0,0:0:0:0:
298,112,125436,1,0,0:0:0:0:
300,109,125556,1,2,3:0:0:0:
373,202,125796,1,2,3:0:0:0:
450,87,126036,1,10,0:0:0:0:
480,240,126276,1,2,0:0:0:0:
308,280,126516,5,0,3:0:0:0:
308,280,126756,1,2,3:0:0:0:
418,375,126996,2,0,L|413:276,1,77.0000023498536,8|2,0:0|0:0,0:0:0:0:
512,366,127476,1,0,3:0:0:0:
480,240,127716,1,2,3:0:0:0:
481,236,127836,1,0,0:0:0:0:
482,232,127956,1,10,0:0:0:0:
329,68,128196,6,0,P|400:117|460:51,1,154.000004699707,6|2,3:2|3:0,0:0:0:0:
292,177,128916,2,0,L|299:264,1,77.0000023498536,10|2,0:0|0:0,0:0:0:0:
470,337,129396,1,0,3:0:0:0:
378,237,129636,1,2,3:0:0:0:
377,233,129756,1,0,0:0:0:0:
376,229,129876,1,10,0:0:0:0:
360,384,130116,1,2,0:0:0:0:
162,318,130356,5,0,3:0:0:0:
162,318,130596,1,2,3:0:0:0:
233,234,130836,5,10,0:0:0:0:
182,108,131076,1,2,0:0:0:0:
124,194,131316,5,10,0:0:0:0:
84,291,131556,1,0,0:0:0:0:
84,291,131676,1,0,0:0:0:0:
84,291,131796,1,8,0:0:0:0:
44,92,132036,6,0,P|113:67|206:128,1,189.000000720978,4|2,3:1|3:0,0:0:0:0:
351,182,132756,2,0,L|265:195,1,77.0000023498536,10|2,0:0|0:0,0:0:0:0:
177,258,133236,1,2,3:0:0:0:
150,175,133476,1,2,3:0:0:0:
34,238,133716,1,10,0:0:0:0:
70,127,133956,1,2,0:0:0:0:
104,295,134196,5,2,3:0:0:0:
104,295,134436,1,2,3:0:0:0:
224,190,134676,2,0,P|185:187|149:174,1,77.0000023498536,10|2,0:0|0:0,0:0:0:0:
144,154,135036,1,0,0:0:0:0:
144,150,135156,1,0,3:0:0:0:
214,93,135396,1,2,3:0:0:0:
99,38,135636,1,10,0:0:0:0:
260,5,135876,6,0,L|410:15,1,125.999996154785,6|0,3:2|0:0,0:0:0:0:
445,63,136596,1,0,0:0:0:0:
448,63,137076,1,0,0:0:0:0:
451,64,137556,1,0,0:0:0:0:
454,65,138036,1,0,0:0:0:0:
456,66,138516,1,0,0:0:0:0:
459,68,138996,1,0,0:0:0:0:
451,150,139236,5,2,0:0:0:0:
336,108,139476,1,8,2:3:0:0:
307,95,139596,1,8,2:3:0:0:
277,102,139716,1,4,2:3:0:0:
256,125,139836,1,4,2:3:0:0:
253,156,139956,6,0,P|208:140|167:140,1,83.9999974365235,6|2,3:1|0:0,0:0:0:0:
117,194,140316,1,8,2:3:0:0:
122,210,140436,1,2,0:0:0:0:
32,337,140676,2,0,P|77:320|118:320,1,83.9999974365235,10|2,2:3|0:0,0:0:0:0:
181,362,141036,1,8,2:3:0:0:
197,357,141156,1,10,2:3:0:0:
206,220,141396,1,10,0:0:0:0:
307,323,141636,1,2,0:0:0:0:
310,321,141756,1,0,0:0:0:0:
313,319,141876,6,0,L|401:329,1,83.9999974365235,2|2,3:0|0:0,0:0:0:0:
495,293,142236,6,0,L|407:303,1,83.9999974365235,8|0,2:3|0:0,0:0:0:0:
358,250,142596,5,6,2:3:0:0:
452,179,142836,1,2,0:0:0:0:
447,148,142956,1,8,2:3:0:0:
443,118,143076,1,10,2:3:0:0:
439,87,143196,1,8,2:3:0:0:
435,56,143316,1,10,0:0:0:0:
319,159,143556,1,2,0:0:0:0:
241,35,143796,6,0,P|240:71|232:126,1,83.9999974365235,4|2,3:1|0:0,0:0:0:0:
167,159,144156,1,8,2:3:0:0:
151,154,144276,1,2,0:0:0:0:
88,292,144516,2,0,L|76:201,1,83.9999974365235,10|2,2:3|0:0,0:0:0:0:
182,248,144996,1,10,2:3:0:0:
254,149,145236,1,10,0:0:0:0:
321,295,145476,1,2,0:0:0:0:
324,293,145596,1,0,0:0:0:0:
327,291,145716,6,0,P|377:288|425:304,1,83.9999974365235,4|2,3:2|0:0,0:0:0:0:
512,314,146076,6,0,P|462:311|414:327,1,83.9999974365235,8|0,2:3|0:0,0:0:0:0:
369,373,146436,5,10,0:0:0:0:
372,193,146676,1,2,3:0:0:0:
216,278,146916,1,10,0:0:0:0:
244,94,147156,1,10,0:0:0:0:
248,116,147276,1,0,3:0:0:0:
252,140,147396,1,2,3:0:0:0:
64,216,147636,6,0,P|98:145|172:164,1,141.750000540733,6|0,3:1|0:0,0:0:0:0:
173,170,148116,2,0,L|168:246,1,77.0000023498536,2|2,3:0|0:0,0:0:0:0:
75,371,148596,2,0,L|70:294,1,77.0000023498536,2|2,3:0|0:0,0:0:0:0:
167,246,149076,1,2,0:0:0:0:
233,357,149316,1,10,0:0:0:0:
392,213,149556,5,8,0:0:0:0:
254,259,149796,1,8,0:0:0:0:
288,92,150036,1,8,3:2:0:0:
330,302,150276,5,10,0:0:0:0:
106,301,150516,1,10,0:0:0:0:
223,160,150756,1,10,0:0:0:0:
254,381,150996,1,10,3:2:0:0:
109,173,151236,1,10,0:0:0:0:
325,60,151476,6,0,L|375:67,3,38.5000011749268,14|8|10|8,3:1|0:0|0:0|0:0,0:0:0:0:
263,103,151956,1,10,3:2:0:0:
226,113,152076,1,8,0:0:0:0:
189,104,152196,1,10,3:2:0:0:
162,77,152316,1,8,0:0:0:0:
160,1,152436,5,10,3:2:0:0:
160,1,152556,1,8,0:0:0:0:
160,1,152676,2,8,L|231:8,1,38.5000011749268,10|10,0:0|0:0,0:0:0:0:
59,60,152916,1,10,3:2:0:0:
157,217,153156,6,0,L|140:317,1,94.5000003604889,14|0,0:2|0:0,0:0:0:0:
250,244,153636,5,0,3:0:0:0:
408,120,153876,1,8,0:0:0:0:
504,314,154116,1,2,0:0:0:0:
415,319,154356,6,0,L|422:373,3,48.9999985046387
373,239,155316,6,0,L|379:137,1,101.500003097534,6|0,3:1|0:0,0:0:0:0:
193,28,155796,2,0,L|199:130,1,101.500003097534,10|2,0:0|0:0,0:0:0:0:
159,199,156156,1,2,3:0:0:0:
157,203,156276,2,0,P|107:210|53:198,1,101.500003097534,2|0,0:0|3:0,0:0:0:0:
224,317,156756,2,0,P|274:310|328:322,1,101.500003097534,10|2,0:0|0:0,0:0:0:0:
334,116,157236,5,2,3:0:0:0:
364,253,157476,1,2,3:0:0:0:
236,54,157716,1,10,0:0:0:0:
200,219,157956,1,2,0:0:0:0:
200,219,158076,1,2,3:0:0:0:
200,219,158196,1,2,0:0:0:0:
260,142,158436,1,0,3:0:0:0:
65,138,158676,2,0,P|110:103|168:101,1,101.500003097534,10|2,0:0|0:0,0:0:0:0:
233,384,159156,5,2,3:0:0:0:
95,335,159396,1,2,3:0:0:0:
144,200,159636,1,10,0:0:0:0:
280,247,159876,1,2,0:0:0:0:
280,247,159996,1,2,3:0:0:0:
280,247,160116,1,2,0:0:0:0:
324,119,160356,1,2,3:0:0:0:
399,316,160596,1,10,0:0:0:0:
504,114,160836,6,0,B|417:163|417:163|322:118,1,203.000006195069,4|2,3:1|3:0,0:0:0:0:
226,19,161556,5,10,0:0:0:0:
279,251,161796,1,2,3:0:0:0:
55,161,162036,5,10,3:2:0:0:
79,155,162156,1,8,0:0:0:0:
103,149,162276,1,4,3:2:0:0:
343,282,162516,5,12,0:0:0:0:
297,269,162636,1,8,0:0:0:0:
251,259,162756,1,8,0:0:0:0:
205,246,162876,1,8,0:0:0:0:
134,273,162996,6,0,P|138:325|159:383,1,101.500003097534,6|0,3:1|3:0,0:0:0:0:
321,190,163476,2,0,P|336:141|340:91,1,101.500003097534,14|2,0:2|0:0,0:0:0:0:
286,34,163836,1,2,3:0:0:0:
282,32,163956,2,0,L|164:43,1,101.500003097534,2|0,0:0|3:0,0:0:0:0:
45,160,164436,2,0,L|163:171,1,101.500003097534,10|2,0:0|0:0,0:0:0:0:
40,358,164916,5,6,3:1:0:0:
171,254,165156,1,10,0:3:0:0:
199,261,165276,1,8,0:3:0:0:
228,268,165396,1,6,3:2:0:0:
365,332,165636,1,2,0:0:0:0:
347,337,165756,1,0,3:0:0:0:
330,341,165876,1,6,3:1:0:0:
351,182,166116,1,0,3:0:0:0:
435,302,166356,1,10,0:0:0:0:
487,164,166596,1,2,0:0:0:0:
342,261,166836,5,6,3:1:0:0:
351,182,167076,1,0,3:0:0:0:
242,63,167316,2,0,B|188:59|188:59|134:79,1,101.500003097534,10|2,0:0|0:0,0:0:0:0:
108,146,167676,1,2,3:0:0:0:
108,150,167796,2,0,L|122:261,1,101.500003097534,2|2,0:0|3:0,0:0:0:0:
6,113,168276,1,10,0:0:0:0:
77,332,168516,6,0,B|200:366|140:271|304:328,1,203.000006195069,6|2,3:1|3:0,0:0:0:0:
427,221,169236,2,0,L|413:120,1,101.500003097534,14|0,0:2|3:0,0:0:0:0:
216,90,169716,1,10,0:0:0:0:
335,166,169956,1,8,0:3:0:0:
233,227,170196,1,4,0:3:0:0:
101,41,170436,6,0,B|114:101|114:101|87:234,1,189.000000720978,4|2,3:1|3:2,0:0:0:0:
241,311,171156,2,0,P|194:300|152:302,1,80.5000015354157,10|0,0:0|0:0,0:0:0:0:
357,366,171636,2,0,P|397:365|436:355,1,80.5000015354157,2|0,3:0|3:0,0:0:0:0:
355,194,172116,1,10,0:0:0:0:
357,289,172356,1,2,0:0:0:0:
486,160,172596,5,0,3:0:0:0:
486,160,172836,1,2,3:0:0:0:
362,71,173076,2,0,P|327:80|255:78,1,80.5000015354157,10|0,0:0|0:0,0:0:0:0:
95,151,173556,1,0,3:0:0:0:
127,61,173796,1,0,3:0:0:0:
264,179,174036,5,10,0:0:0:0:
164,287,174276,2,0,L|170:182,1,94.5000003604889,6|0,3:2|0:0,0:0:0:0:
127,61,174756,5,2,3:0:0:0:
17,166,174996,2,0,P|54:151|94:150,1,80.5000015354157,8|0,0:0|0:0,0:0:0:0:
262,192,175476,1,0,3:0:0:0:
304,43,175716,1,0,3:0:0:0:
417,162,175956,1,10,0:0:0:0:
391,70,176196,1,2,0:0:0:0:
340,258,176436,5,0,3:0:0:0:
340,258,176676,1,0,3:0:0:0:
232,188,176916,5,10,0:0:0:0:
217,327,177156,1,0,3:0:0:0:
65,355,177396,5,8,0:0:0:0:
101,205,177636,1,8,0:3:0:0:
109,233,177756,1,8,0:3:0:0:
117,262,177876,1,8,3:2:0:0:
53,103,178116,6,0,P|146:101|232:25,1,189.000000720978,6|2,3:1|3:0,0:0:0:0:
367,119,178836,2,0,L|259:111,1,80.5000015354157,10|0,0:0|0:0,0:0:0:0:
405,260,179316,2,0,L|515:253,1,80.5000015354157,2|0,3:0|3:0,0:0:0:0:
453,85,179796,1,10,0:0:0:0:
458,179,180036,1,2,0:0:0:0:
312,28,180276,5,0,3:0:0:0:
312,28,180516,1,2,3:0:0:0:
217,142,180756,2,0,P|263:120|318:121,1,80.5000015354157,10|0,0:0|0:0,0:0:0:0:
376,251,181236,1,0,3:0:0:0:
388,138,181476,1,0,3:0:0:0:
278,211,181716,5,10,0:0:0:0:
293,362,181956,2,0,L|173:351,1,94.5000003604889,6|0,3:2|0:0,0:0:0:0:
69,348,182436,5,2,3:0:0:0:
142,198,182676,2,0,P|147:249|166:298,1,80.5000015354157,8|0,0:0|0:0,0:0:0:0:
366,175,183156,1,0,3:0:0:0:
210,142,183396,1,0,3:0:0:0:
278,211,183636,1,10,0:0:0:0:
299,107,183876,1,2,0:0:0:0:
485,112,184116,5,0,3:0:0:0:
485,112,184356,1,0,3:0:0:0:
316,24,184596,5,10,0:0:0:0:
375,193,184836,1,0,3:0:0:0:
423,30,185076,5,8,0:0:0:0:
285,108,185316,1,2,3:2:0:0:
254,103,185436,1,8,0:0:0:0:
225,101,185556,1,10,0:0:0:0:
132,272,185796,6,0,P|102:186|7:239,1,189.000000720978,4|2,3:1|3:0,0:0:0:0:
155,356,186516,2,0,L|269:344,1,83.9999974365235,10|0,0:0|0:0,0:0:0:0:
402,245,186996,1,2,3:0:0:0:
358,334,187236,1,2,3:0:0:0:
294,217,187476,1,10,0:0:0:0:
181,278,187716,1,2,0:0:0:0:
293,108,187956,5,0,3:0:0:0:
293,108,188196,1,2,3:0:0:0:
188,193,188436,2,0,P|145:176|92:170,1,83.9999974365235,10|2,0:0|0:0,0:0:0:0:
125,332,188916,1,0,3:0:0:0:
70,246,189156,1,2,3:0:0:0:
14,372,189396,1,10,0:0:0:0:
202,288,189636,6,0,B|277:304|277:304|285:311|285:311|369:329,1,167.999994873047,6|2,3:2|3:0,0:0:0:0:
470,227,190356,2,0,P|429:230|388:240,1,83.9999974365235,10|2,0:0|0:0,0:0:0:0:
403,129,190836,1,0,3:0:0:0:
403,129,191076,1,2,3:0:0:0:
283,199,191316,1,10,0:0:0:0:
221,73,191556,1,2,0:0:0:0:
106,197,191796,5,0,3:0:0:0:
106,197,192036,1,2,3:0:0:0:
49,97,192276,5,10,0:0:0:0:
0,263,192516,1,2,3:0:0:0:
150,334,192756,5,10,0:0:0:0:
106,197,192996,1,8,0:3:0:0:
101,215,193116,1,8,0:3:0:0:
96,232,193236,1,8,3:0:0:0:
354,220,193476,6,0,P|270:210|209:309,1,189.000000720978,4|2,3:1|3:0,0:0:0:0:
440,247,194196,2,0,L|428:161,1,83.9999974365235,10|0,0:0|0:0,0:0:0:0:
345,96,194676,1,2,3:0:0:0:
372,0,194916,1,2,3:0:0:0:
443,73,195156,1,10,0:0:0:0:
272,22,195396,1,2,0:0:0:0:
224,211,195636,5,0,3:0:0:0:
224,211,195876,1,0,3:0:0:0:
139,87,196116,2,0,L|129:187,1,83.9999974365235,10|2,0:0|0:0,0:0:0:0:
166,332,196596,1,0,3:0:0:0:
100,275,196836,1,2,3:0:0:0:
23,365,197076,1,10,0:0:0:0:
6,208,197316,6,0,B|29:162|29:162|17:46,1,167.999994873047,6|2,3:2|3:0,0:0:0:0:
139,87,198036,2,0,P|180:87|222:81,1,83.9999974365235,10|2,0:0|0:0,0:0:0:0:
326,2,198516,1,0,3:0:0:0:
326,2,198756,1,2,3:0:0:0:
367,136,198996,1,10,0:0:0:0:
503,95,199236,1,2,0:0:0:0:
442,249,199476,5,0,3:0:0:0:
442,249,199716,1,0,3:0:0:0:
269,241,199956,5,8,0:0:0:0:
420,348,200196,1,0,3:0:0:0:
444,163,200436,5,10,0:0:0:0:
366,227,200676,1,2,0:0:0:0:
366,227,200796,1,2,0:0:0:0:
366,227,200916,1,10,0:0:0:0:
209,89,201156,6,0,L|191:283,1,189.000000720978,6|2,3:1|3:0,0:0:0:0:
87,384,201876,2,0,P|83:349|71:300,1,83.9999974365235,10|0,0:0|0:0,0:0:0:0:
4,190,202356,1,2,3:0:0:0:
95,159,202596,1,2,3:0:0:0:
0,35,202836,1,10,0:0:0:0:
151,68,203076,1,2,0:0:0:0:
93,249,203316,5,0,3:0:0:0:
93,249,203556,1,0,3:0:0:0:
217,164,203796,2,0,P|218:192|231:261,1,83.9999974365235,10|2,0:0|0:0,0:0:0:0:
399,324,204276,1,0,3:0:0:0:
304,260,204516,1,2,3:0:0:0:
249,376,204756,1,10,0:0:0:0:
401,234,204996,6,0,B|392:152|392:152|393:143|393:143|385:65,1,167.999994873047,6|2,3:2|3:0,0:0:0:0:
223,154,205716,2,0,P|264:150|302:132,1,83.9999974365235,10|2,0:0|0:0,0:0:0:0:
215,16,206196,1,0,3:0:0:0:
165,94,206436,1,2,3:0:0:0:
65,0,206676,1,10,0:0:0:0:
68,164,206916,1,2,0:0:0:0:
249,80,207156,5,0,3:0:0:0:
249,80,207396,1,2,3:0:0:0:
182,199,207636,5,10,0:0:0:0:
244,368,207876,1,2,3:0:0:0:
349,166,208116,5,10,0:0:0:0:
281,256,208356,1,8,0:3:0:0:
287,272,208476,1,8,0:3:0:0:
293,288,208596,1,8,0:0:0:0:
192,31,208836,6,0,L|182:199,1,167.999994873047,6|2,3:2|3:0,0:0:0:0:
38,331,209556,2,0,P|83:302|132:298,1,83.9999974365235,10|0,0:0|0:0,0:0:0:0:
243,346,210036,1,2,3:0:0:0:
273,250,210276,1,2,3:0:0:0:
388,332,210516,1,10,0:0:0:0:
343,188,210756,1,2,0:0:0:0:
470,60,210996,5,0,3:0:0:0:
470,60,211236,1,2,3:0:0:0:
343,23,211476,2,0,P|283:27|245:34,1,83.9999974365235,10|2,0:0|0:0,0:0:0:0:
159,154,211956,1,0,3:0:0:0:
158,60,212196,1,2,3:0:0:0:
57,101,212436,1,10,0:0:0:0:
215,246,212676,6,0,L|202:397,1,125.999996154785,6|2,3:2|0:0,0:0:0:0:
204,371,213396,1,2,0:0:0:0:
120,300,213636,2,0,P|74:300|18:366,1,125.999996154785,2|2,0:0|0:0,0:0:0:0:
32,229,214356,1,2,0:0:0:0:
32,229,214596,1,2,0:0:0:0:
100,166,214836,6,0,L|94:89,2,62.9999980773926
166,208,215556,1,0,0:0:0:0:
228,162,215698,6,0,L|228:144,4,17.5
372,78,220596,6,0,P|281:79|286:170,1,203.000006195069,4|10,3:1|0:0,0:0:0:0:
108,34,221316,2,0,L|129:238,1,189.000000720978,2|2,3:0|3:0,0:0:0:0:
306,317,222036,1,10,0:0:0:0:
220,190,222276,1,2,0:0:0:0:
81,317,222516,6,0,P|126:305|173:303,1,94.5000003604889,2|0,3:0|0:0,0:0:0:0:
399,369,222996,1,10,0:0:0:0:
259,382,223236,1,2,3:0:0:0:
246,244,223476,1,2,0:0:0:0:
384,229,223716,1,2,3:0:0:0:
324,318,223956,1,10,0:0:0:0:
299,137,224196,1,2,0:0:0:0:
299,137,224316,1,0,0:0:0:0:
299,137,224436,6,0,P|251:134|204:105,1,94.5000003604889,2|2,3:0|0:0,0:0:0:0:
123,15,224916,1,10,0:0:0:0:
50,208,225156,2,0,P|45:114|11:26,1,189.000000720978,2|2,3:0|3:0,0:0:0:0:
138,136,225876,1,10,0:0:0:0:
323,16,226116,1,2,0:0:0:0:
323,16,226236,1,0,0:0:0:0:
323,16,226357,6,0,P|225:54|264:128,1,189.000000720978,2|10,3:0|0:0,0:0:0:0:
492,176,227076,2,0,P|391:161|280:202,1,189.000000720978,2|2,3:0|3:0,0:0:0:0:
246,339,227796,1,10,0:0:0:0:
118,148,228036,1,0,3:0:0:0:
113,180,228156,1,0,3:0:0:0:
108,212,228276,6,0,L|77:12,1,203.000006195069,6|10,3:1|0:0,0:0:0:0:
261,126,228996,2,0,P|252:164|247:235,1,94.5000003604889,2|0,3:0|0:0,0:0:0:0:
402,346,229476,1,2,3:0:0:0:
261,360,229716,1,10,0:0:0:0:
246,219,229956,1,2,0:0:0:0:
386,205,230196,5,2,3:0:0:0:
318,292,230436,1,2,0:0:0:0:
295,123,230676,1,8,0:0:0:0:
246,219,230916,2,0,P|203:205|138:201,1,94.5000003604889,2|2,3:0|0:0,0:0:0:0:
12,253,231396,1,0,3:0:0:0:
114,384,231636,2,0,L|104:278,1,94.5000003604889,10|2,0:0|0:0,0:0:0:0:
257,329,232116,6,0,B|366:295|328:378|453:342,1,189.000000720978,2|10,3:0|0:0,0:0:0:0:
386,151,232836,2,0,L|396:258,1,94.5000003604889,2|0,3:0|0:0,0:0:0:0:
437,52,233316,1,2,3:0:0:0:
280,150,233556,1,8,0:0:0:0:
176,0,233796,1,2,0:0:0:0:
176,0,233916,1,8,0:0:0:0:
176,0,234036,5,2,3:0:0:0:
169,199,234276,1,8,0:0:0:0:
321,27,234516,1,10,0:0:0:0:
431,213,234756,5,2,0:0:0:0:
394,192,234876,1,8,0:0:0:0:
352,189,234996,1,2,0:0:0:0:
312,204,235116,1,8,0:0:0:0:
284,235,235236,1,2,3:0:0:0:
163,306,235476,5,10,0:0:0:0:
200,317,235596,1,0,3:0:0:0:
224,355,235716,1,0,3:0:0:0:
35,101,235956,6,0,P|53:185|56:263,1,152.250004646301,6|0,3:1|0:0,0:0:0:0:
18,327,236436,5,12,0:1:0:0:
285,226,236676,2,0,P|203:207|176:312,1,189.000000720978,2|2,3:0|3:0,0:0:0:0:
344,298,237396,1,8,0:0:0:0:
441,173,237636,1,2,0:0:0:0:
441,173,237756,1,0,0:0:0:0:
441,173,237876,6,0,L|430:361,1,189.000000720978,2|10,3:0|0:0,0:0:0:0:
336,222,238596,2,0,L|330:127,1,94.5000003604889,0|0,3:0|0:0,0:0:0:0:
146,74,239076,1,2,3:0:0:0:
211,192,239316,1,10,0:0:0:0:
330,127,239556,1,0,0:0:0:0:
112,165,239796,6,0,L|132:355,1,189.000000720978,2|10,3:0|0:0,0:0:0:0:
361,271,240516,2,0,P|270:268|209:353,1,189.000000720978,2|2,3:0|3:0,0:0:0:0:
397,350,241236,1,10,0:0:0:0:
367,178,241476,1,2,0:0:0:0:
367,178,241596,1,0,0:0:0:0:
367,178,241716,6,0,P|411:193|458:198,1,94.5000003604889,2|0,3:0|0:0,0:0:0:0:
473,176,242076,1,0,0:0:0:0:
475,172,242196,1,8,0:0:0:0:
425,57,242436,1,0,3:0:0:0:
302,118,242676,1,2,0:0:0:0:
301,115,242796,1,0,0:0:0:0:
300,112,242916,1,0,3:0:0:0:
171,0,243156,1,8,0:0:0:0:
125,199,243396,1,4,3:2:0:0:
24,18,243636,6,0,L|47:248,1,203.000006195069,6|10,3:1|0:0,0:0:0:0:
177,308,244356,1,2,3:0:0:0:
228,197,244596,1,2,0:0:0:0:
227,194,244716,1,0,0:0:0:0:
226,191,244836,1,0,3:0:0:0:
353,311,245076,2,0,P|310:291|263:289,1,94.5000003604889,8|2,0:0|0:0,0:0:0:0:
372,189,245556,6,0,P|414:169|461:167,1,94.5000003604889,2|0,3:0|0:0,0:0:0:0:
472,186,245916,1,0,0:0:0:0:
474,190,246036,1,8,0:0:0:0:
397,68,246276,1,2,3:0:0:0:
289,128,246516,1,2,0:0:0:0:
286,127,246636,1,0,0:0:0:0:
283,126,246756,1,0,3:0:0:0:
193,40,246996,2,0,L|77:54,1,94.5000003604889,8|0,0:0|0:0,0:0:0:0:
202,205,247476,6,0,L|318:219,1,94.5000003604889,2|0,3:0|0:0,0:0:0:0:
319,232,247836,1,0,0:0:0:0:
323,230,247956,1,10,0:0:0:0:
388,127,248196,1,2,3:0:0:0:
457,204,248436,1,2,0:0:0:0:
460,203,248556,1,0,0:0:0:0:
463,202,248676,1,0,3:0:0:0:
316,323,248916,2,0,P|362:306|408:307,1,94.5000003604889,8|0,0:0|0:0,0:0:0:0:
466,356,249276,1,0,0:0:0:0:
480,352,249396,5,2,3:0:0:0:
323,230,249636,1,8,0:0:0:0:
166,352,249876,1,8,0:0:0:0:
211,217,250116,5,2,0:0:0:0:
211,217,250236,1,8,0:0:0:0:
207,193,250356,1,2,0:0:0:0:
203,170,250476,1,8,0:0:0:0:
199,147,250596,1,6,3:2:0:0:
59,229,250836,5,10,0:0:0:0:
52,259,250956,1,8,0:0:0:0:
49,291,251076,1,10,0:3:0:0:
72,81,251316,5,6,3:1:0:0:
72,81,251556,1,0,0:0:0:0:
219,35,251796,2,0,L|125:27,1,66.4999982242585,8|2,0:0|0:2,0:0:0:0:
152,29,252156,1,0,3:0:0:0:
152,29,252276,1,2,0:2:0:0:
252,156,252516,1,0,3:0:0:0:
182,116,252756,1,10,0:2:0:0:
143,186,252996,1,2,0:2:0:0:
221,290,253236,6,0,L|212:224,1,66.4999982242585,2|0,3:2|3:0,0:0:0:0:
313,292,253716,2,0,L|304:357,1,66.4999982242585,10|2,0:2|0:2,0:0:0:0:
303,357,254076,1,0,3:0:0:0:
303,357,254196,1,0,0:0:0:0:
395,314,254436,1,0,0:0:0:0:
489,369,254676,2,0,P|481:336|480:303,1,66.4999982242585,10|0,0:2|0:0,0:0:0:0:
512,176,255156,5,2,3:2:0:0:
512,176,255396,1,2,3:2:0:0:
417,90,255636,2,0,L|425:-7,1,66.4999982242585,10|2,3:2|0:2,0:0:0:0:
422,23,255996,1,0,3:0:0:0:
422,23,256116,1,0,0:0:0:0:
506,79,256356,1,2,3:2:0:0:
422,166,256596,1,10,0:2:0:0:
320,55,256836,6,0,P|328:129|318:205,1,132.999996448517,2|2,3:2|3:2,0:0:0:0:
322,187,257436,1,0,0:0:0:0:
322,187,257556,1,10,0:2:0:0:
243,247,257796,1,2,0:2:0:0:
243,247,257916,1,8,0:0:0:0:
243,247,258036,1,2,0:2:0:0:
295,336,258276,1,4,3:2:0:0:
183,327,258516,1,8,0:0:0:0:
295,336,258756,1,4,0:2:0:0:
155,247,258996,6,0,P|122:250|75:263,1,56,6|2,3:1|0:0,0:0:0:0:
3,162,259476,2,0,P|30:164|58:169,1,56,2|0,0:0|0:0,0:0:0:0:
58,169,259836,1,0,0:0:0:0:
58,169,259956,1,2,0:0:0:0:
119,86,260196,1,0,0:0:0:0:
187,146,260436,1,2,0:0:0:0:
198,39,260676,1,2,0:0:0:0:
460,105,260916,6,0,B|389:127|389:127|308:89,1,141.750000540733,4|0,3:1|0:0,0:0:0:0:
328,99,261396,6,0,P|342:170|336:240,1,141.750000540733,6|0,3:1|0:0,0:0:0:0:
304,308,261876,5,6,3:2:0:0:
304,308,262116,1,4,3:2:0:0:
160,207,262356,1,10,0:2:0:0:
134,214,262476,1,8,3:2:0:0:
109,221,262596,1,2,3:2:0:0:
70,53,262836,5,10,0:0:0:0:
24,268,263076,1,10,0:0:0:0:
202,342,263796,5,8,0:0:0:0:
146,104,264036,1,10,0:0:0:0:
437,180,264516,6,0,B|346:194|346:194|337:190|337:190|247:204,1,189.000000720978,14|2,0:1|3:0,0:0:0:0:
50,55,265236,6,0,P|75:110|86:165,1,94.5000003604889,14|0,0:2|0:0,0:0:0:0:
38,341,265716,1,10,0:0:0:0:
183,107,265956,5,2,3:0:0:0:
0,126,266196,1,2,3:0:0:0:
236,308,266436,1,14,0:2:0:0:
304,33,266676,1,2,0:0:0:0:
482,210,266916,5,0,3:0:0:0:
489,255,267036,1,0,3:0:0:0:
492,315,267156,6,0,P|429:281|369:294,1,105.000004005432,14|2,0:1|3:0,0:0:0:0:
338,335,267516,1,8,0:0:0:0:
333,337,267636,2,0,L|213:325,1,105.000004005432,2|0,0:0|3:0,0:0:0:0:
14,177,268116,2,0,L|134:165,1,105.000004005432,10|0,0:0|0:0,0:0:0:0:
406,86,268596,5,2,3:0:0:0:
217,34,268836,1,2,3:0:0:0:
313,226,269076,1,10,0:0:0:0:
201,158,269316,1,2,0:0:0:0:
201,158,269436,1,10,0:0:0:0:
201,158,269556,1,2,0:0:0:0:
301,114,269796,1,0,3:0:0:0:
400,291,270036,2,0,P|399:238|390:186,1,105.000004005432,10|2,0:0|0:0,0:0:0:0:
174,309,270516,5,2,3:0:0:0:
79,113,270756,1,0,3:0:0:0:
29,257,270996,1,10,0:0:0:0:
222,165,271236,1,2,0:0:0:0:
222,165,271356,1,2,3:0:0:0:
222,165,271476,1,2,0:0:0:0:
305,297,271716,1,2,3:0:0:0:
407,91,271956,1,10,0:0:0:0:
504,338,272196,6,0,B|418:331|418:331|382:300|382:300|302:297,1,210.000008010865,6|2,3:1|3:0,0:0:0:0:
141,122,272916,5,10,0:0:0:0:
190,369,273156,1,2,3:0:0:0:
23,267,273396,5,10,0:0:0:0:
51,259,273516,1,8,0:0:0:0:
79,252,273636,1,4,3:2:0:0:
269,91,273876,5,8,0:0:0:0:
222,69,273996,1,8,0:0:0:0:
172,81,274116,1,6,0:0:0:0:
141,122,274236,1,2,0:0:0:0:
173,196,274356,6,0,B|234:204|234:204|289:163,1,112,6|2,3:1|0:0,0:0:0:0:
373,3,274836,1,10,0:0:0:0:
414,207,275076,1,0,0:0:0:0:
414,207,275196,1,2,0:0:0:0:
414,207,275316,1,2,3:0:0:0:
512,77,275556,1,2,0:0:0:0:
272,116,275796,1,10,0:0:0:0:
423,321,276036,1,2,0:0:0:0:
423,321,276156,1,0,0:0:0:0:
423,321,276276,6,0,P|312:300|235:356,1,183.750001752377,4|0,3:1|0:0,0:0:0:0:
175,384,276756,6,0,L|180:189,1,183.750001752377,14|0,3:1|0:0,0:0:0:0:
262,109,277236,6,0,B|216:134|216:134|142:107,1,122.500001168251,4|0,3:1|0:0,0:0:0:0:
26,8,277716,1,10,0:0:0:0:
51,161,277956,1,8,0:0:0:0:
44,190,278076,1,8,0:0:0:0:
37,219,278196,6,0,P|96:207|162:245,1,112,6|2,3:1|0:0,0:0:0:0:
386,352,278676,2,0,P|326:363|260:325,1,112,10|2,0:0|0:0,0:0:0:0:
256,268,279036,1,2,0:0:0:0:
256,262,279156,2,0,L|267:125,1,112,0|2,3:0|0:0,0:0:0:0:
398,238,279636,1,2,3:0:0:0:
328,0,279876,6,0,P|366:92|458:52,1,224,14|0,3:1|0:0,0:0:0:0:
264,150,280596,2,0,L|270:282,1,112,14|0,0:2|0:0,0:0:0:0:
60,343,281076,1,8,0:0:0:0:
48,231,281316,1,0,3:0:0:0:
159,220,281556,1,2,3:0:0:0:
171,331,281796,1,2,3:0:0:0:
244,281,282036,6,0,P|275:282|309:294,1,56,2|0,0:0|0:0,0:0:0:0:
354,344,282516,1,2,0:0:0:0:
463,280,282756,2,0,P|436:281|409:289,1,56,2|0,0:0|0:0,0:0:0:0:
354,344,283236,1,0,0:0:0:0:
355,235,283476,1,2,0:0:0:0:
424,194,283716,6,0,L|410:76,1,112,2|0,0:0|0:0,0:0:0:0:
365,19,284436,1,2,0:0:0:0:
366,9,284916,1,2,0:0:0:0:
50,251,289716,6,0,B|163:219|136:311|268:257,1,203.000006195069,4|10,3:1|0:0,0:0:0:0:
406,144,290436,1,2,3:0:0:0:
336,282,290676,1,2,0:0:0:0:
231,162,290916,1,2,3:0:0:0:
410,238,291156,2,0,P|466:224|520:232,1,94.5000003604889,10|0,0:0|0:0,0:0:0:0:
231,162,291636,6,0,P|130:187|32:172,1,189.000000720978,2|10,3:0|0:0,0:0:0:0:
302,66,292356,2,0,B|346:150|346:150|311:272,1,189.000000720978,2|2,3:0|3:0,0:0:0:0:
191,367,293076,1,10,0:0:0:0:
219,226,293316,1,0,0:0:0:0:
438,330,293556,6,0,B|345:321|345:321|333:329|333:329|239:319,1,189.000000720978,2|8,3:0|0:0,0:0:0:0:
289,115,294276,2,0,P|302:200|220:226,1,189.000000720978,0|0,3:0|3:0,0:0:0:0:
200,63,294996,1,8,0:0:0:0:
135,192,295236,1,2,0:0:0:0:
40,18,295476,6,0,P|49:74|51:137,1,94.5000003604889,2|0,3:0|0:0,0:0:0:0:
42,128,295836,1,0,0:0:0:0:
40,132,295956,1,8,0:0:0:0:
28,246,296196,1,0,3:0:0:0:
155,187,296436,1,0,0:0:0:0:
155,191,296556,1,0,0:0:0:0:
155,195,296676,1,0,3:0:0:0:
251,358,296916,1,10,0:0:0:0:
391,220,297156,1,6,3:2:0:0:
259,56,297396,6,0,L|280:269,1,203.000006195069,4|10,3:1|0:0,0:0:0:0:
83,292,298116,2,0,P|137:268|209:279,1,94.5000003604889,0|2,3:0|0:0,0:0:0:0:
292,351,298596,1,2,3:0:0:0:
371,239,298836,1,10,0:0:0:0:
450,351,299076,1,0,0:0:0:0:
431,170,299316,6,0,P|333:154|279:232,1,189.000000720978,2|10,3:0|0:0,0:0:0:0:
142,381,300036,2,0,B|189:302|189:302|158:182,1,189.000000720978,2|2,3:0|3:0,0:0:0:0:
117,32,300756,1,10,0:0:0:0:
57,156,300996,1,0,0:0:0:0:
339,74,301236,6,0,P|246:60|211:153,1,189.000000720978,2|8,3:0|0:0,0:0:0:0:
434,36,301956,2,0,L|422:233,1,189.000000720978,0|0,3:0|3:0,0:0:0:0:
343,363,302676,2,0,P|342:311|326:255,1,94.5000003604889,8|2,0:0|0:0,0:0:0:0:
266,234,303036,1,0,0:0:0:0:
252,242,303156,5,0,3:0:0:0:
97,374,303396,1,12,0:2:0:0:
2,183,303636,1,12,0:2:0:0:
141,282,303876,5,2,0:0:0:0:
138,258,303996,1,8,0:0:0:0:
136,234,304116,1,2,0:0:0:0:
134,211,304236,1,8,0:0:0:0:
131,187,304356,1,0,3:0:0:0:
381,195,304596,5,8,3:2:0:0:
342,168,304716,1,8,0:3:0:0:
296,169,304836,1,0,3:0:0:0:
258,196,304956,1,0,3:0:0:0:
243,240,305076,6,0,L|230:20,1,203.000006195069,6|8,3:1|0:0,0:0:0:0:
131,187,305796,2,0,L|137:85,1,87.5,0|2,3:0|0:0,0:0:0:0:
5,134,306276,1,0,3:0:0:0:
131,187,306516,1,8,0:0:0:0:
6,261,306756,1,0,0:0:0:0:
204,326,306996,6,0,P|126:301|38:365,1,175,2|8,3:0|0:0,0:0:0:0:
292,384,307716,2,0,B|308:323|308:323|281:202,1,175,2|0,3:0|3:0,0:0:0:0:
180,85,308436,1,8,0:0:0:0:
383,122,308676,1,0,0:0:0:0:
383,122,308796,1,0,0:0:0:0:
383,122,308916,6,0,P|368:48|268:86,1,175,2|8,3:0|0:0,0:0:0:0:
171,172,309636,2,0,L|183:44,1,87.5,2|2,3:0|0:0,0:0:0:0:
95,250,310116,1,2,3:0:0:0:
171,172,310356,1,10,3:0:0:0:
278,306,310596,1,2,0:0:0:0:
278,306,310716,1,0,0:0:0:0:
278,306,310836,6,0,P|277:258|289:202,1,87.5,2|0,3:0|0:0,0:0:0:0:
300,203,311196,1,0,0:0:0:0:
303,201,311316,1,8,0:0:0:0:
424,48,311556,2,0,P|425:96|319:87,1,175,2|0,3:0|3:0,0:0:0:0:
383,224,312276,1,10,0:0:0:0:
209,174,312516,1,2,3:2:0:0:
188,190,312636,1,0,3:0:0:0:
168,208,312756,6,0,B|165:118|165:118|169:110|169:110|168:31,1,175,6|8,3:1|0:0,0:0:0:0:
269,125,313476,2,0,P|308:133|407:56,1,154.000004699707,2|0,3:0|3:0,0:0:0:0:
482,0,314196,2,0,L|488:102,1,77.0000023498536,8|2,0:0|0:0,0:0:0:0:
488,223,314676,6,0,B|418:202|418:202|339:244,1,140,2|8,3:0|0:0,0:0:0:0:
296,326,315396,2,0,L|202:312,1,70,2|2,3:0|0:0,0:0:0:0:
163,260,315876,1,0,3:0:0:0:
80,382,316116,2,0,P|84:333|46:272,1,105,10|0,0:0|0:0,0:0:0:0:
59,284,316596,6,0,L|70:129,1,125.999996154785,2|8,3:0|0:0,0:0:0:0:
152,119,317316,2,0,L|142:244,1,125.999996154785,2|0,3:0|3:0,0:0:0:0:
200,302,318036,2,0,P|247:282|278:281,1,62.9999980773926,8|2,0:0|0:0,0:0:0:0:
347,319,318516,5,2,3:0:0:0:
334,235,318756,1,12,0:2:0:0:
446,274,318996,5,2,3:0:0:0:
446,274,319116,1,0,3:0:0:0:
446,274,319236,1,2,3:0:0:0:
446,274,319356,1,0,3:0:0:0:
446,274,319476,1,8,0:0:0:0:
428,161,319716,5,4,3:0:0:0:
428,161,319836,1,0,0:0:0:0:
428,161,319956,2,0,L|427:123,1,31.4999990386963,10|0,0:0|3:0,0:0:0:0:
423,52,320196,1,2,3:0:0:0:
322,120,320436,5,6,3:1:0:0:
256,192,320496,12,0,326196,0:0:0:0:
