osu file format v14

[General]
AudioFilename: audio.mp3
AudioLeadIn: 0
PreviewTime: 166964
Countdown: 0
SampleSet: Soft
StackLeniency: 0.5
Mode: 0
LetterboxInBreaks: 0
WidescreenStoryboard: 1

[Editor]
DistanceSpacing: 1.2
BeatDivisor: 4
GridSize: 4
TimelineZoom: 2

[Metadata]
Title:Fireworks of shoes
TitleUnicode:靴の花火
Artist:Yorushika
ArtistUnicode:ヨルシカ
Creator:ProEzreal
Version:Finding you
Source:
Tags:n buna n-buna suis ナブナ nabuna 夏草が邪魔をする kutsu no hanabi
BeatmapID:1462348
BeatmapSetID:691021

[Difficulty]
HPDrainRate:6
CircleSize:3.8
OverallDifficulty:7.2
ApproachRate:8.2
SliderMultiplier:1.5
SliderTickRate:2

[Events]
//Background and Video events
0,0,"bg44.jpg",0,0
//Break Periods
//Storyboard Layer 0 (Background)
//Storyboard Layer 1 (Fail)
//Storyboard Layer 2 (Pass)
//Storyboard Layer 3 (Foreground)
//Storyboard Sound Samples

[TimingPoints]
339,500,4,2,1,30,1,0
8339,-100,4,2,1,35,0,0
24339,-90.9090909090909,4,2,1,45,0,0
39839,-90.9090909090909,4,3,2,45,0,0
40339,-100,4,2,1,40,0,0
56339,-111.111111111111,4,2,2,40,0,0
68339,-100,4,2,1,40,0,0
70339,-83.3333333333333,4,2,1,40,0,0
70714,-71.4285714285714,4,2,1,40,0,0
71089,-100,4,2,1,40,0,0
72339,-83.3333333333333,4,2,3,70,0,1
87589,-83.3333333333333,4,2,1,60,0,0
88339,-83.3333333333333,4,2,1,70,0,0
104339,-90.9090909090909,4,2,1,45,0,0
119839,-90.9090909090909,4,2,2,45,0,0
120339,-100,4,2,1,40,0,0
152339,-111.111111111111,4,2,2,40,0,0
164339,-99.9999999999999,4,2,1,40,0,0
166339,-83.3333333333333,4,2,1,40,0,0
166714,-71.4285714285714,4,2,1,40,0,0
167089,-100,4,2,1,40,0,0
168339,-76.9230769230769,4,2,3,75,0,1
183589,-76.9230769230769,4,2,1,65,0,0
184339,-76.9230769230769,4,2,1,75,0,0
200339,-83.3333333333333,4,2,3,65,0,1
216214,-83.3333333333333,4,2,3,65,0,0
216339,-76.9230769230769,4,2,1,75,0,1
232339,-100,4,2,1,40,0,0
248339,-100,4,2,1,5,0,0
249589,-100,4,2,1,25,0,0
250339,-100,4,2,1,30,0,0
251089,-100,4,2,1,35,0,0
252339,-83.3333333333333,4,2,3,40,0,0
260339,-71.4285714285714,4,2,3,80,0,1
267589,-71.4285714285714,4,2,1,70,0,0
268339,-71.4285714285714,4,2,1,80,0,0
284339,-90.9090909090909,4,2,1,50,0,0
300339,-90.9090909090909,4,2,1,12,0,0

[Colours]
Combo1 : 149,32,255
Combo2 : 167,167,167
Combo3 : 94,94,94
Combo4 : 255,155,155
Combo5 : 219,136,255
Combo6 : 255,47,47
Combo7 : 255,208,23

[HitObjects]
88,56,339,5,2,0:0:0:0:
160,108,589,1,0,0:0:0:0:
169,20,839,1,2,0:0:0:0:
150,198,1339,5,2,0:0:0:0:
160,108,1589,1,0,0:0:0:0:
232,160,1839,1,2,0:0:0:0:
225,249,2089,86,0,P|143:287|77:250,1,150,2|0,0:3|0:0,0:0:0:0:
42,190,2839,2,0,P|38:149|51:96,1,75,2|0,0:0|0:0,0:0:0:0:
43,115,3589,5,2,0:3:0:0:
42,190,3839,2,0,L|40:323,1,112.5,2|0,0:0|0:0,0:0:0:0:
42,323,4339,85,2,0:0:0:0:
119,276,4589,1,0,0:0:0:0:
121,365,4839,1,2,0:0:0:0:
196,229,5339,5,2,0:0:0:0:
119,276,5589,1,0,0:0:0:0:
117,187,5839,1,2,0:0:0:0:
191,135,6089,86,0,P|272:173|286:247,1,150,2|0,0:3|0:0,0:0:0:0:
248,304,6839,2,0,P|240:341|248:380,1,75,2|0,0:0|0:0,0:0:0:0:
246,377,7589,5,2,0:3:0:0:
248,304,7839,2,0,L|392:316,1,112.5,2|0,0:0|0:0,0:0:0:0:
382,316,8339,6,0,P|392:268|384:224,1,75,2|0,0:0|0:0,0:0:0:0:
364,156,8839,1,0,0:0:0:0:
364,156,9339,2,0,P|320:164|280:160,1,75,2|0,0:0|0:0,0:0:0:0:
200,144,9839,1,0,0:0:0:0:
146,71,10089,6,0,P|151:146|154:247,1,150,2|0,0:0|0:0,0:0:0:0:
128,308,10839,2,0,P|168:296|204:296,1,75,2|0,0:3|0:0,0:0:0:0:
200,295,11589,85,2,0:0:0:0:
284,332,11839,2,0,P|328:336|376:324,1,75,2|0,0:3|0:0,0:0:0:0:
396,248,12339,6,0,P|356:249|308:236,1,75,2|0,0:0|0:0,0:0:0:0:
236,204,12839,1,0,0:0:0:0:
236,204,13339,2,0,P|195:203|144:220,1,75,2|0,0:0|0:0,0:0:0:0:
80,180,13839,1,0,0:0:0:0:
24,250,14089,86,0,P|35:177|33:97,1,150,2|0,0:0|0:0,0:0:0:0:
11,13,14839,2,0,P|60:27|111:16,1,75,2|0,0:3|0:0,0:0:0:0:
83,25,15589,5,2,0:0:0:0:
172,15,15839,2,0,P|232:12|289:25,1,112.5,2|0,0:3|0:0,0:0:0:0:
301,33,16339,86,0,P|308:75|305:113,1,75,2|0,0:0|0:0,0:0:0:0:
238,168,16839,1,0,0:0:0:0:
238,168,17339,2,0,P|231:210|234:248,1,75,2|0,0:0|0:0,0:0:0:0:
288,315,17839,1,0,0:0:0:0:
358,370,18089,6,0,P|286:364|200:365,1,150,2|0,0:0|0:0,0:0:0:0:
119,297,18839,2,0,P|120:337|125:376,1,75,2|0,0:3|0:0,0:0:0:0:
124,371,19589,85,2,0:0:0:0:
37,337,19839,2,0,P|41:296|44:245,1,75,2|0,0:3|0:0,0:0:0:0:
11,177,20339,6,0,P|52:181|112:186,1,75,2|0,0:0|0:0,0:0:0:0:
160,233,20839,1,0,0:0:0:0:
160,233,21339,2,0,P|205:225|266:218,1,75,2|0,0:0|0:0,0:0:0:0:
302,163,21839,1,0,0:0:0:0:
361,95,22089,86,0,P|391:156|337:247,1,150,2|0,0:0|0:0,0:0:0:0:
281,252,22839,2,0,P|241:251|200:248,1,75,2|0,0:3|0:0,0:0:0:0:
206,248,23589,5,2,0:0:0:0:
115,217,23839,2,0,P|123:278|128:352,1,112.5,2|0,0:3|0:0,0:0:0:0:
120,373,24339,86,0,P|161:359|209:365,1,82.5000025177003,6|0,0:0|0:0,0:0:0:0:
293,331,24839,1,8,0:0:0:0:
384,368,25089,2,0,P|423:366|470:336,1,82.5000025177003,2|0,0:0|0:0,0:0:0:0:
293,331,25589,1,0,0:0:0:0:
406,204,25839,2,0,P|401:247|400:293,1,82.5000025177003,8|0,0:0|0:0,0:0:0:0:
311,160,26339,6,0,P|314:204|315:253,1,82.5000025177003,2|0,0:0|0:0,0:0:0:0:
293,331,26839,2,0,P|240:307|172:329,1,123.75000377655,8|0,0:0|0:0,0:0:0:0:
162,339,27339,1,2,0:0:0:0:
106,166,27589,2,0,P|103:192|99:218,1,41.2500012588501,4|4,0:3|0:3,0:0:0:0:
20,214,27839,2,0,P|23:283|28:348,1,123.75000377655,8|0,0:0|0:0,0:0:0:0:
29,360,28339,86,0,P|81:368|123:350,1,82.5000025177003,2|0,0:0|0:0,0:0:0:0:
157,233,28839,1,8,0:0:0:0:
235,293,29089,2,0,P|235:336|233:380,1,82.5000025177003,2|0,0:0|0:0,0:0:0:0:
157,233,29589,1,0,0:0:0:0:
328,184,29839,2,0,P|278:200|240:189,1,82.5000025177003,8|0,0:0|0:0,0:0:0:0:
148,87,30339,6,0,P|152:148|156:232,1,123.75000377655,2|0,0:0|0:0,0:0:0:0:
157,233,30839,1,8,0:0:0:0:
32,146,31089,1,2,0:0:0:0:
14,237,31339,1,2,0:0:0:0:
63,316,31589,2,0,P|88:318|108:320,1,41.2500012588501,4|4,0:3|0:3,0:0:0:0:
160,370,31839,2,0,P|222:365|294:361,1,123.75000377655,8|0,0:0|0:0,0:0:0:0:
324,333,32339,86,0,P|368:338|415:341,1,82.5000025177003,6|0,0:0|0:0,0:0:0:0:
484,279,32839,1,8,0:0:0:0:
389,164,33089,2,0,P|392:207|399:251,1,82.5000025177003,2|0,0:0|0:0,0:0:0:0:
484,279,33589,1,0,0:0:0:0:
433,87,33839,2,0,P|375:77|324:101,1,82.5000025177003,8|0,0:0|0:0,0:0:0:0:
219,8,34339,6,0,P|258:17|290:43,1,82.5000025177003,2|0,0:0|0:0,0:0:0:0:
216,93,34839,2,0,P|222:160|225:227,1,123.75000377655,8|0,0:0|0:0,0:0:0:0:
227,241,35339,1,2,0:0:0:0:
139,320,35589,2,0,P|165:318|203:318,1,41.2500012588501,4|4,0:3|0:3,0:0:0:0:
239,376,35839,2,0,P|312:379|374:379,1,123.75000377655,8|0,0:0|0:0,0:0:0:0:
388,379,36339,86,0,P|404:336|396:290,1,82.5000025177003,2|0,0:0|0:0,0:0:0:0:
332,217,36839,1,8,0:0:0:0:
227,296,37089,2,0,P|275:297|330:298,1,82.5000025177003,2|0,0:0|0:0,0:0:0:0:
332,217,37589,1,0,0:0:0:0:
239,124,37839,2,0,P|241:167|244:216,1,82.5000025177003,8|0,0:0|0:0,0:0:0:0:
162,69,38339,6,0,P|160:147|156:221,1,123.75000377655,2|0,0:0|0:0,0:0:0:0:
155,216,38839,1,8,0:0:0:0:
239,124,39089,1,2,0:0:0:0:
328,165,39339,1,2,0:0:0:0:
418,125,39589,2,0,P|420:147|422:172,1,41.2500012588501,4|4,0:3|0:3,0:0:0:0:
456,240,39839,2,0,P|454:262|451:284,2,41.2500012588501,8|8|8,0:0|0:0|0:0,0:0:0:0:
446,46,40339,86,0,P|402:41|333:129,1,150,6|8,0:0|0:0,0:0:0:0:
333,111,41089,1,0,0:0:0:0:
163,151,41339,2,0,P|236:152|276:234,1,150,2|8,0:0|0:0,0:0:0:0:
276,210,42089,1,0,0:0:0:0:
283,306,42339,6,0,L|286:385,1,75,2|0,0:0|0:0,0:0:0:0:
361,266,42839,1,8,0:0:0:0:
359,352,43089,1,0,0:0:0:0:
437,230,43339,2,0,L|440:309,1,75,2|0,0:0|0:0,0:0:0:0:
363,180,43839,1,8,0:0:0:0:
361,266,44089,1,0,0:0:0:0:
450,158,44339,86,0,P|448:205|419:250,1,75,2|0,0:0|0:0,0:0:0:0:
280,247,44839,2,0,P|279:284|293:318,1,75,8|0,0:0|0:0,0:0:0:0:
364,178,45339,2,0,P|330:149|282:142,1,75,2|0,0:0|0:0,0:0:0:0:
143,179,45839,2,0,P|186:187|232:169,1,75,8|0,0:0|0:0,0:0:0:0:
92,107,46339,6,0,L|97:270,1,150,2|8,0:0|0:0,0:0:0:0:
159,321,47089,1,0,0:0:0:0:
233,270,47339,1,2,0:0:0:0:
312,312,47589,2,0,L|313:369,1,37.5,4|4,0:3|0:3,0:0:0:0:
388,274,47839,2,0,L|384:136,1,112.5,8|0,0:0|0:0,0:0:0:0:
408,123,48339,86,0,P|345:131|290:49,1,150,2|8,0:0|0:0,0:0:0:0:
291,71,49089,1,0,0:0:0:0:
123,227,49339,2,0,P|186:235|241:153,1,150,2|8,0:0|0:0,0:0:0:0:
239,175,50089,1,0,0:0:0:0:
207,90,50339,6,0,L|219:-12,1,75,2|0,0:0|0:0,0:0:0:0:
131,138,50839,1,8,0:0:0:0:
121,49,51089,1,0,0:0:0:0:
33,168,51339,2,0,L|41:-3,1,150,2|8,0:0|0:0,0:0:0:0:
121,49,52089,1,0,0:0:0:0:
131,138,52339,86,0,L|205:129,1,75,2|0,0:0|0:0,0:0:0:0:
284,85,52839,1,8,0:0:0:0:
284,85,53339,2,0,L|358:93,1,75,2|0,0:0|0:0,0:0:0:0:
437,138,53839,1,8,0:0:0:0:
483,60,54089,6,0,L|487:218,1,150,2|0,0:3|0:0,0:0:0:0:
498,299,54839,2,0,P|452:289|414:296,1,75,8|0,0:0|0:0,0:0:0:0:
342,329,55339,1,2,0:0:0:0:
342,329,55589,2,0,L|344:378,1,37.5,4|4,0:3|0:3,0:0:0:0:
296,251,55839,1,8,0:0:0:0:
298,232,55964,1,8,0:0:0:0:
300,213,56089,1,8,0:0:0:0:
252,330,56339,86,0,P|195:364|105:337,1,134.999995880127,4|0,0:0|0:0,0:0:0:0:
73,296,57089,1,2,0:0:0:0:
183,208,57339,2,0,L|176:298,1,67.4999979400635,8|0,0:0|0:0,0:0:0:0:
116,143,57839,6,0,L|113:91,2,44.999998626709
183,208,58339,86,0,P|223:222|271:213,1,67.4999979400635,8|0,0:3|0:0,0:0:0:0:
282,208,58714,2,0,P|322:194|370:203,1,67.4999979400635,8|0,0:3|0:0,0:0:0:0:
381,206,59089,1,8,0:3:0:0:
456,316,59339,2,0,P|413:337|375:337,1,67.4999979400635,8|0,0:3|0:0,0:0:0:0:
363,327,59714,1,8,0:0:0:0:
343,320,59839,1,8,0:0:0:0:
323,318,59964,1,8,0:0:0:0:
303,320,60089,1,8,0:0:0:0:
176,204,60339,6,0,P|158:251|187:334,1,134.999995880127,6|8,0:0|0:0,0:0:0:0:
263,338,61089,1,0,0:0:0:0:
346,276,61339,2,0,L|341:364,1,67.4999979400635,2|0,0:0|0:0,0:0:0:0:
248,236,61839,1,8,0:0:0:0:
322,167,62089,86,0,P|252:185|179:147,1,134.999995880127,2|0,0:0|0:0,0:0:0:0:
156,91,62839,1,10,0:0:0:0:
156,91,63339,5,0,0:0:0:0:
281,38,63589,1,4,0:3:0:0:
322,167,63839,2,0,L|315:245,1,67.4999979400635,4|0,0:3|0:0,0:0:0:0:
263,355,64338,86,0,P|316:324|405:344,1,134.999995880127,4|0,0:0|0:0,0:0:0:0:
463,359,65089,1,2,0:0:0:0:
491,216,65339,2,0,L|495:299,1,67.4999979400635,8|0,0:0|0:0,0:0:0:0:
447,143,65839,6,0,L|452:89,2,44.999998626709
491,216,66339,86,0,P|454:231|413:223,1,67.4999979400635,12|0,0:3|0:0,0:0:0:0:
395,212,66714,2,0,P|358:197|317:205,1,67.4999979400635,8|0,0:3|0:0,0:0:0:0:
299,215,67089,1,8,0:3:0:0:
197,148,67339,2,0,L|192:247,1,67.4999979400635,8|0,0:3|0:0,0:0:0:0:
203,237,67714,1,8,0:0:0:0:
204,257,67839,1,8,0:0:0:0:
205,277,67964,1,8,0:0:0:0:
206,297,68089,1,8,0:0:0:0:
333,363,68339,6,0,L|428:357,1,75,6|0,0:0|0:0,0:0:0:0:
473,297,68839,2,0,P|483:251|470:211,1,75,8|0,0:0|0:0,0:0:0:0:
468,212,69214,1,0,0:0:0:0:
455,204,69339,1,2,0:0:0:0:
405,127,69589,1,0,0:0:0:0:
485,26,69839,2,0,P|444:40|399:32,1,75,8|0,0:0|0:0,0:0:0:0:
278,21,70339,6,0,B|293:65|293:65|268:124,1,89.9999972534181,4|0,0:3|0:0,0:0:0:0:
239,169,70714,6,0,B|220:219|220:219|242:282,1,104.999996795654,4|0,0:3|0:0,0:0:0:0:
265,341,71089,6,0,P|206:329|247:267,1,150,4|0,0:3|0:0,0:0:0:0:
362,324,71839,1,8,0:0:0:0:
405,343,71964,1,8,0:0:0:0:
452,332,72089,1,8,0:3:0:0:
481,294,72214,1,8,0:3:0:0:
490,221,72339,70,0,L|485:120,1,89.9999972534181,4|0,0:0|0:0,0:0:0:0:
360,39,72839,1,8,0:0:0:0:
489,50,73089,1,0,0:0:0:0:
350,125,73339,2,0,L|253:117,1,89.9999972534181,8|0,0:0|0:0,0:0:0:0:
159,19,73839,1,8,0:0:0:0:
196,192,74089,1,2,0:0:0:0:
196,192,74214,1,2,0:0:0:0:
196,192,74339,6,0,L|285:199,1,89.9999972534181,8|0,0:0|0:0,0:0:0:0:
486,238,74839,2,0,L|396:245,1,89.9999972534181,8|0,0:0|0:0,0:0:0:0:
194,280,75339,1,8,0:0:0:0:
314,289,75589,1,0,0:0:0:0:
196,192,75839,1,8,0:0:0:0:
189,368,76089,1,2,0:0:0:0:
189,368,76214,1,2,0:0:0:0:
189,368,76339,6,0,L|84:373,1,89.9999972534181,8|0,0:0|0:0,0:0:0:0:
1,250,76839,1,8,0:0:0:0:
12,376,77089,1,0,0:0:0:0:
86,242,77339,2,0,L|81:137,1,89.9999972534181,8|0,0:0|0:0,0:0:0:0:
12,60,77839,1,8,0:0:0:0:
173,121,78089,1,2,0:0:0:0:
173,121,78214,1,2,0:0:0:0:
173,121,78339,70,0,L|178:225,1,89.9999972534181,8|0,0:0|0:0,0:0:0:0:
251,343,78839,2,0,L|256:238,1,89.9999972534181,8|0,0:0|0:0,0:0:0:0:
329,114,79339,1,8,0:0:0:0:
339,250,79589,1,0,0:0:0:0:
420,88,79839,1,8,0:0:0:0:
256,56,80089,1,0,0:0:0:0:
402,177,80339,6,0,L|503:182,1,89.9999972534181,12|0,0:0|0:0,0:0:0:0:
339,250,80839,1,8,0:0:0:0:
486,258,81089,1,0,0:0:0:0:
309,162,81339,1,8,0:0:0:0:
304,362,81589,1,0,0:0:0:0:
402,177,81839,1,8,0:0:0:0:
219,361,82089,1,2,0:0:0:0:
219,361,82214,1,2,0:0:0:0:
219,361,82339,6,0,L|207:249,1,89.9999972534181,8|0,0:0|0:0,0:0:0:0:
27,207,82839,1,8,0:0:0:0:
202,190,83089,1,0,0:0:0:0:
37,291,83339,2,0,L|46:380,1,89.9999972534181,8|0,0:0|0:0,0:0:0:0:
202,190,83839,1,8,0:0:0:0:
18,120,84089,1,2,0:0:0:0:
18,120,84214,1,2,0:0:0:0:
18,120,84339,69,8,0:0:0:0:
118,243,84589,1,0,0:0:0:0:
193,100,84839,2,0,L|87:110,1,89.9999972534181,8|0,0:0|0:0,0:0:0:0:
204,184,85339,1,8,0:0:0:0:
258,40,85589,1,0,0:0:0:0:
334,176,85839,1,8,0:0:0:0:
179,15,86089,1,0,0:0:0:0:
278,254,86339,6,0,L|390:260,1,89.9999972534181,8|4,0:0|0:3,0:0:0:0:
498,77,86839,1,4,0:0:0:0:
383,133,87089,1,8,0:3:0:0:
383,133,87214,1,8,0:3:0:0:
383,133,87339,1,8,0:3:0:0:
232,21,87589,1,8,0:0:0:0:
253,49,87714,1,8,0:0:0:0:
265,83,87839,1,8,0:0:0:0:
267,119,87964,1,8,0:0:0:0:
259,154,88089,1,8,0:0:0:0:
242,185,88214,1,8,0:0:0:0:
173,222,88339,6,0,L|56:214,1,89.9999972534181,4|0,0:0|0:0,0:0:0:0:
16,79,88839,1,8,0:0:0:0:
189,9,89089,2,0,L|181:126,1,89.9999972534181,2|0,0:0|0:0,0:0:0:0:
173,222,89589,1,0,0:0:0:0:
102,88,89839,1,8,0:0:0:0:
265,222,90089,1,2,0:0:0:0:
265,222,90214,1,2,0:0:0:0:
265,222,90339,70,0,L|273:339,1,89.9999972534181,2|0,0:0|0:0,0:0:0:0:
353,215,90839,1,8,0:0:0:0:
454,295,91089,2,0,L|337:303,1,89.9999972534181,2|0,0:0|0:0,0:0:0:0:
353,215,91589,1,0,0:0:0:0:
468,381,91839,1,8,0:0:0:0:
451,210,92089,1,2,0:0:0:0:
451,210,92214,1,2,0:0:0:0:
451,210,92339,6,0,L|461:107,1,89.9999972534181,2|0,0:0|0:0,0:0:0:0:
469,32,92839,1,8,0:0:0:0:
361,125,93089,2,0,L|351:228,1,89.9999972534181,2|0,0:0|0:0,0:0:0:0:
242,378,93589,1,0,0:0:0:0:
257,205,93839,1,8,0:0:0:0:
341,301,94089,1,2,0:0:0:0:
341,301,94214,1,2,0:0:0:0:
341,301,94339,6,0,L|223:290,1,89.9999972534181,2|0,0:0|0:0,0:0:0:0:
167,187,94839,1,8,0:0:0:0:
79,336,95089,2,0,L|197:325,1,89.9999972534181,2|0,0:0|0:0,0:0:0:0:
167,187,95589,1,0,0:0:0:0:
17,260,95839,1,8,0:0:0:0:
122,105,96089,1,2,0:0:0:0:
122,105,96214,1,2,0:0:0:0:
122,105,96339,70,0,L|236:101,1,89.9999972534181,4|0,0:0|0:0,0:0:0:0:
385,181,96839,1,8,0:0:0:0:
295,99,97089,2,0,L|299:213,1,89.9999972534181,2|0,0:0|0:0,0:0:0:0:
381,94,97589,1,0,0:0:0:0:
211,101,97839,1,8,0:0:0:0:
304,269,98089,1,0,0:0:0:0:
211,101,98339,6,0,L|103:107,1,89.9999972534181,2|0,0:0|0:0,0:0:0:0:
34,25,98839,1,8,0:0:0:0:
129,194,99089,1,0,0:0:0:0:
37,109,99339,2,0,L|43:217,1,89.9999972534181,2|0,0:0|0:0,0:0:0:0:
203,261,99839,1,8,0:0:0:0:
67,362,100089,1,2,0:0:0:0:
67,362,100214,1,2,0:0:0:0:
67,362,100339,6,0,L|171:365,1,89.9999972534181,4|0,0:0|0:0,0:0:0:0:
269,365,100839,1,8,0:0:0:0:
203,261,101089,1,2,0:0:0:0:
269,365,101339,1,2,0:0:0:0:
386,271,101589,2,0,L|393:165,1,89.9999972534181,0|8,0:0|0:0,0:0:0:0:
409,68,102089,1,2,0:0:0:0:
409,68,102214,1,2,0:0:0:0:
409,68,102339,69,2,0:0:0:0:
225,25,102589,1,4,0:3:0:0:
280,205,102839,1,4,0:3:0:0:
173,93,103089,5,8,0:0:0:0:
201,105,103214,1,8,0:0:0:0:
233,107,103339,1,8,0:0:0:0:
263,98,103464,1,8,0:0:0:0:
288,80,103589,1,8,0:0:0:0:
432,199,103839,5,8,0:0:0:0:
407,179,103964,1,8,0:0:0:0:
377,169,104089,1,8,0:0:0:0:
346,169,104214,1,8,0:0:0:0:
280,205,104339,38,0,P|235:217|193:208,1,82.5000025177003,6|0,0:0|0:0,0:0:0:0:
129,140,104839,1,8,0:0:0:0:
27,234,105089,2,0,P|71:241|123:226,1,82.5000025177003,2|0,0:0|0:0,0:0:0:0:
129,140,105589,1,0,0:0:0:0:
19,60,105839,2,0,P|21:104|22:157,1,82.5000025177003,8|0,0:0|0:0,0:0:0:0:
131,57,106339,6,0,P|128:100|129:156,1,82.5000025177003,2|0,0:0|0:0,0:0:0:0:
135,238,106839,2,0,P|196:216|268:235,1,123.75000377655,8|0,0:0|0:0,0:0:0:0:
272,239,107339,1,2,0:0:0:0:
408,217,107589,2,0,P|407:243|405:271,1,41.2500012588501,4|4,0:3|0:3,0:0:0:0:
401,336,107839,2,0,P|348:338|263:346,1,123.75000377655,8|0,0:0|0:0,0:0:0:0:
258,333,108339,86,0,P|214:337|164:339,1,82.5000025177003,2|0,0:0|0:0,0:0:0:0:
78,355,108839,1,8,0:0:0:0:
8,283,109089,2,0,P|8:237|13:186,1,82.5000025177003,2|0,0:0|0:0,0:0:0:0:
78,355,109589,1,0,0:0:0:0:
134,197,109839,2,0,P|137:238|138:279,1,82.5000025177003,8|0,0:0|0:0,0:0:0:0:
225,149,110339,6,0,P|221:204|219:307,1,123.75000377655,2|0,0:0|0:0,0:0:0:0:
219,295,110839,1,8,0:0:0:0:
317,178,111089,1,2,0:0:0:0:
329,266,111339,1,2,0:0:0:0:
341,354,111589,2,0,P|367:354|391:356,1,41.2500012588501,4|4,0:3|0:3,0:0:0:0:
463,359,111839,2,0,P|468:295|473:208,1,123.75000377655,8|0,0:0|0:0,0:0:0:0:
491,190,112339,86,0,P|455:168|398:172,1,82.5000025177003,6|0,0:0|0:0,0:0:0:0:
317,178,112839,1,8,0:0:0:0:
221,204,113089,2,0,P|178:205|131:173,1,82.5000025177003,2|0,0:0|0:0,0:0:0:0:
317,178,113589,1,0,0:0:0:0:
207,42,113839,2,0,P|204:88|201:138,1,82.5000025177003,8|0,0:0|0:0,0:0:0:0:
308,95,114339,6,0,P|313:138|318:195,1,82.5000025177003,2|0,0:0|0:0,0:0:0:0:
362,271,114839,2,0,P|310:251|223:294,1,123.75000377655,8|0,0:0|0:0,0:0:0:0:
229,284,115339,1,2,0:0:0:0:
129,356,115589,2,0,P|125:328|122:298,1,41.2500012588501,4|4,0:3|0:3,0:0:0:0:
111,238,115839,2,0,P|117:176|121:111,1,123.75000377655,8|0,0:0|0:0,0:0:0:0:
124,92,116339,86,0,P|162:107|228:103,1,82.5000025177003,2|0,0:0|0:0,0:0:0:0:
295,73,116839,1,8,0:0:0:0:
381,120,117089,2,0,P|379:160|379:220,1,82.5000025177003,2|0,0:0|0:0,0:0:0:0:
295,73,117589,1,0,0:0:0:0:
215,182,117839,2,0,P|268:165|319:181,1,82.5000025177003,8|0,0:0|0:0,0:0:0:0:
379,202,118339,6,0,P|374:274|374:331,1,123.75000377655,2|0,0:0|0:0,0:0:0:0:
373,348,118839,1,8,0:0:0:0:
267,243,119089,1,2,0:0:0:0:
214,321,119339,1,2,0:0:0:0:
126,291,119589,2,0,P|122:264|121:245,1,41.2500012588501,4|4,0:3|0:3,0:0:0:0:
100,170,119839,2,0,P|101:147|104:120,2,41.2500012588501,8|8|8,0:3|0:0|0:0,0:0:0:0:
24,327,120339,86,0,L|15:153,1,150,6|8,0:0|0:0,0:0:0:0:
16,177,121089,1,0,0:0:0:0:
191,213,121339,2,0,L|200:39,1,150,2|8,0:0|0:0,0:0:0:0:
198,63,122089,1,0,0:0:0:0:
47,74,122339,6,0,P|31:36|34:-2,1,75,2|0,0:0|0:0,0:0:0:0:
113,125,122839,1,8,0:0:0:0:
119,20,123089,1,0,0:0:0:0:
73,200,123339,2,0,P|28:143|61:60,1,150,2|8,0:0|0:0,0:0:0:0:
119,20,124089,1,0,0:0:0:0:
209,98,124339,86,0,L|204:12,1,75,2|0,0:0|0:0,0:0:0:0:
295,144,124839,2,0,L|300:58,1,75,8|0,0:0|0:0,0:0:0:0:
386,39,125339,2,0,L|381:125,1,75,2|0,0:0|0:0,0:0:0:0:
473,105,125839,2,0,L|478:191,1,75,8|0,0:0|0:0,0:0:0:0:
389,263,126339,6,0,L|381:107,1,150,2|8,0:0|0:0,0:0:0:0:
311,55,127089,1,0,0:0:0:0:
234,102,127339,1,2,0:0:0:0:
150,68,127589,2,0,P|150:43|143:24,1,37.5,4|4,0:3|0:3,0:0:0:0:
82,120,127839,2,0,P|72:167|138:213,1,112.5,8|0,0:0|0:0,0:0:0:0:
133,217,128339,86,0,L|142:374,1,150,2|8,0:0|0:0,0:0:0:0:
141,366,129089,1,0,0:0:0:0:
295,144,129339,2,0,L|286:301,1,150,2|8,0:0|0:0,0:0:0:0:
286,293,130089,1,0,0:0:0:0:
205,252,130339,6,0,P|197:288|202:326,1,75,2|0,0:0|0:0,0:0:0:0:
363,250,130839,1,8,0:0:0:0:
362,341,131089,1,0,0:0:0:0:
453,244,131339,2,0,P|430:312|336:336,1,150,2|8,0:0|0:0,0:0:0:0:
286,293,132089,1,0,0:0:0:0:
202,326,132339,86,0,P|198:284|209:245,1,75,2|0,0:0|0:0,0:0:0:0:
280,202,132839,1,8,0:0:0:0:
280,202,133339,2,0,P|284:160|273:121,1,75,2|0,0:0|0:0,0:0:0:0:
202,78,133839,1,8,0:0:0:0:
273,22,134089,6,0,L|106:36,1,150,2|0,0:0|0:0,0:0:0:0:
34,22,134839,2,0,P|47:69|45:106,1,75,8|0,0:0|0:0,0:0:0:0:
46,94,135589,86,0,P|42:120|45:146,1,37.5,4|4,0:3|0:3,0:0:0:0:
118,182,135839,2,0,P|68:179|17:235,1,112.5,10|0,0:0|0:0,0:0:0:0:
14,262,136339,6,0,P|32:330|129:341,1,150,6|8,0:0|0:0,0:0:0:0:
101,352,137089,1,0,0:0:0:0:
169,133,137339,2,0,P|119:182|158:272,1,150,2|8,0:0|0:0,0:0:0:0:
134,254,138089,1,0,0:0:0:0:
213,298,138339,86,0,L|323:288,1,75,2|0,0:0|0:0,0:0:0:0:
382,282,138839,1,8,0:0:0:0:
382,282,139089,1,0,0:0:0:0:
472,190,139339,2,0,L|461:354,1,150,2|8,0:0|0:0,0:0:0:0:
377,371,140089,1,0,0:0:0:0:
298,327,140339,6,0,P|288:271|300:229,1,75,2|0,0:0|0:0,0:0:0:0:
356,192,140839,2,0,P|366:136|354:94,1,75,8|0,0:0|0:0,0:0:0:0:
202,143,141339,2,0,L|296:147,1,75,2|0,0:0|0:0,0:0:0:0:
355,44,141839,2,0,L|261:48,1,75,8|0,0:0|0:0,0:0:0:0:
194,7,142339,86,0,P|171:57|209:149,1,150,2|8,0:0|0:0,0:0:0:0:
290,156,143089,1,0,0:0:0:0:
362,102,143339,1,2,0:0:0:0:
449,124,143589,2,0,P|453:148|452:171,1,37.5,4|4,0:3|0:3,0:0:0:0:
394,210,143839,2,0,P|466:221|487:268,1,112.5,8|0,0:0|0:0,0:0:0:0:
486,271,144339,6,0,P|468:339|371:350,1,150,2|8,0:0|0:0,0:0:0:0:
398,361,145089,1,0,0:0:0:0:
331,142,145339,2,0,P|381:191|342:281,1,150,2|8,0:0|0:0,0:0:0:0:
365,263,146089,1,0,0:0:0:0:
283,301,146339,86,0,L|196:295,1,75,2|0,0:0|0:0,0:0:0:0:
118,288,146839,1,8,0:0:0:0:
118,288,147089,1,0,0:0:0:0:
43,338,147339,2,0,P|29:266|82:200,1,150,2|8,0:0|0:0,0:0:0:0:
151,165,148089,1,0,0:0:0:0:
151,165,148339,6,0,L|233:170,1,75,2|0,0:0|0:0,0:0:0:0:
309,201,148839,1,8,0:0:0:0:
309,201,149339,2,0,L|391:196,1,75,2|0,0:0|0:0,0:0:0:0:
463,167,149839,1,8,0:0:0:0:
448,82,150089,86,0,P|382:138|392:212,1,150,2|0,0:0|0:0,0:0:0:0:
463,339,150839,2,0,P|477:300|468:264,1,75,4|0,0:0|0:0,0:0:0:0:
460,257,151214,1,8,0:0:0:0:
445,254,151339,5,4,0:3:0:0:
328,373,151589,1,0,0:0:0:0:
259,220,151839,1,8,0:0:0:0:
227,239,151964,1,8,0:0:0:0:
190,246,152089,1,8,0:0:0:0:
153,238,152214,1,8,0:0:0:0:
128,215,152339,86,0,L|139:67,1,134.999995880127,4|0,0:0|0:0,0:0:0:0:
204,36,153089,1,2,0:0:0:0:
268,84,153339,2,0,P|238:109|191:113,1,67.4999979400635,8|0,0:0|0:0,0:0:0:0:
280,7,153839,6,0,L|337:3,2,44.999998626709
268,84,154339,86,0,L|273:173,1,67.4999979400635,8|0,0:3|0:0,0:0:0:0:
287,182,154714,2,0,L|282:271,1,67.4999979400635,8|0,0:3|0:0,0:0:0:0:
277,283,155089,1,8,0:3:0:0:
391,319,155339,2,0,P|399:279|387:231,1,67.4999979400635,8|0,0:3|0:0,0:0:0:0:
403,227,155714,1,8,0:0:0:0:
397,204,155839,1,8,0:0:0:0:
396,181,155964,1,8,0:0:0:0:
399,157,156089,1,8,0:0:0:0:
502,22,156339,6,0,P|445:51|373:25,1,134.999995880127,6|8,0:0|0:0,0:0:0:0:
298,38,157089,2,0,P|259:28|218:34,1,67.4999979400635,0|2,0:0|0:0,0:0:0:0:
161,66,157589,1,0,0:0:0:0:
161,66,157839,1,8,0:0:0:0:
100,12,158089,86,0,P|110:79|109:159,1,134.999995880127,2|0,0:0|0:0,0:0:0:0:
158,242,158839,1,8,0:0:0:0:
158,242,159339,5,0,0:0:0:0:
224,376,159589,1,4,0:3:0:0:
364,328,159839,2,0,L|432:332,1,67.4999979400635,4|0,0:3|0:0,0:0:0:0:
332,220,160339,86,0,P|396:252|460:232,1,134.999995880127,4|0,0:0|0:0,0:0:0:0:
484,160,161089,1,2,0:0:0:0:
424,104,161339,2,0,P|404:148|404:180,1,67.4999979400635,8|0,0:0|0:0,0:0:0:0:
500,80,161839,6,0,L|504:28,2,44.999998626709
484,160,162339,86,0,L|408:164,1,67.4999979400635,8|0,0:3|0:0,0:0:0:0:
384,174,162714,2,0,L|304:170,1,67.4999979400635,8|0,0:3|0:0,0:0:0:0:
285,157,163089,1,8,0:3:0:0:
194,89,163339,2,0,P|202:133|186:169,1,67.4999979400635,8|0,0:3|0:0,0:0:0:0:
206,177,163714,1,8,0:0:0:0:
202,196,163839,1,8,0:0:0:0:
202,217,163964,1,8,0:0:0:0:
206,236,164089,1,8,0:0:0:0:
336,364,164339,6,0,L|214:357,1,112.5,6|0,0:0|0:0,0:0:0:0:
204,357,164839,2,0,P|164:369|121:365,1,75,8|0,0:0|0:0,0:0:0:0:
117,360,165214,1,0,0:0:0:0:
104,350,165339,1,10,0:0:0:0:
148,215,165589,1,0,0:0:0:0:
19,285,165839,1,8,0:0:0:0:
61,140,166089,1,2,0:0:0:0:
61,140,166214,1,2,0:0:0:0:
61,140,166339,6,0,B|105:126|105:126|150:137,1,89.9999972534181,4|0,0:3|0:0,0:0:0:0:
216,168,166714,6,0,B|266:184|266:184|326:168,1,104.999996795654,4|0,0:3|0:0,0:0:0:0:
388,148,167089,6,0,P|363:110|324:178,1,150,4|0,0:3|0:0,0:0:0:0:
466,290,167839,1,8,0:0:0:0:
431,323,167964,1,8,0:0:0:0:
384,336,168089,1,8,0:3:0:0:
337,327,168214,1,8,0:3:0:0:
285,264,168339,70,0,P|285:211|291:152,1,97.4999955368044,4|0,0:0|0:0,0:0:0:0:
383,68,168839,2,0,P|383:121|377:180,1,97.4999955368044,8|0,0:0|0:0,0:0:0:0:
288,65,169339,1,8,0:0:0:0:
485,67,169589,1,0,0:0:0:0:
288,166,169839,1,8,0:0:0:0:
479,178,170089,1,2,0:0:0:0:
479,178,170214,1,2,0:0:0:0:
479,178,170339,6,0,P|475:231|473:279,1,97.4999955368044,8|0,0:0|0:0,0:0:0:0:
364,375,170839,2,0,P|368:322|370:274,1,97.4999955368044,8|0,0:0|0:0,0:0:0:0:
288,166,171339,1,8,0:0:0:0:
126,258,171589,1,0,0:0:0:0:
274,309,171839,1,8,0:0:0:0:
139,137,172089,1,0,0:0:0:0:
288,166,172339,6,0,P|354:169|392:173,1,97.4999955368044,8|0,0:0|0:0,0:0:0:0:
240,56,172839,2,0,P|174:53|136:49,1,97.4999955368044,8|0,0:0|0:0,0:0:0:0:
9,94,173339,1,8,0:0:0:0:
134,155,173589,1,0,0:0:0:0:
0,200,173839,1,8,0:0:0:0:
126,258,174089,1,2,0:0:0:0:
126,258,174214,1,2,0:0:0:0:
126,258,174339,70,0,P|126:318|124:361,1,97.4999955368044,8|0,0:0|0:0,0:0:0:0:
266,207,174839,2,0,P|266:267|268:310,1,97.4999955368044,8|0,0:0|0:0,0:0:0:0:
428,199,175339,1,8,0:0:0:0:
262,121,175589,1,0,0:0:0:0:
349,257,175839,1,8,0:0:0:0:
426,113,176089,1,0,0:0:0:0:
262,121,176339,6,0,P|205:123|156:127,1,97.4999955368044,4|0,0:0|0:0,0:0:0:0:
40,39,176839,2,0,P|42:96|46:145,1,97.4999955368044,8|0,0:0|0:0,0:0:0:0:
173,216,177339,1,8,0:0:0:0:
56,309,177589,1,0,0:0:0:0:
45,136,177839,1,8,0:0:0:0:
180,308,178089,1,0,0:0:0:0:
212,65,178339,6,0,P|266:69|331:73,1,97.4999955368044,8|0,0:0|0:0,0:0:0:0:
491,73,178839,1,8,0:0:0:0:
300,158,179089,1,0,0:0:0:0:
393,18,179339,2,0,P|395:70|395:122,1,97.4999955368044,8|0,0:0|0:0,0:0:0:0:
484,232,179839,1,8,0:0:0:0:
300,158,180089,1,0,0:0:0:0:
383,321,180339,70,0,P|430:318|491:319,1,97.4999955368044,8|0,0:0|0:0,0:0:0:0:
301,273,180839,2,0,P|304:320|303:381,1,97.4999955368044,8|0,0:0|0:0,0:0:0:0:
300,158,181339,1,8,0:0:0:0:
208,275,181589,1,0,0:0:0:0:
117,62,181839,2,0,P|116:115|119:169,1,97.4999955368044,8|0,0:0|0:0,0:0:0:0:
300,158,182339,5,8,0:0:0:0:
119,276,182589,1,4,0:3:0:0:
383,321,182839,1,4,0:3:0:0:
208,251,183089,1,8,0:3:0:0:
209,263,183214,1,8,0:3:0:0:
208,275,183339,1,8,0:3:0:0:
96,132,183589,1,8,0:0:0:0:
131,157,183714,1,8,0:0:0:0:
173,168,183839,1,8,0:0:0:0:
217,164,183964,1,8,0:0:0:0:
256,144,184089,1,8,0:0:0:0:
285,112,184214,1,8,0:0:0:0:
332,45,184339,6,0,P|338:106|339:153,1,97.4999955368044,4|0,0:0|0:0,0:0:0:0:
344,259,184839,1,8,0:0:0:0:
158,142,185089,2,0,P|216:143|284:145,1,97.4999955368044,2|0,0:0|0:0,0:0:0:0:
344,259,185589,1,0,0:0:0:0:
262,359,185839,1,8,0:0:0:0:
147,255,186089,1,2,0:0:0:0:
147,255,186214,1,2,0:0:0:0:
147,255,186339,70,0,P|200:257|256:256,1,97.4999955368044,2|0,0:0|0:0,0:0:0:0:
349,146,186839,1,8,0:0:0:0:
448,262,187089,2,0,P|446:319|444:371,1,97.4999955368044,2|0,0:0|0:0,0:0:0:0:
344,259,187589,1,0,0:0:0:0:
455,153,187839,1,8,0:0:0:0:
285,56,188089,1,2,0:0:0:0:
285,56,188214,1,2,0:0:0:0:
285,56,188339,6,0,P|225:60|176:60,1,97.4999955368044,2|0,0:0|0:0,0:0:0:0:
19,60,188839,1,8,0:0:0:0:
89,143,189089,2,0,P|137:143|186:147,1,97.4999955368044,2|0,0:0|0:0,0:0:0:0:
19,60,189589,1,0,0:0:0:0:
115,234,189839,1,8,0:0:0:0:
281,152,190089,1,2,0:0:0:0:
281,152,190214,1,2,0:0:0:0:
281,152,190339,6,0,P|277:210|277:252,1,97.4999955368044,2|0,0:0|0:0,0:0:0:0:
373,100,190839,1,8,0:0:0:0:
454,254,191089,2,0,P|458:196|458:154,1,97.4999955368044,2|0,0:0|0:0,0:0:0:0:
373,100,191589,1,0,0:0:0:0:
276,249,191839,1,8,0:0:0:0:
469,353,192089,1,2,0:0:0:0:
469,353,192214,1,2,0:0:0:0:
469,353,192339,70,0,P|417:350|358:352,1,97.4999955368044,6|0,0:0|0:0,0:0:0:0:
276,249,192839,1,8,0:0:0:0:
177,355,193089,2,0,P|225:355|274:353,1,97.4999955368044,2|0,0:0|0:0,0:0:0:0:
380,220,193589,1,0,0:0:0:0:
175,268,193839,1,8,0:0:0:0:
274,94,194089,1,2,0:0:0:0:
274,94,194214,1,2,0:0:0:0:
274,94,194339,6,0,P|275:146|274:197,1,97.4999955368044,2|0,0:0|0:0,0:0:0:0:
85,184,194839,2,0,P|84:132|85:81,1,97.4999955368044,8|0,0:0|0:0,0:0:0:0:
187,278,195339,2,0,P|130:281|77:282,1,97.4999955368044,2|0,0:0|0:0,0:0:0:0:
182,135,195839,1,8,0:0:0:0:
287,274,196089,1,2,0:0:0:0:
287,274,196214,1,2,0:0:0:0:
287,274,196339,6,0,P|287:327|286:377,1,97.4999955368044,4|0,0:0|0:0,0:0:0:0:
454,231,196839,1,8,0:0:0:0:
284,184,197089,2,0,P|231:184|181:183,1,97.4999955368044,2|0,0:0|0:0,0:0:0:0:
236,76,197589,1,0,0:0:0:0:
372,184,197839,1,8,0:0:0:0:
192,268,198089,1,2,0:0:0:0:
192,268,198214,1,2,0:0:0:0:
192,268,198339,69,2,0:0:0:0:
305,133,198589,1,4,0:3:0:0:
373,297,198839,1,4,0:3:0:0:
372,184,199089,5,8,0:0:0:0:
345,205,199214,1,8,0:0:0:0:
313,214,199339,1,8,0:0:0:0:
279,211,199464,1,8,0:0:0:0:
249,194,199589,1,8,0:0:0:0:
70,258,199839,5,8,0:0:0:0:
99,241,199964,1,8,0:0:0:0:
133,238,200089,1,8,0:0:0:0:
165,247,200214,1,8,0:0:0:0:
221,306,200339,70,2,B|284:312|284:312|298:304|298:304|359:311,1,134.999995880127,6|2,0:0|0:0,0:0:0:0:
407,360,200839,2,0,B|400:316|400:316|420:265,1,89.9999972534181,8|0,0:0|0:0,0:0:0:0:
498,154,201339,2,0,B|502:200|502:200|483:248,1,89.9999972534181,8|0,0:0|0:0,0:0:0:0:
415,97,201839,1,8,0:0:0:0:
343,195,202089,1,2,0:0:0:0:
339,206,202214,1,0,0:0:0:0:
339,221,202339,5,8,0:0:0:0:
293,202,202464,1,0,0:0:0:0:
244,207,202589,1,2,0:0:0:0:
203,234,202714,1,0,0:0:0:0:
160,208,202839,5,8,0:0:0:0:
130,240,202964,1,0,0:0:0:0:
121,284,203089,1,2,0:0:0:0:
137,325,203214,1,0,0:0:0:0:
104,364,203339,70,2,B|158:388|158:388|203:373|203:373|287:377,1,179.999994506836,10|2,0:0|0:0,0:0:0:0:
360,360,203964,1,0,0:0:0:0:
360,360,204089,2,0,L|420:363,1,44.999998626709,2|0,0:0|0:0,0:0:0:0:
506,249,204339,6,0,L|407:256,1,89.9999972534181,8|2,0:0|0:0,0:0:0:0:
344,136,204839,1,8,0:0:0:0:
317,160,204964,1,0,0:0:0:0:
304,193,205089,1,2,0:0:0:0:
308,228,205214,1,0,0:0:0:0:
336,272,205339,5,8,0:0:0:0:
311,261,205464,1,0,0:0:0:0:
284,261,205589,1,2,0:0:0:0:
260,273,205714,1,0,0:0:0:0:
240,292,205839,69,8,0:0:0:0:
224,286,205964,2,0,B|181:272|181:272|129:290,1,89.9999972534181,2|2,0:0|0:0,0:0:0:0:
33,305,206339,6,0,L|36:229,1,44.999998626709,8|0,0:0|0:0,0:0:0:0:
8,167,206589,1,2,0:0:0:0:
19,154,206714,1,0,0:0:0:0:
27,139,206839,2,0,L|28:80,1,44.999998626709,8|0,0:0|0:0,0:0:0:0:
132,41,207089,2,0,B|111:26|111:26|108:128,1,89.9999972534181,0|8,0:0|0:0,0:0:0:0:
204,163,207589,1,2,0:0:0:0:
354,104,207839,2,2,B|325:107|325:107|293:96|246:104,1,89.9999972534181,10|2,0:0|0:0,0:0:0:0:
204,163,208214,1,0,0:0:0:0:
204,163,208339,6,0,B|191:206|191:206|205:257,1,89.9999972534181,8|0,0:0|0:0,0:0:0:0:
267,305,208714,1,0,0:0:0:0:
267,305,208839,2,0,L|327:300,1,44.999998626709,8|0,0:0|0:0,0:0:0:0:
449,235,209089,2,0,L|373:231,1,44.999998626709,2|0,0:0|0:0,0:0:0:0:
354,104,209339,70,2,B|334:121|334:121|347:140|347:140|339:222,1,89.9999972534181,10|2,0:0|0:0,0:0:0:0:
388,332,209839,2,0,L|394:374,2,29.9999990844727,8|0|0,0:0|0:0|0:0,0:0:0:0:
311,301,210089,2,0,L|317:264,2,29.9999990844727,2|0|0,0:0|0:0|0:0,0:0:0:0:
247,354,210339,6,0,B|204:370|204:370|112:354,1,134.999995880127,8|0,0:0|0:0,0:0:0:0:
88,348,210839,1,8,0:0:0:0:
209,257,211089,2,0,L|219:154,1,89.9999972534181,0|8,0:0|0:0,0:0:0:0:
222,135,211464,1,0,0:0:0:0:
264,148,211589,1,0,0:0:0:0:
308,142,211714,1,0,0:0:0:0:
345,117,211839,1,8,0:0:0:0:
382,92,211964,1,0,0:0:0:0:
427,87,212089,1,0,0:0:0:0:
468,102,212214,1,0,0:0:0:0:
495,182,212339,6,2,L|487:334,1,134.999995880127,14|2,0:0|0:0,0:0:0:0:
411,347,212839,2,0,L|413:381,2,29.9999990844727,10|0|0,0:0|0:0|0:0,0:0:0:0:
352,290,213089,2,0,L|356:234,2,29.9999990844727,2|0|0,0:0|0:0|0:0,0:0:0:0:
288,340,213339,70,0,L|240:347,5,29.9999990844727,10|0|0|0|0|0,0:0|0:0|0:0|0:0|0:0|0:0,0:0:0:0:
221,321,213839,2,0,L|117:314,1,89.9999972534181,8|0,0:0|0:0,0:0:0:0:
95,307,214214,1,0,0:0:0:0:
84,318,214339,5,8,0:0:0:0:
23,143,214589,1,8,0:0:0:0:
204,179,214839,1,8,0:0:0:0:
102,219,215089,1,0,0:0:0:0:
132,32,215339,2,0,B|172:51|172:51|247:39,1,89.9999972534181,12|0,0:0|0:0,0:0:0:0:
303,22,215714,1,0,0:0:0:0:
303,22,215839,2,0,L|305:88,1,44.999998626709,8|0,0:0|0:0,0:0:0:0:
371,126,216089,2,2,L|365:189,1,44.999998626709,2|0,0:0|0:0,0:0:0:0:
400,300,216339,6,2,L|338:294,1,48.7499977684022,4|0,0:0|0:0,0:0:0:0:
276,347,216589,2,2,L|209:354,1,48.7499977684022
65,296,216839,2,2,B|113:311|113:311|172:292,1,97.4999955368044,10|2,0:0|0:0,0:0:0:0:
240,267,217214,1,0,0:0:0:0:
240,267,217339,70,0,L|245:204,1,48.7499977684022,2|0,0:0|0:0,0:0:0:0:
157,147,217589,2,0,L|162:212,1,48.7499977684022,2|0,0:0|0:0,0:0:0:0:
246,102,217839,2,0,L|251:37,2,48.7499977684022,10|0|0,0:0|0:0|0:0,0:0:0:0:
443,35,218339,6,2,L|440:89,1,48.7499977684022
379,144,218589,2,2,L|382:198,1,48.7499977684022
473,291,218839,2,2,B|423:276|423:276|375:290,1,97.4999955368044,10|2,0:0|0:0,0:0:0:0:
305,319,219214,1,0,0:0:0:0:
305,319,219339,6,0,L|238:313,1,48.7499977684022,2|0,0:0|0:0,0:0:0:0:
160,230,219589,2,0,L|208:225,1,48.7499977684022,2|0,0:0|0:0,0:0:0:0:
124,314,219839,2,0,L|75:309,2,48.7499977684022,10|0|0,0:0|0:0|0:0,0:0:0:0:
24,125,220339,70,2,L|99:131,1,48.7499977684022,6|2,0:0|0:0,0:0:0:0:
141,66,220589,2,2,L|216:60,1,48.7499977684022
271,112,220839,2,2,B|320:97|320:97|382:114,1,97.4999955368044,10|2,0:0|0:0,0:0:0:0:
434,168,221214,1,0,0:0:0:0:
434,168,221339,6,0,L|429:240,1,48.7499977684022,2|0,0:0|0:0,0:0:0:0:
353,278,221589,2,0,L|348:206,1,48.7499977684022,2|0,0:0|0:0,0:0:0:0:
266,287,221839,2,0,L|261:359,2,48.7499977684022,10|0|0,0:0|0:0|0:0,0:0:0:0:
228,97,222339,5,2,0:0:0:0:
189,68,222464,1,0,0:0:0:0:
141,64,222589,1,2,0:0:0:0:
98,86,222714,1,0,0:0:0:0:
72,127,222839,1,8,0:0:0:0:
94,143,222964,2,0,B|104:194,1,48.7499977684022
242,188,223214,70,2,L|307:176,1,48.7499977684022,0|0,0:0|0:0,0:0:0:0:
160,275,223464,2,2,L|225:263,1,48.7499977684022
88,346,223714,2,2,B|131:370|131:370|200:359,1,97.4999955368044
210,368,224089,2,0,L|262:359,1,48.7499977684022
347,337,224339,6,0,B|393:357|393:357|463:336,1,97.4999955368044,4|0,0:0|0:0,0:0:0:0:
512,201,224839,2,0,B|466:181|466:181|396:202,1,97.4999955368044,8|0,0:0|0:0,0:0:0:0:
272,136,225339,5,2,0:0:0:0:
272,136,225464,2,0,L|275:188,1,48.7499977684022
185,270,225714,1,2,0:0:0:0:
185,270,225839,2,0,L|188:218,1,48.7499977684022,8|0,0:0|0:0,0:0:0:0:
134,140,226089,69,2,0:0:0:0:
134,140,226214,2,0,L|186:137,1,48.7499977684022
328,272,226464,1,2,0:0:0:0:
328,272,226589,2,0,L|276:269,1,48.7499977684022
61,223,226839,5,10,0:0:0:0:
61,223,226964,2,0,L|136:218,1,48.7499977684022
356,354,227214,1,2,0:0:0:0:
356,354,227339,2,0,L|206:344,1,146.249993305207
171,317,227839,2,0,L|175:380,1,48.7499977684022,10|0,0:0|0:0,0:0:0:0:
69,296,228089,2,0,L|65:359,1,48.7499977684022,2|0,0:0|0:0,0:0:0:0:
134,200,228339,5,4,0:0:0:0:
173,228,228464,1,0,0:0:0:0:
220,233,228589,1,2,0:0:0:0:
265,215,228714,1,0,0:0:0:0:
295,178,228839,2,0,L|286:285,1,97.4999955368044,8|0,0:0|0:0,0:0:0:0:
443,334,229339,69,2,0:0:0:0:
443,334,229464,2,0,L|439:279,1,48.7499977684022
392,186,229714,1,2,0:0:0:0:
392,186,229839,2,0,L|396:131,1,48.7499977684022,8|0,0:0|0:0,0:0:0:0:
475,42,230089,1,2,0:0:0:0:
444,54,230214,1,0,0:0:0:0:
411,53,230339,5,2,0:0:0:0:
284,199,230589,1,0,0:0:0:0:
211,20,230839,1,8,0:0:0:0:
182,59,230964,1,8,0:0:0:0:
137,78,231089,1,8,0:0:0:0:
89,75,231214,1,8,0:0:0:0:
48,50,231339,6,0,L|41:110,1,48.7499977684022,8|0,0:3|0:0,0:0:0:0:
161,222,231589,2,0,L|161:173,1,48.7499977684022,8|0,0:3|0:0,0:0:0:0:
69,315,231839,1,8,0:0:0:0:
114,350,231964,1,8,0:0:0:0:
171,362,232089,1,8,0:0:0:0:
228,348,232214,1,8,0:0:0:0:
246,328,232339,38,0,P|294:314|344:324,1,75,2|0,0:0|0:0,0:0:0:0:
403,343,232839,1,0,0:0:0:0:
403,343,233339,2,0,P|366:308|350:260,1,75,2|0,0:0|0:0,0:0:0:0:
338,199,233839,1,0,0:0:0:0:
401,132,234089,6,0,P|332:164|237:140,1,150,2|0,0:0|0:0,0:0:0:0:
175,126,234839,2,0,P|134:116|83:131,1,75,2|0,0:3|0:0,0:0:0:0:
102,121,235589,85,2,0:0:0:0:
31,177,235839,2,0,P|30:221|35:264,1,75,2|0,0:3|0:0,0:0:0:0:
42,341,236339,6,0,P|93:332|140:350,1,75,2|0,0:0|0:0,0:0:0:0:
199,306,236839,1,0,0:0:0:0:
199,306,237339,2,0,P|250:315|297:297,1,75,2|0,0:0|0:0,0:0:0:0:
356,341,237839,1,0,0:0:0:0:
437,303,238089,86,0,P|443:227|442:143,1,150,2|0,0:0|0:0,0:0:0:0:
481,71,238839,2,0,P|437:61|402:69,1,75,2|0,0:3|0:0,0:0:0:0:
409,67,239589,5,2,0:0:0:0:
322,92,239839,2,0,P|265:105|194:74,1,112.5,2|0,0:3|0:0,0:0:0:0:
197,78,240339,86,0,P|208:130|197:177,1,75,2|0,0:0|0:0,0:0:0:0:
119,125,240839,1,0,0:0:0:0:
119,125,241339,2,0,P|108:177|119:224,1,75,2|0,0:0|0:0,0:0:0:0:
192,236,241839,1,0,0:0:0:0:
268,284,242089,6,0,P|210:264|121:307,1,150,2|0,0:0|0:0,0:0:0:0:
74,365,242839,2,0,P|105:381|156:374,1,75,2|0,0:3|0:0,0:0:0:0:
144,379,243589,85,2,0:0:0:0:
217,327,243839,2,0,P|268:320|312:341,1,75,2|0,0:3|0:0,0:0:0:0:
376,349,244339,6,0,P|379:312|380:266,1,75,2|0,0:0|0:0,0:0:0:0:
459,233,244839,1,0,0:0:0:0:
459,233,245339,2,0,P|456:198|455:150,1,75,2|0,0:0|0:0,0:0:0:0:
376,117,245839,1,0,0:0:0:0:
441,55,246089,86,0,P|373:85|289:50,1,150,2|0,0:0|0:0,0:0:0:0:
213,63,246839,2,0,P|171:50|129:64,1,75,2|0,0:3|0:0,0:0:0:0:
141,56,247589,5,2,0:0:0:0:
74,116,247839,2,0,P|75:191|79:274,1,150,2|0,0:3|0:0,0:0:0:0:
256,192,249589,12,2,251839,0:0:0:0:
72,63,252339,86,0,P|120:61|177:64,1,89.9999972534181,8|0,0:0|0:0,0:0:0:0:
256,106,252839,1,8,0:0:0:0:
346,39,253089,2,0,P|351:90|349:153,1,89.9999972534181,0|8,0:0|0:0,0:0:0:0:
169,156,253589,1,0,0:0:0:0:
272,227,253839,1,8,0:0:0:0:
256,106,254089,1,2,0:0:0:0:
256,106,254214,1,2,0:0:0:0:
256,106,254339,6,0,P|308:104|365:109,1,89.9999972534181,8|0,0:0|0:0,0:0:0:0:
362,226,254839,2,0,P|307:230|253:224,1,89.9999972534181,8|0,0:0|0:0,0:0:0:0:
180,128,255339,1,8,0:0:0:0:
105,205,255589,1,0,0:0:0:0:
23,87,255839,2,0,P|19:140|26:197,1,89.9999972534181,8|0,0:0|0:0,0:0:0:0:
180,264,256339,86,0,P|186:214|177:154,1,89.9999972534181,8|0,0:0|0:0,0:0:0:0:
22,176,256839,1,8,0:0:0:0:
144,67,257089,2,0,P|198:63|256:71,1,89.9999972534181,0|8,0:0|0:0,0:0:0:0:
323,162,257589,1,0,0:0:0:0:
365,49,257839,1,8,0:0:0:0:
232,147,258089,1,2,0:0:0:0:
240,165,258214,1,2,0:0:0:0:
241,185,258339,6,0,P|195:182|135:189,1,89.9999972534181,8|0,0:0|0:0,0:0:0:0:
20,307,258839,1,8,0:0:0:0:
200,268,259089,1,8,0:3:0:0:
204,299,259214,1,8,0:3:0:0:
200,330,259339,1,8,0:3:0:0:
79,207,259589,1,0,0:0:0:0:
200,330,259839,85,8,0:0:0:0:
247,363,259964,1,8,0:0:0:0:
304,369,260089,1,8,0:3:0:0:
358,346,260214,1,8,0:3:0:0:
405,278,260339,38,0,P|419:221|399:155,1,104.999996795654,4|0,0:0|0:0,0:0:0:0:
230,220,260839,1,8,0:0:0:0:
399,89,261089,2,0,P|332:72|270:97,1,104.999996795654,0|8,0:0|0:0,0:0:0:0:
199,23,261589,1,0,0:0:0:0:
230,220,261839,1,8,0:0:0:0:
298,79,262089,1,0,0:0:0:0:
127,229,262339,5,8,0:0:0:0:
324,172,262589,2,0,P|332:242|298:302,1,104.999996795654,0|8,0:0|0:0,0:0:0:0:
215,116,263089,1,0,0:0:0:0:
259,331,263339,2,0,P|323:355|386:321,1,104.999996795654,8|0,0:0|0:0,0:0:0:0:
465,229,263839,1,8,0:0:0:0:
233,223,264089,1,2,0:0:0:0:
233,223,264214,1,2,0:0:0:0:
233,223,264339,70,0,P|172:234|119:215,1,104.999996795654,8|0,0:0|0:0,0:0:0:0:
6,69,264839,2,0,P|67:58|120:77,1,104.999996795654,8|0,0:0|0:0,0:0:0:0:
55,192,265339,1,8,0:0:0:0:
208,87,265589,1,0,0:0:0:0:
166,306,265839,1,8,0:0:0:0:
107,69,266089,1,2,0:0:0:0:
107,69,266214,1,2,0:0:0:0:
107,69,266339,5,8,0:0:0:0:
342,136,266589,1,0,0:2:0:0:
166,306,266839,2,0,P|109:317|56:296,1,104.999996795654,8|0,0:0|0:0,0:0:0:0:
51,284,267214,1,0,0:0:0:0:
48,262,267339,1,8,0:0:0:0:
185,76,267589,1,8,0:0:0:0:
224,108,267714,1,8,0:0:0:0:
237,158,267839,1,8,0:0:0:0:
217,206,267964,1,8,0:0:0:0:
173,232,268089,1,8,0:0:0:0:
121,227,268214,1,8,0:0:0:0:
65,160,268339,6,0,P|57:100|93:47,1,104.999996795654,4|0,0:0|0:0,0:0:0:0:
237,158,268839,1,8,0:0:0:0:
114,315,269089,2,0,P|58:301|1:325,1,104.999996795654,2|0,0:0|0:0,0:0:0:0:
173,232,269589,1,0,0:0:0:0:
229,368,269839,1,8,0:0:0:0:
295,205,270089,1,2,0:0:0:0:
295,205,270214,1,2,0:0:0:0:
295,205,270339,70,0,P|333:228|413:205,1,104.999996795654,2|0,0:0|0:0,0:0:0:0:
486,141,270839,1,8,0:0:0:0:
290,69,271089,2,0,P|328:46|408:69,1,104.999996795654,2|0,0:0|0:0,0:0:0:0:
209,145,271589,1,0,0:0:0:0:
138,21,271839,1,8,0:0:0:0:
63,194,272089,1,2,0:0:0:0:
63,194,272214,1,2,0:0:0:0:
63,194,272339,6,0,P|50:258|66:306,1,104.999996795654,6|0,0:0|0:0,0:0:0:0:
209,146,272839,1,8,0:0:0:0:
266,319,273089,2,0,P|204:301|152:319,1,104.999996795654,2|0,0:0|0:0,0:0:0:0:
401,228,273589,1,0,0:0:0:0:
355,377,273839,1,8,0:0:0:0:
327,162,274089,1,2,0:0:0:0:
327,162,274214,1,2,0:0:0:0:
327,162,274339,6,0,P|381:130|444:135,1,104.999996795654,2|0,0:0|0:0,0:0:0:0:
258,85,274839,1,8,0:0:0:0:
429,37,275089,2,0,P|377:32|334:3,1,104.999996795654,2|0,0:0|0:0,0:0:0:0:
487,149,275589,1,0,0:0:0:0:
327,162,275839,1,8,0:0:0:0:
494,273,276089,1,2,0:0:0:0:
494,273,276214,1,2,0:0:0:0:
494,273,276339,70,0,P|435:290|383:278,1,104.999996795654,6|0,0:0|0:0,0:0:0:0:
327,162,276839,1,8,0:0:0:0:
282,366,277089,2,0,P|297:308|280:256,1,104.999996795654,2|0,0:0|0:0,0:0:0:0:
125,193,277589,2,0,P|110:251|127:303,1,104.999996795654,0|8,0:0|0:0,0:0:0:0:
228,136,278089,1,2,0:0:0:0:
228,136,278214,1,2,0:0:0:0:
228,136,278339,6,0,P|300:148|352:122,1,104.999996795654,2|0,0:0|0:0,0:0:0:0:
445,52,278839,1,8,0:0:0:0:
367,222,279089,1,2,0:0:0:0:
278,53,279339,2,0,P|227:41|177:55,1,104.999996795654
140,210,279839,1,8,0:0:0:0:
37,66,280089,1,2,0:0:0:0:
37,66,280214,1,2,0:0:0:0:
37,66,280339,6,0,P|58:123|39:181,1,104.999996795654,4|0,0:0|0:0,0:0:0:0:
134,309,280839,2,0,P|123:249|151:195,1,104.999996795654,8|0,0:0|0:0,0:0:0:0:
298,162,281339,1,0,0:0:0:0:
144,95,281589,1,0,0:0:0:0:
239,263,281839,1,8,0:0:0:0:
263,55,282089,1,2,0:0:0:0:
263,55,282214,1,2,0:0:0:0:
263,55,282339,69,2,0:0:0:0:
475,210,282589,1,4,0:3:0:0:
234,316,282839,2,0,L|243:232,1,52.4999983978272,4|0,0:3|0:0,0:0:0:0:
353,21,283089,5,8,0:0:0:0:
358,67,283214,1,8,0:0:0:0:
342,111,283339,1,8,0:0:0:0:
150,147,283589,1,2,0:0:0:0:
314,354,283839,5,8,0:3:0:0:
322,308,283964,1,8,0:3:0:0:
307,264,284089,1,8,0:3:0:0:
41,326,284339,38,0,P|81:349|148:339,1,82.5000025177003,4|0,0:0|0:0,0:0:0:0:
198,293,284839,1,8,0:0:0:0:
160,201,285089,2,0,P|120:178|53:188,1,82.5000025177003,2|0,0:0|0:0,0:0:0:0:
198,293,285589,1,0,0:0:0:0:
264,129,285839,2,0,P|262:174|263:221,1,82.5000025177003,8|0,0:0|0:0,0:0:0:0:
362,97,286339,6,0,P|364:142|363:189,1,82.5000025177003,2|0,0:0|0:0,0:0:0:0:
447,279,286839,2,0,P|384:251|314:285,1,123.75000377655,8|0,0:0|0:0,0:0:0:0:
316,281,287339,1,2,0:0:0:0:
218,342,287589,2,0,P|189:348|166:347,1,41.2500012588501,4|4,0:3|0:3,0:0:0:0:
93,347,287839,2,0,P|75:291|95:224,1,123.75000377655,8|0,0:0|0:0,0:0:0:0:
104,211,288339,86,0,P|120:169|109:120,1,82.5000025177003,2|0,0:0|0:0,0:0:0:0:
48,59,288839,1,8,0:0:0:0:
134,10,289089,2,0,P|181:22|239:4,1,82.5000025177003,2|0,0:0|0:0,0:0:0:0:
48,59,289589,1,0,0:0:0:0:
194,124,289839,2,0,P|153:119|114:131,1,82.5000025177003,8|0,0:0|0:0,0:0:0:0:
163,206,290339,6,0,P|135:239|162:338,1,123.75000377655,2|0,0:0|0:0,0:0:0:0:
153,334,290839,1,8,0:0:0:0:
261,235,291089,1,2,0:0:0:0:
310,319,291339,1,2,0:0:0:0:
386,260,291589,2,0,P|413:255|445:258,1,41.2500012588501,4|4,0:3|0:3,0:0:0:0:
508,283,291839,2,0,P|469:227|497:148,1,123.75000377655,8|0,0:0|0:0,0:0:0:0:
508,136,292339,86,0,P|468:126|409:126,1,82.5000025177003,4|0,0:0|0:0,0:0:0:0:
328,140,292839,1,8,0:0:0:0:
233,111,293089,2,0,P|188:121|134:121,1,82.5000025177003,2|0,0:0|0:0,0:0:0:0:
328,140,293589,1,0,0:0:0:0:
255,207,293839,2,0,P|246:240|261:295,1,82.5000025177003,8|0,0:0|0:0,0:0:0:0:
353,244,294339,6,0,P|362:277|347:332,1,82.5000025177003,2|0,0:0|0:0,0:0:0:0:
266,377,294839,2,0,P|190:365|122:371,1,123.75000377655,8|0,0:0|0:0,0:0:0:0:
121,373,295339,1,2,0:0:0:0:
22,307,295589,2,0,P|18:282|21:255,1,41.2500012588501,4|4,0:3|0:3,0:0:0:0:
75,195,295839,2,0,P|86:143|74:67,1,123.75000377655,8|0,0:0|0:0,0:0:0:0:
64,54,296339,86,0,P|112:59|166:49,1,82.5000025177003,2|0,0:0|0:0,0:0:0:0:
231,104,296839,1,8,0:0:0:0:
312,47,297089,2,0,P|360:42|414:52,1,82.5000025177003,2|0,0:0|0:0,0:0:0:0:
231,104,297589,1,0,0:0:0:0:
320,146,297839,2,0,P|326:201|325:244,1,82.5000025177003,8|0,0:0|0:0,0:0:0:0:
413,96,298339,6,0,P|409:170|415:233,1,123.75000377655,2|0,0:0|0:0,0:0:0:0:
417,242,298839,1,8,0:0:0:0:
493,363,299089,1,2,0:0:0:0:
398,332,299339,1,2,0:0:0:0:
300,347,299589,2,0,P|278:350|250:349,1,41.2500012588501,4|4,0:3|0:3,0:0:0:0:
83,323,299839,5,8,0:0:0:0:
105,310,299964,1,8,0:0:0:0:
188,319,300089,6,4,L|69:307,1,82.5000025177003,4|4,0:3|0:3,0:3:0:0:
